#VERSION:0.83;
#TITLE:コドモライブ;
#SUBTITLE:;
#ARTIST:onoken feat.asami;
#TITLETRANSLIT:Kodomo live;
#SUBTITLETRANSLIT:;
#ARTISTTRANSLIT:;
#GENRE:WARABE STEP;
#CREDIT:;
#MUSIC:Kodomo live.ogg;
#BANNER:Kodomo live.png;
#BACKGROUND:Kodomo live-bg.png;
#CDTITLE:./CDTitles/pnm 21 Sunny Park.png;
#SAMPLESTART:6.085;
#SAMPLELENGTH:15.000;
#SELECTABLE:YES;
#OFFSET:2.109;
#BPMS:0.000=146.000
,228.000=66.750
,232.000=70.000
,235.000=65.000
,236.000=63.000
,237.000=61.000
,239.500=36.000
;
#STOPS:;
#BGCHANGES:0.000=../BGAs/23wa.mp4=1.000=0=0=0=StretchNoLoop====,
99999.000=-nosongbg-=1.000=0=0=0=StretchNoLoop====
;
#FGCHANGES:;

//--------------- dance-single - forcednature ----------------
#NOTEDATA:;
#STEPSTYPE:dance-single;
#DESCRIPTION:forcednature;
#DIFFICULTY:Beginner;
#METER:2;
#RADARVALUES:0,0,0,0,0;
#CREDIT:forcednature;
#NOTES:
0000
0000
0000
0000
,
0000
0000
0000
0000
,
0000
0000
0000
0000
,
0000
0000
0000
0000
,
0000
0000
0000
0000
,
1000
0000
0000
0000
,
0001
0000
0000
0000
,
0010
0000
0000
0000
,
0100
0000
0000
0000
,
1000
0000
0000
0000
,
0010
0000
0000
0000
,
0100
0000
0000
0000
,
0001
0000
0000
0000
,
0010
0000
0000
0000
,
0000
0000
1001
0000
,
1000
0000
0000
0000
,
0001
0000
0000
0000
,
0010
0000
0000
0000
,
0001
0000
0000
0000
,
0100
0000
0000
0000
,
0010
0000
0000
0000
,
1000
0000
0000
0000
,
0100
0000
0000
0000
,
0010
0000
0000
0000
,
0001
0000
0000
0000
,
0100
0000
0000
0000
,
0010
0000
0000
0000
,
0000
1000
0000
1000
,
0000
0001
0000
0001
,
0000
0000
0010
0000
,
0000
0000
0100
0000
,
2002
0000
0000
0000
,
0000
3003
0000
0000
,
0001
0000
0001
0000
,
0001
0000
0000
0000
,
1000
0000
1000
0000
,
1000
0000
0000
0000
,
0010
0000
0100
0000
,
0010
0000
0000
1000
,
0000
1000
0000
1000
,
0000
0000
0000
0001
,
0000
0001
0000
0001
,
0000
0000
0000
0010
,
0000
0100
0000
0100
,
0000
0010
0000
0000
,
0001
0000
1000
0000
,
0010
0000
1001
0000
,
0000
0000
0000
0000
,
0000
0000
0000
0000
,
0000
0000
0000
0000
,
0110
0000
0000
1000
,
0000
1000
0000
0001
,
0000
0000
0000
0010
,
0000
0100
0000
1000
,
0000
0000
1001
0000
,
0110
0000
1000
0000
,
0001
0000
0010
0000
,
2002
0000
0000
0000
,
3003
0000
0000
0000
;

//--------------- dance-single - forcednature ----------------
#NOTEDATA:;
#STEPSTYPE:dance-single;
#DESCRIPTION:forcednature;
#DIFFICULTY:Easy;
#METER:5;
#RADARVALUES:0,0,0,0,0;
#CREDIT:forcednature;
#NOTES:
0000
0000
0000
0000
,
0000
0000
0000
0000
,
0000
0000
0000
0000
,
0000
0000
0000
0000
,
0000
0000
1001
0000
,
1000
0100
0010
0100
,
1000
0001
0010
0000
,
0001
0100
0001
1000
,
0010
0100
0001
0000
,
0010
0100
1000
0001
,
0100
0010
1000
0000
,
0001
0010
1000
0010
,
0100
1000
0001
0000
,
0100
0000
0010
0000
,
1000
0001
1001
0000
,
0110
0000
0001
0000
,
1000
0100
1000
0000
,
0110
0000
1000
0000
,
0001
0100
0001
0000
,
0010
0100
1000
0100
,
0010
0100
1000
0000
,
0001
0000
0110
0000
,
1000
0100
1000
0010
,
0100
0000
0001
0000
,
0010
0010
0010
0000
,
0100
0000
1000
0000
,
0010
0010
0010
0000
,
0100
0001
0010
0001
,
1000
0100
1000
0010
,
0100
0000
0001
0000
,
1001
0000
0110
0000
,
2002
0000
0000
0000
,
0000
3003
0110
0000
,
1000
0100
1000
0010
,
1000
0001
0010
0000
,
0001
0100
1000
0100
,
0001
1000
0010
0000
,
1000
0100
0001
0100
,
0010
0001
0010
0110
,
0000
1001
0000
0010
,
0100
0110
0000
1001
,
0000
0110
0000
1000
,
1001
0001
0100
0010
,
0100
1000
0100
0001
,
1000
0001
0010
0000
,
0100
0000
1000
0000
,
2002
3003
0001
0000
,
0100
0000
0002
0000
,
0003
0000
1000
0000
,
0100
0000
1000
0000
,
1001
0000
0001
0100
,
0010
0100
0001
1000
,
0100
0010
0000
0110
,
0000
0100
1000
0001
,
0100
0010
1001
0010
,
0110
0100
1000
0001
,
0100
0001
1001
0000
,
0220
0000
0000
0330
,
0001
0000
0000
0000
,
1000
0000
0000
0000
0100
0000
0000
0020
,
0000
0000
0000
0000
,
0030
0000
0000
0000
;

//--------------- dance-single - forcednature ----------------
#NOTEDATA:;
#STEPSTYPE:dance-single;
#DESCRIPTION:forcednature;
#DIFFICULTY:Medium;
#METER:11;
#RADARVALUES:0,0,0,0,0;
#CREDIT:forcednature;
#NOTES:
0000
0000
0000
0000
,
0000
0000
0000
0000
,
0000
0000
0000
0000
,
0000
0000
0000
0000
,
0000
0000
2002
3003
,
0110
0001
0110
1000
,
0001
0000
0010
0100
0000
1000
0100
0000
0000
0010
0000
0001
,
1000
0000
0000
0010
0000
0000
0101
0000
0000
0010
0000
0010
,
1000
0000
1000
0001
0000
0001
0010
0000
0000
0100
0000
1000
,
0001
0100
1010
0100
,
1000
0000
0001
0100
0000
0001
0100
0000
0000
0010
0000
0010
,
1000
0000
0000
0011
0000
0000
0001
0000
0000
1010
0000
1000
,
0100
0000
0000
0000
0100
0000
0010
0000
0000
0000
0010
0000
0002
0000
0000
0000
0000
0000
0100
0000
0000
0003
0000
0000
,
0010
0000
0100
0000
,
2000
0000
0000
3002
0000
0000
0103
0000
0100
0010
0000
0000
,
1001
0100
1001
0010
,
1000
0000
0000
0100
0000
0100
0010
0000
0010
0001
0000
0000
,
0101
0010
1100
0010
,
1000
0000
0000
0001
0000
0001
0010
0000
0010
0100
0000
0000
,
1010
1100
0011
0101
,
1001
0000
0000
1000
0000
1000
0010
0000
0110
0000
0100
0000
,
2002
0000
0000
3003
0000
0000
0010
0001
1000
0001
0000
0000
,
0100
0000
0100
0010
0000
0010
1000
0000
1000
0001
0000
0000
,
0010
1100
0001
1100
,
0010
1000
0001
0011
,
1000
0101
0010
0101
,
1000
0001
0010
0110
,
1000
0010
1000
0010
0000
0000
0100
0001
0100
0001
0000
0000
,
0001
0010
0001
0010
0000
0000
0100
1000
0100
1000
0000
0000
,
1000
0000
0001
0000
0010
0000
1000
0000
0010
0000
0001
0100
,
0001
0000
0000
0011
0000
1000
0001
0000
1000
0010
0000
0000
,
0202
0000
0000
0000
,
0303
0000
0000
0010
1000
0010
1000
0000
0000
0100
0000
0010
,
0001
0000
0000
1010
0000
0000
0100
0000
0000
1010
0000
1000
,
0001
0000
0010
0001
0000
0100
0001
0000
0000
0010
0000
0100
,
1000
0110
0001
0110
,
1000
0000
0001
0100
0000
0001
0010
0000
0000
0100
0000
1000
,
0001
0000
0000
1010
0000
0000
0100
0000
0000
0011
0000
0001
,
1000
0000
0010
0100
0000
0001
1000
0000
0000
2100
0000
0000
,
3010
0102
0013
1001
,
0110
2001
3010
2010
,
3100
0012
0103
0110
,
1001
0000
0001
0100
0000
0000
0010
0000
1000
0001
0000
0000
,
0010
0000
0001
1000
0000
0000
0001
0100
0010
1000
0000
0000
,
1000
0100
0010
0001
0000
0000
0100
0000
1000
0000
0100
0000
,
0001
0000
0010
0000
0100
1000
0100
0000
0010
0000
0001
1000
,
0020
0030
0110
0100
,
1000
0100
0001
0010
,
0001
0000
1000
0010
,
0100
0010
1000
0001
,
2002
0000
0000
3003
0000
0000
1000
0000
0100
1000
0000
0010
,
1000
0000
0001
1000
0000
0100
0010
0000
0001
0010
0000
0100
,
2000
0000
3020
0000
0230
0000
0300
0000
0000
1001
0000
0000
,
0001
0000
0100
0010
0000
0000
1000
0000
0001
0010
0000
0001
,
0100
0000
0001
0010
0000
0000
0110
0000
0000
0100
1000
0001
,
0100
0000
0100
0010
0000
0000
1000
0100
1000
0100
0000
0000
,
0010
0001
0010
0001
0000
1000
0010
0000
0100
0001
1000
0001
,
0020
0000
0000
0030
,
0002
0000
0203
0000
,
0320
0000
2030
0000
3002
0000
0000
0023
,
0000
0000
0000
0000
,
0030
0000
0000
0000
;

//--------------- dance-single - forcednature ----------------
#NOTEDATA:;
#STEPSTYPE:dance-single;
#DESCRIPTION:forcednature;
#DIFFICULTY:Hard;
#METER:15;
#RADARVALUES:0,0,0,0,0;
#CREDIT:forcednature;
#NOTES:
0000
0000
0000
0000
,
0000
0000
0000
0000
,
0000
0000
0000
0000
,
0000
0000
0000
0000
,
0000
0000
0000
0000
0000
0000
1001
0000
1000
0100
1000
0010
,
0100
0000
0001
0010
0100
1000
1100
0000
0000
0100
0000
0100
,
0010
0000
0010
0001
0100
0001
1000
0000
1000
0010
0100
0001
,
0010
0000
0010
0100
1000
0010
0110
0000
0000
0100
0000
0100
,
0001
0000
0010
0000
0001
0000
0100
0000
0000
0000
0010
0000
1000
0000
0000
0000
0100
1000
0100
0000
0000
0000
0000
0000
,
0110
0000
0010
0001
1000
0001
0101
0000
0000
0100
0000
0100
,
0010
0000
0001
0010
0000
1000
0010
1000
0100
0010
0000
0010
,
0001
0000
1000
0010
0000
0000
0100
0000
0100
0001
0010
0001
,
0100
0010
1000
0001
0010
0100
1000
0000
0010
1010
0000
0000
,
0002
0103
0002
0013
,
0100
1000
0100
0010
0001
0010
0100
0000
1000
0010
0100
0001
,
0020
0130
1020
0130
,
1001
0000
0000
0001
0000
0001
0100
0000
1000
0100
0000
0000
,
0020
1030
0021
0130
,
1001
0000
0000
1000
0000
0100
0001
0000
0100
0010
0000
0000
,
0021
1030
0201
1300
,
1020
0000
0000
0031
0000
0010
0100
0000
0101
0000
0110
0000
,
2010
0000
0000
0000
0000
3100
1000
0010
0100
0001
0000
0010
,
0100
0000
0100
1000
0000
1000
0010
0100
0001
1000
0000
0000
,
0100
0000
0100
0001
0000
0001
0100
0000
0100
1000
0000
1000
,
0020
0000
0000
0130
0000
0100
0002
0000
0000
0013
0000
0000
,
0001
0000
0001
0100
0000
0100
1000
0000
1000
0100
0000
0100
,
0001
0011
2100
3010
,
1000
0100
0010
0011
0000
0000
0001
0100
0010
1010
0000
0000
,
1000
0001
0010
0110
0000
0000
0001
1000
0010
0110
0000
0100
,
1000
0000
1100
0000
0101
0000
0011
0000
0110
0000
0100
1000
,
0010
0000
0000
0110
0000
0100
0001
0000
0001
0100
0010
1000
,
0002
0023
0230
0320
,
0031
0000
1000
0100
0001
1000
0020
0000
0000
0130
0000
1000
,
0001
0000
0000
1010
0000
0000
0001
0000
0010
1000
0000
0010
,
0100
0000
1000
0000
0001
0000
0100
0000
0000
0000
0100
0000
0001
0000
0000
0000
1000
0010
1000
0000
0000
0000
1000
0000
,
0100
0000
0000
0000
0100
0010
0001
0000
1000
0000
0001
0000
0100
0000
0000
0000
0000
0000
0010
0000
0000
0000
0010
0000
,
0001
0000
0010
1000
0000
0100
0010
0001
1000
1010
0000
0000
,
0201
0000
0000
1300
0000
0000
0011
0000
0010
1000
0001
1000
,
0100
0000
0001
0100
0000
1000
0001
0010
0001
0101
0000
0000
,
1000
0010
1000
1100
0000
0000
0001
1000
0010
0110
0000
0000
,
1001
0000
0010
0110
0000
0000
1000
0001
0100
0110
0000
0000
,
0001
1000
0100
0110
0000
0000
0010
0001
1000
1010
0000
0000
,
0101
0000
0001
0010
0100
1000
0010
0000
0010
0110
0000
0000
,
0100
0000
0100
0110
0000
0000
0001
0100
1000
1100
0000
0000
,
1000
0100
0001
0101
0000
1000
0010
0000
1010
0000
1100
0000
,
0101
0000
0011
0000
1000
0010
0100
0001
0010
0100
1000
0001
,
0100
0000
0000
0000
0010
1000
0001
0000
0010
0000
0100
0000
2000
0000
0000
0000
0000
0000
3002
0000
0000
0000
0000
0000
,
0203
0000
0000
0302
0000
0000
0013
0000
0010
0100
0000
0100
,
1000
0000
0000
0000
0000
0000
0001
0000
0001
0100
0000
0100
,
1000
0000
1000
0100
0000
0010
1000
0000
0010
0001
0000
0010
,
0100
0001
0010
0100
1000
0010
0100
0000
0100
1000
0000
1000
,
0100
0001
0010
0100
1000
0100
0001
0000
0001
0100
0000
0100
,
1000
0000
1100
0000
0011
0000
0001
0100
0001
0011
0000
0000
,
1000
0100
1000
1010
0000
0010
0001
0000
0010
1000
0000
0100
,
0001
0000
0100
1000
0000
0000
1010
0000
1000
0100
0010
0001
,
0011
0000
0000
0000
0001
0100
0010
0000
1000
0000
0100
0000
1000
0000
0010
0000
0001
0000
1000
0000
0100
0000
0001
0000
,
1000
0010
0001
1000
0100
0001
0011
0000
0010
0100
1000
0010
,
0220
0000
0000
0330
,
0002
0203
0320
2030
3002
0023
0230
2300
,
3002
0000
0000
0100
0000
0000
2003
0000
0000
0010
0000
0000
3001
0000
0000
0001
0000
0010
0000
0100
0000
2000
0000
0000
,
0000
0000
0000
0000
,
3000
0000
0000
0000
;

//--------------- dance-double - forcednature ----------------
#NOTEDATA:;
#STEPSTYPE:dance-double;
#DESCRIPTION:forcednature;
#DIFFICULTY:Easy;
#METER:5;
#RADARVALUES:0,0,0,0,0;
#CREDIT:forcednature;
#NOTES:
00000000
00000000
00000000
00000000
,
00000000
00000000
00000000
00000000
,
00000000
00000000
00000000
00000000
,
00000000
00000000
00000000
00000000
,
00000000
00000000
00011000
00000000
,
00001000
00010000
00000100
00001000
,
00000100
00010000
00001000
00000000
,
00100000
00010000
00100000
01000000
,
10000000
01000000
00100000
00000000
,
00001000
00010000
00000010
00001000
,
00000010
00010000
00001000
00000000
,
00010000
00000100
00001000
00000100
,
00000010
00000001
00000010
00000000
,
00000100
00000000
00010000
00000000
,
00001000
00001000
00001000
00000000
,
00011000
00000000
01000000
00000000
,
00010000
10000000
00010000
00000000
,
00100000
00000000
01000000
00000000
,
10000000
00010000
10000000
00000000
,
00010000
01000000
00001000
00010000
,
00001000
00100000
00010000
00000000
,
00100000
00000000
00011000
00000000
,
00000010
00001000
00000010
00001000
,
00000001
00000000
00000010
00000000
,
00000100
00000100
00000100
00000000
,
00001000
00000000
00000100
00000000
,
00010000
00010000
00010000
00000000
,
00001000
00010000
00001000
00000000
,
01000000
00010000
01000000
00000000
,
00100000
00000000
10000000
00000000
,
10010000
00000000
01100000
00000000
,
20020000
00000000
00000000
00000000
,
00000000
30030000
01100000
00000000
,
00010000
01000000
00010000
00100000
,
00001000
00001000
00010000
00000000
,
00000100
00001000
00000100
00000010
,
00000001
00000001
00000001
00000000
,
00000100
00000010
00001000
00000010
,
00010000
00010000
00001000
00011000
,
00000000
00011000
00000000
01000000
,
00010000
01000000
00000000
10010000
,
00000000
01100000
00000000
10000000
,
10000000
00010000
00100000
00001000
,
00010000
00000100
00001000
00000100
,
00010000
00001000
00010000
00000000
,
00001000
00000000
00010000
00000000
,
00022000
00033000
00001000
00000000
,
01000000
00000000
00020000
00000000
,
00030000
00000000
10000000
00000000
,
01000000
00000000
10000000
00000000
,
10010000
00000000
00010000
00100000
,
00001000
00010000
00000100
00001000
,
00000100
00010000
00000000
00011000
,
00000000
00001000
00010000
00000010
,
00001000
00000010
00001001
00000100
,
00000110
00000010
00000001
00001000
,
00000001
00001000
00000100
00000000
,
00022000
00000000
00000000
00033000
,
00010000
00000000
00000000
00000000
,
00001000
00000000
00000000
00000000
01000000
00000000
00000000
00200000
,
00000000
00000000
00000000
00000000
,
00300000
00000000
00000000
00000000
;

//--------------- dance-double - forcednature ----------------
#NOTEDATA:;
#STEPSTYPE:dance-double;
#DESCRIPTION:forcednature;
#DIFFICULTY:Medium;
#METER:11;
#RADARVALUES:0,0,0,0,0;
#CREDIT:forcednature;
#NOTES:
00000000
00000000
00000000
00000000
,
00000000
00000000
00000000
00000000
,
00000000
00000000
00000000
00000000
,
00000000
00000000
00000000
00000000
,
00000000
00000000
00022000
00033000
,
00101000
00010000
00101000
00001000
,
00010000
00000000
00000010
00001000
00000000
00000010
00000100
00000000
00000000
00000001
00000000
00000010
,
00000100
00000000
00000000
00010000
00000000
00000000
00001100
00000000
00000000
00010000
00000000
00010000
,
00001000
00000000
00001000
00100000
00000000
00100000
00010000
00000000
00000000
01000000
00000000
00001000
,
00010000
00100000
00011000
00100000
,
00001000
00000000
00010000
00000100
00000000
00010000
00001000
00000000
00000000
00100000
00000000
00100000
,
00010000
01100000
10000000
01100000
,
00010000
00000000
00000000
00000000
01000000
00000000
00001000
00000000
00000000
00000000
00010000
00000000
00002000
00000000
00000000
00000000
00000000
00000000
00100000
00000000
00000000
00003000
00000000
00000000
,
00001000
00000000
00010000
00000000
,
00000020
00000000
00000000
00002030
00000000
00000000
00003001
00000000
00000001
00000100
00000000
00000000
,
00000110
00001000
00000100
00010000
,
00001000
00000000
00000000
00100000
00000000
00100000
00010000
00000000
00010000
10000000
00000000
00000000
,
10100000
00010000
01000000
00001000
,
00010000
00000000
00000000
00000100
00000000
00000100
00001000
00000000
00001000
00000001
00000000
00000000
,
00000101
00001010
00000100
00001010
,
00011000
00000000
00000000
01000000
00000000
01000000
00010000
00000000
00100000
00000000
01000000
00000000
,
20000000
00000000
00000000
30000000
00000000
00000000
01000000
00100000
00010000
00100000
00000000
00000000
,
00001000
00000000
00001000
00010000
00000000
00010000
00001000
00000000
00001000
00100000
00000000
00000000
,
00001000
00010100
00001000
00010010
,
00001000
00010000
00022000
00033000
,
00010000
01001000
00010000
00101000
,
00010000
00001000
00022000
00033000
,
00100000
00001000
00010000
00001000
00000000
00000000
00010000
00001000
00010000
00000100
00000000
00000000
,
00001000
00000010
00000100
00000010
00000000
00000000
00000100
00000001
00001000
00000001
00000000
00000000
,
00000001
00000000
00000100
00000000
00001000
00000000
00010000
00000000
00001000
00000000
00010000
00000000
,
00100000
00000000
00000000
10010000
00000000
00000000
01100000
00000000
00010000
00100000
00000000
00000000
,
00022000
00000000
00000000
00000000
,
00033000
00000000
00000000
00001000
00010000
00001000
02000000
00000000
00000000
03010000
00000000
01000000
,
00100000
00000000
00000000
10010000
00000000
00000000
01000000
00000000
00000000
10010000
00000000
10000000
,
01000000
00000000
00100000
01000000
00000000
00100000
00010000
00000000
00000000
01000000
00000000
00001000
,
00010000
00001100
00010000
00001010
,
00010000
00000000
00001000
00010000
00000000
00000100
00001000
00000000
00000000
00000001
00000000
00000010
,
00000100
00001010
00000100
00000011
,
00000100
00000000
00001000
00000100
00000000
00010000
00001000
00000000
00000000
00102000
00000000
00000000
,
00013000
00020010
00031000
00011000
,
00011000
00022000
00033000
00020100
,
00031000
01002000
00013000
00011000
,
00011000
00000000
00000000
00011000
00000000
00000000
01000000
00000000
00010000
10000000
00000000
00000000
,
00100000
00000000
10000000
00010000
00000000
00000000
00100000
00010000
00100000
00001000
00000000
00000000
,
00010000
00000100
00001000
00000100
00000000
00000000
00000010
00000000
00000001
00000000
00000100
00000000
,
00001000
00000000
00010000
00000000
00100000
00000000
01000000
00000000
01000000
00100000
00000000
10000000
,
00020000
00030000
10000000
01000000
,
00010000
00001000
00100000
00010000
,
00100000
00000000
00001000
00000010
,
00000100
00000010
00000001
00000100
,
00002002
00000000
00000000
00003003
00000000
00000000
00001000
00000000
00000100
00001000
00000000
00000100
,
00010000
00000000
00001000
00100000
00000000
00010000
00100000
00000000
01000000
00100000
00000000
01000000
,
20000000
00000000
30020000
00000000
02030000
00000000
03000000
00000000
00000000
10010000
00000000
00000000
,
10000000
00000000
01000000
00100000
00000000
00000000
00010000
00000000
00100000
00001000
00000000
00010000
,
00001000
00000000
00010000
00000100
00000000
00000000
00000110
00000000
00000000
00000010
00000001
00001000
,
00000001
00000000
00000001
00000100
00000000
00000000
00000010
00001000
00000010
00010000
00000000
00000000
,
00001000
00010000
00001000
01000000
00000000
00010000
01000000
00000000
00100000
10000000
00010000
10000000
,
00200000
00000000
00000000
00300000
,
02000000
00000000
03020000
00000000
,
00230000
00000000
00302000
00000000
00023000
00000000
00000000
00030200
,
00000000
00000000
00000000
00000000
,
00000300
00000000
00000000
00000000
;

//--------------- dance-double - forcednature ----------------
#NOTEDATA:;
#STEPSTYPE:dance-double;
#DESCRIPTION:forcednature;
#DIFFICULTY:Hard;
#METER:15;
#RADARVALUES:0,0,0,0,0;
#CREDIT:forcednature;
#NOTES:
00000000
00000000
00000000
00000000
,
00000000
00000000
00000000
00000000
,
00000000
00000000
00000000
00000000
,
00000000
00000000
00000000
00000000
,
00000000
00000000
00000000
00000000
00000000
00000000
00011000
00000000
00010000
00001000
00010000
00000100
,
00001000
00000000
00000001
00000100
00000010
00001000
00001010
00000000
00000000
00000001
00000000
00000001
,
00000010
00000000
00000010
00000100
00001000
00000100
00010000
00000000
00001000
00100000
00010000
00100000
,
01000000
00000000
01000000
10000000
00100000
01000000
01100000
00000000
00000000
00100000
00000000
00100000
,
10000000
00000000
00010000
00000000
10000000
00000000
01000000
00000000
00000000
00000000
00100000
00000000
01000000
00000000
00000000
00000000
00100000
00010000
00100000
00000000
00000000
00000000
00000000
00000000
,
00011000
00000000
00001000
00010000
00000100
00001000
00001100
00000000
00000000
00000001
00000000
00000001
,
00000100
00000000
00001000
00000100
00000000
00001000
00010000
00001000
00100000
00010000
00000000
00100000
,
01000000
00000000
10000000
00100000
00000000
00000000
01000000
00000000
01000000
00010000
00100000
00001000
,
00010000
00000010
00001000
00000100
00000000
00000010
00000001
00000000
00000100
00000101
00000000
00000000
,
00000200
00002300
00023000
00130000
,
00010000
00001000
01000000
00010000
01000000
00001000
00010000
00000000
00100000
01000000
00100000
10000000
,
00020000
00230000
00302000
00003010
,
00000110
00000000
00000000
00000100
00000000
00000100
00001000
00000000
00000001
00000100
00000000
00000000
,
00000020
00002030
00023000
01030000
,
01100000
00000000
00000000
00100000
00000000
10000000
01000000
00000000
00010000
01000000
00000000
00000000
,
01200000
00301000
00021000
00030100
,
00000120
00000000
00000000
00000031
00000000
00000010
00000100
00000000
00001100
00000000
00010100
00000000
,
00012000
00000000
00000000
00000000
00000000
00103000
00010000
01000000
00100000
10000000
00000000
01000000
,
00010000
00000000
00001000
00010000
00000000
00001000
00000010
00000100
00000010
00000001
00000000
00000000
,
00000100
00000000
00000100
00001000
00000000
00001000
00010000
00000000
00010000
00100000
00000000
00000000
,
20000000
00000000
00000000
30010000
00000000
00010000
00200000
00000000
00000000
01300000
00000000
00000000
,
00100000
00000000
00100000
00010000
00000000
00010000
00001000
00000000
00001000
00000100
00000000
00000100
,
00000010
00000110
00002001
00003010
,
00001000
00000001
00000100
00001000
00000000
00000000
00010000
00100000
10000000
00010000
00000000
00000000
,
00010000
10000000
01000000
00010000
00000000
00000000
00001000
00000010
00000001
00001000
00000000
00000001
,
00000100
00000000
00001100
00000000
00011000
00000000
00110000
00000000
10100000
00000000
10000000
01000000
,
00100000
00000000
00000000
01100000
00000000
01000000
10000000
00000000
10000000
00100000
10000000
01000000
,
00020000
00032000
00003020
00002030
,
00013000
00000000
00000010
00001000
00000001
00000100
00001000
00000000
00000000
00011000
00000000
00100000
,
01000000
00000000
00000000
00011000
00000000
00000010
00000100
00000000
00001000
00010000
00000000
00100000
,
01000000
00000000
00010000
00000000
01000000
00000000
00100000
00000000
00000000
00000000
00100000
00000000
10000000
00000000
00000000
00000000
10000000
01000000
00100000
00000000
00000000
00000000
00010000
00000000
,
00100000
00000000
00000000
00000000
00010000
00100000
00001000
00000000
00010000
00000000
00000100
00000000
00001000
00000000
00000000
00000000
00000000
00000000
00000001
00000000
00000000
00000000
00000001
00000000
,
00000100
00000000
00001000
00000100
00000000
00001000
00010000
00001000
00010000
00100000
00000000
00000000
,
20100000
00000000
00000000
31000000
00000000
00000000
00110000
00000000
00100000
00001000
00010000
00000100
,
00001000
00000000
00000010
00000001
00000000
00000010
00001000
00000001
00000100
00002000
00000000
00000000
,
00013000
00100000
10000000
02000000
00000000
00000000
03010000
00001000
00000010
00000001
00000000
00000000
,
00001001
00000000
00000000
00000110
00000000
00000000
00000001
00000100
00001000
00020000
00000000
00000000
,
00130000
10000000
01000000
00020000
00000000
00000000
00031000
00000010
00000001
00000100
00000000
00000000
,
00000110
00000000
00000010
00001000
00010000
01000000
00100000
00000000
10000000
02000000
00000000
00000000
,
03010000
00000000
00001000
00000020
00000000
00000000
00000031
00000100
00001000
00020000
00000000
00000000
,
00031000
00010000
00100000
20000000
00000000
00000000
31000000
00000000
01100000
00000000
00101000
00000000
,
00011000
00000000
00010100
00000000
00000100
00001000
00000010
00000100
00000001
00000010
00001000
00010000
,
00001000
00000000
00000000
00000000
00100000
00010000
00100000
00000000
00010000
00000000
10000000
00000000
02000000
00000000
00000000
00000000
00000000
00000000
03020000
00000000
00000000
00000000
00000000
00000000
,
00032000
00000000
00000000
00003020
00000000
00000000
00000130
00000000
00000100
00001000
00000000
00001000
,
00000001
00000000
00000000
00000000
00000000
00000000
00000100
00000000
00000100
00001000
00000000
00001000
,
00010000
00000000
00010000
00100000
00000000
10000000
00100000
00000000
10000000
01000000
00000000
00010000
,
01000000
00010000
00001000
00100000
00001000
00010000
00000100
00000000
00000100
00001000
00000000
00001000
,
00000010
00000100
00000001
00000010
00000100
00001000
00000010
00000000
00000010
00000100
00000000
00000100
,
00010000
00000000
01010000
00000000
10100000
00000000
10000000
01000000
00010000
00002000
00000000
00000000
,
00013000
00001000
00000010
00000002
00000000
00000000
00000103
00000000
00001000
00000100
00000000
00001000
,
00010000
00000000
00100000
00010000
00000000
00100000
10000000
00000000
10000000
01000000
00010000
00001000
,
00011000
00000000
00000000
00000000
00010000
00001000
00010000
00000000
00000100
00000000
00001000
00000000
00000100
00000000
00010000
00000000
00001000
00000000
00000010
00000000
00001000
00000000
00010000
00000000
,
00100000
00010000
00001000
01000000
00001000
00010000
00100000
00000000
10000000
01000000
00010000
00001000
,
00200000
00000000
00000000
00300000
,
00020000
02030000
03002000
00023000
00030020
00002030
00003002
00000023
,
00000032
00000000
00000000
00000100
00000000
00000000
00002003
00000000
00000000
00000100
00000000
00000000
00003010
00000000
00000000
00000010
00000000
00000100
00000000
00001000
00000000
00020000
00000000
00000000
,
00000000
00000000
00000000
00000000
,
00030000
00000000
00000000
00000000
;
