#VERSION:0.83;
#TITLE:仮想空間の旅人たち;
#SUBTITLE:;
#ARTIST:DJ MURASAME;
#TITLETRANSLIT:Kasoukuukan no tabibitotachi;
#SUBTITLETRANSLIT:;
#ARTISTTRANSLIT:;
#GENRE:TECHNO;
#CREDIT:;
#MUSIC:Kasoukuukan no tabibitotachi.ogg;
#BANNER:Kasoukuukan no tabibitotachi.png;
#BACKGROUND:Kasoukuukan no tabibitotachi-bg.png;
#CDTITLE:./CDTitles/bm IIDX 20 tricoro.png;
#SAMPLESTART:90.294;
#SAMPLELENGTH:15.000;
#SELECTABLE:YES;
#OFFSET:1.478;
#BPMS:0.000=151.000;
#STOPS:;
#BGCHANGES:0.000=../BGAs/20te.mp4=1.000=0=0=0=StretchNoLoop====,
99999.000=-nosongbg-=1.000=0=0=0=StretchNoLoop====
;
#FGCHANGES:;

//--------------- dance-single - forcednature ----------------
#NOTEDATA:;
#STEPSTYPE:dance-single;
#DESCRIPTION:forcednature;
#DIFFICULTY:Beginner;
#METER:3;
#RADARVALUES:0,0,0,0,0;
#OFFSET:1.478;
#BPMS:0.000=151.000;
#CREDIT:forcednature;
#NOTES:
0000
0000
0000
0000
,
0000
0000
0000
0000
,
0000
0000
0000
0000
,
1000
0000
0000
0000
,
1000
0000
0000
0000
,
0001
0000
0000
0000
,
0001
0000
0000
0000
,
0100
0000
0000
0000
,
0000
0000
0000
0000
,
0010
0000
0000
0000
,
1000
0000
0000
0000
,
0010
0000
0000
0000
,
0000
0000
0000
0000
,
0100
0000
0000
0000
,
0001
0000
0000
0000
,
0100
0000
0000
0000
,
0010
0000
0000
0000
,
1000
0000
0000
0000
,
0001
0000
0000
0000
,
0000
0000
0000
0000
,
0010
0000
0000
0000
,
0100
0000
0000
0000
,
1000
0000
0000
0000
,
0000
0000
0000
0000
,
0100
0000
0000
0000
,
0010
0000
0000
0000
,
0001
0000
0000
0000
,
1000
0000
0000
0000
,
0001
0000
0000
0000
,
0100
0000
0000
0000
,
0010
0000
0000
0000
,
0100
0000
0001
0000
,
1000
0000
0000
0000
,
0000
0000
0000
0000
,
0100
0000
0000
0000
,
0000
0000
0000
0000
,
0010
0000
0000
0000
,
0000
0000
0000
0000
,
0001
0000
0000
0000
,
0100
0000
0000
0000
,
0001
0000
1000
0000
,
0001
0000
0000
0000
,
1000
0000
0100
0000
,
1000
0000
0000
0000
,
0001
0000
0100
0000
,
0001
0000
0000
0000
,
0010
0000
0100
0000
,
0010
0000
0000
0000
,
0000
0001
0000
0001
,
0000
0001
0000
0000
,
0000
0100
0000
0100
,
0000
0100
0000
0000
,
0000
0010
0000
0010
,
0000
0010
0000
0000
,
0000
1000
0000
1000
,
0000
1000
0000
0000
,
0000
0100
0000
1000
,
0000
0001
0000
0000
,
1000
0000
0010
0000
,
1000
0000
0100
0000
,
1000
0000
0001
0000
,
1000
0000
0000
0000
,
0001
0000
0010
0000
,
0001
0000
1000
0000
,
0001
0000
0100
0000
,
0001
0000
0000
0000
,
1000
0000
0100
0000
,
0010
0000
0001
0000
,
0010
0000
0100
0000
,
1000
0000
0000
0000
,
0001
0000
0100
0000
,
0010
0000
1000
0000
,
0010
0000
0000
0000
,
0100
0000
0001
0000
,
1000
0000
0000
0000
,
0100
0000
0100
0000
,
0010
0000
0010
0000
,
0001
0000
1000
0000
,
2002
0000
0000
0000
,
0000
0000
0000
0000
,
0000
0000
0000
0000
,
0000
0000
0000
0000
,
3003
0000
0000
0000
;

//--------------- dance-single - forcednature ----------------
#NOTEDATA:;
#STEPSTYPE:dance-single;
#DESCRIPTION:forcednature;
#DIFFICULTY:Easy;
#METER:6;
#RADARVALUES:0,0,0,0,0;
#OFFSET:1.478;
#BPMS:0.000=151.000;
#CREDIT:forcednature;
#NOTES:
0000
0000
0000
0000
,
0000
0000
0000
0000
,
0000
0000
0000
0000
,
1000
0100
1000
0100
,
1000
0010
0100
0000
,
0001
0100
0001
0100
,
0001
0010
0100
0000
,
0010
0000
0010
0001
,
0100
0000
0100
0010
,
1000
0000
1000
0100
,
0010
0000
0010
0001
,
1000
0000
1000
0001
,
0100
0000
0100
0010
,
1000
0000
1000
0001
,
0010
0000
0010
0100
,
1000
0000
0000
0000
,
0001
0000
0000
0000
,
0100
0000
0000
0000
,
0010
1000
0000
1000
,
0000
1000
0100
0010
,
0001
0100
0000
0100
,
0000
0100
0001
1000
,
0100
0010
0000
0010
,
0000
0010
0001
1000
,
0100
0000
0000
0000
,
1000
0000
1000
0000
,
0000
0100
0010
0100
,
0000
0010
0001
0010
,
0000
0001
0000
1000
,
0000
0010
0000
1000
,
0000
0100
0000
1000
,
0000
0010
0010
1000
,
0001
0000
0000
0000
,
0000
0000
0000
0000
,
0010
0000
0000
0000
,
0000
0000
0000
0000
,
0100
0000
0000
0000
,
1000
0000
0000
0000
,
0001
0000
0000
0000
,
0100
0100
0100
0000
,
0010
0000
1000
0010
,
1000
0000
1000
0100
,
1000
0000
1000
0001
,
1000
0000
1000
1000
,
0001
0000
0001
0010
,
0001
0000
0001
1000
,
0001
0000
0001
0100
,
0001
0000
0001
0001
,
0000
0010
0000
0010
,
0100
1000
0100
0010
,
0000
0010
0000
0010
,
0001
0100
0001
0010
,
0000
0010
0000
0010
,
0100
1000
0100
0010
,
0000
0010
0000
0010
,
0001
0100
0001
0010
,
0000
0100
1000
0100
,
0000
0010
0000
1001
,
1000
0010
0100
0010
,
1000
0100
0010
0100
,
1000
0001
0010
0001
,
1000
0001
0100
0001
,
0010
0100
1000
0100
,
0010
0001
0100
0001
,
1000
0010
0100
0010
,
0110
1001
0110
0000
,
0001
1000
0100
1000
,
0010
0100
0001
0100
,
0010
1000
0001
1000
,
0100
0010
0001
0010
,
0100
1000
0001
1000
,
0010
0100
0001
0100
,
0001
0010
0100
0000
,
1001
0000
0110
0000
,
1001
0000
1000
0001
,
0100
0001
0010
0001
,
0100
0001
1000
0001
,
0010
0100
1000
1001
,
0010
0000
0000
0000
;

//--------------- dance-single - forcednature ----------------
#NOTEDATA:;
#STEPSTYPE:dance-single;
#DESCRIPTION:forcednature;
#DIFFICULTY:Medium;
#METER:11;
#RADARVALUES:0,0,0,0,0;
#OFFSET:1.478;
#BPMS:0.000=151.000;
#CREDIT:forcednature;
#NOTES:
0000
0000
0000
0000
,
0000
0000
0000
0000
,
0000
0000
0000
0000
,
1000
0000
0100
0000
1000
0100
0010
0000
,
0001
0000
0100
0000
0001
0100
0010
0000
,
1000
0000
0001
0000
0010
0100
0010
0000
,
0001
0000
1000
0000
0010
0100
0010
0000
,
1000
0000
0000
1000
0000
0000
0100
0000
0000
1000
0000
0000
0001
0000
0000
0000
,
0100
0000
0000
0100
0000
0000
0001
0000
0000
0100
0000
0000
0010
0000
0000
0000
,
1000
0000
0000
1000
0000
0000
0001
0000
0000
1000
0000
0000
0100
0000
0000
0000
,
0010
0000
0000
0010
0000
0000
0001
0000
0000
0100
0000
0000
0001
0000
0000
0000
,
0010
0000
0000
0010
0000
0000
0100
0000
0000
1000
0000
0000
0100
0000
0000
0000
,
1000
0000
0000
1000
0000
0000
0001
0000
0000
0100
0000
0000
0001
0000
0000
0000
,
0010
0000
0000
0010
0000
0000
0100
0000
0000
1000
0000
0000
0100
0000
0000
0000
,
0010
0000
0000
0010
0000
0000
0001
0000
0000
1000
0000
0000
0010
0000
0000
0000
,
0200
0000
0302
0000
,
2003
0000
3200
0000
,
0320
0000
0000
0000
0031
0001
0001
0000
,
1001
0000
0110
0000
1000
0100
0001
0000
,
0100
1000
0010
0000
1000
0001
0100
0000
,
1001
0000
0110
0000
0001
0100
1000
0000
,
0100
0001
0010
0000
0100
1000
0001
0000
,
1100
0000
0011
0000
0001
1000
0010
0000
,
0100
0001
1000
0000
0100
0001
0100
1000
,
0200
0010
0000
0310
,
0100
1000
0001
0000
0100
0001
1000
0000
,
0010
0100
0100
0000
0100
0100
0001
0000
,
1000
0100
0100
0000
0100
0100
0010
0000
,
0001
0000
0100
0000
0001
0000
0000
0000
0010
0000
0000
1000
0000
0000
0010
0000
,
0000
0000
0100
0000
1000
0000
0000
0000
0010
0000
0000
0001
0000
0000
0010
0000
,
0000
0000
0100
0000
0001
0000
0000
0000
0010
0000
0000
1000
0000
0000
0010
0000
,
0000
0100
1000
0000
0010
0010
0110
0000
,
2000
0000
0000
0000
,
0000
0000
0000
0000
,
3002
0000
0000
0000
,
0203
0000
0000
0000
,
0320
0000
0000
0000
,
2030
0000
0000
0000
,
3002
0000
0000
0000
,
1003
0100
0100
0000
1000
0010
0001
0000
,
0010
0000
0000
1000
0000
0000
0100
0000
0000
0000
1100
0000
0000
0000
0000
0000
,
1000
0000
0000
0001
0000
0000
0100
0000
0000
0000
0110
0000
0000
0000
0000
0000
,
0010
0000
0000
1000
0000
0000
0001
0000
0000
0000
0011
0000
0000
0000
0000
0000
,
0010
0000
0000
0100
0000
0000
1000
0000
0000
0000
1010
0000
0000
0000
0000
0000
,
0010
0000
0000
0100
0000
0000
0001
0000
0000
0000
0011
0000
0000
0000
0000
0000
,
1000
0000
0000
0001
0000
0000
0100
0000
0000
0000
0110
0000
0000
0000
0000
0000
,
1010
0000
0000
0100
0000
0000
1100
0000
0000
0000
1001
0000
0000
0000
0000
0000
,
0011
0000
0000
0100
0000
0000
0101
0000
0001
0000
0001
0000
1000
0000
1000
0000
,
0000
0010
1000
0000
0100
0002
0000
0203
,
0000
2300
0000
3020
0000
2030
0000
3000
,
0000
0001
0100
0000
1000
0200
0000
0320
,
0000
2030
0000
3002
0000
0023
0100
0130
,
0000
0010
0001
0000
1000
0020
0000
0230
,
0000
1300
0200
0000
0301
0010
0002
0000
,
1003
0000
0010
1000
0200
0000
0301
0200
,
0000
0310
0002
0000
1003
1000
0010
0010
,
0000
1000
0100
0001
0000
0001
0100
1000
,
0000
1000
0010
0100
0001
0000
1001
0000
,
1000
0010
0100
0010
1000
0001
0010
0001
,
0100
0010
1000
0100
0010
0001
0100
0001
,
1000
0100
1000
0010
0100
0010
1000
0001
,
0010
0100
1000
0001
0100
0010
1000
0000
,
0100
1000
0001
0100
0001
0010
0001
1000
,
0010
1000
0001
0010
0100
0010
0001
1000
,
0010
0100
0001
1000
0100
0010
0100
1000
,
0010
0001
0010
0200
0000
0001
0301
0000
,
1000
0010
1000
0100
0010
0100
1000
0001
,
0100
0001
0010
0100
0010
0001
1000
0010
,
0100
0001
1000
0100
1000
0001
0100
0010
,
1000
0001
0010
0001
0100
0010
1000
0000
,
0100
0001
0100
1000
0001
0010
0001
1000
,
0010
0100
0001
0100
0010
1000
0100
1000
,
0010
0001
0010
1000
0001
0100
0010
0000
,
2100
3001
0102
1003
,
2010
0001
3100
0110
,
0010
0001
0100
0001
1000
0100
1000
0010
,
0100
1000
0100
0001
0010
0001
1000
0010
,
1000
0100
0001
0100
0010
0001
1001
0000
,
0110
0000
0000
0000
;

//--------------- dance-single - forcednature ----------------
#NOTEDATA:;
#STEPSTYPE:dance-single;
#DESCRIPTION:forcednature;
#DIFFICULTY:Hard;
#METER:14;
#RADARVALUES:0,0,0,0,0;
#OFFSET:1.478;
#BPMS:0.000=151.000;
#CREDIT:forcednature;
#NOTES:
0000
0000
0000
0000
,
0000
0000
0000
0000
,
0000
0000
0000
1001
,
1000
0100
0001
0100
0010
0100
1000
0100
,
0010
1000
0010
0001
0010
0100
0010
0001
,
1000
0010
0001
0010
0100
0010
1000
0010
,
0100
1000
0100
0001
0100
0010
0100
0100
,
0001
0000
0000
0010
0000
0000
0100
0000
0000
1000
0001
0000
0100
0000
0100
0000
,
0010
0000
0000
1000
0000
0000
0001
0000
0000
0010
0100
0010
0100
0000
1000
0000
,
0001
0000
0000
0100
0000
0000
0010
0000
0000
1000
0001
0000
0010
0000
0001
0000
,
0100
0000
0000
0010
0000
0000
1000
0000
0000
0001
0010
0001
0010
0000
0100
0000
,
1000
0000
0000
0001
0000
0000
0100
0000
0000
0010
1000
0000
0100
0000
1000
0000
,
0001
0000
0000
0100
0000
0000
0001
0000
0000
1000
0010
1000
0010
0000
0100
0000
,
0001
0000
0000
1000
0000
0000
0001
0000
0000
0010
0100
0000
1000
0000
0100
0000
,
0010
0000
0000
0001
0000
0000
1000
0000
0000
0001
0100
0001
0100
0000
0010
0000
,
1000
1000
0100
0000
0001
0200
1000
0000
,
0310
0010
0001
0000
1000
0010
0000
0010
,
0100
0000
1000
0000
0100
0000
0000
0000
0001
0000
0010
0100
0020
0000
0000
0000
,
0031
0100
0001
0010
0001
0100
0010
1000
,
0100
1000
0001
0100
0010
1000
0002
0000
,
0013
0100
1000
0100
0010
0001
0100
0001
,
1000
0010
0001
0010
0100
0001
2000
0000
,
3100
0001
0100
1000
0001
0010
0001
1000
,
0010
0100
0001
1000
0100
0001
1000
0010
,
0002
0000
0100
0000
1000
1000
0013
0000
,
0001
0100
0010
1000
0001
1000
0100
0000
,
0010
0000
0010
0000
0001
0000
0000
0000
0100
0000
0001
0000
0100
0001
0100
0000
,
0010
0000
0010
0000
1000
0000
0001
0000
1000
0100
1000
0000
0100
0010
0100
0000
,
0010
0000
0001
0000
0010
0000
0000
0000
0001
0000
0100
0001
0000
1000
0001
0000
,
0010
0000
0100
0000
1000
0000
0000
0000
0100
0000
0010
0001
0000
1000
0001
0000
,
0100
0000
0010
0000
1000
0000
0000
0000
0001
0000
1000
0100
0000
1000
0001
0000
,
0100
0000
0010
0000
1000
0010
0000
0000
1000
0100
1000
0100
0020
0000
0000
0000
,
0032
0000
0000
0000
,
0003
0000
0000
0000
,
0200
0000
0000
0000
,
0320
0000
0000
0000
,
2030
0000
0000
0000
,
3200
0000
0000
0000
,
0320
0000
0000
0000
,
0031
0000
0001
0000
0100
0000
0000
0000
0010
0000
0010
0000
1000
0000
0010
1000
,
0010
0000
0000
0100
0000
0000
0101
0000
0000
0000
0001
0000
0010
0000
0000
0000
,
0100
0000
0000
1000
0000
0000
1010
0000
0000
0000
0001
0000
0100
0000
0000
0000
,
1000
0000
0000
0100
0000
0000
0101
0000
0000
0000
0001
0000
0010
0000
0000
0000
,
0100
0000
0000
0001
0000
0000
0101
0000
0000
0000
0100
0000
1000
0000
1000
0000
,
0010
0000
0000
0100
0000
0000
0101
0000
0000
0000
0011
0000
0000
0000
1000
0000
,
0010
0000
0000
1000
0000
0000
1100
0000
0000
0000
0101
0000
0000
0000
0000
0000
,
1010
0000
0000
1100
0000
0000
0110
0000
0000
0000
1001
0000
0000
0000
0000
0000
,
0011
0000
0000
0101
0000
0000
0100
0000
0010
1000
0010
1000
0001
0010
0001
0010
,
0100
0010
0001
0010
0100
0001
0100
1000
,
0010
1000
0001
0010
0001
1000
0020
0000
,
0130
1000
0100
0001
0010
0001
1000
0010
,
1000
0100
0001
0100
1000
0001
0020
0000
,
0031
0100
1000
0100
0010
1000
0001
0010
,
0001
0100
0010
1000
0100
1000
0002
0000
,
0103
0010
0001
0010
0100
0001
0010
0001
,
1000
0000
0010
0000
1000
0000
0000
0000
0100
0010
0100
0010
0001
0010
0001
0010
,
0000
0100
1000
0010
0000
0100
0001
0010
,
0100
1000
0100
0000
0010
0000
0001
0000
0100
0001
0100
0000
1001
0000
0000
0000
,
1000
0000
0010
1000
0010
0000
0100
0010
0100
0000
0001
0100
0001
0000
1000
0001
,
1000
0100
0001
0100
1000
0001
0010
0001
,
0100
0001
0100
0000
0010
1000
0010
0000
0100
0010
0100
0000
0001
0000
1001
0000
,
0000
0110
0000
1002
0000
1003
1000
0100
,
0010
0000
0001
0010
0001
0000
0100
0001
0100
0000
0010
0100
0010
0000
1000
0010
,
1000
0100
0001
0100
0010
0001
0001
0010
,
0100
1000
0100
0000
0010
0001
0010
0000
0001
0000
0100
0000
0010
0000
0110
0000
,
0000
0000
1100
0000
0000
0000
0102
0000
0000
0000
1003
0000
0100
0010
0100
0010
,
0001
0000
0100
0001
0100
0000
0001
0010
0001
0000
1000
0010
1000
0000
0100
1000
,
0100
0010
0001
0010
0100
0001
0100
1000
,
0010
1000
0010
0000
0100
0001
0100
0000
0001
0010
0001
0000
1000
0000
1010
0000
,
0000
0000
1100
0000
0000
0000
0201
0000
0000
0000
0301
0000
0001
0000
0010
0001
,
0010
0000
0100
1000
0100
0000
1000
0010
1000
0000
0001
0010
0001
0000
0100
0001
,
0100
0010
0001
0010
1000
0100
1000
0001
,
0100
0001
0100
0000
0010
1000
0010
0000
1000
0000
0100
0000
0001
0000
0000
0000
,
2100
3010
0102
0013
,
0110
0100
1000
0001
0100
0010
1001
0000
,
0001
0000
1000
0100
1000
0000
0001
0100
0001
0000
1000
0010
1000
0000
0001
0010
,
0001
0000
0100
0001
1000
0000
0100
1000
0001
0000
0010
0001
1000
0000
0010
1000
,
0001
0000
0100
0010
1000
0000
0100
0010
0001
0000
0001
0100
1000
0000
0000
0000
,
0110
0000
0000
0000
;

//--------------- dance-single - forcednature ----------------
#NOTEDATA:;
#STEPSTYPE:dance-single;
#DESCRIPTION:forcednature;
#DIFFICULTY:Challenge;
#METER:16;
#RADARVALUES:0,0,0,0,0;
#OFFSET:1.466;
#BPMS:0.000=151.000;
#CREDIT:forcednature;
#MUSIC:../Kasoukuukan no tabibitotachi (DP)/Kasoukuukan no tabibitotachi (DP).ogg;
#NOTES:
0000
0000
0000
0000
,
0000
0000
0000
0000
,
0000
0000
0000
0000
,
0000
0000
0000
0000
,
0000
0000
0000
1001
,
0110
0000
0001
0100
1000
0100
0010
1000
,
0001
0010
0100
0001
0100
1000
0001
1000
,
0020
0000
0001
0000
0100
0100
0100
0000
,
1000
0000
1030
0000
0000
0000
0010
0000
0000
0000
0110
0000
0000
1001
0000
0000
,
0001
0010
0001
0100
0010
0001
0010
1000
,
0100
0010
1000
0010
0001
1000
0001
0010
,
0200
0000
1000
0000
0010
0010
0310
0000
,
0101
0000
0000
0000
0100
0000
1000
0001
0000
0001
0100
0000
0010
0000
0010
1000
,
0001
0010
0001
0100
1000
0001
0010
0100
,
0001
0010
0100
0001
0100
1000
0010
1000
,
0200
0000
0001
0000
1000
1000
1000
0000
,
0010
0000
0310
0000
0000
0000
1001
0000
0000
0000
0110
0000
0000
1001
0000
0000
,
1000
0010
0001
0010
1000
0100
0010
1000
,
0010
0100
0001
0100
1000
0001
0100
0001
,
0020
0000
0100
0000
1000
1000
0100
0100
,
0032
0000
0000
0000
0100
0000
0000
0000
1003
0010
1000
0010
0100
0001
0100
0001
,
1000
0000
0000
1000
0100
0000
0010
0000
0001
0000
0001
0000
0011
0000
0000
0000
,
0001
0000
0000
0001
0100
0000
0010
0000
1000
0000
0001
0000
1001
0000
0000
0000
,
1000
0000
0000
1000
0010
0000
0001
0000
0010
0000
0100
0000
0110
0000
0000
0000
,
0001
0000
0000
0001
0010
0000
0100
1000
0000
1000
0010
0000
0100
0001
0100
0001
,
1000
0100
0000
1000
0001
0000
1000
0010
0000
1000
0001
0000
0010
0100
0010
0000
,
0001
0100
0000
0001
1000
0000
0001
0010
0000
0001
1000
0000
0010
0100
0010
0100
,
0001
0010
0000
0001
1000
0000
0001
0100
0000
0001
1000
0000
0100
0010
0100
0000
,
1000
0010
0000
1000
0001
0000
0010
0000
0100
0000
0001
0000
0100
0000
1000
0001
,
1000
0100
0000
0010
0100
0000
0001
0100
0000
0010
0100
0000
1000
0001
0010
0000
,
0001
0100
0000
0010
0100
0000
1000
0100
0000
0010
0100
0000
0001
1000
0010
1000
,
0001
0010
0000
0100
0010
0000
1000
0010
0000
0100
0010
0000
0001
1000
0100
0000
,
1000
0010
0000
0100
0010
0000
0001
0000
0010
0000
0100
0000
0110
0000
0000
0000
,
2002
0000
0000
0000
,
0000
0000
0000
0000
,
0000
0000
0000
3003
,
0001
0100
0001
0000
0010
0000
0100
1000
0001
0100
0010
1000
0100
0010
0100
0010
,
0001
1000
0000
0010
1000
0000
0100
0010
0000
0001
0010
0000
0100
0000
1000
0000
,
0001
0100
0000
0010
0100
0000
0001
0010
0000
0100
1000
0000
0001
0000
0100
0000
,
1000
0100
0000
0010
0100
0000
0001
0010
0000
0100
0010
0000
0001
0000
0001
0000
,
1000
0010
0000
1000
0100
0000
0001
0100
0000
0010
0001
0000
1000
0010
1000
0010
,
0100
0001
0000
1000
0001
0000
0010
0100
0000
1000
0010
0000
0100
0000
1000
0000
,
0100
0001
0000
1000
0010
0000
1000
0100
0000
0001
0100
0000
0010
0000
0001
0000
,
0101
0000
0000
1100
0000
0000
1010
0000
0000
0000
1001
0000
0000
0000
0000
0000
,
1100
0000
0000
0101
0000
0000
0011
0000
1000
0010
1000
0010
0100
0001
0100
0001
,
1000
0000
0100
0010
0001
0000
1000
0000
0010
0100
0001
0000
0010
0000
0100
1000
,
0001
0000
0100
0010
1000
0000
0001
0010
0100
0000
1000
0001
0100
0000
0100
0000
,
0010
0000
1000
0001
0010
0000
0001
0000
0100
0010
1000
0000
0001
0000
0010
0100
,
1000
0000
0001
1000
0010
0000
0001
0010
1000
0000
0001
0010
0100
1000
0100
1000
,
0001
0000
0100
0010
1000
0000
0001
0000
0010
0100
1000
0000
0001
0000
1000
0010
,
0001
0000
0010
0100
0001
0000
0001
0000
0010
0100
1000
0000
0001
0100
0001
0100
,
0010
0000
0000
0010
1000
0000
0001
0000
0010
0100
1000
0000
0001
0000
1000
0100
,
0001
0000
0100
0010
0001
0000
1000
0000
0001
0100
0001
0100
0010
1000
0010
1000
,
0100
0000
0010
0001
0010
0000
0100
0000
1000
0000
0001
0000
0101
0000
0000
0000
,
1000
0001
1000
0000
0010
0000
0100
0001
1000
0100
1000
0100
0010
0001
0010
0001
,
1000
0100
0000
0100
0001
0000
0001
0100
0000
0100
1000
0000
1000
0001
0010
0000
,
0001
0100
0000
0100
1000
0000
1000
0100
0000
0100
0001
0000
0001
1000
0010
1000
,
0001
0010
0000
0010
1000
0000
1000
0010
0000
0010
0001
0000
0001
1000
0100
0000
,
0000
0010
0001
0010
0001
1000
0001
0100
0000
0010
1000
0000
1001
0000
0000
0000
,
0001
0100
1000
0000
0100
0000
0001
0010
0100
0000
1000
0001
0010
0000
0110
0000
,
0100
0000
1000
0001
1000
0000
0010
0000
0100
0001
0100
0001
1000
0100
0010
0000
,
0011
0000
0001
1000
0010
0000
0100
0000
0001
1000
0100
0000
0010
0000
0011
0000
,
0001
0000
0101
0000
0100
0000
0110
0000
0010
0000
1000
0001
0010
0100
1000
0000
,
0001
0010
1000
0000
0010
0000
0001
0100
0010
0000
1000
0100
0010
0000
0110
0000
,
0100
0000
1000
0001
0100
0000
0010
0000
1000
0100
0010
0001
1000
0000
0010
0000
,
0100
0001
1000
0000
0100
1000
0001
0000
0100
0010
1000
0100
0010
0000
0011
0000
,
1000
0000
1010
0000
0001
0000
1002
0000
0000
0000
0100
0000
0103
0001
0100
0001
,
1000
0100
0001
0000
0100
0000
0010
0001
0100
0000
0010
1000
0001
0000
0011
0000
,
0010
0000
0100
1000
0001
0000
0100
0000
0010
1000
0010
1000
0001
0010
0100
0000
,
1100
0000
1000
0001
0100
0000
0010
0000
0100
0001
1000
0000
0100
0000
0110
0000
,
0010
0000
0011
0000
0001
0000
0101
0000
0100
0000
0010
1000
0001
0010
0100
0000
,
0001
0100
1000
0000
0010
0000
0100
0001
1000
0000
0001
0010
0100
0000
0110
0000
,
0010
0000
0001
1000
0010
0000
0100
0000
1000
0100
0010
0100
0001
0000
1000
0000
,
1010
0000
0010
0000
0110
0000
0100
0000
0001
1000
0001
0010
0100
0000
1000
0000
,
0001
0100
0010
1000
0010
0100
0001
0000
1000
0100
0010
0001
0010
0100
1000
0000
,
0010
0100
0001
1000
0010
0000
0100
0001
1000
0000
0100
0010
0001
1000
0010
0000
,
0110
0000
0100
1000
0100
0000
0010
0001
0010
0000
1000
0100
0001
0000
0100
1000
,
0010
0000
0010
0100
1000
0000
1000
0100
0001
0000
0001
0010
0100
0000
1000
0001
,
0010
1000
0010
0100
1000
0000
0001
0100
0010
1000
0100
0010
0110
0000
0000
0000
,
1001
0000
0000
0000
;

//--------------- dance-double - forcednature ----------------
#NOTEDATA:;
#STEPSTYPE:dance-double;
#DESCRIPTION:forcednature;
#DIFFICULTY:Easy;
#METER:5;
#RADARVALUES:0,0,0,0,0;
#OFFSET:1.466;
#BPMS:0.000=151.000;
#CREDIT:forcednature;
#MUSIC:../Kasoukuukan no tabibitotachi (DP)/Kasoukuukan no tabibitotachi (DP).ogg;
#NOTES:
00000000
00000000
00000000
00000000
,
00000000
00000000
00000000
00000000
,
00000000
00000000
00000000
00000000
,
00000000
00000000
00000000
00000000
,
00000000
00000000
00000000
00011000
,
00000000
00000000
00001000
00000000
,
01000000
00000000
00001000
00000000
,
00010000
00000000
00000000
00000000
,
00000010
00000000
00000000
00000000
,
00001000
00000000
00000100
00000000
,
00001000
00000000
00000001
00000000
,
00000100
00000000
00000000
00000000
,
00000010
00000000
00000000
00000000
,
00010000
00000000
00001000
00000000
,
00100000
00000000
00001000
00000000
,
01000000
00000000
00000000
00000000
,
00010000
00000000
00000000
00000000
,
10000000
00000000
01000000
00000000
,
10000000
00000000
00100000
00000000
,
01000000
00000000
00000000
00000000
,
00001000
00000000
00000000
00000000
,
00010000
00000100
00000000
00000100
,
00000000
00001000
00000000
00001000
,
00000000
00000001
00000000
00000001
,
00000000
00000100
00000000
00000100
,
00000010
00000000
00001000
00000010
,
00001000
00000000
00000010
00000000
,
00010000
00000000
00001000
00010000
,
00001000
00000000
00010000
00000000
,
00001000
00000000
00100000
00001000
,
00100000
00000000
00001000
00000000
,
00100000
00000000
00010000
00100000
,
00010000
00000000
00100000
00000000
,
02000000
00000000
00000000
00000000
,
00000000
00000000
00000000
00000000
,
03000000
00000000
00000000
00000000
,
10000000
10000000
00000000
10000000
,
00010000
00000000
01000000
00000000
,
00001000
00000000
01000000
00000000
,
00010000
00000000
00100000
00000000
,
00001000
00000000
00100000
00000000
,
00010000
00000000
01000000
00000000
,
00001000
00000000
00010000
00000000
,
00000010
00000010
00000010
00000000
,
00001000
00001000
00001000
00000000
,
00000001
00000000
00000010
00000000
,
00000100
00000000
00000010
00000000
,
00000100
00000000
00001000
00000000
,
00000100
00000000
00010000
00000000
,
00001000
00000000
00100000
00000000
,
00010000
00000000
10000000
00000000
,
00010000
00000000
01000000
00000000
,
00100000
00000000
10000000
10000000
,
10000000
00000000
01000000
00000000
,
00100000
00100000
00100000
00000000
,
10010000
00000000
00000000
00010000
,
01000000
00000000
00000000
00001000
,
00010000
00000000
00000000
00000100
,
00002000
00000000
00000000
00003010
,
00001001
00000000
00000001
00000000
,
00000010
00000001
00000010
00000000
,
00000100
00000010
00000100
00000000
,
00001000
00000100
00001000
00000000
,
00000100
00000000
00010000
00000000
,
00001000
01000000
00001000
00000000
,
01000000
00010000
01000000
00000000
,
00010000
10000000
00010000
00000000
,
00100000
00000000
01000000
00000000
,
10000000
00100000
10000000
00000000
,
00100000
01000000
00100000
00000000
,
01000000
00010000
01000000
00000000
,
00010000
00000000
00100000
00000000
,
00001000
00010000
00001000
00000000
,
00010000
00000010
00010000
00000000
,
00000010
00000000
00000110
00000000
,
00001001
00000000
00000000
00001000
,
00000100
00000000
00000100
00010000
,
00001000
00000000
00001000
01000000
,
00010000
00000000
00100000
01000000
,
10010000
00000000
00000000
00000000
;

//--------------- dance-double - forcednature ----------------
#NOTEDATA:;
#STEPSTYPE:dance-double;
#DESCRIPTION:forcednature;
#DIFFICULTY:Medium;
#METER:10;
#RADARVALUES:0,0,0,0,0;
#OFFSET:1.466;
#BPMS:0.000=151.000;
#CREDIT:forcednature;
#MUSIC:../Kasoukuukan no tabibitotachi (DP)/Kasoukuukan no tabibitotachi (DP).ogg;
#NOTES:
00000000
00000000
00000000
00000000
,
00000000
00000000
00000000
00000000
,
00000000
00000000
00000000
00000000
,
00000000
00000000
00000000
00000000
,
00000000
00000000
00000000
00011000
,
00001000
01000000
00010000
01000000
,
00100000
01000000
00010000
01000000
,
00002000
00000000
00023000
00000000
,
00030100
00001000
00000100
00000000
,
00000010
00000001
00000010
00000100
,
00000010
00001000
00000010
00000100
,
00000020
00000000
00000031
00001000
,
00000020
00000000
00010030
00001000
,
00100000
00010000
00100000
01000000
,
00100000
00010000
00100000
00001000
,
00020000
00000000
00030010
00001000
,
00000002
00000000
00000013
00000100
,
00010000
00001000
00010000
00000010
,
00010000
00001000
00010000
00000100
,
00020000
00000000
00031000
01000000
,
00002000
00000000
00000000
00000000
00103000
00010000
00100000
00000000
,
01100000
01000000
00000000
10000000
,
01000000
00010000
00000000
00001000
,
00000100
00000010
00000000
00001000
,
00000001
00000010
00000000
00000100
,
00001000
00000000
00000000
00000010
00000000
00000000
00010000
00000000
00000000
00001000
00000000
00000000
00000000
00100000
00000000
00000000
,
00010000
00000000
00000000
10000000
00000000
00000000
00010000
00000000
00000000
01000000
00000000
00000000
00000000
00100000
00000000
00000000
,
10000000
00000000
00000000
01000000
00000000
00000000
00100000
00000000
00000000
00010000
00000000
00000000
00000000
01000000
00000000
00000000
,
00001000
00000000
00000000
00010000
00000000
00000000
00000100
00000000
00001000
00000000
00001000
00000000
00000001
00000000
00000000
00000000
,
00000100
00000000
00000000
00000010
00000000
00000000
00001000
00000000
00000000
00000100
00000000
00000000
00000000
00010000
00000000
00000000
,
00001000
00000000
00000000
01000000
00000000
00000000
00010000
00000000
00000000
00100000
00000000
00000000
00000000
01000000
00000000
00000000
,
10000000
00000000
00000000
00010000
00000000
00000000
01000000
00000000
00000000
00001000
00000000
00000000
00000000
00010000
00000000
00000000
,
00000100
00000000
00000000
00001000
00000000
00000000
00000001
00000000
00000100
00000000
00000000
00000000
00000110
00000000
00000000
00000000
,
00002000
00000000
00000000
00000000
,
00000000
00000000
00000000
00000000
,
00000000
00000000
00000000
00000000
,
00003001
00000000
00000001
00000000
00000010
00000100
00001000
00000000
,
00000010
00000000
00000000
00010000
00000000
00000000
00001000
00000000
00000000
00000000
00011000
00000000
00000000
00000000
00000000
00000000
,
00001000
00000000
00000000
00100000
00000000
00000000
00010000
00000000
00000000
00000000
00110000
00000000
00000000
00000000
00000000
00000000
,
10000000
00000000
00000000
00010000
00000000
00000000
01000000
00000000
00000000
00000000
01010000
00000000
00000000
00000000
00000000
00000000
,
00001000
00000000
00000000
00010000
00000000
00000000
00000100
00000000
00000000
00000000
00010100
00000000
00000000
00000000
00000000
00000000
,
00000010
00000000
00000000
00001000
00000000
00000000
00000001
00000000
00000000
00000000
00001001
00000000
00000000
00000000
00000000
00000000
,
00001000
00000000
00000000
00000100
00000000
00000000
00010000
00000000
00000000
00000000
00010100
00000000
00000000
00000000
00000000
00000000
,
01001000
00000000
00000000
00001000
00000000
00000000
00100000
00000000
00000000
00000000
00110000
00000000
00000000
00000000
00000000
00000000
,
11000000
00000000
00000000
10000000
00000000
00000000
00010000
00000000
01000000
00000000
01000000
00000000
00001000
00000000
00001000
00000000
,
00000000
00010000
00000100
00000000
00001000
00000001
00000000
00000101
,
00000000
00000100
00000000
00000010
00000000
00002020
00000000
00003030
,
00000000
00001000
00000100
00000000
00010000
00001000
00000000
01001000
,
00000000
01000000
00000000
00010000
00000000
00220000
00000000
00330000
,
00000000
00100000
01000000
00000000
10000000
01000000
00000000
01100000
,
00000000
00100000
00001000
00000000
00010000
00000010
00010000
00000000
,
00011000
00000000
00001000
00100000
00001000
00000000
00010000
00000010
,
00000000
00010000
00000000
00001000
00000000
02000000
00000000
03000000
,
00000000
00010000
10000000
00010000
00000000
01000000
00100000
01000000
,
00000000
00010000
10000000
00010000
00000000
00100000
01000000
00000000
,
00010000
00000000
00000000
00001000
00000000
00000000
00000100
00000000
00000000
00000010
00000000
00000000
00000000
00001000
00000000
00000000
,
00000001
00000000
00000000
00000010
00000000
00000000
00000100
00000000
00000000
00010000
00000000
00000000
00000000
00001000
00000000
00000000
,
01000000
00000000
00000000
00010000
00000000
00000000
10000000
00000000
00000000
01000000
00000000
00000000
00000000
00010000
00000000
00000000
,
00000000
00001000
00000000
00000000
00000010
00000000
00000100
00000000
00000000
00001000
00000000
00000000
00001001
00000000
00000000
00000000
,
00000110
00000000
00000001
00000000
00001000
00000010
00000000
00010010
,
00000000
00010000
00001000
00000000
00100000
00010000
00100000
00000000
,
01000000
00000000
10000000
00000000
00010000
01000000
00000000
01100000
,
00000000
00100000
00000000
20020000
00000000
00000000
30030000
00000000
,
10000000
00000000
01000000
00000000
00100000
00010000
00000000
01010000
,
00000000
01000000
00001000
00000000
00010000
00000010
00010000
00000000
,
00001000
00000000
00000010
00000000
00000100
00001000
00000000
00001001
,
00000000
00000100
00000000
00000220
00000000
00000000
00000330
00000000
,
00000001
00000000
00000010
00000000
00000100
00001000
00000000
00001010
,
00000000
00000010
00010000
00000000
00001000
00100000
00001000
00000000
,
00010000
00000000
00100000
00000000
01000000
00010000
00000000
00110000
,
00000000
01000000
00000000
22000000
00000000
00000000
33000000
00000000
,
10000000
00000000
00010000
00000000
01000000
00001000
00000000
00011000
,
00000000
00010000
00000100
00000000
00001000
00000001
00001000
00000000
,
00000010
00000000
00010000
00000000
00001000
00100000
00000000
00000000
,
00010000
01000000
00010000
00000000
01000000
00001000
01000000
00000000
,
00001000
00010000
00001000
00010000
00000000
00000100
00001000
00000000
,
00000100
00000010
00000100
00000010
00000000
00000001
00000010
00000001
,
00000000
00000100
00000001
00000100
00000000
00001000
00000100
00001000
,
00000000
00010000
00001000
00010000
00100000
10000000
01000000
00000000
,
10010000
00000000
00000000
00000000
;

//--------------- dance-double - forcednature ----------------
#NOTEDATA:;
#STEPSTYPE:dance-double;
#DESCRIPTION:forcednature;
#DIFFICULTY:Hard;
#METER:13;
#RADARVALUES:0,0,0,0,0;
#OFFSET:1.466;
#BPMS:0.000=151.000;
#CREDIT:forcednature;
#MUSIC:../Kasoukuukan no tabibitotachi (DP)/Kasoukuukan no tabibitotachi (DP).ogg;
#NOTES:
00000000
00000000
00000000
00000000
,
00000000
00000000
00000000
00000000
,
00000000
00000000
00000000
00000000
,
00000000
00000000
00000000
00000000
,
00000000
00000000
00000000
00011000
,
00001000
01000000
00010000
01000000
00100000
01000000
00100000
10000000
,
00010000
10000000
01000000
10000000
01000000
00100000
00010000
00100000
,
00001000
00010000
00000010
00010000
,
00001000
00000000
00000000
00000000
00000010
00000000
00000001
00000000
00000000
00000000
00000100
00000000
00000000
00000100
00000000
00000000
,
00000010
00001000
00000001
00001000
00000100
00000010
00000001
00000010
,
00000100
00010000
00001000
00010000
00100000
01000000
00100000
10000000
,
00010000
00100000
01000000
00100000
,
00001000
00000000
00010000
00000000
00000010
00000000
00001000
00001000
,
00000100
00010000
00001000
00010000
00000010
00001000
00000010
00000100
,
00001000
00010000
00001000
01000000
00010000
00100000
01000000
00100000
,
00001000
00010000
00100000
10000000
,
01000000
00000000
00000000
00000000
10000000
00000000
00100000
00000000
00000000
00000000
00010000
00000000
00000000
00010000
00000000
00000000
,
00001000
00010000
00000100
00010000
00001000
00000010
00000100
00000010
,
00000001
00001000
00000010
00001000
00000100
00010000
00001000
00010000
,
00100000
01000000
00100000
10000000
,
01000000
00000000
00100000
00000000
01000000
00010000
00001000
00010000
,
00000010
00000000
00001000
00000000
00000001
00000100
00001000
00000000
,
00010000
00000000
00100000
00000000
01000000
00010000
10000000
00000000
,
01000000
00000000
00010000
00000000
00001000
00100000
00010000
00000000
,
01000000
00000000
00001000
00000000
00010000
00000010
00001000
00000000
,
00000100
00000000
00000000
00000100
00010000
00000000
00001000
00000000
00000000
00001000
00100000
00000000
00010000
00000000
01000000
00000000
,
00001000
00000000
00000000
00001000
00010000
00000000
00000010
00000000
00000000
00000010
00001000
00000000
00000001
00000000
00000010
00000000
,
00000100
00000000
00000000
00000100
00010000
00000000
00001000
00000000
00000000
00001000
01000000
00000000
00010000
00000000
10000000
00000000
,
01000000
00000000
00000000
01000000
00100000
00000000
00010000
00000000
01000000
00000000
00001000
00000000
00010000
00000000
00000100
00000000
,
00001000
00000000
00000000
00001000
00000010
00000000
00010000
00000000
00000000
00010000
00001000
00000000
00100000
00000000
00010000
00000000
,
10000000
00000000
00000000
10000000
00100000
00000000
10000000
00000000
00000000
10000000
01000000
00000000
00100000
00000000
00010000
00000000
,
01000000
00000000
00000000
01000000
00001000
00000000
00010000
00000000
00000000
00010000
00000100
00000000
00001000
00000000
00000001
00000000
,
00000100
00000000
00000000
00000100
00000010
00000000
00001000
00000000
00000100
00000000
00000010
00000000
00001001
00000000
00000000
00000000
,
00020000
00000000
00000000
00000000
,
00000000
00000000
00000000
00000000
,
00000000
00000000
00000000
00000000
,
00031000
00001000
00001000
00000000
01000000
00010000
10000000
00000000
,
01000000
00000000
00000000
00010000
00000000
00000000
00002000
00000000
00000000
00000000
00003010
00000000
00000100
00000000
00000000
00000000
,
00001000
00000000
00000000
00000001
00000000
00000000
00000200
00000000
00000000
00000000
00000310
00000000
00010000
00000000
00000000
00000000
,
00001000
00000000
00000000
00100000
00000000
00000000
02000000
00000000
00000000
00000000
03010000
00000000
00001000
00000000
00000000
00000000
,
01000000
00000000
00000000
00010000
00000000
00000000
20000000
00000000
00000000
00000000
31000000
00000000
00010000
00000000
00001000
00000000
,
00010000
00000000
00000000
00000010
00000000
00000000
00002000
00000000
00000000
00000000
00003001
00000000
00000100
00000000
00000000
00000000
,
00001000
00000000
00000000
00010000
00000000
00000000
00200000
00000000
00000000
00000000
01300000
00000000
00010000
00000000
00000000
00000000
,
00100000
00000000
00000000
01000000
00000000
00000000
00010000
00000000
00000000
00000000
00022000
00000000
00000000
00033000
00000000
00000000
,
00001000
00000000
00000000
00000010
00000000
00000000
00000100
00000000
00001000
00000000
00001000
00000000
00000001
00000000
00000001
00000000
,
00000000
00000100
00001000
00010000
00001000
00100000
00010000
02000000
,
00000000
03010000
10000000
02000000
00000000
03100000
00001000
00010000
,
00000000
00000010
00001000
00000100
00010000
00001000
01000000
00020000
,
00000000
00130000
01000000
20000000
00000000
31000000
00010000
00001000
,
00000000
01000000
00010000
00100000
00001000
00010000
00000010
00002000
,
00000000
00003100
00000001
00000100
00001000
00000010
00001000
00000000
,
00000001
00000000
00000010
00000001
00000200
00000000
00001300
00020000
,
00000000
00130000
01000000
00010000
00100000
01000000
10000000
01000000
,
00000000
00100000
00001000
00010000
00000000
00000010
00010000
00001000
,
00000000
00000100
00001000
00010000
01000000
00010000
00001000
00000000
,
00100000
00000000
00000000
00100000
00010000
00000000
01000000
00000000
00000000
01000000
00010000
00000000
00100000
00000000
00001000
00000000
,
00010000
00000000
00000000
00010000
00000010
00000000
00001000
00000000
00000000
00001000
00000100
00000000
00000010
00000000
00000001
00000000
,
00000100
00000000
00000000
00000100
00000010
00000000
00001000
00000000
00000000
00001000
00000001
00000000
00000010
00000000
00000100
00000000
,
00000000
00010000
00001000
00100000
00000000
01000000
10010000
00000000
,
00010000
10000000
00010000
00000000
00100000
00000000
01000000
00000000
00100000
00000000
00001000
00000000
00010000
00000000
00001000
00000000
,
00000000
01000000
00100000
01000000
00001000
00010000
00000010
00001000
,
00001010
00000000
00001100
00000000
00000100
00000010
00000000
00000011
,
00000000
00000101
00000000
00001100
00000000
00001000
00010000
00001000
,
00010000
00000010
00010000
00000000
00001000
00000000
00100000
00000000
00010000
00000000
01000000
00000000
00100000
00000000
10000000
00000000
,
00000000
01000000
00010000
01000000
00100000
00001000
00010000
00000010
,
00001010
00000000
00001100
00000000
00000100
00010000
00000000
00011000
,
00000000
00000000
01001000
00000000
00000000
00000000
00110000
00000000
00000000
00000000
10000000
00000000
00100000
10000000
00100000
00000000
,
01000000
00010000
01000000
00000000
00001000
00000000
00010000
00000000
00000100
00000000
00001000
00000000
00000010
00000000
00010000
00000000
,
00000000
00001000
00000010
00000001
00000100
00000001
00000010
00001000
,
00011000
00000000
01001000
00000000
01000000
00010000
00000000
00110000
,
00000000
01100000
00000000
10010000
00000000
10000000
00100000
00010000
,
00001000
00010000
00001000
00000000
00010000
00000000
00000100
00000000
00000010
00000000
00000100
00000000
00001000
00000000
00000010
00000000
,
00000000
00000100
00000001
00000010
00001000
00010000
00100000
10000000
,
11000000
00000000
01100000
00000000
00100000
00001000
01000000
00000000
,
00100000
00010000
00001000
00010000
00000100
00010000
00001000
00010000
,
01000000
00100000
00010000
00001000
00000100
00000010
00000001
00000000
,
00000100
00001000
00010000
00001000
01000000
00001000
00010000
00001000
,
00100000
01000000
00100000
00001000
00010000
00000010
00000100
00000010
,
00001000
00000000
00000100
00000000
00000001
00000000
00000100
00000000
00000010
00000000
00000001
00001000
00000001
00000000
00000000
00000000
,
00000110
00000000
00000000
00000000
;

//--------------- dance-double - forcednature ----------------
#NOTEDATA:;
#STEPSTYPE:dance-double;
#DESCRIPTION:forcednature;
#DIFFICULTY:Challenge;
#METER:16;
#RADARVALUES:0,0,0,0,0;
#OFFSET:1.478;
#BPMS:0.000=151.000;
#CREDIT:forcednature;
#NOTES:
00000000
00000000
00000000
00000000
,
00000000
00000000
00000000
00000000
,
00000000
00000000
00000000
00011000
,
00010000
01000000
10000000
00100000
00010000
00100000
10000000
01000000
,
00010000
00001000
00000100
00000001
00000010
00001000
00000010
00000001
,
00000100
00001000
00010000
01000000
10000000
00100000
00010000
00100000
,
10000000
00000000
01000000
00000000
00010000
00000000
00001000
00000000
00000100
00000000
00000001
00000000
00000010
00000100
00000010
00000100
,
00000010
00000000
00000000
00000011
00000000
00000000
00000101
00000000
00000000
00000100
00001000
00000000
00010000
00000000
00010000
00000000
,
00100000
00000000
00000000
10100000
00000000
00000000
11000000
00000000
00000000
01000000
00010000
01000000
00010000
00000000
00001000
00000000
,
00000010
00000000
00000000
00000011
00000000
00000000
00000101
00000000
00000000
00000100
00001000
00000000
00010000
00000000
00010000
00000000
,
00100000
00000000
00000000
10100000
00000000
00000000
11000000
00000000
00000000
01000000
00010000
01000000
00010000
00000000
00001000
00000000
,
00000100
00000000
00000000
00000101
00000000
00000000
00000011
00000000
00000000
00000010
00001000
00000000
00010000
00000000
00010000
00000000
,
01000000
00000000
00000000
11000000
00000000
00000000
10100000
00000000
00000000
00100000
00010000
00100000
00010000
00000000
00001000
00000000
,
00000100
00000000
00000000
00000101
00000000
00000000
00000011
00000000
00000000
00000010
00001000
00000000
00010000
00000000
00010000
00000000
,
01000000
00000000
00000000
11000000
00000000
00000000
10100000
00000000
00000000
00100000
00010000
00100000
00010000
00000000
00001000
00000000
,
00010000
00000000
00000100
00000010
00000100
00000000
00000000
00000000
00010000
00000000
00000010
00000100
00000010
00000000
00010000
00000000
,
00001000
00000000
01000000
00100000
01000000
00000000
00000000
00000000
00001000
00000000
00100000
01000000
00100000
00000000
00001000
00000000
,
00010000
00000000
00000010
00000100
00000010
00000000
00000000
00000000
00010000
00000000
00000100
00000010
00000100
00000010
00000100
00000010
,
00000001
00000100
00001000
00010000
01000000
01100000
00000000
00101000
,
00000000
00001000
00010000
00100000
10000000
11000000
00000000
01000000
,
00010000
00001000
00000010
00000100
00010000
00010010
00000000
00000110
,
00000000
00000100
00001000
00010000
01000000
01100000
00000000
00100000
,
00001000
00000010
00000100
00010000
00000010
00000110
00000000
00000101
,
00000000
00000001
00000010
00000100
00000001
00000100
00010000
00001000
,
00200000
01000000
00010000
00301000
,
00100000
01000000
10000000
00100000
10000000
01000000
00010000
00001000
,
00000000
00010000
00000100
00010000
00000100
00001000
00000100
00000000
00010000
00001000
00010000
00000000
00001000
01000000
00010000
01000000
,
00000000
00001000
00010000
00001000
00100000
00010000
00100000
00000000
00001000
00010000
00000010
00001000
00000010
00010000
00001000
00010000
,
00000000
00000000
00000100
00000000
00000110
00000000
00000010
00000000
00000001
00000000
00000100
00000001
00000000
00000010
00000100
00000000
,
00010000
00000000
00001000
00000000
00011000
00000000
00000000
00000000
00010000
00000000
00001000
01000000
00000000
00010000
01000000
00000000
,
00100000
00000000
10000000
00000000
11000000
00000000
00000000
00000000
01000000
00000000
00010000
00001000
00000000
00100000
00001000
00000000
,
00010000
00001000
00010000
00000010
00001000
00000010
00010000
00000000
00001000
00100000
00010000
00100000
01000000
00100000
00010000
00100000
,
00002000
00000000
00000000
00000000
,
00000000
00000000
00000000
00000000
,
00003020
00000000
00000000
00000000
,
00000000
00000000
00000000
00000000
,
00000032
00000000
00000000
00000000
,
00000203
00000000
00000000
00000000
,
00020300
00000000
00000000
00000000
,
01030000
00000000
00100000
10000000
00100000
10000000
00010000
00000000
00100000
01000000
00100000
01000000
10000000
01000000
00100000
00010000
,
01000000
00000000
00010000
01000000
00000000
00001000
00010000
00000000
00000010
00001000
00000010
00001000
00000001
00000000
00000010
00000100
,
00000010
00000000
00000001
00000010
00000000
00000100
00000010
00000000
00000100
00010000
00000100
00010000
00001000
00000000
01000000
00010000
,
01000000
00000000
00010000
10000000
00000000
00100000
10000000
00000000
01000000
10000000
01000000
10000000
00010000
00000000
00010000
00000000
,
00100000
00000000
00001000
00010000
00000000
00000010
00001000
00000000
00000001
00000010
00000001
00000010
00000100
00001000
00000100
00000000
,
00010000
00000000
00001000
01000000
00000000
00010000
01000000
00000000
00100000
10000000
00100000
10000000
00010000
01000000
00010000
00000000
,
00100000
00000000
00001000
00010000
00000000
00000010
00001000
00000000
00000001
00000010
00000001
00000010
00000100
00001000
00000100
00000000
,
00010100
00000000
00000000
00011000
00000000
00000000
00101000
00000000
00000000
00000000
10010000
00000000
00000000
00000000
00000000
00000000
,
01001000
00000000
00000000
00011000
00000000
00000000
00010010
00000000
00000000
00000010
00001000
00000010
00000100
00000001
00000100
00000010
,
00001000
00000000
00000100
00010000
00000100
00000000
00010000
00001000
00010000
00000000
00001000
00100000
00010000
00000000
01000000
00010000
,
10000000
00000000
00100000
10000000
00010000
00000000
01000000
00001000
00010000
00000000
00000010
00001000
00000010
00000000
00000100
00000001
,
00001000
00000000
00000100
00000000
00000101
00000000
00000000
00000001
00000100
00000000
00001000
00000000
00000010
00000000
00001000
00000100
,
00010000
00000000
00001000
01000000
00010000
00000000
00100000
01000000
10000000
00000000
01000000
00100000
00010000
00100000
00001000
00100000
,
00010000
00000000
01000000
00000000
01100000
00000000
00000000
00100000
10000000
00000000
01000000
00000000
00100000
00000000
00001000
00010000
,
00000100
00000000
00001000
00000001
00000100
00000000
00001000
00000000
00010000
00000000
00100000
00000000
01100000
00000000
00000000
01000000
,
00010000
00000000
00100000
00000000
01000000
00000000
00010000
00001000
00010000
00000000
00000100
00000000
00001000
00000001
00000010
00000000
,
00000001
00000000
00000100
00000010
00001000
00000000
00000010
00010000
00001000
00100000
00010000
00100000
00001000
00010000
00001000
01000000
,
00000000
00000000
00010000
10000000
00010000
00000000
00100000
00000000
01000000
00000000
00010000
00001000
00010000
00000000
00000010
00000000
,
00001000
00000100
00000010
00000100
00001000
00000000
00000001
00000100
00000010
00000100
00000001
00001000
00000020
00000000
00000000
00000000
,
00000130
00000001
00000100
00000001
00000100
00000010
00000100
00000010
00001000
00000010
00001000
00000010
00010000
00001000
00010000
00001000
,
00100000
00000000
01000000
10000000
01000000
00000000
00010000
00000000
00001000
00000000
00100000
00010000
00100000
00000000
01000000
00000000
,
01100000
00100000
00101000
00001000
00011000
00010010
00000010
00000110
,
00000000
00000000
00011000
00000000
00000000
00000000
01100000
00000000
00000000
00000000
00010000
10000000
00010000
10000000
00010000
00000000
,
01000000
00001000
01000000
00001000
00010000
00001000
00010000
00001000
00010000
00000010
00010000
00000010
00001000
00000010
00001000
00000010
,
00000100
00000000
00000001
00000010
00000100
00000000
00010000
00000000
00001000
00000000
00100000
01000000
10000000
00000000
00100000
00000000
,
01100000
01000000
01001000
00001000
00101000
00110000
00010000
10010000
,
00000000
00000000
00011000
00000000
00000000
00000000
00001002
00000000
00000000
00000000
00000013
00000100
00000010
00000100
00000010
00000000
,
00000001
00000100
00000001
00000100
00000010
00000100
00000010
00000100
00000010
00010000
00000010
00010000
00001000
00010000
00001000
00010000
,
00001000
00000000
00100000
01000000
00100000
00000000
00001000
00000000
00010000
00000000
00100000
01000000
00100000
00000000
10000000
00000000
,
11000000
00000000
01000000
00000000
00110000
00000000
00100000
00000000
00011000
00000000
00010010
00000000
00000010
00000000
00000100
00000001
,
00001000
00000000
00000100
00001000
00000001
00000000
00000100
00001000
00010000
00000000
00001000
00010000
00001000
00010000
00001000
00000000
,
00100000
00010000
00100000
00010000
00100000
01000000
00100000
01000000
00010000
01000000
00010000
01000000
00010000
00001000
00010000
00001000
,
00100000
00000000
00001000
00010000
00000010
00000000
00001000
00000000
00000100
00000000
00010000
00001000
01000000
00000000
00010000
00000000
,
00110000
00100000
01100000
01000000
01010000
00011000
00010000
00000000
,
00001000
00010000
00000010
00001000
00000010
00010000
00001000
00000000
00100000
00010000
00100000
00001000
00010000
00001000
01000000
00000000
,
00001000
00010000
00000100
00001000
00000100
00010000
00001000
00000000
00100000
00000000
00001000
00010000
00001000
00000000
01000000
00010000
,
01000000
00000000
00100000
10000000
00010000
10000000
00100000
10000000
00010000
00000000
01000000
00001000
00010000
00001000
01000000
00001000
,
00010000
00000000
00000100
00001000
00000100
00010000
00001000
00010000
00000100
00000000
00001000
00000010
00001000
00000001
00000100
00000001
,
00000010
00000000
00000100
00001000
00000100
00010000
00001000
00100000
00010000
00100000
01000000
10000000
00100000
00000000
00000000
00000000
,
10010000
00000000
00000000
00000000
;
