#VERSION:0.83;
#TITLE:鴉;
#SUBTITLE:;
#ARTIST:L.E.D.-G;
#TITLETRANSLIT:Karasu;
#SUBTITLETRANSLIT:;
#ARTISTTRANSLIT:;
#GENRE:CROSSBREED;
#CREDIT:;
#MUSIC:Karasu.ogg;
#BANNER:Karasu.png;
#BACKGROUND:Karasu-bg.png;
#CDTITLE:./CDTitles/bm IIDX 24 SINOBUZ.png;
#SAMPLESTART:20.743;
#SAMPLELENGTH:15.000;
#SELECTABLE:YES;
#OFFSET:0.250;
#BPMS:0.000=190.000;
#STOPS:;
#TIMESIGNATURES:0.000=4=4;
#BGCHANGES:0.000=Karasu.mp4=1.000=0=0=0=StretchNoLoop====,
99999.000=-nosongbg-=1.000=0=0=0=StretchNoLoop====
;
#FGCHANGES:;

//--------------- dance-single - forcednature ----------------
#NOTEDATA:;
#STEPSTYPE:dance-single;
#DESCRIPTION:forcednature;
#CREDIT:forcednature;
#DIFFICULTY:Beginner;
#METER:5;
#RADARVALUES:0,0,0,0,0;
#NOTES:
0000
0000
0000
0000
,
0000
0000
0000
0000
,
0000
0000
0000
0000
,
0000
0000
0000
0000
,
0000
0000
0000
0000
,
0001
0000
0000
0000
,
0001
0000
0100
0000
,
0010
0000
0000
0000
,
0010
0000
1000
0000
,
0001
0000
0001
0000
,
0001
0000
0000
0000
,
0010
0000
0010
0000
,
0010
0000
0000
0000
,
0100
0000
0100
0000
,
1000
0000
1000
0000
,
0010
0000
0100
0000
,
0110
0000
0000
0000
,
1001
0000
0100
0000
,
1001
0000
0010
0000
,
0001
0000
0001
0000
,
1000
0000
0000
0000
,
1001
0000
0100
0000
,
1001
0000
0010
0000
,
1000
0000
1000
0000
,
0100
0000
0000
0000
,
0110
0000
1000
0000
,
0110
0000
0001
0000
,
0100
0000
0100
0000
,
0010
0000
0000
0000
,
0110
0000
0001
0000
,
0110
0000
1000
0000
,
0010
0000
0100
0000
,
1001
0000
0000
0000
,
1000
0000
1000
0000
,
0100
0000
0000
0000
,
0010
0000
0001
0000
,
1000
0000
0000
0000
,
0001
0000
0001
0000
,
0100
0000
0000
0000
,
0010
0000
1000
0000
,
0001
0000
0001
0000
,
0110
0000
1000
0000
,
0010
0000
0000
0000
,
1000
0000
0100
0000
,
0010
0000
0001
0000
,
0100
0000
0100
0000
,
0010
0000
0000
0000
,
1000
0000
1000
0000
,
0001
0000
0010
0000
,
0110
0000
1001
0000
,
0100
0000
0010
0000
,
0110
0000
1001
0000
,
0010
0010
0010
0000
,
1001
0000
0110
0000
,
1000
0000
0001
0000
,
1001
0000
0110
0000
,
0001
1000
0001
0000
,
2002
0000
0000
0000
,
0000
0000
0000
0000
,
0000
0000
0000
0000
,
0000
0000
0000
0000
,
0000
0000
0000
0000
,
0000
0000
0000
0000
,
0000
0000
0000
0000
,
0000
0000
3003
0000
,
1000
0000
0000
1000
0000
0000
1000
0000
,
0000
0000
0000
0000
,
0100
0000
0000
0100
0000
0000
0100
0000
,
0000
0000
0000
0000
,
0010
0000
0000
0010
0000
0000
0010
0000
,
0000
0000
0000
0000
,
0001
0000
0000
0001
0000
0000
0001
0000
,
0200
0000
0000
0300
,
0010
1000
0010
0000
,
1000
0000
0100
0000
,
0010
0001
0010
0000
,
0001
0000
0100
0000
,
0001
1000
0001
0000
,
0010
0000
0100
0000
,
1000
0000
0000
0001
0000
0000
1000
0000
,
0010
0010
0100
0001
,
0000
1000
0000
0001
,
0000
1000
0100
0000
,
0010
0100
0010
0000
,
0001
0000
1000
0000
,
2002
0000
0000
0000
,
0000
0000
3003
0000
,
0001
0000
0000
1000
0000
0000
0001
0000
,
0100
0100
0010
0000
,
2002
0000
0000
0000
,
0000
0000
0000
0000
,
3003
0000
0000
0000
;

//--------------- dance-single - forcednature ----------------
#NOTEDATA:;
#STEPSTYPE:dance-single;
#DESCRIPTION:forcednature;
#CREDIT:forcednature;
#DIFFICULTY:Easy;
#METER:9;
#RADARVALUES:0,0,0,0,0;
#NOTES:
0000
0000
0000
0000
,
0000
0000
0000
0000
,
0000
0000
0000
0000
,
0000
0000
0000
0000
,
0000
0000
0000
0000
,
0001
0100
0001
0010
,
0000
0001
0001
0000
,
1000
0100
1000
0010
,
0000
1000
1000
0000
,
0010
0100
0001
0100
,
0010
1000
0001
0000
,
0010
0100
1000
0100
,
0010
0001
1000
0000
,
0010
0100
0010
0100
,
0001
1000
0100
0010
,
0001
1000
0001
0000
1000
0001
1000
0000
,
0020
0000
0000
0130
,
1001
0000
0000
0110
0000
0000
1000
0000
,
1001
0000
0000
0110
0000
0000
0001
0000
,
1000
0100
1000
0010
,
1000
0100
0010
0000
,
1001
0000
0000
0110
0000
0000
0001
0000
,
1001
0000
0000
0110
0000
0000
1000
0000
,
0001
0100
0001
0010
,
0001
0000
0100
0000
0010
1000
0010
0000
,
1001
0000
0000
0110
0000
0000
1000
0000
,
1001
0000
0000
0110
0000
0000
0001
0000
,
0010
0100
1000
0100
,
0010
0000
0001
0000
1000
0100
1000
0000
,
0010
0000
0000
1001
0000
0000
0100
0000
,
0010
0000
0000
0110
0000
0000
1000
0000
,
0001
0000
0001
0100
0001
0000
0010
0000
,
2002
0000
3003
0000
,
1000
0100
0010
0100
,
1000
0000
0010
0000
1000
0001
1000
0000
,
0001
0100
0010
0100
,
0001
0000
0010
0000
0001
1000
0001
0000
,
0010
0100
1000
0010
,
0100
0000
0001
0000
0010
0100
0010
0000
,
0001
0100
0010
1000
,
0100
0000
0000
0110
0000
0000
2002
0000
,
3003
0110
0001
1000
,
0010
0000
1000
0000
0001
0100
0001
0000
,
1000
0100
0010
0100
,
1000
0000
0001
0000
0010
0100
0010
0000
,
0001
1000
0010
1000
,
0001
0000
0100
0000
0010
1000
0010
0000
,
0110
0100
0001
0001
,
1001
0000
0000
0110
0000
0000
1000
0000
,
0001
0000
0001
0100
0000
0100
0001
0000
,
1000
0000
1000
0010
0000
0010
1000
0000
,
0001
0000
0001
0010
0000
0010
0001
0000
,
1000
0100
1000
0000
0100
0000
0010
0000
,
0001
0000
0001
0100
0000
0100
0001
0000
,
1000
0000
1000
0100
0000
0100
1000
0000
,
0010
0100
0010
0000
0100
0010
0100
0000
,
0110
0000
1001
0000
1000
0001
1000
0000
,
2002
0000
0000
0000
,
0000
0000
0000
0000
,
0000
0000
0000
0000
,
0000
0000
0000
0000
,
0000
0000
0000
0000
,
0000
0000
0000
0000
,
0000
0000
0000
0000
,
0000
0000
0000
3003
,
0110
0000
0000
0110
0000
0000
0110
0000
,
0000
0000
0000
0000
,
1001
0000
0000
1001
0000
0000
1001
0000
,
0000
0000
0000
0000
,
1100
0000
0000
1100
0000
0000
1100
0000
,
0000
0000
0000
0000
,
0101
0000
0000
0101
0000
0000
0101
0000
,
2002
0000
0000
3003
,
0001
0010
0100
0010
,
0001
0000
1000
0000
0100
0010
0100
0000
,
1000
0010
0100
0010
,
1000
0000
0001
0000
0100
0010
0100
0000
,
0001
1000
0100
1000
,
0001
0000
0010
0000
0100
0010
0100
0000
,
0010
0000
0000
0110
0000
0000
1001
0000
,
1000
0000
0001
0000
1000
0010
1000
0000
,
0001
0100
0010
0100
,
0001
0010
0001
0000
1000
0100
1000
0000
,
0010
0100
0001
0010
,
0100
1000
0100
0000
1000
0010
1000
0000
,
2002
0000
0000
0000
,
0000
0000
0000
0000
3003
0000
0001
1000
,
0001
0000
0000
0110
0000
0000
1001
0000
,
1000
0000
0010
0000
1000
0001
0100
0000
,
2002
0000
0000
0000
,
0000
0000
0000
0000
,
3003
0000
0000
0000
;

//--------------- dance-single - forcednature ----------------
#NOTEDATA:;
#STEPSTYPE:dance-single;
#DESCRIPTION:forcednature;
#CREDIT:forcednature;
#DIFFICULTY:Medium;
#METER:13;
#RADARVALUES:0,0,0,0,0;
#NOTES:
0000
0000
0000
0000
,
0000
0000
0000
0000
,
0000
0000
0000
0000
,
0000
0000
0000
0000
,
0000
0000
0000
0000
,
0001
0000
0100
0001
0000
0100
0010
0000
,
1000
0000
0100
0010
0000
0110
0000
0000
,
0100
0000
1000
0010
0000
1000
0001
0000
,
0010
0000
0001
0100
0000
0110
0000
0000
,
0010
0000
0010
1000
0100
0000
0100
1000
,
0001
0000
0001
0100
1000
0000
0110
0000
,
0001
0000
0001
0010
0100
0000
0100
1000
,
0010
0000
0010
1000
0001
0000
0110
0000
,
1000
0001
0100
0001
1000
0010
1000
0000
,
0001
1000
0100
1000
0001
0010
0001
0000
,
0100
0010
1000
0100
0010
0001
0100
0000
,
0220
0000
0000
0000
0330
0010
1001
0000
,
1100
0000
0001
0011
0000
1000
1100
0000
,
0101
0000
1000
1010
0000
0001
0101
0000
,
1000
0100
0010
0100
1000
0100
0001
0100
,
1000
0001
0010
0001
0100
0010
0110
0000
,
0101
0000
1000
1010
0000
0001
0101
0000
,
1100
0000
0001
0011
0000
1000
1100
0000
,
0001
0100
0010
0100
0001
0100
1000
0100
,
0001
1000
0010
1000
0001
0100
0110
0000
,
1001
0000
1000
1100
0000
0001
0011
0000
,
0100
0100
0001
0010
0010
0100
1000
0010
,
0110
0000
0100
0001
0010
0001
1000
1000
,
1000
0100
1000
0010
0100
0001
1001
0000
,
1100
0000
0001
0011
0000
0100
1001
0000
,
0101
0000
1000
1010
0000
0100
1001
0000
,
0001
0001
0010
0100
0100
1000
0010
0100
,
2002
0000
3003
0000
,
1000
0100
0001
0100
1000
0001
0010
0000
,
0100
1000
0010
0000
0100
0001
0010
0000
,
0001
0100
1000
0100
0001
1000
0010
0000
,
0100
0001
0010
0000
0100
1000
0010
0000
,
1000
0100
0001
0100
1000
0010
0100
0000
,
0001
0010
0100
0000
1000
0010
0100
0000
,
0001
0100
1000
0100
0001
0010
0100
0000
,
0110
0000
1000
1010
0000
0001
0021
0000
,
0000
0000
1030
0010
0001
1000
0100
1000
,
0001
0010
0001
1000
0010
1000
0001
0000
,
0100
1000
0100
0001
1000
0010
1000
0001
,
0010
0001
0100
0010
1000
0100
0010
0000
,
0100
1000
0010
0100
0001
0010
0100
0001
,
0100
0010
0001
1000
0010
0100
0001
0000
,
0010
0010
0100
1000
0010
0010
0100
0001
,
0010
0000
0100
0110
0000
0010
1001
0000
,
1000
0100
0001
1000
0010
0001
1000
0000
,
0001
0100
1000
0001
0010
1000
0001
0001
,
1000
0010
0001
1000
0100
0001
1000
0000
,
0001
0010
0200
0000
0310
0100
1001
0000
,
1000
0010
0001
1000
0100
0001
1000
1000
,
0001
0010
1000
0001
0100
1000
0001
0001
,
0100
0010
0001
1000
0100
0010
1000
0000
,
1001
0000
1001
0000
0010
0100
0110
0000
,
2002
0000
0000
0000
,
0000
0000
0000
0000
,
0000
0000
0000
0000
,
0000
0000
0000
0000
,
0000
0000
0000
0000
,
0000
0000
0000
0000
,
0000
0000
0000
0000
,
0000
0000
0000
3003
,
0110
0000
0000
1001
0000
0000
0110
0000
,
1000
1000
0100
0001
0001
0100
1000
0000
,
0110
0000
0000
1001
0000
0000
0110
0000
,
0001
0001
0100
1000
0100
0001
1000
0000
,
1001
0000
0000
0110
0000
0000
1001
0000
,
1000
0010
0001
0010
1000
1000
0001
0000
,
0110
0000
0000
1001
0000
0000
0110
0000
,
2002
0000
0000
3003
,
1000
0100
0010
0100
1000
0100
0001
0100
,
1000
0001
0010
0001
1000
0100
1000
0000
,
0001
0100
0010
0100
0001
0100
1000
0100
,
0001
1000
0010
1000
0001
0001
0100
0100
,
0001
0010
0100
0010
0001
0010
1000
0010
,
0001
1000
0100
1000
0001
0010
0100
0000
,
1001
0000
0010
0110
0000
0100
1001
0000
,
0001
0100
1000
0100
0001
1000
0020
0000
,
0000
0000
0031
0010
1000
0001
1000
0010
,
0001
0010
1000
0001
0100
0001
0010
0000
,
0100
1000
0001
0010
1000
0010
0001
1000
,
0100
1000
0010
0100
0001
0001
0001
0000
,
0021
0000
0100
0000
0000
0100
0000
0000
,
0000
0000
0001
0000
0000
0031
1000
1000
,
1010
0000
0001
0101
0000
1000
1100
0000
,
0001
0001
0010
0010
0001
0100
1000
0000
,
0220
0000
0000
0000
,
0000
0000
0000
0000
,
0330
0000
0000
0000
;

//--------------- dance-single - forcednature ----------------
#NOTEDATA:;
#STEPSTYPE:dance-single;
#DESCRIPTION:forcednature;
#CREDIT:forcednature;
#DIFFICULTY:Hard;
#METER:17;
#RADARVALUES:0,0,0,0,0;
#NOTES:
0000
0000
0000
0000
,
0000
0000
0000
0000
,
0000
0000
0000
0000
,
0000
0000
0000
0000
,
0000
0000
0000
0000
,
1000
1000
0100
1000
1000
0010
0000
0100
,
0001
0010
0100
1000
0010
0110
0000
1000
,
0001
0001
0100
0001
0001
0010
0000
0100
,
1000
0010
0100
0001
0010
0110
0000
0001
,
1000
0100
1000
0010
1000
0100
0001
0100
,
1000
0010
1000
0001
0010
0110
0000
1000
,
0001
0100
0001
0010
0001
0100
1000
0100
,
0001
0010
0001
1000
0010
0110
0000
0001
,
1000
0100
0010
0100
1000
0001
0010
0001
,
1000
0010
0001
0010
1000
0001
0100
0001
,
1000
0000
1000
0000
0100
0000
0100
0000
0010
0001
0010
0001
1000
0100
0010
0001
,
1000
0000
0000
0000
0000
0000
0000
0000
0000
0000
0100
1000
0010
0000
0000
0000
,
0110
0001
0010
0110
1000
0010
1001
0000
,
0110
1000
0010
0110
0001
0010
1001
0000
,
1000
0100
0001
0100
1000
0100
0010
0100
,
0001
0100
1000
0001
0011
0011
1000
0000
,
0110
1000
0010
0110
0001
0010
1001
0100
,
0110
0001
0100
0110
1000
0100
1001
0010
,
0110
0000
0001
0100
1000
0100
0010
0100
,
0001
0000
1000
0000
0010
0000
1000
0000
0001
0000
0001
0010
0100
0000
0010
0000
,
0110
1000
0001
0110
0001
1000
1001
0100
,
0101
0101
0010
1100
1100
0010
1000
0001
,
1001
0000
1000
0010
0001
0010
0100
0010
,
1000
0010
0001
0010
1000
0001
0100
0001
,
1010
0100
0001
0011
0100
1000
1001
0000
,
0101
0010
1000
1100
0010
0001
1001
0000
,
1100
0000
1100
0000
0001
0000
0011
0000
0011
0000
1000
0000
0010
0100
0001
1000
,
0020
0000
0000
0000
0130
0100
0000
0010
,
1000
0000
0100
1000
0100
0000
0010
0000
0100
0010
0001
0000
1000
0000
0010
1000
,
0010
0100
0001
0010
0001
0100
0010
1000
,
0001
0000
0010
0001
0010
0000
0100
0000
0010
0001
1000
0000
0010
0000
0100
0001
,
0100
0010
1000
0100
0010
0010
0001
0010
,
0011
0000
1000
0100
1000
0000
0001
0000
1000
0010
0100
0000
0001
0000
0010
0100
,
0010
0001
1000
0010
1000
0100
0010
0010
,
0001
0000
0100
0001
0100
0000
0010
0000
1000
0001
0010
0000
0100
0000
1000
0001
,
1000
0010
0110
0001
0000
0110
2000
0000
,
0000
0000
0000
0000
3001
0010
0100
0000
0010
0000
0001
0100
0010
0000
0100
0000
,
0001
0010
0100
0000
1000
0000
0010
0000
0100
0000
0001
0000
0010
0000
0001
0000
,
0100
0000
0010
1000
0100
0000
0010
0000
0100
1000
0010
0000
1000
0000
0100
0010
,
0001
1000
0010
1000
0001
0010
0001
0001
,
1100
0000
1000
0010
0100
0000
0001
0000
0010
0001
0100
0000
0010
0000
1000
0001
,
0010
0100
1000
0010
0100
0001
0010
0001
,
0100
0000
0010
1000
0001
0000
0010
0001
1000
0000
0010
1000
0100
0000
0010
0001
,
0100
0000
0010
0101
0000
0010
1100
0000
,
0110
0000
0010
0001
0100
0000
0110
0000
0010
1000
0100
0000
0110
0000
0000
0000
,
1001
0000
0001
0100
0010
0000
1001
0000
1000
0100
0010
0000
0110
0000
0100
0000
,
1001
0000
0010
0001
0100
0000
1001
0000
0010
1000
0100
0000
0110
0000
0000
0000
,
0011
0000
0011
0000
0010
0100
1000
0100
0010
0000
0001
1000
0010
0000
0100
0000
,
0110
0000
0010
1000
0100
0000
0110
0000
0010
0001
0100
0000
0110
0000
0000
0000
,
1001
0000
1000
0100
0010
0000
1001
0000
0001
0100
0010
0000
1001
0000
0000
0000
,
1010
0000
1010
0000
0110
0000
0110
0000
0010
0100
0001
0100
0010
0100
0001
0100
,
0010
0000
1000
0001
0010
0000
0100
0000
0010
0000
0010
0000
0100
1000
0100
1000
,
0002
0000
0000
0000
,
0000
0000
0000
0000
,
0023
0000
0000
0000
,
0000
0000
0000
0000
,
0230
0000
0000
0000
,
0000
0000
0000
0000
,
2300
0000
0000
0000
,
0000
0000
0000
3000
,
1100
0000
0001
0011
0000
1000
1100
0000
,
0001
0010
1000
0010
0001
1000
0100
0000
,
1010
0000
0001
0101
0000
1000
1010
0000
,
0001
0100
1000
0100
0001
0001
1000
0010
,
0110
0000
1000
1100
0000
0001
0011
0000
,
1000
0000
0100
0000
0001
0000
0100
0000
1000
0000
1000
0000
0001
0010
0000
0001
,
0010
0000
0100
0110
0000
0010
1001
0100
,
0220
0000
0000
0330
,
1000
0000
0100
0010
0001
0000
1000
0000
0010
0100
0001
0000
1000
0000
0100
0010
,
0001
0100
1000
0100
0001
1000
0010
1000
,
0001
0000
0010
0100
1000
0000
0001
0000
0100
0010
1000
0000
0001
0000
0001
0010
,
1000
0000
0010
0000
0001
0000
1000
0000
1100
0000
1100
0000
0001
0010
0100
1000
,
0001
0000
1000
0010
0100
0000
0001
0000
1000
0100
0010
0000
0001
0000
1000
0010
,
0100
0001
1000
0010
0001
0010
1000
0001
,
0101
0000
1000
1100
0000
0010
1001
0000
,
1010
0000
0010
0000
0110
0000
0010
0000
1000
0001
0100
0001
1000
0010
0100
0001
,
0000
0000
1000
0100
0001
0000
0100
0000
1000
0001
0010
0000
0001
0000
1000
0010
,
0100
0000
0001
0000
0010
0100
0010
0000
0100
1000
0100
0000
0010
0001
0010
0001
,
0010
0000
0100
1000
0001
0000
0100
0000
0010
1000
0001
1000
0010
0000
0100
0000
,
0001
0000
0010
0001
0010
0000
0100
0010
0100
0000
0100
0000
1000
0001
0100
0001
,
0020
0000
0100
0100
0000
0001
0001
0000
,
0100
0000
1030
0000
0010
0001
0011
0011
,
1100
0000
0010
1001
0000
0100
0110
0000
,
0001
0000
0101
0000
1000
0000
1100
0000
0001
0000
0100
0010
1000
0100
1000
0100
,
0020
0000
0000
0000
,
0000
0000
0000
0000
,
0030
0000
0000
0000
;

//--------------- dance-double - forcednature ----------------
#NOTEDATA:;
#STEPSTYPE:dance-double;
#DESCRIPTION:forcednature;
#CREDIT:forcednature;
#DIFFICULTY:Easy;
#METER:9;
#RADARVALUES:0,0,0,0,0;
#NOTES:
00000000
00000000
00000000
00000000
,
00000000
00000000
00000000
00000000
,
00000000
00000000
00000000
00000000
,
00000000
00000000
00000000
00000000
,
00000000
00000000
00000000
00000000
,
00001000
00000000
00001000
00000000
,
01000000
00010000
00100000
00000000
,
01000000
00000000
01000000
00000000
,
10000000
01000000
00010000
00000000
,
00001000
00100000
00010000
00100000
,
00001000
00010000
00000100
00000000
,
00001000
00000010
00010000
00001000
,
00010000
00000100
00001000
00000000
,
00000010
00000100
00000001
00000010
,
00000100
00001000
00000010
00010000
,
00001000
00001000
00100000
00010000
,
02000000
00000000
00000000
03100000
,
01100000
00000000
00000000
01100000
00000000
00000000
10000000
00000000
,
10010000
00000000
00000000
10010000
00000000
00000000
00010000
00000000
,
00100000
00001000
00010000
00001000
,
01000000
00001000
00010000
00000000
,
00011000
00000000
00000000
00011000
00000000
00000000
00000100
00000000
,
00001100
00000000
00000000
00001100
00000000
00000000
00000001
00000000
,
00000010
00000100
00001000
00000100
,
00000010
00000001
00001000
00000000
,
00001001
00000000
00000000
00001001
00000000
00000000
00000100
00000000
,
00000110
00000000
00000000
00000110
00000000
00000000
00000001
00000000
,
00000010
00000100
00001000
00000100
,
00010000
00001000
00100000
00000000
,
00011000
00000000
00000000
00011000
00000000
00000000
01000000
00000000
,
01010000
00000000
00000000
01010000
00000000
00000000
10000000
00000000
,
00100000
00100000
01000000
00010000
,
00200000
00000000
00300000
00000000
,
01000000
10000000
01000000
10000000
,
00010000
00100000
00001000
00000000
,
00010000
00000010
00001000
00000010
,
00010000
00000100
00001000
00000000
,
00000001
00000100
00000010
00001000
,
00000100
00000010
00000001
00000000
,
00001000
00000010
00010000
00001000
,
01000000
01000000
00010000
01000000
,
00000000
00100000
10000000
00010000
,
00100000
00010000
10000000
00000000
,
01000000
00100000
00010000
01000000
,
00001000
00010000
00000010
00000000
,
00001000
00000100
00000010
00000100
,
00001000
00000001
00000010
00000000
,
00000001
00001000
00000010
00001000
,
00000100
00000000
00000000
00000100
00000000
00000000
00010000
00000000
,
00011000
00000000
00000000
00011000
00000000
00000000
00100000
00000000
,
00011000
00000000
00000000
00011000
00000000
00000000
00000010
00000000
,
00011000
00000000
00000000
00011000
00000000
00000000
01000000
00000000
,
00001000
00001000
00010000
00010000
,
00011000
00000000
00000000
00011000
00000000
00000000
00000100
00000000
,
00011000
00000000
00000000
00011000
00000000
00000000
00100000
00000000
,
00001000
00010000
00100000
00010000
,
00001000
00001000
01000000
00010000
,
20000000
00000000
00000000
00000000
,
00000000
00000000
00000000
00000000
,
32000000
00000000
00000000
00000000
,
00000000
00000000
00000000
00000000
,
03020000
00000000
00000000
00000000
,
00000000
00000000
00000000
00000000
,
00032000
00000000
00000000
00000000
,
00000000
00000000
00000000
00003000
,
00010000
00000000
00000000
00001000
00000000
00000000
00011000
00000000
,
00000000
00000000
00000000
00000000
,
00000100
00000000
00000000
00000010
00000000
00000000
00000110
00000000
,
00000000
00000000
00000000
00000000
,
00001000
00000000
00000000
00010000
00000000
00000000
00011000
00000000
,
00000000
00000000
00000000
00000000
,
01000000
00000000
00000000
00100000
00000000
00000000
01100000
00000000
,
20020000
00000000
00000000
30030000
,
10000000
01000000
00100000
00010000
,
01000000
00010000
00100000
00000000
,
00001000
00010000
00000010
00010000
,
00001000
00000010
00000100
00000000
,
00001000
00000001
00000010
00000001
,
00000100
00000010
00001000
00000000
,
00001100
00000000
00000000
00000100
00000000
00000000
00000100
00000000
,
00010000
00010000
00001000
00200000
,
00300000
00001000
00010000
00100000
,
01000000
00100000
10000000
00000000
,
00010000
00100000
00001000
00010000
,
00000100
00010000
00001000
00000000
,
00022000
00000000
00000000
00000000
,
00000000
00000000
00000000
00033000
,
00001000
00000000
00000000
00001000
00000000
00000000
00001000
00000000
,
00010000
00100000
10000000
01000000
,
02200000
00000000
00000000
00000000
,
00000000
00000000
00000000
00000000
,
03300000
00000000
00000000
00000000
;

//--------------- dance-double - forcednature ----------------
#NOTEDATA:;
#STEPSTYPE:dance-double;
#DESCRIPTION:forcednature;
#CREDIT:forcednature;
#DIFFICULTY:Medium;
#METER:13;
#RADARVALUES:0,0,0,0,0;
#NOTES:
00000000
00000000
00000000
00000000
,
00000000
00000000
00000000
00000000
,
00000000
00000000
00000000
00000000
,
00000000
00000000
00000000
00000000
,
00000000
00000000
00000000
00000000
,
00001000
00000000
00010000
00001000
00000000
00000010
00001000
00000000
,
00010000
00000000
01000000
00100000
00000000
00110000
00000000
00010000
,
10000000
00000000
00100000
10000000
00000000
01000000
00010000
00000000
,
00001000
00000000
00000010
00000100
00000000
00001100
00000000
00000001
,
00000010
00000000
00001000
00000010
00000001
00000000
00000001
00000100
,
00001000
00000000
00010000
00000000
00100000
00000000
10000000
01000000
,
00010000
00000000
01000000
10000000
00010000
00000000
00010000
00100000
,
01000000
00000000
00010000
00000000
00001000
00000000
00000010
00000100
,
00001000
00001100
00000001
00000011
,
00001000
00001010
00010000
00011000
,
00100000
00010000
01000000
00001000
00010000
00000100
00001000
00000010
,
00000100
00000000
00000000
00000000
00000000
00000000
00000000
00000000
00000000
00000000
00000001
00001000
00000001
00000000
00000000
00000000
,
00000010
00000100
00010000
00000010
00001000
00000001
00000100
00000000
,
00001000
00010000
00100000
01000000
00010000
10000000
00100000
00000000
,
10000000
01000000
00010000
01000000
10000000
00010000
00100000
00000000
,
00001000
00010000
00000010
00000000
00010000
00001000
00000010
00000000
,
00000100
00010000
00000010
00001000
00000001
00000010
00001000
00000000
,
00010000
00000010
00001000
00010000
00001000
00000010
00010000
00000000
,
00001000
00000010
00000100
00010000
00001000
00000010
00000001
00001000
,
00000010
00000100
00001000
00010000
00100000
00100000
00100000
00000000
,
01000000
00010000
00100000
01000000
00010000
00001000
00100000
00000000
,
01000000
10000000
01000000
00010000
00001000
00000010
00000100
00000000
,
00001000
00000001
00000010
00000001
00001000
00000010
00000100
00000000
,
00001000
00010000
00100000
00000000
00010000
00001000
00000010
00000000
,
00000100
00010000
00000010
00001000
00000001
00000010
00001000
00000000
,
00010000
01000000
10000000
00010000
00100000
00001000
00010000
00000000
,
00100000
10000000
00100000
10000000
01000000
00010000
00001000
00000000
,
00022000
00000000
00033000
00000000
,
00001000
00000010
00000001
00000000
00000100
00000001
00000010
00000000
,
00001000
00010000
00000000
00000010
00001000
00000000
00000001
00000000
,
00000100
00001000
00010000
00000000
00100000
00010000
00001000
00000000
,
00010000
00100000
00000000
10000000
00100000
00000000
01000000
00000000
,
00010000
10000000
01000000
00000000
00010000
00001000
00010000
00000000
,
00000100
00001000
00000000
00000010
00000100
00000000
00000001
00000000
,
00000010
00001000
00010000
00000000
00000010
00010000
00001000
00000000
,
00000010
00000100
00001000
00000010
00000000
00001000
00000100
00000002
,
00000000
00000000
00000103
00001000
00000001
00000010
00000001
00000000
,
00001000
00000010
00000100
00000000
00001000
00010000
00100000
00000000
,
01000000
00010000
10000000
00100000
10000000
00010000
01000000
00000000
,
00100000
10000000
01000000
00000000
00010000
00001000
00100000
00000000
,
00001000
00010000
00000010
00010000
00001000
00000010
00000100
00000000
,
00001000
00000001
00000100
00000000
00001000
00010000
00000010
00000000
,
00010000
00001000
00000010
00001000
00010000
00010000
00001000
00001000
,
00200000
00000000
00310000
02000000
00000000
03100000
20000000
00000000
,
31000000
00010000
00001000
00100000
00001000
00010000
01000000
00000000
,
00100000
00001000
00010000
00000100
00010000
00001000
00100000
00000000
,
00001000
00010000
00000010
00000100
00001000
00010000
00000010
00000000
,
00001000
00000100
00000001
00000001
00000100
00001000
00000010
00000000
,
00000100
00001000
00010000
00000010
00010000
00001000
00000010
00000000
,
00000100
00010000
00001000
00100000
00001000
00010000
01000000
00000000
,
00100000
00001000
00010000
00001000
01000000
00001000
00010000
00000000
,
00100000
10000000
01000000
00000000
00100000
00100000
00001000
00000000
,
00022000
00000000
00000000
00000000
,
00000000
00000000
00000000
00000000
,
00000000
00000000
00000000
00000000
,
00000000
00000000
00000000
00000000
,
00000000
00000000
00000000
00000000
,
00000000
00000000
00000000
00000000
,
00000000
00000000
00000000
00000000
,
00000000
00000000
00000000
00033000
,
00101000
00000000
00000000
00010100
00000000
00000000
00101000
00000000
,
00000000
00000000
00001000
00010000
00000000
00001000
00010000
00000000
,
00010010
00000000
00000000
01001000
00000000
00000000
00010010
00000000
,
00000000
00000000
00010000
00001000
00010000
00001000
00010000
00000000
,
00101000
00000000
00000000
00011000
00000000
00000000
01001000
00000000
,
00000000
00000000
00001000
00010000
00000000
00010000
00001000
00000000
,
00010010
00000000
00000000
00011000
00000000
00000000
00010100
00000000
,
00002200
00000000
00000000
00003300
,
00001000
00000001
00000010
00000100
00001000
00000001
00000100
00000000
,
00001000
00010000
00100000
00000000
00010000
00001000
01000000
00000000
,
00010000
00100000
01000000
00010000
00001000
00100000
00010000
00000000
,
10000000
00100000
00010000
00000000
00100000
10000000
00010000
00000000
,
00100000
01000000
00010000
00001000
00000010
00000100
00001000
00000000
,
00000001
00000100
00001000
00000000
00000100
00000001
00001000
00000000
,
00000010
00000100
00001000
00010000
00000010
00001000
00000100
00000000
,
00000010
00001000
00010000
00001000
01000000
00001000
00020000
00000000
,
00030000
00000000
00100000
01000000
00010000
10000000
00100000
00000000
,
10000000
01000000
00010000
00000000
00001000
00100000
00010000
00000000
,
01000000
00001000
00010000
00000010
00010000
00001000
00000010
00000000
,
00000100
00010000
00000010
00000000
00001000
00000001
00000010
00000000
,
00000110
00000000
00000100
00001000
00000000
00000001
00000100
00000000
,
00001000
00000000
00010000
00100000
00000000
01000000
00010000
00010000
,
10000000
01000000
00010000
00001000
00010000
01000000
10000000
00000000
,
00010000
00100000
00001000
00010000
00000100
00000100
00000010
00000000
,
00002002
00000000
00000000
00000000
,
00000000
00000000
00000000
00000000
,
00003003
00000000
00000000
00000000
;

//--------------- dance-double - forcednature ----------------
#NOTEDATA:;
#STEPSTYPE:dance-double;
#DESCRIPTION:forcednature;
#CREDIT:forcednature;
#DIFFICULTY:Hard;
#METER:17;
#RADARVALUES:0,0,0,0,0;
#NOTES:
00000000
00000000
00000000
00000000
,
00000000
00000000
00000000
00000000
,
00000000
00000000
00000000
00000000
,
00000000
00000000
00000000
00000000
,
00000000
00000000
00000000
00000000
,
00001000
00001000
00010000
00001000
00001000
00000010
00000000
00000001
,
00001000
00000100
00001000
00000001
00000010
00000110
00000000
00001000
,
00010000
00010000
00001000
00010000
00010000
00100000
00000000
10000000
,
00010000
01000000
00010000
10000000
00100000
01100000
00000000
10000000
,
01000000
00010000
00001000
00010000
00000100
00010000
00001000
00010000
,
00100000
00010000
00001000
00010000
00000010
00001010
00000000
00000000
,
00010000
00001000
00000100
00001000
00010000
00001000
00000010
00001000
,
00010000
00001000
00100000
00001000
00010000
00011000
00000000
00000000
,
10000000
01000000
00100000
01000000
00010000
00001000
00000100
00000010
,
00000100
00000001
00000010
00000100
00001000
00000000
00001001
00000000
,
00000001
00000000
00000100
00000000
00000010
00000000
00001000
00000000
00010000
00000000
01000000
00000000
00100000
10000000
00100000
10000000
,
00010000
00000000
00000000
00000000
00000000
00000000
00000000
00000000
00000000
00000000
00100000
01000000
10000000
00000000
00000000
00000000
,
01100000
00010000
10000000
00100000
10000000
01000000
00010000
00000000
,
00011000
00000100
00001000
00000010
00010000
00001000
00000010
00000000
,
00000001
00000100
00001000
00000100
00000001
00000100
00001000
00000100
,
00000001
00000010
00001000
00010000
00011000
00011000
00100000
00000000
,
01100000
00010000
00100000
00001000
00010000
01000000
00010000
00000000
,
00011000
00000010
00001000
00000100
00000010
00001000
00000010
00000000
,
00000001
00000100
00001000
00000100
00000001
00000010
00001000
00000010
,
00000001
00000000
00000100
00000000
00001000
00000000
00010000
00000000
00001000
00000000
00010000
00001000
00100000
00000000
00000000
00000000
,
00011000
00000010
00001000
00000100
00010000
00001000
00000010
00000000
,
00000110
00000110
00001000
00000001
00000100
00001000
00010000
00000000
,
00011000
00000000
00100000
01000000
00100000
00001000
00100000
01000000
,
00100000
00001000
00010000
00000100
00010000
00001000
00000010
00000000
,
00000110
00001000
00000001
00000100
00001000
00010000
00000010
00000000
,
00011000
00100000
00010000
01000000
00100000
10000000
01000000
00000000
,
00110000
00000000
00110000
00000000
00000000
00000000
00011000
00000000
00011000
00000000
00000000
00000000
00000100
00001000
00000100
00001000
,
00000002
00000000
00000000
00000000
00000013
00000010
00000000
00000001
,
00000100
00000000
00000001
00000100
00000001
00000000
00001000
00000000
00000010
00001000
00000010
00000000
00010000
00000000
00001000
00010000
,
00001000
00100000
00010000
01000000
00100000
10000000
01000000
00100000
,
00010000
00000000
00100000
00010000
00100000
00000000
01000000
00000000
10000000
01000000
10000000
00000000
00010000
00000000
01000000
00010000
,
01000000
00100000
00010000
00001000
00000100
00000100
00000010
00000100
,
00000001
00000000
00001000
00000001
00001000
00000000
00000100
00000000
00000010
00000100
00000010
00000000
00000100
00000000
00001000
00000100
,
00001000
00000010
00010000
00001000
00000010
00001000
00010000
00010000
,
01000000
00000000
00100000
01000000
00100000
00000000
00010000
00000000
10000000
00010000
10000000
00000000
00100000
00000000
01000000
00100000
,
01000000
00010000
00100000
00001000
00000000
00011000
00000200
00000000
,
00000000
00000000
00000000
00000000
00000310
00000001
00001000
00000000
00000010
00000000
00001000
00000001
00000010
00000000
00000001
00001000
,
00000010
00000100
00001000
00010000
00100000
01000000
00010000
01000000
,
00100000
00000000
10000000
00010000
00100000
00000000
01000000
00000000
00100000
00010000
10000000
00000000
00100000
00000000
10000000
00010000
,
00100000
01000000
00010000
00001000
00000010
00000100
00001000
00001000
,
00000001
00000000
00000100
00000010
00001000
00000000
00000100
00000000
00001000
00000010
00000100
00000000
00000001
00000000
00000010
00000100
,
00001000
00000001
00000100
00001000
00010000
00000010
00001000
00010000
,
00001000
00000010
00000100
00001000
00010000
01000000
00100000
00010000
,
01000000
00000000
00100000
01100000
00000000
01000000
10010000
00000000
,
20000000
00000000
31000000
00100000
00010000
00000000
00200000
00000000
00310000
01000000
00001000
00000000
00010000
00000000
00001000
00000000
,
00000020
00000000
00000130
00001000
00000001
00000000
00000200
00000000
00000310
00010000
00001000
00000000
00010000
00000000
00010000
00000000
,
00000200
00000000
00010300
00001000
00100000
00000000
00020000
00000000
01030000
00001000
00010000
00000000
00100000
00000000
00000000
00000000
,
01000000
00000000
01000000
00000000
00010000
10000000
00010000
10000000
00100000
00000000
10000000
01000000
00100000
00000000
01000000
00000000
,
00020000
00000000
00031000
00100000
00010000
00000000
02000000
00000000
03010000
00100000
00001000
00000000
00020000
00000000
00030010
00000000
,
00002000
00000000
00003100
00000010
00000001
00000000
00000200
00000000
00000301
00000010
00000100
00000000
00020000
00000000
00030000
00000000
,
00011000
00000000
00011000
00000000
00010100
00000000
00010100
00000000
00010000
00001000
00100000
00001000
00010000
00001000
00100000
00001000
,
00010000
00000000
00000000
00000000
00011000
00000000
00000000
00000000
01000000
00000000
01000000
00000000
00010000
10000000
00100000
10000000
,
02000000
00000000
00000000
00000000
,
00000000
00000000
00000000
00000000
,
03020000
00000000
00000000
00000000
,
00000000
00000000
00000000
00000000
,
00032000
00000000
00000000
00000000
,
00000000
00000000
00000000
00000000
,
00003020
00000000
00000000
00000000
,
00000000
00000000
00000000
00000030
,
00000110
00000000
00000000
00011000
00000000
00000000
01100000
00000000
,
00010000
01000000
10000000
01000000
00010000
00100000
01000000
00000000
,
01100000
00000000
00000000
00011000
00000000
00000000
00000110
00000000
,
00001000
00000100
00000001
00000100
00001000
00001000
00000001
00000010
,
00000110
00000000
00000000
00011000
00000000
00000000
01100000
00000000
,
10000000
00000000
01000000
00000000
10000000
00000000
00100000
00000000
01000000
00000000
01000000
00000000
00010000
10000000
00000000
00010000
,
00100000
00000000
00000000
00011000
00000000
00000000
00000110
00000100
,
00002002
00000000
00000000
00003003
,
00000001
00000000
00000100
00000010
00001000
00000000
00000100
00000000
00010000
00001000
00100000
00000000
00001000
00000000
00010000
00000100
,
00001000
00000010
00000100
00001000
00000100
00000010
00001000
00000001
,
00000010
00000000
00000100
00001000
00000100
00000000
00010000
00001000
00010000
00000000
00001000
00100000
00010000
00000000
00010000
00000000
,
01000000
00000000
00100000
10000000
00100000
00000000
10000000
01000000
00100000
00000000
00010000
00000000
00100000
00001000
00010000
00000000
,
00000100
00000000
00001000
00000010
00000100
00000000
00000001
00001000
00000100
00000000
00000010
00000000
00000100
00001000
00000001
00000000
,
00000100
00000000
00001000
00000000
00010000
00000000
00100000
00000000
01000000
00000000
00010000
00000000
10000000
00100000
10000000
00100000
,
01000000
00000000
00010000
00100000
00000000
00001000
00000010
00000000
,
00000110
00000000
00000110
00000000
00001100
00000000
00001100
00000000
00000001
00000000
00000001
00000000
00001000
00000010
00000100
00000010
,
00000000
00000000
00000001
00000010
00001000
00000000
00000001
00000000
00000100
00000010
00001000
00000000
00000100
00000000
00010000
00001000
,
00100000
00000000
00010000
00000000
01000000
00000000
10000000
00000000
01000000
00000000
00010000
00000000
00100000
01000000
10000000
01000000
,
00100000
00000000
00010000
00100000
00001000
00000000
00010000
00000000
00000010
00001000
00000001
00000000
00000100
00000000
00000001
00001000
,
00000010
00000000
00000100
00000000
00001000
00000000
00010000
00000000
00100000
00000000
00100000
00000000
01000000
00010000
10000000
00100000
,
02000000
00000000
00000000
00000000
,
00000000
00000000
00000000
00000000
03000000
00000000
01100000
01100000
,
10010000
00000000
00000000
00011000
00000000
00000000
00001001
00000000
,
00000001
00000000
00000010
00000000
00001000
00000000
00010000
00000000
00000100
00000000
00001000
00000010
00000100
00000001
00000100
00000001
,
00000020
00000000
00000000
00000000
,
00000000
00000000
00000000
00000000
,
00000030
00000000
00000000
00000000
;
