#VERSION:0.83;
#TITLE:Kailua;
#SUBTITLE:;
#ARTIST:kors k;
#TITLETRANSLIT:;
#SUBTITLETRANSLIT:;
#ARTISTTRANSLIT:;
#GENRE:ENERGETIC HAWAIIAN TRANCE;
#CREDIT:;
#MUSIC:Kailua.ogg;
#BANNER:Kailua.png;
#BACKGROUND:Kailua-bg.png;
#CDTITLE:./CDTitles/bm IIDX 18 Resort Anthem.png;
#SAMPLESTART:67.725;
#SAMPLELENGTH:15.000;
#SELECTABLE:YES;
#OFFSET:1.299;
#BPMS:0.000=146.000;
#STOPS:;
#BGCHANGES:0.000=Kailua.mp4=1.000=0=0=0=StretchNoLoop====,
99999.000=-nosongbg-=1.000=0=0=0=StretchNoLoop====
;
#FGCHANGES:;

//--------------- dance-single - forcednature ----------------
#NOTEDATA:;
#STEPSTYPE:dance-single;
#DESCRIPTION:forcednature;
#DIFFICULTY:Beginner;
#METER:2;
#RADARVALUES:0,0,0,0,0;
#CREDIT:forcednature;
#NOTES:
0000
0000
0000
0000
,
0000
0000
0000
0000
,
0000
0000
0000
0000
,
0000
0000
0000
0000
,
0000
0000
0000
0000
,
0000
0000
0000
0000
,
0000
0000
0000
0000
,
0000
0000
0000
0000
,
0010
0000
0000
0000
,
0000
0000
0000
0000
,
1001
0000
0000
0000
,
0000
0000
0000
0000
,
1000
0000
0000
0000
,
0100
0000
0000
0000
,
1000
0000
0000
0000
,
0000
0000
0000
0000
,
0001
0000
0000
0000
,
0100
0000
0000
0000
,
0001
0000
0000
0000
,
0000
0000
0000
0000
,
0010
0000
0000
0000
,
0010
0000
0000
0000
,
0001
0000
0000
0000
,
0001
0000
0000
0000
,
1000
0000
0000
0000
,
0010
0000
0000
0000
,
0200
0000
0000
0000
,
0000
0000
0000
0000
,
0000
0000
0000
0000
,
0300
0000
0000
0000
,
0002
0000
0000
0000
,
0000
0000
0000
0000
,
0000
0000
0000
0000
,
0003
0000
0000
0000
,
2000
0000
0000
0000
,
0000
0000
0000
0000
,
0000
0000
0000
0000
,
3000
0000
0000
0000
,
0020
0000
0000
0000
,
0000
0000
0000
0000
,
0200
0000
0000
0000
,
0000
0000
0000
0330
,
1001
0000
0000
0000
,
0000
0000
0000
0000
,
1000
0000
0000
0000
,
0000
0000
0000
0000
,
0010
0000
0000
0000
,
0000
0000
0000
0000
,
0100
0000
0000
0000
,
0000
0000
0001
0000
,
0001
0000
0000
0000
,
0000
0000
0000
0000
,
0010
0000
0000
0000
,
0000
0000
0100
0000
,
0100
0000
0000
0000
,
1000
0000
0000
0000
,
0020
0000
0000
0000
,
0000
0000
0030
0000
,
1001
0000
0000
0000
,
0000
0000
0000
0000
,
1000
0000
0000
0000
,
0100
0000
0000
0000
,
1000
0000
0000
0000
,
0001
0000
0000
0000
,
0100
0000
0000
0000
,
0001
0000
0000
0000
,
1001
0000
0000
0000
;

//--------------- dance-single - forcednature ----------------
#NOTEDATA:;
#STEPSTYPE:dance-single;
#DESCRIPTION:forcednature;
#DIFFICULTY:Easy;
#METER:7;
#RADARVALUES:0,0,0,0,0;
#CREDIT:forcednature;
#NOTES:
0000
0000
0000
0000
,
0000
0000
0000
0000
,
0000
0000
0000
0000
,
0000
0000
0000
0000
,
0000
0000
0000
0000
,
0000
0000
0000
0000
,
0000
1000
0000
1000
,
0000
0001
0000
0001
,
0000
0100
0000
0100
,
0000
0010
0010
0000
,
1001
0000
1000
0000
,
0100
0010
0100
0000
,
0010
0001
0010
0000
,
0001
0000
1000
0000
,
0010
0000
0100
0000
,
0010
0100
0010
0000
,
1000
0010
1000
0000
,
0001
1000
0001
0000
,
1001
0000
1000
0000
,
0100
0000
0010
0000
,
0001
0010
0001
0000
,
0100
0001
0100
0000
,
0110
0000
0010
0000
,
1001
0000
0100
0000
,
0110
0000
1001
0000
,
1000
0001
0100
0100
,
0020
0000
0000
2030
0000
0000
3020
0000
,
0000
0000
0000
0000
,
0230
0000
0000
0302
0000
0000
0000
0000
,
0203
0000
0000
0000
,
0302
0000
0000
0023
0000
0000
0000
0000
,
0032
0000
0000
0000
,
2003
0000
0000
3200
0000
0000
2300
0000
,
0000
0000
3020
0230
,
0302
0000
0000
2003
0000
0000
3002
0000
,
0000
0000
0000
0000
,
0023
0000
0000
0230
0000
0000
0320
0000
,
0000
0000
0032
2003
,
3020
0000
0000
0230
0000
0000
0000
0000
,
0302
0000
0000
0000
0000
2003
0000
3200
,
0000
0010
0010
1000
,
1000
0010
0010
0300
,
1001
1000
0010
0100
,
0001
0010
0001
1000
,
0010
0100
0001
0010
,
0100
1000
0010
0100
,
0110
0010
1000
0001
,
0010
0100
1000
0001
,
0100
0001
1000
0100
,
1000
0010
0100
0001
,
1001
1000
0100
0010
,
0001
0100
0010
1000
,
0001
0010
0001
0100
,
0010
1000
0100
0010
,
1001
0001
0100
0001
,
1000
0100
0010
0001
,
1000
1000
0010
0010
,
0100
0100
0100
0001
,
1001
0000
1000
0100
,
1000
0000
0001
0100
,
0001
0000
0010
0100
,
1000
0010
0100
0001
,
1001
0000
2000
0000
,
3200
0000
0320
0000
,
0032
0000
0100
0100
,
1000
1000
0013
0001
,
2002
0000
0000
0000
,
3003
0000
0000
0000
;

//--------------- dance-single - forcednature ----------------
#NOTEDATA:;
#STEPSTYPE:dance-single;
#DESCRIPTION:forcednature;
#DIFFICULTY:Medium;
#METER:10;
#RADARVALUES:0,0,0,0,0;
#CREDIT:forcednature;
#NOTES:
0000
0000
0000
0000
,
0000
0000
0000
0000
,
0000
0000
0000
0000
,
0000
0000
0000
0000
,
0000
0000
0000
0000
,
0000
0000
0000
0000
,
0002
0000
0000
0203
0000
0000
0320
0000
,
0000
1000
0100
1030
,
0001
0100
0001
0000
1000
0100
1000
0000
,
0010
0100
0010
0000
0100
0100
0000
0000
,
0110
0000
1000
0001
0010
0000
0001
0000
,
1000
1000
1000
0000
0001
0000
0100
0001
,
1000
0000
0010
0000
0100
0001
0010
0000
,
0100
0000
0010
0001
1000
0000
0010
0000
,
0100
0000
0001
1000
0100
0000
1000
0001
,
0010
0000
0110
0000
0100
1000
0001
0000
,
0110
0000
1000
0000
0001
0100
0010
0000
,
1000
0001
0010
0001
1000
0100
1000
0000
,
0001
0100
1000
0000
0100
0000
0110
0000
,
0010
1000
0001
0000
0100
0001
1000
0000
,
0100
0100
0100
0000
0010
0000
0011
0000
,
0001
1000
0010
0000
0100
0001
1000
0000
,
0100
0100
1000
0000
0001
0010
0001
0000
,
0100
0100
0001
0000
1000
0010
1000
0000
,
0100
1000
0010
0000
0100
0001
0010
0000
,
0110
0000
1000
1000
1000
0000
0001
0100
,
0020
0000
0000
2030
0000
0000
3002
0000
,
0000
0000
0000
0000
,
0023
0000
0000
0032
0000
0000
2003
0000
,
0000
0000
0000
0000
,
3200
0000
0000
0320
0000
0000
0032
0000
,
0000
0000
0000
0000
,
0203
0000
0000
0320
0000
0000
2030
0000
,
0000
0000
0000
0000
3002
0023
0230
2300
,
3002
0000
0000
0203
0000
0000
0320
0000
,
0000
0000
0000
0000
,
2030
0000
0000
3002
0000
0000
0023
0000
,
0000
0000
0000
0000
0230
2300
3002
2003
,
3020
0000
0000
0230
0000
0000
0000
0000
,
0302
0000
0000
0000
0000
0023
0000
0230
,
0000
1000
0010
1000
,
0010
0010
0010
0010
0310
0000
0110
0000
,
1001
0000
1000
0100
0001
0000
0100
1000
,
0001
0000
0010
0001
1000
0100
1000
0001
,
0010
0000
0001
0100
1000
0000
0100
0001
,
1000
0000
0010
0100
0001
1000
0010
0100
,
0001
0000
0010
0100
1000
0000
0010
0100
,
0001
0000
0010
0100
1000
0010
1000
0100
,
0010
0000
0001
0100
0010
0000
1000
0100
,
0010
0000
0001
0100
0010
0100
0001
0010
,
0100
0000
0010
0001
0100
0000
0010
1000
,
0100
0000
1000
0001
0100
0010
1000
0001
,
0010
0000
0100
0010
0001
0000
0100
0010
,
1000
0000
0001
0010
1000
0010
0001
1000
,
0100
0000
0010
0001
0100
0000
0010
1000
,
0100
0000
1000
0001
0100
1000
0100
0001
,
2000
0010
0001
3200
,
0010
0010
0010
0010
0310
0000
0110
0000
,
1001
0000
1000
0100
0001
0000
0100
1000
,
0001
0000
0010
0001
1000
0100
1000
0001
,
0010
0000
0001
0100
1000
0000
0100
0001
,
1000
0000
0010
0100
0001
1000
0001
0100
,
0010
0000
1000
0100
0001
0000
0100
1000
,
0010
0110
0100
1001
,
0001
0001
0001
0000
1000
1000
1000
0000
,
0010
0010
0100
0100
0010
0010
0100
0000
,
2002
0000
0000
0000
,
3003
0000
0000
0000
;

//--------------- dance-single - forcednature ----------------
#NOTEDATA:;
#STEPSTYPE:dance-single;
#DESCRIPTION:forcednature;
#DIFFICULTY:Hard;
#METER:14;
#RADARVALUES:0,0,0,0,0;
#CREDIT:forcednature;
#NOTES:
0000
0000
0000
0000
,
0000
0000
0000
0000
,
0000
0000
0000
0000
,
0000
0000
0000
0000
,
0000
0000
0000
0000
,
0000
0000
0000
0000
,
2000
0000
0000
3200
0000
0000
0320
0000
,
0031
0010
0001
0000
0100
0001
0100
0000
,
0010
1000
0001
0010
0001
1000
0100
1000
,
0001
0000
0100
0000
0001
0000
1000
0000
0100
0010
0100
0010
0000
0000
0000
0000
,
0001
0000
0000
0001
0100
0000
0000
0100
0010
0000
0000
0010
1000
0000
0001
0000
,
0010
0000
0100
0010
0100
0000
1000
0000
0010
0000
0000
0100
0001
0000
1000
0000
,
0100
0000
0000
0100
0010
0000
0000
0010
0001
0000
0000
0001
1000
0000
0010
0000
,
0100
0001
0011
0000
0100
1000
1010
0000
,
0001
0000
0000
0001
1000
0000
0000
1000
0100
0000
0000
0100
0010
0000
0001
0000
,
1000
0010
0001
0010
1000
0100
1000
0001
,
0100
0000
0010
0100
0010
0000
1000
0010
1000
0000
0001
0000
0010
0000
0000
0100
,
1000
0001
0010
1000
0010
0001
0100
0000
,
0010
0000
0000
0010
1000
0000
0000
1000
0001
0000
0000
0001
0100
0000
0010
0000
,
1000
0000
0100
1000
0100
0000
0010
0000
0001
0000
1000
0000
1010
0000
0000
0000
,
0001
0000
0000
0001
0100
0000
0000
0100
0001
0000
0000
0001
0010
0000
0100
0000
,
1000
0000
0010
0000
0100
0001
0100
0000
0010
0000
1000
0000
0001
0000
0000
0000
,
1000
0100
0000
1000
0100
0000
0010
0100
0000
1000
0001
0000
0010
0000
0000
0000
,
0001
0100
0000
0001
0100
0000
0010
1000
0000
0001
0100
0000
0010
0000
0000
0000
,
1000
0001
0000
0100
0001
0000
0010
0000
0001
1000
0000
0100
1000
0000
0010
0000
,
0100
0000
0001
0000
1000
0100
1000
0100
0010
0000
0000
0000
0001
1000
0001
1000
,
0020
0000
0000
0000
0000
0000
0200
0000
0000
0030
0000
0000
0002
0000
0000
0000
,
0000
0000
0000
0000
0000
0000
0000
0000
0000
0000
0000
0000
0000
0300
0000
0000
,
2000
0000
0000
0003
0000
0000
0200
0000
0000
3000
0000
0000
0020
0000
0000
0000
,
0000
0000
0000
0000
0000
0000
0000
0000
0000
0000
0000
0000
0000
0300
0000
0000
,
0002
0000
0000
0030
0000
0000
2000
0000
0000
0003
0000
0000
0020
0000
0000
0000
,
0000
0000
0000
0000
0000
0000
0000
0000
0000
0000
0000
0000
0000
3000
0000
0000
,
2000
0000
0000
0030
0000
0000
0002
0000
0000
3000
0000
0000
0020
0000
0000
0000
,
0000
0000
0000
0000
0000
0003
0000
0000
0230
0000
2300
0000
3002
0000
0203
0000
,
0020
0000
0300
2000
0000
0030
0200
0000
,
0000
0000
0000
0000
0000
0000
3000
0320
,
0002
0000
0030
2000
0000
0003
0020
0000
,
0000
0000
0000
3000
2030
3200
0320
0032
,
0200
0000
0003
0020
0000
0000
0000
0300
,
2000
0000
0000
0000
0030
0002
3000
0023
,
0100
0000
0100
0000
0001
0001
0031
0000
,
0010
0000
0001
0000
1000
0000
0001
0000
0100
0010
0100
0010
0000
0000
0000
0000
,
1000
0000
0010
0100
0001
0000
1000
0000
0100
0010
0001
0000
1000
0000
0010
0100
,
0001
0010
0100
0001
0100
0010
0001
1000
,
0001
0000
0100
0010
1000
0000
0001
0000
0010
0100
1000
0000
0001
0000
0100
0010
,
1000
0100
0010
1000
0010
0100
1000
0001
,
0100
0000
0010
1000
0001
0000
0010
0000
0100
0010
0001
0000
1000
0000
0010
0100
,
0001
0010
0100
0001
0100
1000
0001
0010
,
0100
0000
1000
0001
0100
0000
0010
0000
1000
0100
0010
0000
0001
0000
0100
0010
,
1000
0001
0010
0001
2000
3020
0230
0302
,
1003
0000
0100
0010
0001
0000
0100
0000
0001
0010
0100
0000
1000
0000
0010
0100
,
0001
1000
0100
0001
0100
1000
0001
0010
,
0001
0000
0100
0010
1000
0000
0001
0000
0010
0100
1000
0000
0010
0000
0100
0001
,
1000
0100
1000
0010
0100
1000
0100
0001
,
1000
0000
0010
0100
0001
0000
0010
0000
0001
0100
0010
0000
1000
0000
0001
0000
,
0010
0100
0010
0100
1000
0000
0001
0000
0100
0000
0010
0000
1000
0000
0001
0000
,
0011
0000
0000
0010
0100
0000
0000
0100
1000
0000
0000
1000
0001
0000
0000
0001
,
0200
0000
0000
0000
0010
0000
0000
0300
1000
0001
1000
0001
1000
0001
1000
0001
,
0010
0000
0000
0000
0100
1000
0000
0100
0010
0000
0001
0000
0100
0001
0000
0100
,
0010
0000
1000
0000
0001
0010
0000
0100
0010
0000
0010
0000
0001
1000
0000
0100
,
1000
0000
0010
0000
1000
0001
0000
0100
0010
0000
1000
0000
0001
0010
0000
0100
,
0010
0000
0001
0000
1000
0010
0000
0100
0001
0000
0001
0000
0010
0001
0000
1000
,
0010
0000
0000
0010
0100
0000
0000
0100
0001
0000
0000
0001
0010
0000
0000
0000
,
0100
1100
0010
0011
,
0001
0100
0010
0100
0001
1000
0010
1000
,
0001
0000
0001
0000
0010
0000
0010
0000
0100
1000
0100
1000
0001
0010
0001
0010
,
0200
0000
0000
0000
,
0300
0000
0000
0000
;

//--------------- dance-double - forcednature ----------------
#NOTEDATA:;
#STEPSTYPE:dance-double;
#DESCRIPTION:forcednature;
#DIFFICULTY:Easy;
#METER:7;
#RADARVALUES:0,0,0,0,0;
#CREDIT:forcednature;
#NOTES:
00000000
00000000
00000000
00000000
,
00000000
00000000
00000000
00000000
,
00000000
00000000
00000000
00000000
,
00000000
00000000
00000000
00000000
,
00000000
00000000
00000000
00000000
,
00000000
00000000
00000000
00000000
,
00000000
00001000
00000000
00001000
,
00000000
00010000
00000000
00010000
,
00000000
00000100
00000000
00001000
,
00000001
00000001
00000001
00000000
,
00001001
00000000
00001000
00000000
,
00000100
00001000
00000100
00000000
,
00010000
00000000
00001000
00000000
,
01000000
00010000
01000000
00000000
,
00100000
00000000
10000000
00000000
,
01000000
10000000
01000000
00000000
,
00100000
00000000
00010000
00000000
,
00100000
00001000
00100000
00000000
,
00011000
00000000
00001000
00000000
,
00010000
00000000
00000010
00000000
,
00001000
00001000
00001000
00000000
,
00000001
00000001
00000001
00000000
,
00000110
00000000
00000100
00000000
,
00001001
00000000
00000100
00000000
,
00011000
00000000
00011000
00000000
,
01000000
01000000
00010000
10000000
,
00200000
00000000
00000000
20300000
00000000
00000000
30200000
00000000
,
00000000
00000000
00000000
00000000
,
02300000
00000000
00000000
03020000
00000000
00000000
00000000
00000000
,
02030000
00000000
00000000
00000000
,
03002000
00000000
00000000
00023000
00000000
00000000
00000000
00000000
,
00032000
00000000
00000000
00000000
,
00023000
00000000
00000000
00030200
00000000
00000000
00020300
00000000
,
00000000
00000000
00032000
00023000
,
00030020
00000000
00000000
00002030
00000000
00000000
00003020
00000000
,
00000000
00000000
00000000
00000000
,
00000230
00000000
00000000
00000302
00000000
00000000
00000203
00000000
,
00000000
00000000
00000320
00002030
,
00003002
00000000
00000000
00000023
00000000
00000000
00000000
00000000
,
00000032
00000000
00000000
00000000
00000000
00002003
00000000
00003200
,
00000000
00001000
00001000
00010000
,
00010000
00001000
00001300
00000000
,
00011000
00000000
00010000
00001000
,
01000000
00010000
10000000
00100000
,
10000000
00000000
01000000
00100000
,
00010000
00100000
00001000
00010000
,
00000100
00000000
00001000
00000001
,
00000100
00000001
00001000
00000010
,
00001000
00000000
00000100
00001000
,
00000100
00010000
00001000
00100000
,
00010000
00000000
10000000
00100000
,
10000000
01000000
00100000
00010000
,
00100000
00000000
00001000
00010000
,
00000010
00001000
00000010
00000100
,
00000001
00000000
00001000
00000100
,
00010000
00001000
00100000
00010000
,
10000000
10000000
00100000
00100000
,
01000000
01000000
01000000
00000000
,
10010000
00000000
10000000
01000000
,
00100000
00000000
01000000
00100000
,
00010000
00000000
00100000
00001000
,
00010000
00000000
00000010
00001000
,
00001001
00000000
00000002
00000000
,
00000023
00000000
00000230
00000000
,
00002300
00000000
00000010
00000010
,
00000001
00000001
00003100
00010000
,
00022000
00000000
00000000
00000000
,
00033000
00000000
00000000
00000000
;

//--------------- dance-double - forcednature ----------------
#NOTEDATA:;
#STEPSTYPE:dance-double;
#DESCRIPTION:forcednature;
#DIFFICULTY:Medium;
#METER:10;
#RADARVALUES:0,0,0,0,0;
#CREDIT:forcednature;
#NOTES:
00000000
00000000
00000000
00000000
,
00000000
00000000
00000000
00000000
,
00000000
00000000
00000000
00000000
,
00000000
00000000
00000000
00000000
,
00000000
00000000
00000000
00000000
,
00000000
00000000
00000000
00000000
,
00020000
00000000
00000000
00032000
00000000
00000000
02003000
00000000
,
00000000
00010000
00100000
03010000
,
10000000
00100000
10000000
00000000
01000000
10000000
01000000
00000000
,
00010000
01000000
00010000
00000000
00001000
00010000
00000000
00000000
,
00011000
00000000
00000100
00001000
00000010
00000000
00000100
00000000
,
00000001
00000001
00000001
00000000
00000010
00000000
00001000
00010000
,
00001000
00000000
01000000
00000000
00010000
00100000
01000000
00000000
,
00100000
00000000
00001000
00010000
00001000
00000000
01000000
00000000
,
00010000
00000000
10000000
00100000
10000000
00000000
01000000
00010000
,
00001000
00000000
00011000
00000000
00010000
00000100
00001000
00000000
,
00000002
00000000
00000023
00000000
00000031
00000100
00001000
00000000
,
00010000
00001000
00100000
00010000
00100000
00001000
00010000
00000000
,
00100000
10000000
01000000
00000000
00010000
00000000
00011000
00000000
,
00001000
00000010
00000001
00000000
00000010
00001000
00010000
00000000
,
00000100
00000100
00000100
00000000
00001000
00000000
00001010
00000000
,
00000001
00000100
00001000
00000000
00000100
00000001
00000010
00000000
,
00000100
00010000
00001000
00000000
00100000
00000000
00110000
00000000
,
00010000
01000000
00001000
00000000
00010000
00000000
00010010
00000000
,
00000010
00001000
00000100
00000000
00010000
00001000
01000000
00000000
,
01100000
00000000
10000000
10000000
10000000
00000000
00010000
00100000
,
02000000
00000000
00000000
23000000
00000000
00000000
30020000
00000000
,
00000000
00000000
00000000
00000000
,
00230000
00000000
00000000
00302000
00000000
00000000
00023000
00000000
,
00000000
00000000
00000000
00000000
,
00030020
00000000
00000000
00002030
00000000
00000000
00003002
00000000
,
00000000
00000000
00000000
00000000
,
00000023
00000000
00000000
00000230
00000000
00000000
00020300
00000000
,
00000000
00000000
00000000
00000000
00032000
00203000
00320000
20030000
,
32000000
00000000
00000000
03020000
00000000
00000000
00032000
00000000
,
00000000
00000000
00000000
00000000
,
00003020
00000000
00000000
00000032
00000000
00000000
00000203
00000000
,
00000000
00000000
00000000
00000000
00002300
00023000
00032000
02003000
,
03020000
00000000
00000000
20030000
00000000
00000000
00000000
00000000
,
30200000
00000000
00000000
00000000
00000000
02300000
00000000
03020000
,
00000000
10000000
00100000
10000000
,
01000000
01000000
01000000
01000000
01030000
00000000
10010000
00000000
,
10000000
00000000
01000000
00010000
00001000
00000000
00100000
00010000
,
00100000
00000000
00001000
00000010
00000100
00001000
00000001
00000100
,
00000010
00000000
00000100
00001000
00010000
00000000
00100000
00010000
,
00001000
00000000
00010000
00100000
10000000
00010000
01000000
00010000
,
10000000
00000000
01000000
00010000
00001000
00000000
00100000
00010000
,
00100000
00000000
00001000
00000010
00000100
00010000
00001000
00000010
,
00000001
00000000
00000100
00001000
00010000
00000000
00100000
00010000
,
00001000
00000000
00010000
00100000
10000000
00010000
01000000
00010000
,
10000000
00000000
01000000
00010000
00001000
00000000
00100000
00010000
,
00100000
00000000
00001000
00000010
00000100
00001000
00000001
00000100
,
00001000
00000000
00010000
00001000
00000100
00000000
00001000
00010000
,
00100000
00000000
01000000
00010000
10000000
01000000
00010000
00001000
,
00100000
00000000
00001000
00000010
00000100
00000000
00010000
00000000
,
00001000
00000000
01000000
00010000
01000000
10000000
01000000
00010000
,
20000000
00100000
00010000
32000000
,
00100000
00100000
00100000
00100000
03100000
00000000
01100000
00000000
,
10010000
00000000
10000000
01000000
00010000
00000000
00001000
00010000
,
01000000
00000000
00010000
00001000
00100000
00010000
00100000
00001000
,
00010000
00000000
00001000
00000010
00000001
00000000
00000010
00001000
,
00010000
00000000
00000100
00001000
00000100
00000010
00000001
00001000
,
00000010
00000000
00000100
00001000
00010000
00000000
00100000
00010000
,
00001000
01010000
00001000
00110000
,
10000000
10000000
10000000
00000000
00010000
00010000
00010000
00000000
,
00001000
00001000
00001000
00000000
00000001
00000001
00000001
00000000
,
00000220
00000000
00000000
00000000
,
00000330
00000000
00000000
00000000
;

//--------------- dance-double - forcednature ----------------
#NOTEDATA:;
#STEPSTYPE:dance-double;
#DESCRIPTION:forcednature;
#DIFFICULTY:Hard;
#METER:14;
#RADARVALUES:0,0,0,0,0;
#CREDIT:forcednature;
#NOTES:
00000000
00000000
00000000
00000000
,
00000000
00000000
00000000
00000000
,
00000000
00000000
00000000
00000000
,
00000000
00000000
00000000
00000000
,
00000000
00000000
00000000
00000000
,
00000000
00000000
00000000
00000000
,
00002000
00000000
00000000
02003000
00000000
00000000
03020000
00000000
,
10030000
01000000
10000000
00000000
01000000
00100000
01000000
00000000
,
00100000
00010000
00100000
00001000
00000010
00000100
00001000
00000100
,
00010000
00000000
00001000
00000000
00010000
00000000
00001000
00000000
00010000
00001000
00010000
00001000
00000000
00000000
00000000
00000000
,
01000000
00000000
00000000
01000000
00010000
00000000
00000000
00010000
00100000
00000000
00000000
00100000
01000000
00000000
00000000
00000000
,
10000000
00000000
00100000
10000000
00100000
00000000
10000000
00000000
01000000
00000000
00000000
01000000
00010000
00000000
00000000
00000000
,
00001000
00000000
00000000
00001000
00000010
00000000
00000000
00000010
00000001
00000000
00000000
00000001
00000100
00000000
00000000
00000000
,
00000010
00001000
00001100
00000000
00010000
00001000
00101000
00000000
,
00100000
00000000
00000000
00100000
00010000
00000000
00000000
00010000
01000000
00000000
00000000
01000000
10000000
00000000
00000000
00000000
,
01000000
00010000
00100000
00001000
00000010
00000100
00010000
00000000
,
00001000
00000000
00000010
00001000
00000010
00000000
00000001
00000010
00000001
00000000
00000100
00000000
00001000
00000000
00000000
00000000
,
00010000
00100000
10000000
01000000
10000000
00100000
00010000
00000000
,
00001000
00000000
00000000
00001000
00000010
00000000
00000000
00000010
00000001
00000000
00000000
00000001
00000100
00000000
00000000
00000000
,
00001000
00000000
00010000
00001000
00010000
00000000
00100000
00000000
10000000
00000000
00010000
00000000
00100000
00000000
00000000
00000000
,
01000000
00000000
00000000
01000000
00010000
00000000
00000000
00010000
00001000
00000000
00000000
00001000
00000010
00000000
00000000
00000000
,
00000100
00000000
00001000
00000000
00000100
00010000
00000100
00000000
00010000
00000000
00001000
00000000
00100000
00000000
00000000
00000000
,
00010000
01000000
00000000
00010000
01000000
00000000
00001000
00010000
00000000
00000010
00001000
00000000
00000001
00000000
00000000
00000000
,
00001000
00000100
00000000
00001000
00000100
00000000
00010000
00001000
00000000
00100000
00010000
00000000
10000000
00000000
00000000
00000000
,
00010000
01000000
00000000
00001000
00010000
00000000
00000010
00000000
00001000
00000100
00000000
00010000
00001000
00000000
00100000
00000000
,
00010000
00000000
00010000
00000000
01000000
00100000
01000000
00100000
20000000
00000000
00000000
00000000
30010000
00100000
01000000
10000000
,
00020000
00000000
00000000
00002000
00000000
00030000
00000020
00000000
,
00000000
00000000
00000000
00000000
00000000
00000000
00000000
00003000
,
00000002
00000000
00000030
00000200
00000000
00000003
00002000
00000000
,
00000000
00000000
00000000
00000000
00000000
00000000
00000000
00000300
,
00020000
00000000
00003000
00200000
00000000
00030000
20000000
00000000
,
00000000
00000000
00000000
00000000
00000000
00000000
00000000
00300000
,
02000000
00000000
30000000
00020000
00000000
03000000
00002000
00000000
,
00000000
00000000
00000000
00030000
00003020
00000032
00000203
00002300
,
00020000
00000000
00003000
00200000
00000000
00030000
20000000
00000000
,
00000000
00000000
00000000
00000000
00000000
00000000
00300000
32000000
,
00020000
00000000
03000000
00002000
00000000
00030000
00000020
00000000
,
00000000
00000000
00000000
00003000
00000032
00000203
00002300
00023000
,
00200000
00000000
00030000
20000000
00000000
00000000
00000000
00300000
,
02000000
00000000
00000000
00000000
30000000
00020000
03000000
00002000
,
00000000
00030000
00100000
00000000
01000000
01000000
01000000
00000000
,
00013000
00001000
00010000
00001000
00010000
00001000
00010000
00001000
00010000
00001000
00010000
00001000
00010000
00000000
00000000
00000000
,
00000010
00000000
00001000
00000010
00001000
00000000
00000100
00000000
00000010
00000100
00000010
00000000
00001000
00000000
00010000
00000000
,
00100000
10000000
01000000
00010000
01000000
10000000
00100000
00010000
,
00001000
00000000
01000000
00001000
01000000
00000000
00010000
00000000
00100000
00010000
00100000
00000000
01000000
00000000
00010000
00000000
,
00001000
00000010
00000001
00000100
00001000
00000100
00000001
00000010
,
00001000
00000000
00010000
00001000
00010000
00000000
00000100
00000000
00001000
00000100
00001000
00000000
00000001
00000000
00000010
00000000
,
00001000
00010000
01000000
10000000
00100000
00010000
00100000
10000000
,
01000000
00000000
00010000
01000000
00010000
00000000
00001000
00000000
00010000
00001000
00010000
00000000
00000010
00000000
00001000
00000000
,
00000001
00000100
00001000
00010000
00200000
20300000
32000000
03020000
,
00031000
00000000
00100000
00001000
00100000
00000000
00010000
00000000
01000000
00010000
01000000
00000000
00100000
00000000
10000000
00000000
,
01000000
00010000
00001000
00000010
00000100
00010000
00001000
00000010
,
00000001
00000000
00000100
00000001
00000100
00000000
00001000
00000000
00010000
00001000
00010000
00000000
00100000
00000000
10000000
00000000
,
01000000
00010000
00001000
00100000
00010000
00000010
00000100
00001000
,
00000001
00000000
00000100
00000001
00000100
00000000
00001000
00000000
00000100
00001000
00000100
00000000
00001000
00000000
00010000
00000000
,
00100000
01000000
00100000
00000000
01000000
00000000
00010000
00000000
10000000
00000000
01000000
00000000
00010000
00000000
00001000
00000000
,
00011000
00000000
00000000
00100000
00010000
00000000
00000000
01000000
00001000
00000000
00000000
00010000
00000100
00000000
00000000
00001000
,
00000020
00000000
00000000
00000000
00000100
00000000
00000000
00000030
00001000
00000001
00001000
00000001
00001000
00000001
00001000
00000001
,
00000010
00000000
00000000
00000000
00000100
00001000
00000000
00000100
00010000
00000000
00001000
00000000
00100000
00010000
00000000
00100000
,
01000000
00000000
10000000
00000000
00010000
01000000
00000000
00100000
01000000
00000000
01000000
00000000
00010000
10000000
00000000
01000000
,
10000000
00000000
01000000
00000000
00010000
00001000
00000000
00010000
00000100
00000000
00000100
00000000
00001000
00000001
00000000
00000010
,
00000001
00000000
00000100
00000000
00000010
00001000
00000000
00000001
00000100
00000000
00000100
00000000
00001000
00010000
00000000
00001000
,
00100000
00000000
00000000
00100000
00010000
00000000
00000000
00010000
01000000
00000000
00000000
01000000
10000000
00000000
00000000
00000000
,
01000000
00010000
00100000
00001000
,
00000010
00000100
00010000
00001000
00000010
00000001
00000100
00001000
,
00010000
00000000
00010000
00000000
00100000
00000000
00100000
00000000
10000000
00010000
10000000
00010000
10000000
00010000
10000000
00010000
,
00200000
00000000
00000000
00000000
,
00300000
00000000
00000000
00000000
;
