#VERSION:0.83;
#TITLE:カゴノトリ~弐式~;
#SUBTITLE:;
#ARTIST:橙色特別室;
#TITLETRANSLIT:Kagonotori ~nishiki~;
#SUBTITLETRANSLIT:;
#ARTISTTRANSLIT:Daidaiiro tokubetsushitsu;
#GENRE:和式電子音楽;
#CREDIT:;
#MUSIC:Kagonotori ~nishiki~.ogg;
#BANNER:Kagonotori ~nishiki~.png;
#BACKGROUND:Kagonotori ~nishiki~-bg.png;
#CDTITLE:./CDTitles/bm IIDX 13 DistorteD.png;
#SAMPLESTART:42.790;
#SAMPLELENGTH:15.000;
#SELECTABLE:YES;
#OFFSET:0.915;
#BPMS:0.000=140.000;
#STOPS:;
#TIMESIGNATURES:0.000=3=4,
54.000=4=4
;
#BGCHANGES:4.000=Kagonotori ~nishiki~.mp4=1.000=0=0=0=StretchNoLoop====,
99999.000=-nosongbg-=1.000=0=0=0=StretchNoLoop====
;
#FGCHANGES:;

//--------------- dance-single - forcednature ----------------
#NOTEDATA:;
#STEPSTYPE:dance-single;
#DESCRIPTION:forcednature;
#DIFFICULTY:Beginner;
#METER:2;
#RADARVALUES:0,0,0,0,0;
#CREDIT:forcednature;
#NOTES:
0000
0000
0000
0000
,
0000
0000
0000
0000
,
0000
0000
0000
0000
,
0000
0000
0000
0000
,
0000
0000
0000
0000
,
0000
0000
0000
0000
,
0000
0000
0000
0000
,
0000
0000
0001
0000
,
0000
0000
0000
0000
,
1000
0000
0000
0000
,
0000
0000
0010
0000
,
0000
0000
0000
0000
,
0100
0000
0000
0000
,
0000
0000
0001
0000
,
0000
0000
0000
0000
,
0000
0000
1000
0000
,
0000
0000
0000
0000
,
0000
0000
0100
0000
,
0000
0000
0100
0000
,
0000
0000
0010
0000
,
0000
0000
0010
0000
,
0000
0000
0001
0000
,
0000
0000
0000
0000
,
0000
0000
1000
0000
,
0000
0000
1000
0000
,
0000
0000
0010
0000
,
0000
0000
0100
0000
,
0000
0000
0010
0000
,
0000
0000
0100
0000
,
0000
0000
0001
0000
,
0000
0000
1000
0000
,
0000
0000
0001
0000
,
0000
0000
1000
0000
,
0000
0000
0100
0000
,
0000
0000
0010
0000
,
0000
0000
0100
0000
,
0000
0000
0010
0000
,
0000
0000
0001
0000
,
0000
0000
1000
0000
,
0000
0000
0001
0000
,
0000
0000
1000
0000
,
0000
0000
0010
0000
,
0000
0000
0000
0000
,
0000
0000
0000
0000
,
0000
0000
0000
0000
,
0000
0000
0100
0000
,
0000
0000
0000
0000
,
0000
0000
0001
0000
,
0000
0000
0000
0000
,
0000
0000
1000
0000
,
0000
0000
0000
0000
,
0000
0000
0100
0000
,
0000
0000
0000
0000
,
0000
0000
0110
0000
,
0000
0000
0000
0000
,
0000
0000
1001
0000
,
0000
0000
0000
0000
,
0000
0000
0110
0000
,
0000
0000
1000
0000
,
1000
0000
0001
0000
,
0001
0000
1000
0000
,
1000
0000
0001
0000
,
0001
0000
0100
0000
,
0100
0000
0010
0000
,
0010
0000
0100
0000
,
0100
0000
0010
0000
,
0010
0000
1001
0000
;

//--------------- dance-single - forcednature ----------------
#NOTEDATA:;
#STEPSTYPE:dance-single;
#DESCRIPTION:forcednature;
#DIFFICULTY:Easy;
#METER:6;
#RADARVALUES:0,0,0,0,0;
#CREDIT:forcednature;
#NOTES:
0000
0000
0000
0000
,
0000
0000
0000
0000
,
0000
0000
0000
0000
,
0000
0000
0000
0000
,
0000
0000
0000
0000
,
0000
0000
0000
0000
,
0000
0000
0000
0000
,
0000
0000
1000
0000
,
1000
0100
0000
0100
,
0010
0000
0010
0001
,
0000
0001
0100
0000
,
0010
0100
0000
0010
,
1000
0000
0001
0010
,
0000
0000
0100
0000
,
1000
0000
0001
0000
,
1000
0000
0010
0000
,
1000
0000
0001
0000
,
1000
0000
0100
0000
,
1001
0000
0001
0001
,
0100
0000
0010
0000
,
1000
0000
0100
0100
,
0010
0000
0001
0000
,
0100
0000
0010
0000
,
0100
0000
0001
0001
,
1000
1000
0200
0000
,
0320
0000
0031
0001
,
1000
1000
0001
0001
,
1000
1000
0010
0010
,
0100
0100
0010
0010
,
0100
0100
0001
0001
,
1000
1000
0001
0001
,
1000
1000
0100
0100
,
0010
0010
0100
0100
,
0010
0010
0001
0001
,
0100
0100
0001
0001
,
0100
0100
0010
0010
,
1000
1000
0010
0010
,
1000
1000
0001
0001
,
0010
0010
0001
0001
,
0010
0010
0100
0100
,
1000
1000
0100
0100
,
1000
1000
2002
0000
,
0000
0000
0000
0000
,
0000
0000
0000
0000
,
0000
0000
3003
0000
,
0000
0000
1000
0000
,
0100
0000
1000
0010
,
1000
0000
0001
0000
,
0100
0000
0001
0010
,
0001
0000
0100
0000
,
0010
0000
1000
0001
,
1000
0000
0100
0000
,
0010
0000
0001
1000
,
0001
0000
1001
0000
,
1000
0000
0010
0010
,
0100
0000
1001
0000
,
0001
0000
0010
0010
,
0100
0000
1001
0000
,
0000
0000
1000
0010
,
1000
0010
0100
0001
,
0100
0001
0010
0100
,
0010
0100
1000
0001
,
1000
0001
0100
0001
,
0100
0001
1000
0100
,
1000
0100
0010
0001
,
0010
0001
1000
1000
,
0010
0010
0100
0000
,
0100
0000
0100
0000
,
0100
0000
0000
0000
;

//--------------- dance-single - forcednature ----------------
#NOTEDATA:;
#STEPSTYPE:dance-single;
#DESCRIPTION:forcednature;
#DIFFICULTY:Medium;
#METER:10;
#RADARVALUES:0,0,0,0,0;
#CREDIT:forcednature;
#NOTES:
0000
0000
0000
0000
,
0000
0000
0000
0000
,
0000
0000
0000
0000
,
0000
0000
0000
0000
,
0000
0000
0000
0000
,
0000
0000
0000
0000
,
0000
0000
0000
0000
,
0000
0000
0000
0000
1001
0000
0001
0100
,
0001
0000
1000
0000
0010
0100
0010
0000
,
1000
0000
0100
1000
0100
0000
0010
0000
,
0100
0010
0100
0000
0010
0000
0001
1000
,
0001
0000
0100
0000
0010
1000
0010
0000
,
0100
0000
0001
1000
0001
0000
0010
0000
,
0100
1000
0100
0000
0020
0000
0032
0000
,
0103
0100
0020
2030
,
3100
0100
0020
0032
,
0103
0100
0020
2030
,
3100
0000
0100
0000
0010
0001
0000
0001
,
0100
0000
0110
0000
0010
0000
1000
0001
,
1000
0000
0100
0000
0010
0001
0000
0001
,
1000
0000
0010
0000
0100
0001
0100
0001
,
1000
0000
2000
3002
,
0103
0100
0002
2003
,
3100
0000
0100
0000
1000
0001
1000
0000
,
0001
1000
0001
0000
0100
0010
0100
0010
,
0100
0010
1000
0000
1000
0100
0010
0001
,
0100
0000
0110
0000
0001
0100
0010
1000
,
0100
0000
0110
0000
1000
0100
0010
0001
,
0100
0000
0110
0000
0001
0100
0010
1000
,
0100
0000
0110
0000
0010
0001
1000
0001
,
0100
0000
1001
0000
0010
1000
0001
1000
,
0100
0000
1001
0000
0010
0001
1000
0001
,
0100
0000
1001
0000
0010
1000
0001
1000
,
0100
0000
1001
0000
1000
0100
1000
0010
,
0001
0000
0110
0000
0001
0100
0001
0010
,
1000
0000
0110
0000
1000
0100
1000
0010
,
0001
0000
0110
0000
0001
0100
0001
0010
,
1000
0000
0110
0000
1000
0100
0001
0100
,
1000
0000
0011
0000
0001
0100
1000
0100
,
0001
0000
1010
0000
1000
0100
0001
0100
,
1000
0011
1001
0110
,
0001
0000
0000
0001
0000
0000
1000
0000
0020
0000
0000
0000
0000
0000
0000
0000
,
0000
0000
0000
0000
,
0000
0000
0000
0000
,
0000
0000
0030
0000
,
0000
0000
1000
0100
,
1000
0001
1000
0010
,
1000
0000
0001
0100
,
0001
1000
0001
0010
,
0001
0000
0100
0010
,
1000
0001
0100
0010
,
1000
0000
0100
0010
,
0001
1000
0100
0010
,
0001
0000
1001
1000
,
0010
0000
1000
0000
0100
0000
1000
0100
,
1000
0000
1001
0001
,
0010
0000
0001
0000
1000
0000
0001
0100
,
0001
0000
0001
1000
0020
0000
0000
0000
,
0000
0000
0000
0000
1030
0100
0010
0001
,
0011
0000
1100
0000
1000
0010
0100
0001
,
0101
0000
1010
0000
0001
0010
0100
1000
,
1100
0000
0011
0000
0001
0100
0010
1000
,
1010
0000
0101
0000
1000
0100
0001
0100
,
1100
0000
0011
0000
0001
0100
1000
0100
,
0101
0000
1010
0000
1000
0010
0001
0010
,
0110
0000
1001
0000
0001
0001
0010
0010
,
0100
1000
0100
1000
0010
0000
0010
0000
,
0100
0100
0001
1000
,
0001
1000
0000
0000
;

//--------------- dance-single - forcednature ----------------
#NOTEDATA:;
#STEPSTYPE:dance-single;
#DESCRIPTION:forcednature;
#DIFFICULTY:Hard;
#METER:16;
#RADARVALUES:0,0,0,0,0;
#CREDIT:forcednature;
#NOTES:
0000
0000
0000
0000
,
0000
0000
0000
0000
,
0000
0000
0000
0000
,
0000
0000
0000
0000
,
0000
0000
0000
0000
,
0000
0000
0000
0000
,
0000
0000
0000
0000
,
0000
0000
0000
0000
1200
0000
0310
0001
,
0201
0000
0310
1000
0001
1000
0100
0000
,
0210
0000
0310
0001
1002
0000
1003
0010
,
0001
0001
0010
0000
0120
0000
0130
0001
,
0021
0000
0130
1000
0010
1000
0001
0010
,
0210
0000
1300
0010
0210
0000
0301
1000
,
0100
0010
0100
0010
0001
0000
0000
0000
1002
0000
0003
0000
0002
0000
0003
0000
,
2000
3000
2000
3000
0002
0003
0002
0003
,
2000
3000
2000
3000
0020
0030
0020
0030
,
0200
0300
0200
0300
0020
0030
0020
0030
,
0200
0000
0300
0000
0200
0000
0300
0000
0001
0010
0001
0010
0000
0000
0100
0000
,
1001
0000
0000
0000
0110
0000
0000
0000
1000
0010
0000
0000
0100
0000
0001
0000
,
0010
0100
0000
0000
1000
0000
0000
0000
0010
1000
0010
1000
0100
0000
0010
0000
,
0101
0000
0000
0000
1100
0000
0000
0000
0001
0010
0000
0000
0100
0000
1000
0000
,
1001
0000
0000
0000
0002
0003
0002
0003
,
2000
3000
2000
3000
0002
0003
0002
0003
,
2000
0000
3000
0000
2000
0000
3000
0000
0010
0100
0010
0100
0001
1000
0001
1000
,
0100
0010
0100
0010
0001
1000
0001
0000
1000
0010
0100
0001
1000
0010
0100
0001
,
1000
0100
0010
0001
0100
0010
1000
0001
1000
0100
0010
0000
0010
0100
1000
0000
,
0011
0000
0100
0000
1010
0000
0100
0000
0001
0100
0010
0000
0010
0100
0001
0000
,
1010
0000
0100
0000
0011
0000
0100
0000
1000
0010
0100
0000
0100
0010
1000
0000
,
0101
0000
0010
0000
1100
0000
0010
0000
0001
0010
0100
0000
0100
0010
0001
0000
,
1100
0000
0010
0000
0101
0000
0010
0000
1000
0100
0001
0000
0001
0100
1000
0000
,
0011
0000
0100
0000
1010
0000
0100
0000
0001
0100
1000
0000
1000
0100
0001
0000
,
1010
0000
0100
0000
0011
0000
0100
0000
0001
0010
1000
0000
1000
0010
0001
0000
,
1100
0000
0010
0000
0101
0000
0010
0000
1000
0010
0001
0000
0001
0010
1000
0000
,
0101
0000
0010
0000
1100
0000
0010
0000
1000
0100
0010
0001
0010
0100
1000
0000
,
0011
0000
0100
0000
1010
0000
0100
0000
0001
0100
0010
1000
0010
0100
0001
0000
,
1010
0000
0100
0000
0011
0000
0100
0000
1000
0010
0100
0001
0010
0001
0100
0000
,
0011
0000
0100
0000
1010
0000
0100
0000
0001
0010
0100
1000
0010
1000
0100
0000
,
1010
0000
0100
0000
0011
0000
0100
0000
0001
0100
0010
0100
1000
0100
0001
0000
,
0011
0000
0100
0000
1010
0000
0100
0000
1000
0100
0010
0100
0001
0100
1000
0000
,
1010
0000
0100
0000
0011
0000
0100
0000
0001
0010
0100
0010
1000
0010
0001
0000
,
0101
0000
0010
0000
1100
0000
0010
0000
0110
0000
0000
0000
1001
0000
0001
1000
,
0010
0001
0010
1000
0100
0000
0110
0000
2002
0000
0000
0000
0000
0000
0000
0000
,
0000
0000
0000
0000
,
0000
0000
0000
0000
,
0000
0000
3003
0000
,
0000
0000
2000
3200
,
2300
0000
3020
0000
0230
0000
0301
1000
,
0020
0030
0200
0302
,
0023
0000
0032
0000
0203
0000
0310
1000
,
0002
0003
0020
0230
,
2300
0000
3200
0000
0320
0000
0031
1000
,
0020
0000
0030
0000
0200
0000
0301
1000
,
0200
0000
0320
0000
0031
0100
0010
1000
,
0002
0003
2001
0100
,
0001
0000
0010
0000
0001
0000
0100
0100
,
3100
0000
0000
0000
0000
0000
0001
1000
0001
1000
0001
1000
0002
0000
0000
0000
0000
0000
0100
0000
0000
0000
0000
0000
,
1000
0000
0010
0000
1000
0000
0100
0100
,
1003
0000
0001
0000
1000
0000
0001
0000
1000
0000
0001
0000
0010
0000
0000
0100
0000
0000
0010
0000
0000
0100
0000
0000
2000
0000
0000
0000
0000
0000
0000
0000
0000
0000
0000
0000
0000
0000
0000
0000
0000
0000
0000
0000
0000
0000
0000
0000
,
0000
0000
0000
0000
0000
0000
0000
0000
3001
0100
0010
1000
0001
0100
0010
1000
,
0002
0000
0100
0000
1000
0000
0013
0000
1000
0100
0010
0001
1000
0100
0010
0001
,
2000
0000
0100
0000
0001
0000
3010
0000
0001
0010
0100
1000
0001
0010
0100
1000
,
0002
0000
0010
0000
1000
0000
0103
0000
1000
0010
0100
0001
1000
0010
0100
0001
,
2000
0000
0010
0000
0001
0000
3100
0000
0100
1000
0010
1000
0001
0010
0001
0100
,
0020
0000
0001
0000
0100
0000
1030
0000
0010
1000
0100
1000
0001
0100
0001
0010
,
0200
0000
0001
0000
0010
0000
1300
0000
0100
1000
0010
0100
0001
0010
0001
0100
,
0020
0000
0001
0000
0100
0000
1030
0000
0010
0100
0001
1000
0100
0010
0001
1000
,
0010
0100
0010
0100
0010
0100
0001
1000
0001
1000
0001
1000
0200
0000
0000
0310
0000
0000
2000
0000
0000
3010
0000
0000
,
0002
0013
0002
0013
0100
0010
0100
0010
,
0100
0010
0100
0010
0000
0000
0000
0000
;

//--------------- dance-single - forcednature ----------------
#NOTEDATA:;
#STEPSTYPE:dance-single;
#DESCRIPTION:forcednature;
#DIFFICULTY:Challenge;
#METER:13;
#RADARVALUES:0,0,0,0,0;
#CREDIT:forcednature;
#NOTES:
0000
0000
0000
0000
,
0000
0000
0000
0000
,
0000
0000
0000
0000
,
0000
0000
0000
0000
,
0000
0000
0000
0000
,
0000
0000
0000
0000
,
0000
0000
0000
0000
,
0000
0000
2001
3020
,
0230
0000
0302
0000
1003
0100
1000
0100
,
0020
0000
0032
0000
2003
0000
3010
0100
,
0010
0100
0002
0000
0023
0000
0230
0000
,
2300
0000
3200
0000
0310
0001
0010
0001
,
2000
0000
3020
0000
0230
0000
0301
1000
,
0100
0010
0002
0000
1003
0000
1000
0000
,
0001
0001
1000
1000
,
0001
0001
0100
0100
,
0010
0010
0100
0100
,
0010
0000
0010
0000
1000
0001
0000
0001
,
0010
0000
0110
0000
0100
0000
1000
0100
,
0020
0000
0030
0000
0001
0100
0000
0010
,
1001
0000
1000
0000
0001
0000
0100
0010
,
2000
3000
0001
0001
,
1000
1000
0001
0001
,
1000
1000
0010
0010
,
0100
0100
0002
0010
,
1000
0000
0000
0000
0103
0000
0000
0000
1000
0100
0000
0000
0010
0001
0000
0000
,
0011
0000
MMMM
0000
1100
0000
MMMM
0000
1000
0010
0000
0000
0100
0001
0000
0000
,
0101
0000
MMMM
0000
1010
0000
MMMM
0000
0001
0010
0000
0000
0100
1000
0000
0000
,
1100
0000
MMMM
0000
0011
0000
MMMM
0000
0001
0100
0000
0000
0010
1000
0000
0000
,
1010
0000
MMMM
0000
0101
0000
MMMM
0000
0001
0010
0000
0000
1000
0010
0000
0000
,
0110
0000
MMMM
0000
1001
0000
MMMM
0000
1000
0100
0000
0000
0001
0100
0000
0000
,
0110
0000
MMMM
0000
1001
0000
MMMM
0000
1000
0010
0000
0000
0001
0010
0000
0000
,
1001
0000
MMMM
0000
0110
0000
MMMM
0000
0001
0100
0000
0000
1000
0100
0000
0000
,
1001
0000
MMMM
0000
0110
0000
MMMM
0000
1000
0010
0000
0000
0001
0100
0000
0000
,
1010
0000
MMMM
0000
0101
0000
MMMM
0000
0001
0010
0000
0000
1000
0100
0000
0000
,
0011
0000
MMMM
0000
1100
0000
MMMM
0000
1000
0010
0000
0000
0001
0010
0000
0000
,
1100
0000
MMMM
0000
0101
0000
MMMM
0000
0001
0010
0000
0000
1000
0010
0000
0000
,
1100
0000
MMMM
0000
0101
0000
MMMM
0000
0100
1000
0000
0000
0100
0001
0000
0000
,
0011
0000
MMMM
0000
1010
0000
MMMM
0000
0100
1000
0000
0000
0100
0001
0000
0000
,
0011
0000
MMMM
0000
1010
0000
MMMM
0000
1000
0001
0000
0000
0001
1000
0000
0000
,
1100
MMMM
0101
MMMM
0110
MMMM
1001
MMMM
,
1000
0010
0000
0100
0001
0000
1001
0000
0220
0000
0000
0000
0000
0000
0000
0000
,
0000
0000
0000
0000
,
0000
0000
0000
0000
,
0000
0000
0330
0000
,
0000
0000
2000
3200
,
0320
0000
0230
0000
2300
0000
3001
0010
,
0200
0300
2000
3002
,
0203
0000
0302
0000
0023
0000
0130
1000
,
0002
0003
0200
0320
,
2030
0000
3002
0000
0023
0000
0130
1000
,
0002
0000
0003
0000
0200
0000
0301
0010
,
0002
0000
2003
0000
3020
0000
0130
0001
,
2000
3000
1200
0320
,
0032
0000
2003
0000
3020
0000
0130
0001
,
0020
0030
0021
0230
,
2300
0000
3002
0000
2003
0000
3010
0100
,
0001
0001
1000
0001
2002
0000
0000
0000
,
0000
0000
0000
0000
3003
0000
0000
0000
1000
0100
0000
0000
0001
0010
0000
0000
,
0101
0000
MMMM
0000
1100
0000
MMMM
0000
0001
0100
0000
0000
1000
0010
0000
0000
,
1100
0000
MMMM
0000
0101
0000
MMMM
0000
0010
0001
0000
0000
0100
1000
0000
0000
,
1010
0000
MMMM
0000
0011
0000
MMMM
0000
0010
1000
0000
0000
0100
0001
0000
0000
,
0011
0000
MMMM
0000
1010
0000
MMMM
0000
0100
0010
0000
0000
0001
1000
0000
0000
,
0110
0000
MMMM
0000
1001
0000
MMMM
0000
0100
0010
0000
0000
1000
0001
0000
0000
,
0110
0000
MMMM
0000
1001
0000
MMMM
0000
1000
0010
0000
0000
0001
0100
0000
0000
,
0011
0000
MMMM
0000
1100
0000
MMMM
0000
0001
0010
0000
0000
1100
0000
MMMM
0000
,
1000
0010
0000
0000
0101
0000
MMMM
0000
2000
0000
0000
0000
3200
0000
0000
0000
,
2300
3200
0310
0010
,
0010
0010
0000
0000
;

//--------------- dance-double - forcednature ----------------
#NOTEDATA:;
#STEPSTYPE:dance-double;
#DESCRIPTION:forcednature;
#DIFFICULTY:Easy;
#METER:4;
#RADARVALUES:0,0,0,0,0;
#CREDIT:forcednature;
#NOTES:
00000000
00000000
00000000
00000000
,
00000000
00000000
00000000
00000000
,
00000000
00000000
00000000
00000000
,
00000000
00000000
00000000
00000000
,
00000000
00000000
00000000
00000000
,
00000000
00000000
00000000
00000000
,
00000000
00000000
00000000
00000000
,
00000000
00000000
00010000
00000000
,
00000000
00000000
00001000
00000000
,
01000000
00000000
00000000
00000000
,
00001000
00000000
00010000
00000000
,
00000000
00000000
00001000
00000000
,
00100000
00000000
00000000
00000000
,
00001000
00000000
00010000
00000000
,
00000100
00000000
00010000
00000000
,
00000100
00000000
00010000
00000000
,
00000100
00000000
00010000
00000000
,
00000100
00000000
00001000
00000000
,
00000010
00000000
00001000
00001000
,
00001000
00000000
00000001
00000000
,
00000010
00000000
00000001
00000001
,
00000001
00000000
00000100
00000000
,
00000010
00000000
00001000
00000000
,
00000010
00000000
00000100
00000000
,
00000010
00000000
00001000
00000000
,
00000010
00000000
00010000
00010000
,
00001000
00000000
00010000
00010000
,
00001000
00000000
00100000
00100000
,
00001000
00000000
00100000
00100000
,
00001000
00000000
00001000
00001000
,
00010000
00000000
00001000
00001000
,
00010000
00000000
00000010
00000010
,
00010000
00000000
00000010
00000010
,
00010000
00000000
00010000
00010000
,
00001000
00000000
00010000
00010000
,
00001000
00000000
01000000
01000000
,
00001000
00000000
01000000
01000000
,
00001000
00000000
00001000
00001000
,
00010000
00000000
00001000
00001000
,
00010000
00000000
00000100
00000100
,
00010000
00000000
00000100
00000100
,
00010000
00000000
00022000
00000000
,
00000000
00000000
00000000
00000000
,
00000000
00000000
00000000
00000000
,
00000000
00000000
00033000
00000000
,
00000000
00000000
00001000
00000000
,
00100000
00000000
00010000
00000000
,
00000000
00000000
00001000
00000000
,
00000100
00000000
00010000
00000000
,
00000000
00000000
00000010
00000000
,
00001000
00000000
00000010
00000000
,
00000000
00000000
00010000
00000000
,
00001000
00000000
00010000
00000000
,
00000000
00000000
00100000
00000000
,
01000000
00000000
00100000
01000000
,
00100000
00000000
10000000
00000000
,
00010000
00000000
10000000
00010000
,
10000000
00000000
10010000
00000000
,
00000000
00000000
00010000
00000000
,
01000000
00000000
00010000
00000000
,
00100000
00000000
00001000
00000000
,
00010000
00000000
00000100
00000000
,
00001000
00000000
00000010
00000000
,
00001000
00000000
00000001
00000000
,
00000100
00000000
00000001
00000000
,
00001000
00000000
00000010
00000010
,
00000010
00000000
00001001
00000000
;

//--------------- dance-double - forcednature ----------------
#NOTEDATA:;
#STEPSTYPE:dance-double;
#DESCRIPTION:forcednature;
#DIFFICULTY:Medium;
#METER:10;
#RADARVALUES:0,0,0,0,0;
#CREDIT:forcednature;
#NOTES:
00000000
00000000
00000000
00000000
,
00000000
00000000
00000000
00000000
,
00000000
00000000
00000000
00000000
,
00000000
00000000
00000000
00000000
,
00000000
00000000
00000000
00000000
,
00000000
00000000
00000000
00000000
,
00000000
00000000
00000000
00000000
,
00000000
00000000
00010000
00001000
,
01000000
00010000
00100000
00100000
,
00001000
00010000
00000100
00001000
,
00000010
00000010
00010000
00001000
,
00100000
00010000
01000000
01000000
,
00001000
00010000
00000010
00001000
,
00000100
00000100
00020000
00032000
,
01003000
01000000
00002000
00023000
,
00030100
00000100
00020000
00032000
,
01003000
01000000
00002000
00023000
,
00030100
00000100
00000110
00000000
,
00000010
00000001
00000100
00001000
,
00010000
00000000
00011000
00000000
,
00001000
00010000
01000000
10000000
,
00100000
00000000
02000000
23000000
,
31000000
01000000
00020000
00230000
,
00310000
00010000
00002000
00003200
,
00001300
00001000
00000020
00000032
,
00000013
00000000
00000010
00000000
00010000
00001000
01000000
00000000
,
00100000
00000000
00011000
00000000
00001000
00010000
00000100
00000000
,
00000010
00000000
00011000
00000000
00010000
00001000
01000000
00000000
,
00100000
00000000
00011000
00000000
00001000
00010000
00000100
00000000
,
00000010
00000000
00011000
00000000
00100000
00010000
01000000
00000000
,
00001000
00000000
00011000
00000000
00000010
00001000
00000100
00000000
,
00010000
00000000
00011000
00000000
00100000
00010000
01000000
00000000
,
00001000
00000000
00011000
00000000
00000010
00001000
00000100
00000000
,
00010000
00000000
00011000
00000000
01000000
00010000
00100000
00000000
,
01000000
00000000
00011000
00000000
00000100
00001000
00000010
00000000
,
00000100
00000000
00011000
00000000
00100000
00010000
01000000
00000000
,
00100000
00000000
00011000
00000000
00000010
00001000
00000100
00000000
,
00000010
00000000
00011000
00000000
01000000
00001000
00010000
00000000
,
01000000
00000000
00011000
00000000
00000100
00010000
00001000
00000000
,
00000100
00000000
00011000
00000000
00100000
00001000
00010000
00000000
,
00100000
00011000
00010010
00001010
,
00000001
00000001
00001000
00001000
00000002
00000000
00000000
00000000
,
00000000
00000000
00000000
00000000
,
00000000
00000000
00000000
00000000
,
00000000
00000000
00000003
00000000
,
00000000
00000000
00000010
00000100
,
00010000
00000000
00001000
00000000
00100000
00000000
01000000
10000000
,
01000000
00000000
00100000
00001000
,
00010000
00000000
00000100
00000000
00001000
00000000
00000010
00000100
,
00000010
00000000
00000100
00000010
,
00010000
00000000
00001000
00000000
01000000
00000000
00100000
10000000
,
00100000
00000000
00000000
00000000
01000000
00000000
00010000
10000000
,
00010000
00000000
00100000
00000000
01000000
10000000
01000000
00010000
,
00001000
00000000
00101000
00001000
,
00010000
00000000
00000100
00000000
00001000
00000000
00000100
00010000
,
00001000
00000000
00010010
00010000
,
00001000
00000000
01000000
00000000
00010000
00000000
01000000
00001000
,
00010000
00000000
00011000
00000000
,
00000000
00000000
00000000
00000000
10000000
01000000
00010000
00000000
,
00011000
00000000
00000110
00000000
00000001
00000100
00001000
00000000
,
00011000
00000000
01100000
00000000
10000000
01000000
00010000
00000000
,
00011000
00000000
00000110
00000000
00000001
00000100
00001000
00000000
,
00011000
00000000
01100000
00000000
10000000
00100000
00010000
00000000
,
00011000
00000000
00000110
00000000
00000001
00000010
00001000
00000000
,
00011000
00000000
01100000
00000000
10000000
00100000
00010000
00000000
,
00011000
00000110
00001001
00000110
,
00000001
00000001
00001000
00001000
00000001
00000000
00001000
00000000
,
00010000
10000000
00100000
00100000
,
00100000
00100000
00000000
00000000
;

//--------------- dance-double - forcednature ----------------
#NOTEDATA:;
#STEPSTYPE:dance-double;
#DESCRIPTION:forcednature;
#DIFFICULTY:Hard;
#METER:16;
#RADARVALUES:0,0,0,0,0;
#CREDIT:forcednature;
#NOTES:
00000000
00000000
00000000
00000000
,
00000000
00000000
00000000
00000000
,
00000000
00000000
00000000
00000000
,
00000000
00000000
00000000
00000000
,
00000000
00000000
00000000
00000000
,
00000000
00000000
00000000
00000000
,
00000000
00000000
00000000
00000000
,
00000000
00000000
00000000
00000000
00021000
00000000
00130000
10000000
,
12000000
00000000
03100000
00001000
00010000
00000100
00001000
00000000
,
00000021
00000000
00000031
00000100
00002100
00000000
00013000
00100000
,
01000000
00010000
00100000
00000000
02100000
00000000
03010000
00001000
,
00021000
00000000
00030010
00000100
00001000
00000100
00000001
00000010
,
00000210
00000000
00010300
00001000
00201000
00000000
00310000
10000000
,
00100000
01000000
00100000
01000000
00010000
00000000
00000000
00000000
20010000
00000000
30000000
00000000
02000000
00000000
03000000
00000000
,
00020000
00030000
00002000
00003000
00001002
00000003
00000200
00000300
,
00002000
00003000
00020000
00030000
20010000
30000000
02000000
03000000
,
00020000
00030000
00002000
00003000
00001002
00000003
00000200
00000300
,
00002000
00000000
00003000
00000000
00020000
00000000
00030000
00000000
00100000
01000000
00100000
01000000
00000000
00000000
00010000
00000000
,
10010000
00000000
00000000
00000000
01100000
00000000
00000000
00000000
10000000
01000000
00000000
00000000
00010000
00000000
00001000
00000000
,
00000010
00000100
00000000
00000000
00001000
00000000
00000000
00000000
00000001
00000100
00000001
00000100
00000010
00000000
00000001
00000000
,
00000011
00000000
00000000
00000000
00001010
00000000
00000000
00000000
00001000
00000100
00000000
00000000
00010000
00000000
00001000
00000000
,
00011000
00000000
00000000
00000000
02000000
03000000
00020000
00030000
,
00000200
00000300
00002000
00003000
02000000
03000000
00002000
00003000
,
00000200
00000000
00000300
00000000
00002000
00000000
00003000
00000000
00010000
00001000
00010000
00000100
00001000
00000100
00010000
00001000
,
01000000
00010000
01000000
00001000
00010000
00000010
00001000
00000010
00010000
00001000
00100000
00001000
00010000
00001000
01000000
00001000
,
00010000
00001000
00010000
00001000
00010000
00001000
00010000
00001000
01000000
00010000
00100000
00000000
00100000
00010000
01000000
00000000
,
01001000
00000000
00001000
00000000
00011000
00000000
00000000
00000000
00000100
00001000
00000010
00000000
00000010
00001000
00000100
00000000
,
00010100
00000000
00010000
00000000
00011000
00000000
00000000
00000000
00100000
00010000
01000000
00000000
01000000
00010000
00100000
00000000
,
00101000
00000000
00001000
00000000
00011000
00000000
00000000
00000000
00000010
00001000
00000100
00000000
00000100
00001000
00000010
00000000
,
00010010
00000000
00010000
00000000
00011000
00000000
00001000
00000000
01000000
00010000
00100000
00000000
01000000
00100000
00010000
00000000
,
00101000
00000000
00010000
00000000
00010100
00000000
00000000
00000000
00000100
00001000
00000010
00000000
00000100
00000010
00001000
00000000
,
00010010
00000000
00001000
00000000
01001000
00000000
00000000
00000000
00100000
00010000
01000000
00000000
00100000
01000000
00010000
00000000
,
01001000
00000000
00010000
00000000
00010010
00000000
00000000
00000000
00000010
00001000
00000100
00000000
00000010
00000100
00001000
00000000
,
00010100
00000000
00001000
00000000
00101000
00000000
00100000
00000000
00010000
01000000
00001000
00010000
00000010
00001000
00000010
00000000
,
00000110
00000000
00000100
00000000
00001001
00000000
00000000
00000000
00001000
00000100
00010000
00001000
00100000
00010000
00100000
00000000
,
01100000
00000000
01000000
00000000
10010000
00000000
00000000
00000000
00010000
00100000
00001000
00010000
00000100
00001000
00000100
00000000
,
00000110
00000000
00000010
00000000
00001001
00000000
00000000
00000000
00001000
00000010
00010000
00001000
01000000
00010000
01000000
00000000
,
01100000
00000000
00100000
00000000
10010000
00000000
00000000
00000000
10000000
01000000
00100000
01000000
10000000
01000000
00010000
00000000
,
00011000
00000000
00000010
00000000
00001001
00000000
00000000
00000000
00000001
00000100
00000010
00000100
00000001
00000100
00001000
00000000
,
00011000
00000000
00100000
00000000
10010000
00000000
00000000
00000000
10000000
00100000
01000000
00100000
10000000
00100000
00010000
00000000
,
00011000
00000000
00000100
00000000
00001001
00000000
00000000
00000000
00000110
00000000
00000000
00000000
00011000
00000000
00000000
00001000
,
00100000
00010000
00100000
01000000
10000000
00000000
10010000
00000000
02200000
00000000
00000000
00000000
00000000
00000000
00000000
00000000
,
00000000
00000000
00000000
00000000
,
00000000
00000000
00000000
00000000
,
00000000
00000000
03300000
00000000
,
00000000
00000000
20000000
32000000
,
03020000
00000000
00030020
00000000
00002030
00000000
00003001
00000010
,
00000200
00000300
00000002
00000203
,
00020300
00000000
00030020
00000000
00002030
00000000
00013000
01000000
,
00200000
00300000
20000000
32000000
,
03020000
00000000
00030020
00000000
00002030
00000000
00003001
00000100
,
00000020
00000000
00000030
00000000
00000200
00000000
00001300
00010000
,
02000000
00000000
03200000
00000000
00301000
00010000
00100000
10000000
,
00020000
00030000
10020000
01000000
,
10000000
00000000
00100000
00000000
00032000
00000000
00000100
00000100
,
00003100
00000000
00000000
00000000
00000000
00000000
00010000
00001000
00010000
00001000
00010000
00001000
00020000
00000000
00000000
00000000
00000000
00000000
00000100
00000000
00000000
00000000
00000000
00000000
,
00001000
00000000
00100000
00000000
00000010
00000000
00001000
00001000
,
00031000
00000000
00010000
00000000
00001000
00000000
00010000
00000000
00001000
00000000
00010000
00000000
00001000
00000000
00000000
01000000
00000000
00000000
00010000
00000000
00000000
01000000
00000000
00000000
00200000
00000000
00000000
00000000
00000000
00000000
00000000
00000000
00000000
00000000
00000000
00000000
00000000
00000000
00000000
00000000
00000000
00000000
00000000
00000000
00000000
00000000
00000000
00000000
,
00000000
00000000
00000000
00000000
00000000
00000000
00000000
00000000
10300000
01000000
00100000
00001000
00010000
00000100
00000010
00000001
,
00000100
00000000
00000000
00000000
00001001
00000000
00000000
00000000
00000001
00000100
00000010
00010000
00001000
01000000
00100000
10000000
,
01000000
00000000
00000000
00000000
10010000
00000000
00000000
00000000
10000000
01000000
00100000
00010000
00001000
00000100
00000010
00000001
,
00000100
00000000
00000000
00000000
00001001
00000000
00000000
00000000
00000001
00000100
00000010
00001000
00010000
01000000
00100000
10000000
,
01000000
00000000
00000000
00000000
10010000
00000000
00010000
00000000
10000000
01000000
00010000
00001000
00100000
00001000
00010000
00000100
,
00000010
00000000
00000000
00000000
00001001
00000000
00000000
00000000
00000001
00000100
00001000
00010000
00000010
00010000
00001000
01000000
,
00100000
00000000
00000000
00000000
10010000
00000000
00000000
00000000
10000000
01000000
00010000
00001000
00000100
00000001
00000010
00000001
,
00000100
00000000
00000000
00000000
00001001
00000000
00000000
00000000
00000001
00000100
00000010
00000100
00001000
00010000
00001000
00100000
,
00010000
10000000
00010000
10000000
00010000
10000000
01000000
10000000
01000000
10000000
01000000
10000000
02000000
00000000
00000000
03010000
00000000
00000000
00002000
00000000
00000000
00013000
00000000
00000000
,
00000020
00010030
00000020
00010030
00000100
00010000
00000100
00010000
,
00000100
00010000
00000100
00010000
00000000
00000000
00000000
00000000
;

//--------------- dance-double - forcednature ----------------
#NOTEDATA:;
#STEPSTYPE:dance-double;
#DESCRIPTION:forcednature;
#DIFFICULTY:Challenge;
#METER:13;
#RADARVALUES:0,0,0,0,0;
#CREDIT:forcednature;
#NOTES:
00000000
00000000
00000000
00000000
,
00000000
00000000
00000000
00000000
,
00000000
00000000
00000000
00000000
,
00000000
00000000
00000000
00000000
,
00000000
00000000
00000000
00000000
,
00000000
00000000
00000000
00000000
,
00000000
00000000
00000000
00000000
,
00000000
00000000
00001000
00010000
,
00100000
01000000
01100000
10010000
,
10000000
01000000
00010000
00001000
,
00000010
00000010
00000010
00000000
00000001
00000000
00000100
00000000
,
00001000
00010000
00011000
01100000
,
10000000
01000000
00010000
00001000
,
00000010
00000010
00000010
00000000
00000001
00000000
00000100
00000000
,
00001000
00011000
10000000
01000000
,
00010000
00011000
00000001
00000100
,
00001000
00011000
10000000
01000000
,
00010000
00000000
00011000
00000000
00000010
00000010
00000000
00000010
,
00001000
00000000
00001100
00000000
00000100
00000000
00010000
00001000
,
00100000
00000000
00110000
00000000
00010000
00010000
00000000
01000000
,
00001000
00000000
00011000
00000000
00010000
00000000
00000010
00001000
,
00000001
00000000
00000100
00001000
,
00010000
01100000
01000000
00010000
,
00001000
00000000
00000110
00000000
00000001
00000100
00000010
00001000
,
00010000
01000000
00100000
10000000
01000000
00010000
01000000
10000000
,
00200000
00000000
00000000
00000000
00300000
00000000
00000000
00000000
00010000
00001000
00000000
00000000
01000000
00100000
00000000
00000000
,
0110MMMM
00000000
00000000
00000000
1001MMMM
00000000
00000000
00000000
00001000
00010000
00000000
00000000
00000100
00000010
00000000
00000000
,
MMMM0110
00000000
00000000
00000000
MMMM1001
00000000
00000000
00000000
00010000
00001000
00000000
00000000
01000000
00100000
00000000
00000000
,
0110MMMM
00000000
00000000
00000000
1001MMMM
00000000
00000000
00000000
00001000
00010000
00000000
00000000
00000100
00000010
00000000
00000000
,
MMMM0110
00000000
00000000
00000000
MMMM1001
00000000
00000000
00000000
00010000
00001000
00000000
00000000
00100000
01000000
00000000
00000000
,
0110MMMM
00000000
00000000
00000000
1001MMMM
00000000
00000000
00000000
00001000
00010000
00000000
00000000
00000010
00000100
00000000
00000000
,
MMMM0110
00000000
00000000
00000000
MMMM1001
00000000
00000000
00000000
00010000
00001000
00000000
00000000
00100000
01000000
00000000
00000000
,
0110MMMM
00000000
00000000
00000000
1001MMMM
00000000
00000000
00000000
00001000
00010000
00000000
00000000
00000010
00000100
00000000
00000000
,
MMMM0110
00000000
00000000
00000000
MMMM1001
00000000
00000000
00000000
00010000
00001000
00000000
00000000
01000000
00100000
00000000
00000000
,
1001MMMM
00000000
00000000
00000000
0110MMMM
00000000
00000000
00000000
00001000
00010000
00000000
00000000
00000100
00000010
00000000
00000000
,
MMMM1001
00000000
00000000
00000000
MMMM0110
00000000
00000000
00000000
00010000
00001000
00000000
00000000
01000000
00100000
00000000
00000000
,
1001MMMM
00000000
00000000
00000000
0110MMMM
00000000
00000000
00000000
00001000
00010000
00000000
00000000
00000100
00000010
00000000
00000000
,
MMMM1001
00000000
00000000
00000000
MMMM0110
00000000
00000000
00000000
00010000
00001000
00000000
00000000
00100000
01000000
00000000
00000000
,
1001MMMM
00000000
00000000
00000000
0110MMMM
00000000
00000000
00000000
00001000
00010000
00000000
00000000
00000010
00000100
00000000
00000000
,
MMMM1001
00000000
00000000
00000000
MMMM0110
00000000
00000000
00000000
00010000
00001000
00000000
00000000
00100000
01000000
00000000
00000000
,
1001MMMM
00000000
00000000
00000000
0110MMMM
00000000
00000000
00000000
00001000
00010000
00000000
00000000
00000010
00000100
00000000
00000000
,
MMMM0001
00001000
MMMM0000
00001000
MMMM0001
00000000
MMMM1001
00000000
00000220
00000000
00000000
00000000
00000000
00000000
00000000
00000000
,
00000000
00000000
00000000
00000000
,
00000000
00000000
00000000
00000000
,
00000000
00000000
00000330
00000000
,
00000000
00000000
00000001
00000100
,
00001000
00000000
00010000
00000000
00100000
00000000
10000000
00010000
,
10000000
00000000
01000000
00010000
,
00001000
00000000
00000010
00000000
00000001
00000000
00001000
00000010
,
00000100
00000000
00000001
00000100
,
00001000
00000000
00010000
00000000
00100000
00000000
10000000
00010000
,
10000000
00000000
00000000
00000000
01000000
00000000
00010000
00001000
,
00100000
00000000
01100000
00000000
01000000
00010000
00001000
00000100
,
00000010
00000000
00000110
00001000
,
00000010
00000000
00000001
00000000
00000010
00000000
00001000
00001000
,
00001000
00010000
00011000
00100000
,
00010000
00000000
01000000
00000000
00010000
00000000
00100000
00100000
,
00100000
00000000
10010000
00000000
,
00000000
00000000
00000000
00000000
00000000
00000000
00000000
00000000
10000000
01000000
00000000
00000000
00010000
00001000
00000000
00000000
,
0011MMMM
00000000
00000000
00000000
MMMM1100
00000000
00000000
00000000
00000001
00000100
00000000
00000000
00001000
00010000
00000000
00000000
,
MMMM1010
00000000
00000000
00000000
0101MMMM
00000000
00000000
00000000
10000000
01000000
00000000
00000000
00010000
00001000
00000000
00000000
,
0011MMMM
00000000
00000000
00000000
MMMM1100
00000000
00000000
00000000
00000001
00000100
00000000
00000000
00001000
00010000
00000000
00000000
,
MMMM1010
00000000
00000000
00000000
0101MMMM
00000000
00000000
00000000
10000000
01000000
00000000
00000000
00010000
00001000
00000000
00000000
,
0011MMMM
00000000
00000000
00000000
MMMM1100
00000000
00000000
00000000
00000001
00000100
00000000
00000000
00001000
00010000
00000000
00000000
,
MMMM1010
00000000
00000000
00000000
0101MMMM
00000000
00000000
00000000
10000000
01000000
00000000
00000000
00010000
00001000
00000000
00000000
,
0011MMMM
00000000
00000000
00000000
MMMM1100
00000000
00000000
00000000
00000010
00001000
00000010
00000000
00010000
00001000
00010000
00000000
,
MMMM0100
00001000
MMMM0100
00000000
MMMM0110
00000000
MMMM0110
00000000
00001001
00000000
00000000
00000000
00010000
00000000
00000000
00000000
,
00001000
10000000
00001000
00010000
,
00000001
00001000
00000000
00000000
;
