#VERSION:0.83;
#TITLE:KAISER PHOENIX;
#SUBTITLE:;
#ARTIST:96;
#TITLETRANSLIT:;
#SUBTITLETRANSLIT:;
#ARTISTTRANSLIT:;
#GENRE:HEAVY METAL;
#CREDIT:;
#MUSIC:KAISER PHOENIX.ogg;
#BANNER:KAISER PHOENIX.png;
#BACKGROUND:KAISER PHOENIX-bg.png;
#CDTITLE:./CDTitles/GuitarFreaksXG & DrumManiaXG.png;
#SAMPLESTART:45.316;
#SAMPLELENGTH:15.000;
#SELECTABLE:YES;
#OFFSET:1.250;
#BPMS:0.000=170.000;
#STOPS:;
#TIMESIGNATURES:0.000=4=4,
276.000=3=4,
282.000=2=4,
284.000=4=4
;
#BGCHANGES:0.000=KAISER PHOENIX.mp4=1.000=0=0=0=StretchNoLoop====,
99999.000=-nosongbg-=1.000=0=0=0=StretchNoLoop====
;
#FGCHANGES:;

//--------------- dance-single - forcednature ----------------
#NOTEDATA:;
#STEPSTYPE:dance-single;
#DESCRIPTION:forcednature;
#CREDIT:forcednature;
#DIFFICULTY:Beginner;
#METER:3;
#RADARVALUES:0,0,0,0,0;
#NOTES:
0000
0000
0000
0000
,
0000
0000
0000
0000
,
0000
0000
0000
0000
,
0000
0000
0000
0000
,
0000
0000
0000
0000
,
2002
0000
0000
0000
,
3003
0000
0000
0000
,
0220
0000
0000
0000
,
0330
0000
0000
0000
,
1000
0000
0000
0000
,
0100
0000
1000
0000
,
0100
0000
0000
0000
,
0010
0000
0100
0000
,
0010
0000
0000
0000
,
0001
0000
0010
0000
,
0001
0000
0000
0000
,
1000
0000
1000
0000
,
0001
0000
0000
0000
,
0100
0000
0000
0000
,
0010
0000
1000
0000
,
0010
0000
1000
0000
,
0001
0000
0000
0000
,
0010
0000
0000
0000
,
0100
0000
1000
0000
,
0001
0000
0000
0000
,
0100
0000
0100
0000
,
0010
0000
0010
0000
,
1000
0000
1000
0000
,
0001
0000
0001
0000
,
0010
0000
0010
0000
,
0100
0000
0100
0000
,
1000
0000
1000
0000
,
0001
0000
0000
0000
,
1001
0000
0000
0000
,
1000
0000
0001
0000
,
1000
0000
0010
0000
,
0100
0000
0000
0000
,
1001
0000
0000
0000
,
0001
0000
1000
0000
,
0001
0000
0010
0000
,
0100
0000
0000
0000
,
0010
0000
0010
0000
,
0001
0000
1000
0000
,
0010
0000
0010
0000
,
0100
0000
0000
0000
,
0010
0000
0010
0000
,
1000
0000
0001
0000
,
0010
0000
0010
0000
,
0100
0000
0000
0000
,
1000
0000
1000
0000
,
0001
0000
0001
0000
,
0100
0000
0100
0000
,
0010
0000
0010
0000
,
1000
0000
0100
0000
,
0010
0000
0001
0000
,
1000
0000
0010
0000
,
0100
0000
0001
0000
,
0010
0000
0000
0000
,
0010
0000
0100
0000
,
1000
0000
0000
0000
,
0001
0000
0100
0000
,
0010
0000
0000
0000
,
1000
1000
1000
0000
,
1000
0000
0000
0000
,
0001
0000
0001
0000
,
0001
0000
0000
0000
,
0010
0010
0010
0000
,
0010
0000
0000
0000
,
0100
0000
0100
0000
,
1000
0000
0000
0001
,
0000
0000
0100
0000
,
1001
0000
0000
0000
;

//--------------- dance-single - forcednature ----------------
#NOTEDATA:;
#STEPSTYPE:dance-single;
#DESCRIPTION:forcednature;
#CREDIT:forcednature;
#DIFFICULTY:Easy;
#METER:9;
#RADARVALUES:0,0,0,0,0;
#NOTES:
0000
0000
0000
0000
,
0000
0000
0000
0000
,
0000
0000
0000
0000
,
0000
0000
0000
0000
,
0000
0000
0000
0000
,
2002
0000
0000
0000
,
3003
1000
1000
0010
,
2001
0100
0100
3100
,
1000
0001
1000
0000
0001
1000
0001
0000
,
0010
0000
0100
0000
1000
0000
0100
0010
,
0000
0100
0000
1000
0000
0001
1000
0000
,
0010
0000
0100
0000
0001
0000
0100
0010
,
0000
0100
0000
0001
0000
1000
0001
0000
,
0100
0000
0010
0000
1000
0000
0010
0100
,
0000
0010
0000
1000
0000
0001
1000
0000
,
0100
0000
0010
0000
0001
0000
0010
0100
,
0000
0010
0000
0001
0000
1000
0001
0000
,
0100
0010
0100
0000
0001
0000
0001
0000
,
1000
1000
0200
0000
,
0310
1001
0100
1001
,
1000
0110
0001
0000
,
0100
0010
0100
0000
0001
0000
0001
0000
,
1000
1000
0200
0000
,
0310
1001
0100
1001
,
0110
0000
1000
0001
2000
0000
3000
0000
,
0010
1000
0010
0000
1000
0000
0010
0000
,
0100
0001
0100
0000
0001
0000
0100
0000
,
0001
0010
0001
0000
0010
0000
0001
0000
,
1000
0100
1000
0000
0100
0000
1000
0000
,
0010
0100
0010
0000
0100
0000
0010
0000
,
1000
0100
1000
0000
0100
0000
1000
0000
,
0001
0100
0001
0000
0100
0000
0001
0000
,
0010
0100
0010
0000
0100
0000
1000
0000
,
1001
0000
0000
0110
0000
0000
0001
0000
,
1000
0100
1000
0200
0000
0000
0310
0000
,
0001
0000
0000
0000
0100
0000
0000
0000
0010
0000
0000
1000
0000
0000
0010
0000
,
1000
0000
0001
0010
0200
0000
0300
0000
,
1001
0000
0000
0110
0000
0000
1000
0000
,
0001
0100
0001
0200
0000
0000
0310
0000
,
1000
0000
0000
0000
0100
0000
0000
0000
0010
0000
0000
0001
0000
0000
0010
0000
,
0001
0000
1000
0010
0200
0000
0300
0000
,
0001
0000
0010
0100
0010
0000
0001
0000
,
1000
0000
0010
0100
0010
0000
1000
0000
,
0001
0000
0100
0010
0100
0000
0001
0100
,
0001
0010
0100
0010
,
0001
0000
1000
0010
1000
0000
0100
0000
,
1000
0000
0001
0010
0001
0000
0100
0000
,
0110
0000
0000
0000
0000
0000
0000
0000
1000
0000
0000
0100
0000
0000
0010
0000
,
0001
1001
0110
1001
,
1000
0100
1000
0000
0100
0000
1000
0000
,
0001
0010
0001
0000
0010
0000
0001
0000
,
1000
0010
1000
0000
0010
0000
1000
0000
,
0001
0100
0001
0000
0100
0000
0001
0000
,
0010
0100
0010
0000
0100
0010
0100
0000
,
1000
0001
1000
0000
0001
1000
0001
0000
,
0010
1001
0100
1001
,
0110
0010
2002
3003
,
1001
1000
0100
0010
,
0001
0010
0100
1000
,
1001
0001
0100
0010
,
1000
1000
0001
1000
,
0010
1000
0010
0000
1000
0000
0001
0000
,
1000
0100
1000
0000
0100
0000
0100
0000
,
0010
0001
0010
0000
0001
0000
1000
0000
,
0001
0100
0001
0000
0100
0000
0100
0000
,
0010
1000
0010
0000
1000
0000
0001
0000
,
1000
0100
1000
0000
0100
0000
0100
0000
,
0010
0001
0010
0000
0001
0000
1000
0000
,
0002
0000
1000
0003
,
0001
1000
0000
1000
0001
0000
0010
0100
,
0000
0100
0010
0000
0000
0110
0000
0000
,
1001
0000
0000
0000
;

//--------------- dance-single - forcednature ----------------
#NOTEDATA:;
#STEPSTYPE:dance-single;
#DESCRIPTION:forcednature;
#CREDIT:forcednature;
#DIFFICULTY:Medium;
#METER:14;
#RADARVALUES:0,0,0,0,0;
#NOTES:
0000
0000
0000
0000
,
0000
0000
0000
0000
,
0000
0000
0000
0000
,
0000
0000
0000
0000
,
0000
0000
0000
0000
,
2002
0000
0000
0000
,
3003
0000
1000
0001
1000
0001
0100
0000
,
0210
1000
1000
1000
,
0310
0100
0001
0100
0010
1000
0001
0000
,
0010
0100
1000
0100
0010
0001
1000
0010
,
0000
0100
0001
0010
0001
1000
0010
0000
,
1000
0100
1000
0001
0100
0001
1000
0010
,
0000
1000
0001
0010
0100
1000
0001
0000
,
0100
0010
0100
0001
0010
0001
1000
0010
,
0000
1000
0100
0010
0001
0100
0010
0000
,
1000
0001
0010
0001
1000
0010
0100
0001
,
0000
0001
0010
0100
1000
0001
0100
0000
,
0010
0000
1000
0000
0100
0000
1000
0000
0001
0000
0000
0100
0000
0000
0001
0000
,
1000
0000
0000
0100
0000
0000
1000
0000
0020
0000
0000
0000
0130
0000
0001
0000
,
0010
0000
0100
0010
0100
0000
0000
0000
1000
0000
0100
1000
0100
0000
0000
0000
,
0010
0000
0001
0010
0001
0000
0000
0000
1000
0000
0010
0000
0100
0000
0001
0000
,
1000
0000
0100
0000
0010
0000
0001
0000
1000
0000
0000
0010
0000
0000
1000
0000
,
0001
0000
0000
0010
0000
0000
0001
0000
0200
0000
0000
0000
0310
0000
1000
0000
,
0001
0000
0010
0001
0010
0000
0000
0000
0100
0000
1000
0100
1000
0000
0000
0000
,
1001
0000
0001
0100
0010
1000
0001
0000
,
1000
0100
0001
0100
1000
0100
0001
0100
,
1000
0010
0001
0010
1000
0010
0001
0010
,
0100
1000
0100
0001
0100
1000
0100
0001
,
0010
1000
0010
0001
0010
1000
0010
0001
,
1000
0010
0001
0010
1000
0010
0001
0010
,
1000
0100
0001
0100
1000
0100
0001
0100
,
0010
1000
0010
0001
0010
1000
0010
0001
,
1000
0001
1000
0000
0010
0000
0100
0000
0001
0000
1000
0000
0100
0000
0010
0000
,
0001
0000
0000
0000
0100
0000
0110
0000
0000
0000
1000
0001
1000
0000
0010
0000
,
0100
0001
1000
0200
0010
0010
0310
0000
,
0110
0000
0000
0000
1100
0000
0000
0000
0001
0000
0000
0001
0000
0000
0010
0000
,
0200
0000
1300
0001
0100
0010
1000
0000
,
1001
0000
0000
0000
0100
0000
0110
0000
0000
0000
0001
1000
0001
0000
0010
0000
,
0100
1000
0001
0200
0010
0010
0310
0000
,
0110
0000
0000
0000
0101
0000
0000
0000
1000
0000
0000
1010
0000
0000
0010
0000
,
0200
0000
0301
1000
0100
0010
0001
0100
,
0010
0000
1000
0000
0100
0000
1000
0000
0010
0000
1000
0000
0001
1000
0001
0000
,
0100
0000
0001
0000
0010
0000
0001
0000
0100
0000
0001
0000
1000
0001
1000
0000
,
0100
0000
0010
0000
0100
0000
1000
0000
0020
0000
0000
0100
0000
0000
1030
0000
,
2010
0000
3100
0010
0001
0100
0010
0000
,
1001
0000
0000
0000
0001
0000
1000
0000
0010
0000
0100
0000
0001
1000
0001
0000
,
0010
0100
1000
0100
0010
0001
1000
0010
,
0200
0000
0000
0000
1000
0000
0000
0000
0302
0000
0000
0010
0000
0000
0103
0000
,
1010
0011
0110
1001
,
1000
0100
1000
0000
0100
0000
0010
0000
0001
0010
0001
0000
0010
0000
0000
0000
,
0001
0100
0001
0000
0100
0000
0010
0000
1000
0010
1000
0000
0010
0000
0000
0000
,
1000
0001
1000
0000
0100
0000
0010
0000
0001
1000
0001
0000
0100
0000
0000
0000
,
0001
1000
0001
0000
0100
0000
0010
0000
1000
0001
1000
0000
0100
0000
0000
0000
,
0010
0001
0010
0000
0001
0000
1000
0000
0010
1000
0010
0000
1000
0000
0001
0000
,
0100
0001
0100
0000
0001
0000
1000
0000
0100
1000
0100
0000
1000
0000
0001
0000
,
0100
0001
0100
0000
0001
0000
0100
0000
0001
0010
0001
0000
0010
0000
0001
0000
,
1000
0010
1000
0000
0010
0000
1000
0000
0100
1000
0100
0000
1000
0000
0100
0000
,
0110
0000
0010
0001
1000
0001
0100
0020
,
0000
1030
0100
1000
0001
0100
0010
0000
,
0110
0000
0010
1000
0001
1000
0100
0020
,
0000
0130
1000
0001
0100
1000
0002
0000
,
0013
1000
0100
1000
0001
1000
0010
1000
,
0100
0000
1000
0000
0001
0010
0001
0000
0010
0100
0010
0000
0100
1000
0100
0000
,
0010
0001
0100
0001
1000
0001
0010
0001
,
1000
0010
1000
0000
0010
0000
0100
0000
0001
0010
0001
0000
0010
0000
0100
0000
,
1000
0010
0100
0010
0001
0010
0100
0010
,
1000
0000
0010
0000
1000
0100
1000
0000
0100
0010
0100
0000
0010
0001
0010
0000
,
0001
0010
0100
0010
1000
0010
0100
0010
,
0001
0010
0001
0000
1000
0000
0010
0000
0100
0000
0001
0000
0010
0000
0000
0000
,
0100
1000
0100
0000
0000
0000
0010
0001
0010
0000
0000
0000
0001
0100
0001
0000
,
0000
0000
1000
0010
1000
0000
0000
0000
0100
0000
1001
0000
0000
0000
0010
0100
,
0010
0000
0000
0000
;

//--------------- dance-single - forcednature ----------------
#NOTEDATA:;
#STEPSTYPE:dance-single;
#DESCRIPTION:forcednature;
#CREDIT:forcednature;
#DIFFICULTY:Hard;
#METER:17;
#RADARVALUES:0,0,0,0,0;
#NOTES:
0000
0000
0000
0000
,
0000
0000
0000
0000
,
0000
0000
0000
0000
,
0000
0000
0000
0000
,
0000
0000
0000
0000
,
2002
0000
0000
0000
,
3003
0001
0100
0010
0010
0010
1000
0001
,
1002
0000
0010
0000
0010
0000
0013
0001
,
0100
0000
0001
0100
0010
0000
0100
0010
1000
0000
0001
1000
0100
0000
0000
0000
,
0110
0000
0010
0000
0001
0000
0100
0001
0100
0000
0010
0100
0010
0000
1000
0000
,
0001
0000
1000
0100
0010
0000
0100
0010
0001
0000
0010
0001
1000
0000
0010
0000
,
0110
0000
0100
0000
0001
0000
1000
0100
1000
0000
0010
1000
0010
0000
0100
0000
,
0001
0000
0010
0001
0100
0000
0001
1000
0010
0000
1000
0100
0010
0001
0010
0000
,
1001
0000
1000
0000
0010
0000
0100
0001
0100
0000
0010
0100
0010
0000
1000
0000
,
0001
0000
0010
0100
1000
0000
0100
1000
0001
0000
0100
0010
1000
0000
0001
0000
,
0110
0000
1000
0000
0010
0000
0100
0001
1000
0000
0001
1000
0100
0000
0110
0000
,
0000
0000
0010
0001
0010
0000
0001
0000
0100
0000
0010
1000
0020
0000
0000
0000
,
1030
0100
0010
0001
0010
0100
1000
0001
0200
0000
0000
0320
0000
0000
2030
0000
,
3002
0000
0000
0023
0000
0000
0230
0000
2300
0000
0000
0000
3002
0000
0000
0000
,
0103
0001
0100
0001
1000
0000
0000
0000
0010
1000
0010
1000
0001
0000
0000
0000
,
1000
0100
1000
0100
0010
0000
0000
0000
0110
0000
1000
0001
0010
0100
1000
0000
,
0001
0100
0010
1000
0010
0100
0001
1000
0200
0000
0000
0320
0000
0000
0032
0000
,
0203
0000
0000
0320
0000
0000
2030
0000
3002
0000
0000
0000
0013
0000
0100
0000
,
1000
0010
1000
0010
0100
0000
0000
0000
0001
1000
0001
1000
0100
0000
0000
0000
,
0110
0000
0010
0000
0010
0000
0010
0000
0001
1000
0001
1000
0001
1000
0001
0000
,
1000
0100
1000
0100
0010
0100
0010
0100
1000
0100
1000
0100
0010
0100
0010
0000
,
0001
0100
0001
0100
0010
0100
0010
0100
0001
0100
0001
0100
0010
0100
0010
0000
,
1000
0100
1000
0100
1000
0001
1000
0001
1000
0100
1000
0100
1000
0001
1000
0000
,
0001
0100
0001
0100
0001
1000
0001
1000
0001
0100
0001
0100
0001
1000
0001
0000
,
1000
0010
1000
0010
0100
0010
0100
0010
0100
0001
0100
0001
1000
0001
1000
0000
,
0001
0010
0001
0010
0100
0010
0100
0010
0100
1000
0100
1000
0001
1000
0001
0000
,
1000
0100
1000
0100
1000
0001
1000
0001
1000
0010
1000
0010
1000
0001
1000
0000
,
0001
0100
0001
0100
0001
1000
0001
1000
0100
1000
0100
1000
0001
1000
0001
0000
,
0100
0000
0000
0000
0110
0000
1001
0000
0000
0000
0001
0010
0100
1000
0010
0000
,
0110
0000
0100
0001
1000
0000
0001
0000
0010
0001
0010
0001
0100
0000
0000
0000
,
0010
1000
0010
0000
1001
0000
0000
0000
1100
0000
0000
0110
0000
0000
1100
0000
,
0001
0010
0100
0010
0001
0000
1000
0010
0100
0000
0001
1000
0100
0000
0000
0000
,
1001
0000
0000
0000
0110
0000
1001
0000
0000
0000
1000
0010
0100
0001
0010
0000
,
0110
0000
0100
1000
0001
0000
1000
0000
0010
1000
0010
1000
0100
0000
0000
0000
,
0010
0001
0010
0000
1001
0000
0000
0000
0101
0000
0000
0110
0000
0000
0101
0000
,
1000
0010
0100
0010
1000
0000
0001
0010
0100
1000
0100
0010
0001
1000
0001
0100
,
0010
0000
1000
0100
0010
0100
1000
0000
0001
0000
0100
0010
1000
0010
0100
0000
,
0001
0010
0001
0010
0100
0010
0001
0000
1000
0000
0001
0100
0010
1000
0001
0000
,
0021
0000
0100
0000
0001
0000
0130
0000
0010
0001
0100
0001
0010
0001
0100
0000
,
1001
0000
1000
0000
0010
0100
0001
0000
1000
0100
0010
0001
0100
0000
0000
0000
,
1001
0000
0001
0100
0010
0100
0001
0000
1000
0000
0100
0010
0001
0010
0100
0000
,
1000
0010
1000
0010
0100
0010
1000
0000
0001
0000
1000
0100
0010
0001
1000
0000
,
1020
0000
0100
0000
1000
0000
0130
0000
0010
0000
0010
1000
0000
1000
0001
0000
,
0011
1010
0110
1001
,
1000
0100
1000
0100
0010
0001
0010
0001
1000
0100
1000
0100
0010
0001
0010
0000
,
0001
0100
0001
0100
0010
1000
0010
1000
0001
0100
0001
0100
0010
1000
0010
0000
,
1000
0001
1000
0001
0010
0100
0010
0100
1000
0001
1000
0001
0010
0100
0010
0000
,
0001
1000
0001
1000
0010
0100
0010
0100
0001
1000
0001
1000
0010
0100
0010
0000
,
1000
0100
0010
0001
1000
0100
0010
0000
0001
0100
0010
1000
0001
0100
0010
0000
,
1000
0001
0010
0100
1000
0001
0010
0000
0001
1000
0010
0100
0001
1000
0010
0000
,
1000
0100
0010
0001
1000
0100
1000
0000
0001
0100
0010
1000
0001
0100
0001
0000
,
0010
0100
0010
0100
1000
0001
0100
0000
0010
0100
0010
0100
0001
1000
0100
0000
,
1000
0000
0010
0000
1000
0000
0100
1000
0100
0000
0010
0100
0010
0000
0001
0000
,
1000
0000
0001
0100
0010
0000
0100
0010
1000
0000
0010
1000
0001
0000
0010
0000
,
0110
0000
0100
0000
1000
0000
0001
0100
0001
0000
0010
0001
0010
0000
0100
0000
,
1000
0010
1000
0010
0100
0001
0100
0000
0001
0010
0001
0010
0100
1000
0100
1000
,
0001
0000
0100
0000
0010
1000
0100
0000
0010
0100
1000
0000
0010
0100
0001
0000
,
0010
0001
0100
0000
0010
1000
0010
1000
0001
0010
0001
0010
0100
0000
1000
0000
,
1001
0000
0001
0000
0100
0010
1000
0000
0100
0010
0001
0000
0100
0010
1000
0000
,
0001
0010
0100
1000
0100
0010
0001
0000
1000
0010
0100
0001
0100
0010
1000
0000
,
0001
0000
0010
0000
0100
0010
0001
0000
0100
0010
1000
0000
0001
0010
0100
0000
,
1000
0010
0100
0000
0001
1000
0100
1000
0001
1000
0010
1000
0001
0000
0010
0000
,
0110
0000
0100
0000
1000
0010
0100
0000
0001
1000
0100
0000
0010
0001
1000
0000
,
0010
0100
0010
0100
0001
0100
0001
0100
0010
1000
0010
1000
0001
0000
0010
0000
,
0001
0100
1000
0000
0000
0000
1000
0100
0001
0000
0000
0000
0001
0010
1000
0000
,
0000
0000
1000
0010
0001
0000
0000
0000
1001
0000
0110
0000
0000
0000
0010
0100
,
1001
0000
0000
0000
;

//--------------- dance-double - forcednature ----------------
#NOTEDATA:;
#STEPSTYPE:dance-double;
#DESCRIPTION:forcednature;
#CREDIT:forcednature;
#DIFFICULTY:Easy;
#METER:10;
#RADARVALUES:0,0,0,0,0;
#NOTES:
00000000
00000000
00000000
00000000
,
00000000
00000000
00000000
00000000
,
00000000
00000000
00000000
00000000
,
00000000
00000000
00000000
00000000
,
00000000
00000000
00000000
00000000
,
00022000
00000000
00000000
00000000
,
00000000
00000000
00000000
00033000
,
00011000
00001000
00010000
00010000
,
00000100
00001000
00000001
00000010
,
00000110
00000100
00010000
00001000
,
01000000
00010000
10000000
00100000
,
01100000
01000000
00001000
00010000
,
00000100
00001000
00000001
00000010
,
00000110
00000100
00010000
00001000
,
01000000
00010000
10000000
00100000
,
01100000
01000000
00001000
00010000
,
00000100
00000000
00001000
00000000
00000001
00000010
00000001
00000000
,
00000000
00000100
00000001
00000100
00000001
00000000
00001000
00000000
,
00000010
00010000
00001000
00100000
,
01000000
10010000
00100000
10010000
,
01000000
00000000
00011000
00000000
00100000
00010000
00100000
00000000
,
00000000
00001000
00010000
00001000
00010000
00000000
00000010
00000000
,
00001000
00000001
00000010
00000100
,
00000010
00001001
00000100
00001001
,
00000010
00000000
00011000
00000000
01000000
00010000
01000000
00000000
,
00100000
10000000
00100000
00000000
10000000
00000000
01000000
00000000
,
00100000
00010000
00100000
00000000
00001000
00000000
00010000
00000000
,
00000010
00001000
00000010
00000000
00010000
00000000
00001000
00000000
,
01000000
00010000
01000000
00000000
00001000
00000000
00010000
00000000
,
00000100
00001000
00000100
00000000
00000010
00000000
00000001
00000000
,
00000100
00000001
00000100
00000000
00000010
00000000
00001000
00000000
,
00000100
00001000
00000100
00000000
00010000
00000000
00001000
00000000
,
01000000
00010000
01000000
00000000
00100000
00000000
10000000
00000000
,
10010000
00000000
00000000
01100000
00000000
00000000
10000000
00000000
,
01000000
00100000
01000000
00000000
10000000
00000000
00010000
00000000
,
01000000
00000000
00000000
00000000
00011000
00000000
00000000
00000000
00000100
00000000
00000000
00000100
00000000
00000000
00001000
00000000
,
00000001
00000000
00000100
00000000
00000010
00001000
00000010
00000000
,
00001001
00000000
00000000
00000110
00000000
00000000
00000001
00000000
,
00001000
00000100
00001000
00000000
00000010
00000000
00010000
00000000
,
00011000
00000000
00000000
00000000
01000000
00000000
00000000
00000000
00010000
00000000
00000000
00010000
00000000
00000000
00100000
00000000
,
01000000
00000000
10000000
00010000
10000000
00000000
00100000
00000000
,
10000000
00000000
01000000
00100000
01000000
00000000
10000000
00000000
,
00010000
00000000
01000000
00001000
01000000
00000000
00010000
00000000
,
00100000
00000000
00000000
00000000
00001000
00000000
00010000
00000000
00001000
00000000
00000000
00001000
00000000
00000000
00010000
00000000
,
00000010
00000000
00001000
00000100
00001000
00000000
00000001
00000000
,
00000100
00000000
00000010
00001000
00000010
00000000
00000100
00000000
,
00000001
00000000
00000010
00000001
00000010
00000000
00000100
00000000
,
00000210
00000000
00000000
00000000
00000000
00000000
00000000
00000000
00001300
00000000
00000000
00001000
00000000
00000000
00000001
00000000
,
00000200
00002300
00023000
00230000
,
01300000
00100000
01000000
00000000
00010000
00000000
00100000
00000000
,
01000000
00100000
01000000
00000000
10000000
00000000
00100000
00000000
,
01000000
00010000
01000000
00000000
00001000
00000000
00010000
00000000
,
00000100
00001000
00000100
00000000
00010000
00000000
00001000
00000000
,
00100000
00010000
00100000
00000000
00011000
00000000
00010000
00000000
,
00000010
00001000
00000010
00000000
00011000
00000000
00001000
00000000
,
01000000
00010000
01000000
00000000
00011000
00000000
00010000
00000000
,
00000100
00001000
00000100
00000000
00011000
00000000
00001000
00000000
,
00101000
00000000
00100000
00000000
00010000
00000000
01000000
00010000
,
00000000
01000000
00000000
00100000
00000000
10000000
00100000
10000000
,
00010000
00000000
00100000
00000000
01000000
00000000
00100000
00010000
,
00000000
00100000
00000000
00001000
00000000
00010000
00000010
00001000
,
00000010
00000000
00000100
00000000
00000001
00000100
00000001
00000000
,
00000010
00000000
00000100
00001000
00000100
00000000
00010000
00000000
,
00011000
00000000
00001000
00000000
01000000
00010000
01000000
00000000
,
00200000
20300000
32000000
03020000
,
00031000
00000000
00100000
00000000
00010000
00100000
00010000
00000000
,
00100000
00000000
00001000
00010000
00001000
00000000
00010000
00000000
,
00011000
00000000
00000010
00000000
00001000
00000001
00001000
00000000
,
00000020
00000230
00002300
00023000
,
00030100
00000100
00000000
00010000
00010000
00000000
00001000
00001000
,
00000000
00000000
01000000
00000000
01000000
00000000
00000000
00000000
00000000
00000000
02200000
00000000
00000000
03300000
00000000
00000000
,
10010000
00000000
00000000
00000000
;

//--------------- dance-double - forcednature ----------------
#NOTEDATA:;
#STEPSTYPE:dance-double;
#DESCRIPTION:forcednature;
#CREDIT:forcednature;
#DIFFICULTY:Medium;
#METER:14;
#RADARVALUES:0,0,0,0,0;
#NOTES:
00000000
00000000
00000000
00000000
,
00000000
00000000
00000000
00000000
,
00000000
00000000
00000000
00000000
,
00000000
00000000
00000000
00000000
,
00000000
00000000
00000000
00000000
,
00022000
00000000
00000000
00000000
,
00033000
00000000
01000000
00010000
10000000
00010000
00100000
00000000
,
02100000
10000000
10000000
10000000
,
03100000
01000000
00010000
01000000
00100000
00001000
00010000
00000000
,
00000010
00001000
00000001
00000100
00000001
00000010
00000100
00001000
,
00000000
00000010
00010000
00001000
01000000
00010000
01000000
00100000
,
10000000
00010000
00100000
00010000
10000000
00100000
10000000
01000000
,
00000000
00010000
00001000
00100000
00010000
00100000
00001000
00010000
,
00000010
00001000
00000001
00000100
00000001
00001000
00000100
00010000
,
00000000
00001000
01000000
00010000
01000000
00001000
00010000
00001000
,
00100000
00010000
00100000
00001000
00010000
00000010
00001000
00001001
,
00000000
00000001
00000010
00000100
00010000
00001000
00100000
01000000
,
00000000
00000000
00010000
00000000
01000000
00000000
10000000
00000000
00020000
00000000
00000000
00230000
00000000
00000000
00302000
00000000
,
00023000
00000000
00000000
00030020
00000000
00000000
00002030
00000000
00003002
00000000
00000000
00000000
00000103
00000000
00000000
00000000
,
00000001
00000010
00001010
00000000
00001000
00010000
00010100
00000000
,
00010000
00001000
01001000
00000000
10020000
00000000
00130000
00100000
,
01000000
00000000
10000000
00000000
01000000
00000000
00010000
00000000
00002000
00000000
00000000
00203000
00000000
00000000
00320000
00000000
,
02030000
00000000
00000000
03002000
00000000
00000000
00023000
00000000
00030200
00000000
00000000
00000000
00001300
00000000
00000010
00000000
,
00000100
00000100
00000101
00000000
00000010
00000010
00001010
00000000
,
00011000
00000000
01000000
00010000
00100000
01000000
00010000
00000000
,
00001000
00010000
00001000
00000000
00100000
00000000
00010000
00000000
01000000
00000000
00001000
00000000
00010000
00000000
00000100
00000000
,
00010000
00001000
00010000
00000000
00000010
00000000
00001000
00000000
00000100
00000000
00010000
00000000
00001000
00000000
01000000
00000000
,
00001000
00010000
00001000
00000000
01000000
00000000
00010000
00000000
00100000
00000000
00001000
00000000
00010000
00000000
00000010
00000000
,
00010000
00001000
00010000
00000000
00000100
00000000
00001000
00000000
00000010
00000000
00010000
00000000
00001000
00000000
00100000
00000000
,
00010000
01000000
00010000
00000000
10000000
00000000
01000000
00000000
00100000
00000000
00001000
00000000
00010000
00000000
00000010
00000000
,
00001000
00000100
00001000
00000000
00000001
00000000
00000100
00000000
00000010
00000000
00010000
00000000
00001000
00000000
01000000
00000000
,
00010000
00100000
00010000
00000000
10000000
00000000
00100000
00000000
01000000
00000000
00001000
00000000
00010000
00000000
00000100
00000000
,
00001000
00000001
00000100
00001000
00010000
01000000
10000000
00010000
,
10010000
00000000
01000000
01100000
00000000
10000000
01000000
00010000
,
00001000
00000100
00000001
00000020
00000000
00000100
00000130
00000010
,
00001001
00000000
00000000
00000000
00000001
00000000
00000100
00000000
00001000
00000000
00000000
00011000
00000000
00000000
00010000
00000000
,
00100000
10000000
01000000
00010000
00001000
00000000
00000110
00000000
,
00001001
00000000
00000100
00000110
00000000
00000001
00000100
00001000
,
00010000
01000000
10000000
00200000
00000000
01000000
01300000
00100000
,
10010000
00000000
00000000
00000000
10000000
00000000
01000000
00000000
00010000
00000000
00000000
00011000
00000000
00000000
00001000
00000000
,
00000010
00000001
00000100
00001000
00010000
01000000
00100000
00000000
,
00010000
00000000
01000000
00000000
00100000
10000000
00100000
00000000
10000000
00000000
01000000
00000000
00010000
00000000
00001000
00000000
,
00100000
00000000
00010000
00000000
00100000
00001000
00100000
00000000
00001000
00000000
00010000
00000000
00000010
00000000
00001000
00000000
,
00000001
00000000
00000010
00000000
00000100
00000010
00000100
00000000
00002000
00000000
00000000
00000000
00003100
00000000
00010000
00000000
,
00001000
00000000
00100000
00000000
00010000
00100000
00010000
00000000
01000000
00000000
00010000
00000000
10000000
00000000
00000000
00000000
,
00100000
00000000
10000000
00000000
01000000
10000000
01000000
00000000
00100000
00000000
00010000
00000000
00100000
00000000
00001000
00000000
,
00010000
00000000
00000010
00000000
00001000
00000010
00001000
00000000
00000001
00000000
00000010
00000000
00000100
00000000
00001000
00000000
,
00001002
00000000
00000000
00000000
00000103
00000000
00001000
00000000
00010000
00000000
00000000
00011000
00000000
00000000
00001000
00000000
,
01001000
01010000
00110000
11000000
,
10000000
01000000
10000000
00000000
00010000
00000000
00100000
00000000
00001000
00000000
00010000
00000000
00000010
00000000
00001000
00000000
,
00000001
00000100
00000001
00000000
00001000
00000000
00000010
00000000
00010000
00000000
00001000
00000000
01000000
00000000
00010000
00000000
,
10000000
00100000
10000000
00000000
00010000
00000000
01000000
00000000
00001000
00000000
00010000
00000000
00000100
00000000
00001000
00000000
,
00000001
00000010
00000001
00000000
00001000
00000000
00000100
00000000
00010000
00000000
00001000
00000000
00100000
00000000
00010000
00000000
,
10000000
00100000
10000000
00000000
00010000
00000000
01000000
00000000
00001000
00010000
00001000
00000000
00100000
00000000
00010000
00000000
,
00100000
00001000
00100000
00000000
00001000
00000000
00010000
00000000
00000010
00001000
00000010
00000000
00001000
00000000
00000100
00000000
,
00000010
00000001
00000010
00000000
00000001
00000000
00000100
00000000
00000010
00001000
00000010
00000000
00001000
00000000
00000100
00000000
,
00010000
00001000
00010000
00000000
00001000
00000000
01000000
00000000
00010000
01000000
00010000
00000000
10000000
00000000
00100000
00000000
,
01100000
00000000
01000000
10000000
01000000
00010000
00100000
00001000
,
00000000
00010000
00000010
00010000
00001000
00000010
00000100
00001000
,
00001001
00000000
00000001
00000100
00001000
00000100
00000001
00001000
,
00000000
00000010
00010000
00001000
01000000
00001000
00010000
00100000
,
00000000
10000000
00100000
10000000
01000000
00010000
00001000
00010000
,
01000000
00000000
00100000
00000000
00001000
00010000
00001000
00000000
00010000
00000100
00010000
00000000
00000100
00001000
00000100
00000000
,
00000000
00000010
00000001
00000100
00001000
00000100
00000001
00000010
,
00000002
00000203
00002300
00023000
02030000
23000000
30200000
20300000
,
30000000
01000000
00100000
00001000
00010000
00100000
01000000
00001000
,
00010000
00000000
00000010
00000000
00001000
00000100
00001000
00000000
00000100
00000010
00000100
00000000
00000010
00000001
00000010
00000000
,
00000000
00000001
00000100
00000010
00010000
00001000
01000000
00010000
,
20000000
32000000
03020000
00032000
00003200
00000302
00000023
00000230
,
00001300
00000100
00010000
00000000
00000000
00000000
00010000
00001000
01000000
00000000
00000000
00000000
00010000
01000000
00001000
00000000
,
00000000
00000000
00010000
00000100
00001000
00000000
00000000
00000000
00000010
00000000
00001002
00000000
00000000
00000000
00001003
00000100
,
00000010
00000000
00000000
00000000
;

//--------------- dance-double - forcednature ----------------
#NOTEDATA:;
#STEPSTYPE:dance-double;
#DESCRIPTION:forcednature;
#CREDIT:forcednature;
#DIFFICULTY:Hard;
#METER:17;
#RADARVALUES:0,0,0,0,0;
#NOTES:
00000000
00000000
00000000
00000000
,
00000000
00000000
00000000
00000000
,
00000000
00000000
00000000
00000000
,
00000000
00000000
00000000
00000000
,
00000000
00000000
00000000
00000000
,
00022000
00000000
00000000
00000000
,
00033000
00010000
00001000
01000000
01000000
01000000
00010000
00100000
,
02100000
10000000
10000000
13000000
,
01000000
00000000
10000000
01000000
00100000
00000000
01000000
00000000
00010000
00000000
00001000
00010000
00000100
00000000
00000000
00000000
,
00000110
00000000
00000000
00000000
00000010
00000000
00000001
00001000
00000010
00000000
00000100
00000001
00001000
00000000
00000100
00000000
,
00010000
00000000
00001000
00010000
00001000
00000000
00100000
00010000
10000000
00000000
01000000
10000000
00010000
00000000
01000000
00000000
,
01100000
00000000
00000000
00000000
00100000
00000000
10000000
00010000
00100000
00000000
01000000
10000000
00010000
00000000
01000000
00000000
,
00001000
00000000
00010000
00001000
00010000
00000000
00000010
00001000
00000001
00000000
00000100
00000001
00001000
00000000
00000100
00000000
,
00000110
00000000
00000000
00000000
00000010
00000000
00000001
00001000
00000100
00000000
00000010
00000001
00001000
00000000
00000010
00000000
,
00010000
00000000
00001000
00010000
00001000
00000000
01000000
00010000
10000000
00000000
00100000
10000000
00010000
00000000
00100000
00000000
,
01100000
00000000
00000000
00000000
01000000
00000000
10000000
00010000
01000000
00000000
00100000
10000000
00010000
00000000
10010000
00000000
,
00000000
00000000
10000000
01000000
00010000
00000000
00001000
00010000
00001000
00000000
00010000
00000100
00001000
00000000
00000000
00000000
,
00000001
00000100
00000001
00001000
00000010
00010000
00001000
01000000
00020000
00000000
00000000
00230000
00000000
00000000
02300000
00000000
,
23000000
00000000
00000000
30200000
00000000
00000000
02300000
00000000
03002000
00000000
00000000
00000000
00103000
00000000
00000000
00000000
,
00001000
00010000
00000100
00001000
00000100
00000000
00000000
00000000
00010000
00001000
01000000
00010000
01000000
00000000
00000000
00000000
,
00001000
00010000
00000010
00001000
00000010
00000000
00000000
00000000
00022000
00000000
00000000
00000000
00033000
00000000
00000000
00000000
,
10000000
01000000
10000000
00010000
00100000
00001000
00010000
00000100
00002000
00000000
00000000
00003002
00000000
00000000
00000203
00000000
,
00002300
00000000
00000000
00023000
00000000
00000000
00230000
00000000
02300000
00000000
00000000
00000000
03010000
00000000
00000000
00000000
,
00010000
00100000
00001000
00010000
00000100
00000000
00000000
00000000
00001000
00000010
00010000
00001000
01000000
00000000
00000000
00000000
,
01200000
00000000
00000000
00000000
10300000
00000000
01000000
00000000
00100000
00010000
00100000
00001000
00010000
00000100
00001000
00000000
,
00000010
00001000
00000010
00001000
00000010
00000100
00000010
00000100
00000010
00001000
00000010
00001000
00000010
00010000
00001000
00000000
,
00100000
00010000
00100000
00010000
00100000
01000000
00100000
01000000
00100000
00010000
00100000
00010000
00100000
00001000
00010000
00000000
,
00000100
00001000
00000100
00001000
00000100
00000010
00000100
00000010
00000100
00001000
00000100
00001000
00000100
00010000
00001000
00000000
,
01000000
00010000
01000000
00010000
01000000
00100000
01000000
00100000
01000000
00010000
01000000
00010000
01000000
00001000
00010000
00000000
,
00000100
00001000
00000100
00010000
00000100
00001000
00000100
00010000
00000100
00001000
00000100
00010000
00001000
00100000
00010000
00000000
,
01000000
00010000
01000000
00001000
01000000
00010000
01000000
00001000
01000000
00010000
01000000
00001000
00010000
00000100
00001000
00000000
,
00000010
00001000
00000010
00010000
00000010
00001000
00000010
00010000
00000010
00001000
00000010
00010000
00001000
01000000
00010000
00000000
,
10000000
01000000
10000000
01000000
00100000
01000000
00100000
01000000
00100000
00010000
00100000
00001000
00010000
00000100
00001000
00000100
,
00000010
00000000
00000000
00000000
00000110
00000000
00001001
00000000
00000000
00000000
00000001
00000100
00000010
00001000
00000001
00000000
,
00000010
00000000
00000100
00010000
00001000
00000000
00100000
00000000
00010000
10000000
00100000
01000000
00010000
00000000
00000000
00000000
,
10000000
01000000
00100000
00000000
01100000
00000000
00000000
00000000
00101000
00000000
00000000
00011000
00000000
00000000
00010100
00000000
,
00000100
00001000
00000001
00001000
00000010
00000000
00001000
00000100
00010000
00000000
00001000
00100000
00010000
00000000
00000000
00000000
,
10010000
00000000
00000000
00000000
01100000
00000000
10010000
00000000
00000000
00000000
10000000
01000000
00100000
00010000
10000000
00000000
,
00100000
00000000
01000000
00001000
00010000
00000000
00000010
00000000
00001000
00000001
00000010
00000100
00001000
00000000
00000000
00000000
,
00000001
00000100
00000010
00000000
00000110
00000000
00000000
00000000
00010010
00000000
00000000
00011000
00000000
00000000
01001000
00000000
,
01000000
00010000
10000000
00010000
00100000
00000000
01000000
10000000
01000000
10000000
00010000
00100000
00010000
00100000
00001000
00000000
,
00011000
00000000
00010000
00000000
00000010
00001000
00000001
00000000
00000010
00000000
00000100
00000000
00001000
00000100
00010000
00000000
,
00001000
00100000
00010000
00100000
00001000
00010000
00001000
00000000
01000000
00000000
00100000
00000000
10000000
00010000
00100000
00000000
,
02100000
00000000
00000000
00000000
03010000
00000000
00001000
00000000
00100000
00010000
00100000
00001000
00010000
00000100
00001000
00000100
,
00000010
00000000
00000001
00000000
00001000
00000010
00000100
00000000
00000001
00000000
00000010
00000100
00020000
00000000
00000000
00000000
,
00031000
00000000
01000000
00000000
00010000
10000000
00100000
00000000
10000000
00000000
01000000
00000000
00100000
00001000
00010000
00000000
,
00000010
00001000
00000010
00010000
00001000
01000000
00010000
00000000
00100000
00000000
01000000
00000000
10000000
00010000
00100000
00010000
,
20000000
00000000
00000000
00000000
30100000
00000000
00010000
00000000
00001000
00000000
00001000
00010000
00000000
00010000
00000100
00000000
,
00001100
00010010
00101000
01010000
,
10000000
01000000
10000000
00010000
00100000
00010000
00100000
00001000
00010000
00000100
00001000
00000100
00000010
00000001
00001000
00000000
,
00000001
00000100
00000001
00001000
00000010
00001000
00000010
00010000
00001000
01000000
00010000
01000000
00100000
10000000
00010000
00000000
,
10000000
01000000
10000000
00010000
00100000
00010000
00100000
00001000
00010000
00000100
00001000
00000100
00000010
00000001
00001000
00000000
,
00000001
00000100
00000001
00001000
00000010
00001000
00000010
00010000
00001000
01000000
00010000
01000000
00100000
10000000
00010000
00000000
,
00100000
00001000
00010000
00000100
00010000
00001000
00100000
00000000
00000010
00010000
00001000
01000000
00001000
00010000
00000010
00000000
,
00100000
00010000
01000000
00001000
00010000
00000100
00001000
00000000
00000010
00001000
00000100
00010000
00001000
01000000
00010000
00000000
,
00100000
01000000
10000000
01000000
00100000
00010000
00100000
00000000
00001000
00010000
00000010
00001000
00000010
00010000
00001000
00000000
,
00000010
00000100
00001000
00000100
00000010
00000001
00000010
00000000
00000100
00010000
00001000
00010000
00000010
00001000
00000010
00000000
,
00001001
00000000
00000001
00000000
00000100
00000000
00001000
00010000
,
00000000
00100000
00000000
10000000
00000000
00010000
00100000
01000000
,
10000000
00000000
01000000
00000000
00010000
00000000
00001000
00000010
,
00000000
00000001
00000001
00000100
00001000
00010000
00100000
10000000
,
00010000
00000000
00100000
00000000
01000000
00100000
00010000
00000000
00100000
00001000
00010000
00000000
00000100
00010000
00001000
00000000
,
00010000
00000010
00001000
00000000
00000001
00000010
00000001
00000010
00000100
00001000
00000100
00001000
00000100
00000000
00010000
00000000
,
00011000
00000000
00001000
00000000
01000000
00010000
10000000
00000000
00010000
10000000
00100000
00000000
10000000
01000000
00100000
00000000
,
00010000
01000000
00001000
00010000
00000010
00001000
00000010
00010000
00001000
00100000
00010000
00100000
00001000
00010000
00000100
00000000
,
00001000
00000000
00000010
00000000
00000100
00000001
00001000
00000000
00000001
00000010
00000100
00000000
00001000
00000100
00010000
00000000
,
00001000
00100000
00010000
00000000
10000000
00100000
01000000
00010000
01000000
00001000
00010000
00001000
00100000
00000000
01000000
00000000
,
01100000
00000000
00100000
00000000
00001000
00010000
00000100
00000000
00001000
00000001
00000010
00000000
00000001
00001000
00000010
00000000
,
00001000
00000100
00010000
00001000
00100000
00010000
00100000
00001000
00010000
00000010
00001000
00000010
00010000
00001000
01000000
00000000
,
00010000
00100000
10000000
00000000
00000000
00000000
10000000
00100000
00010000
00000000
00000000
00000000
00001000
00000100
00000001
00000000
,
00000000
00000000
00000001
00000100
00001000
00000000
00000000
00000000
00000010
00000000
00002001
00000000
00000000
00000000
00003001
00000100
,
00001000
00000000
00000000
00000000
;
