#VERSION:0.83;
#TITLE:純真可憐デザイア;
#SUBTITLE:;
#ARTIST:BEMANI Sound Team "HuΣeR" feat.Fernweh;
#TITLETRANSLIT:Junshin karen desire;
#SUBTITLETRANSLIT:;
#ARTISTTRANSLIT:HuΣeR feat.Fernweh;
#GENRE:EMOTIONAL ROCK;
#CREDIT:;
#MUSIC:Junshin karen desire.ogg;
#BANNER:Junshin karen desire.png;
#BACKGROUND:Junshin karen desire-bg.png;
#CDTITLE:./CDTitles/bm IIDX 25 CANNON BALLERS.png;
#SAMPLESTART:63.694;
#SAMPLELENGTH:15.000;
#SELECTABLE:YES;
#OFFSET:-0.261;
#BPMS:0.000=182.000;
#STOPS:;
#TIMESIGNATURES:0.000=4=4;
#BGCHANGES:0.000=Junshin karen desire.mp4=1.000=0=0=0=StretchNoLoop====,
99999.000=-nosongbg-=1.000=0=0=0=StretchNoLoop====
;
#FGCHANGES:;

//--------------- dance-single - forcednature ----------------
#NOTEDATA:;
#STEPSTYPE:dance-single;
#DESCRIPTION:forcednature;
#CREDIT:forcednature;
#DIFFICULTY:Beginner;
#METER:4;
#RADARVALUES:0,0,0,0,0;
#NOTES:
0000
0000
0000
0000
,
0000
0000
0000
0000
,
0000
0000
0000
0000
,
0000
0000
0000
0000
,
0000
0000
0000
0000
,
0000
0000
0000
0000
,
0000
0000
0000
0000
,
0000
0000
0000
0000
,
0000
0000
0000
0000
,
0001
0000
0000
0000
,
0000
0000
0000
0000
,
0100
0000
0000
0000
,
0010
0000
0010
0000
,
1000
0000
0000
0000
,
0100
0000
0000
0000
,
0010
0000
0010
0000
,
0001
0000
0000
0000
,
1001
0000
0000
0000
,
0000
0000
0000
0000
,
1000
0000
0000
0000
,
0010
0000
0000
0000
,
1000
0000
0000
0000
,
0000
0000
0000
0000
,
0001
0000
0001
0000
,
0001
0000
0000
0000
,
0010
0000
0000
0000
,
0000
0000
0000
0000
,
0100
0000
0000
0000
,
0100
0000
0100
0000
,
1000
0000
0000
0000
,
0010
0000
0000
0000
,
0100
0000
0100
0000
,
0100
0000
0000
0000
,
1001
0000
0000
0000
,
0001
0000
0000
0000
,
0010
0000
0000
0000
,
0001
0000
0000
0000
,
0100
0000
0000
0000
,
0010
0000
0000
0000
,
1000
0000
0000
0000
,
0100
0000
0100
0000
,
1000
0000
0000
0000
,
0010
0000
0000
0000
,
0100
0000
0000
0000
,
0001
0000
0001
0000
,
0010
0000
0000
0000
,
0001
0000
0000
0000
,
0100
0000
0010
0000
,
0100
0000
0000
0000
,
1001
0000
0000
0000
,
0110
0000
0000
0000
,
1000
0000
1000
0000
,
0001
0000
0000
0000
,
0010
0000
0100
0000
,
1000
0000
0000
0000
,
0001
0000
0001
0001
,
0001
0000
0000
0000
,
1001
0000
0000
0000
,
0110
0000
0000
0000
,
1000
0000
1000
0000
,
0001
0000
0000
0000
,
0010
0000
0100
0000
,
1000
0000
0100
0000
,
0110
0000
0000
0000
,
0001
0000
1000
0000
,
0010
0000
0000
0000
,
0100
0100
0100
0000
,
0001
0000
0001
0000
,
1000
0000
1000
0000
,
0010
0010
0100
0000
,
0110
0000
0000
0000
,
1001
0000
0000
0000
,
1000
0000
0000
0000
,
0100
0000
0000
0000
,
0010
0000
0010
0000
,
0001
0000
0000
0000
,
0100
0000
0000
0000
,
0010
0000
0010
0000
,
1000
0001
1000
0000
,
1001
0000
0000
0000
,
0110
0000
0000
0000
,
0001
0000
0001
0000
,
0010
0000
0001
0000
,
0100
0000
0100
0000
,
0010
0000
1000
0000
,
0100
0100
0100
0000
,
1000
0000
0000
0000
,
0010
0000
0010
0010
,
0010
0000
0010
0000
,
0100
0000
0100
0100
,
0100
0000
0100
0000
,
2002
0000
3003
0000
;

//--------------- dance-single - forcednature ----------------
#NOTEDATA:;
#STEPSTYPE:dance-single;
#DESCRIPTION:forcednature;
#CREDIT:forcednature;
#DIFFICULTY:Easy;
#METER:8;
#RADARVALUES:0,0,0,0,0;
#NOTES:
0000
0000
0000
0000
,
0000
0000
0000
0000
,
0000
0000
0000
0000
,
0000
0000
0000
0000
,
0000
0000
0000
0000
,
0000
0000
0000
0000
,
0000
0000
0000
0000
,
0000
0000
0000
0000
,
0000
0000
0000
0000
,
1001
0000
0001
0000
,
0100
0000
0010
1000
,
0010
0000
0100
0001
,
0100
0010
0010
0000
,
1001
0000
0000
1000
0000
0000
0000
0000
,
1001
0000
0000
0001
0000
0000
0000
0000
,
0010
0000
0000
0010
0000
0000
0100
0000
,
0110
0000
1001
0000
,
1000
0000
1000
0100
,
0010
0000
0100
0010
,
0001
0000
0010
0100
,
1000
0000
0001
0000
,
0001
0000
0100
0010
,
1000
0001
0100
0000
,
0010
0010
0010
0000
,
1001
0000
0010
0000
,
0110
0000
1000
0001
,
1000
0000
0100
0010
,
0001
0000
0100
0001
,
1000
0010
1000
0000
,
0001
0001
0010
0000
,
0100
1000
0100
0000
,
0010
0000
0000
0010
0000
0000
0010
0000
,
0001
0000
0100
0000
,
0010
1000
0010
0000
,
1000
0000
0100
0000
,
0010
0001
0010
0000
,
0001
0000
0100
0000
,
0010
1000
0010
0000
,
1000
0000
0100
0000
,
0010
0001
0010
0000
,
0001
0001
0001
0000
,
0110
0000
1000
1000
,
0001
0000
0100
0000
,
0010
1000
0010
1000
,
0001
0000
0100
0000
,
1001
0000
1000
0000
,
0001
0001
0001
0000
,
0110
0000
0000
0100
0000
0100
0000
0020
,
0000
0000
0000
0000
0030
0000
0000
1001
,
0000
0000
0100
0000
0010
0000
0000
1001
,
0000
0010
0100
0000
,
1000
1000
0001
0000
,
0001
0001
1000
0000
,
0010
0100
0001
0000
,
0010
0100
1000
0000
,
0001
0001
0100
0001
,
1000
0000
0010
0000
1000
0000
0000
1001
,
0000
0000
0100
0000
0010
0000
0000
1001
,
0000
0010
0100
0000
,
0001
0010
0100
1000
,
0010
0010
0010
0000
,
0100
0001
1000
0001
,
0100
0000
0010
0000
1000
0000
0000
1001
,
0000
0000
0001
0000
0001
0000
0000
0010
,
0000
0100
1000
0001
,
0100
0010
1000
0000
,
0100
0010
0001
0000
,
1000
0010
1000
0010
,
0100
0001
0100
0001
,
0010
0100
0010
0000
,
2002
0000
3003
0000
,
0001
0001
0000
0001
,
0001
0001
0000
0001
,
1000
1000
0000
1000
,
1000
1000
0000
1000
,
0010
0000
0010
0000
,
0100
0000
0100
0000
,
0001
0000
1000
0000
0001
0000
0000
1001
,
0000
0000
0000
0000
0100
0000
0000
0110
,
0000
0000
1000
0000
0001
0000
0000
0110
,
0000
0001
1000
0000
,
0010
0100
0001
0010
,
0100
1000
0001
0000
,
0100
0010
1000
0010
,
0100
0001
1000
0000
,
0110
0000
0000
0001
0000
0000
1000
0000
,
1000
0100
0010
0000
,
0001
0100
0001
0100
,
0010
1000
0010
1000
,
0100
0010
0100
0010
,
0001
0000
1000
0000
0010
0000
0000
2002
,
0000
0000
3003
0000
;

//--------------- dance-single - forcednature ----------------
#NOTEDATA:;
#STEPSTYPE:dance-single;
#DESCRIPTION:forcednature;
#CREDIT:forcednature;
#DIFFICULTY:Medium;
#METER:13;
#RADARVALUES:0,0,0,0,0;
#NOTES:
0000
0000
0000
0000
,
0000
0000
0000
0000
,
0000
0000
0000
0000
,
0000
0000
0000
0000
,
0000
0000
0000
0000
,
0000
0000
0000
0000
,
0000
0000
0000
0000
,
0000
0000
0000
0000
,
0000
0000
0000
0000
,
0001
0100
0001
0100
,
0010
0000
1000
0000
0010
0000
0100
0001
,
1000
0100
1000
0100
,
0011
0000
0001
0100
0001
0100
0010
0000
,
1000
0100
1000
0002
0000
0013
0010
0000
,
0001
0100
0001
2000
0000
3010
0010
0000
,
0100
0000
0001
0000
0010
0000
0200
0000
0000
0300
1000
0000
1100
0000
0000
0000
,
0001
0010
0001
0010
0001
1000
0010
0000
,
0110
0100
0001
0010
,
0001
0000
1000
0000
0100
0010
0001
0000
,
1000
0010
0100
0010
,
1000
0000
0001
0000
0100
0010
1000
0000
,
0001
0010
0100
0010
,
0001
0000
1000
0000
0010
0100
0001
0000
,
0110
0000
1000
0010
1000
0010
0100
0000
,
2002
0000
0000
3003
,
0110
0000
0001
1000
0010
1000
0001
0200
,
0000
0301
0010
0000
0100
0100
0010
0000
,
0001
1000
0100
1000
0000
0010
0100
0002
,
0000
0013
0020
0000
0031
1000
0010
0000
,
0120
0000
0130
0001
0020
0000
0130
1000
,
0002
0000
0103
0020
0000
1030
0100
0000
,
0010
0001
0001
1000
0010
1000
0001
0000
,
0010
0000
0010
0100
0000
0100
1000
0000
1000
0010
0000
0000
,
0110
0000
0001
2000
0000
0000
0000
0000
,
0010
0000
0010
3010
0000
0000
0100
0000
,
0110
0000
1000
0002
0000
0000
0000
0000
,
0010
0000
0010
0010
0013
0000
0110
0000
,
2001
0000
0100
0100
0000
0000
0001
0000
,
0100
0000
0100
3100
0000
0000
0010
0000
,
0110
0000
1000
0002
0000
0100
0100
0000
,
1000
0000
0010
0010
0013
0000
0110
0000
,
1000
0100
0010
0000
0100
1000
0001
0010
,
0000
0001
1000
0000
0100
0000
0110
0000
,
0001
0100
0010
0100
0000
1010
0000
1001
,
0000
0001
0010
0100
1000
0100
0010
0000
,
0001
0000
0001
0100
0010
0000
1000
0100
,
0010
0000
0010
0001
1000
0010
0100
0000
,
0001
0010
0010
0001
0000
0110
0000
1001
,
0000
1000
0100
0001
0100
1000
0000
1010
,
0000
0001
0100
1000
0100
0001
0000
0011
,
0000
1000
0010
0001
0010
1000
0001
0000
,
0100
0010
1000
0001
0010
0100
1000
0000
,
0001
0010
1000
0010
0000
0001
0011
0000
,
1000
0010
0100
1000
0100
0001
1000
0010
,
1000
0001
0010
0001
1000
0100
0001
0000
,
0100
1000
1000
0010
0100
0001
0000
0011
,
0000
0010
0100
1000
0010
0100
0000
0110
,
0000
0001
0010
1000
0010
0001
0000
1100
,
0000
1000
0010
0001
0010
1000
0001
0000
,
0100
0010
1000
0100
0001
0100
1000
0000
,
0001
0010
0100
2000
0000
0010
3010
0000
,
1000
0001
0100
0001
1000
0010
0100
0010
,
1000
0100
0010
0001
0100
0010
0010
2001
,
0000
0000
0000
0000
0000
0000
0000
0000
0100
0000
0000
0100
0000
0000
3002
0000
,
0000
0023
0230
2300
,
3001
0100
0010
1000
0001
0010
0001
2000
,
0000
3100
0020
0000
0031
1000
0000
1000
,
0001
0100
0010
0100
0001
1000
0010
1000
,
0001
0010
0100
0010
0001
1000
0010
0100
,
0001
0000
0010
0100
0000
0110
0000
1001
,
0000
0010
0020
0000
0100
0130
0000
1001
,
0000
1000
0100
0000
0010
0100
0000
1000
,
0000
0001
0100
0000
0010
0000
1001
0000
,
0002
0000
0013
0100
2000
0000
3010
0000
,
0100
0001
1000
0001
0000
0100
0010
0000
,
2000
0000
3100
0010
0002
0000
0013
0100
,
2000
0000
3010
0100
0002
0000
0013
0000
,
0001
0100
0001
0100
0010
1000
0000
1100
,
0000
0001
0010
0001
1000
0010
0000
0110
,
0000
1000
0100
0001
0100
0010
0000
0011
,
0000
0001
0100
1000
0100
0010
1000
0000
,
0001
0010
0001
0100
0010
1000
0100
1000
,
0010
0100
0001
0010
0000
0110
0000
1001
,
0000
0001
0100
1000
0100
0001
1000
0010
,
0000
1000
0100
0001
0100
1000
0001
0010
,
0100
1000
1000
0010
1000
1000
0001
0100
,
0000
0110
0000
1000
0001
0010
0100
1100
,
0000
1000
0010
0001
0010
1000
0010
0001
,
0010
1000
0001
0100
0001
1000
0100
0110
,
0000
0001
0010
1000
0010
0001
0010
1000
,
0010
0001
0100
0010
1000
0100
0010
2002
,
0000
0000
3003
0000
;

//--------------- dance-single - forcednature ----------------
#NOTEDATA:;
#STEPSTYPE:dance-single;
#DESCRIPTION:forcednature;
#CREDIT:forcednature;
#DIFFICULTY:Hard;
#METER:16;
#RADARVALUES:0,0,0,0,0;
#NOTES:
0000
0000
0000
0000
,
0000
0000
0000
0000
,
0000
0000
0000
0000
,
0000
0000
0000
0000
,
0000
0000
0000
0000
,
0000
0000
0000
0000
,
0000
0000
0000
0000
,
0000
0000
0000
0000
,
0000
0000
0000
0000
,
1000
0000
1000
0100
0010
0000
0010
0001
,
1000
0000
1000
0010
0100
0001
0100
0000
,
0001
0000
0001
0010
0100
0000
0100
1000
,
0001
0000
0000
0000
0100
0010
0100
0010
0100
0010
0100
0010
2000
0000
0000
0000
,
3001
0000
0010
0000
0100
0000
0110
0000
0000
0000
0001
0000
1000
0001
1000
0001
,
1000
0000
0010
0000
0100
0000
0110
0000
0000
0000
0001
1000
0001
1000
0001
0000
,
0020
0000
0000
0030
0100
1000
0002
0000
0000
0003
0100
0010
2000
0000
0000
3000
,
0001
0010
0001
0010
0001
0010
0001
0010
0100
1000
0100
1000
0100
1000
0100
0000
,
0010
0001
0100
0001
0010
0001
0100
0001
,
0010
0100
1000
0010
0100
0001
0010
0100
,
1000
0010
0100
0010
1000
0010
0100
0010
,
1000
0100
0010
0001
0100
0010
0110
0000
,
0001
0100
0001
1000
0001
0010
0001
1000
,
0100
0001
0100
1000
0001
0010
0100
1000
,
1001
0000
0000
0000
0001
0000
0100
0001
0100
0000
0000
0010
0000
0000
1000
0000
,
0200
0000
0010
0000
1300
0001
1001
0000
,
0110
0000
1000
0010
0001
0001
0010
1000
,
0000
0000
0001
0100
0001
0000
1000
0000
0010
0000
0010
0000
1000
0000
0000
0000
,
0001
0010
1000
0010
0001
1000
0100
1100
,
0000
0000
1000
0001
1000
0000
0010
0000
0100
0001
0100
0001
1000
0010
1000
0010
,
0200
0000
0301
0010
0200
0000
1300
0010
,
0110
0000
0001
1000
0010
0000
0100
0000
,
0110
0001
0010
0110
1000
0010
1001
0000
,
0001
0100
0010
1000
0100
0010
0001
1000
0010
0100
0000
0000
,
1001
0000
1000
0200
0001
0000
0000
0000
,
1000
0000
0010
0000
0301
0000
0100
1000
,
0001
0000
0001
0200
1000
0000
0000
0000
,
0001
0000
0000
0000
0010
0000
0000
0000
1300
0000
0000
1000
0000
0000
0100
0000
,
0001
0000
0001
0020
1000
0000
0100
0000
,
0001
0000
0000
0000
0130
0000
1000
0000
0010
0000
1000
0000
0001
0100
0001
0100
,
0010
0000
1000
0200
0001
0000
1000
0000
,
0010
0000
0310
0000
0100
0000
0100
0000
1000
0000
0001
0010
0100
1000
0100
0010
,
0001
0000
0100
0100
0001
0100
0001
0011
,
0000
1000
1000
0100
1000
0001
0010
0000
,
0001
0001
0100
0110
0000
0101
0000
0021
,
0000
0000
0130
0000
0010
0001
0010
0001
1000
0100
0010
0001
1000
0000
0000
0000
,
0001
0000
0100
0001
0100
0000
0010
1000
0010
0000
0100
0001
1000
0000
0010
1000
,
0001
0000
0010
0100
1000
0000
0100
0010
0001
0000
1000
0000
0010
0000
0000
0000
,
1001
1000
0100
0110
0000
0011
0000
0201
,
0000
0000
0310
0000
0010
0000
0100
0001
0100
0001
1000
0000
0010
0000
1001
0000
,
0000
0000
1000
0100
0001
0000
0100
0000
1000
0000
0001
0000
0010
0000
0011
0000
,
0000
0000
0001
0100
1000
0000
0100
0000
0001
0000
1000
0000
1010
0000
0000
0000
,
0001
0000
0100
0001
1000
0000
0010
0000
1000
0000
0100
1000
0001
0000
0010
0000
,
0100
1000
0100
0000
0010
0001
0010
0000
0001
1000
0001
1000
0020
0000
0000
0000
,
0130
0000
0001
0100
0010
0000
1000
0000
0001
0000
0010
0100
1000
0000
0001
0000
,
0200
0000
0000
0300
0010
1000
0010
1000
0001
0000
0100
0000
1001
0000
0000
0000
,
1000
0000
0100
1000
0100
0000
0010
0000
0001
1000
0001
1000
0010
0000
2001
0000
,
0000
0000
3100
0010
0100
0010
0100
0010
0001
0000
1000
0000
0010
0000
1001
0000
,
0000
0000
1000
0100
0001
0000
0100
1000
0001
0000
0010
0000
0100
0000
1001
0000
,
0000
0000
0001
0100
1000
0000
0100
0001
1000
0000
0010
0000
0110
0000
0000
0000
,
0001
0000
0100
0010
1000
0000
0001
0000
1000
0000
0100
0010
0001
0000
1000
0000
,
0010
0100
0010
0000
0100
0001
1000
0000
0100
0000
1000
0100
0010
0000
0000
0000
,
0001
0000
0100
0001
0100
0000
0010
1000
0010
0000
0100
0001
1000
0000
0010
0000
,
1000
0100
1000
0100
0010
0001
0010
0001
1000
0100
0010
0001
0100
0000
0120
0000
,
0000
0000
0000
0000
0000
0000
0000
0000
2030
0000
0000
3002
0000
0000
0203
0000
,
0000
0000
0310
1000
0020
0000
1030
0100
2000
0000
3100
0010
0002
0000
2003
0000
,
3020
0032
0023
2030
3200
0302
0203
2300
,
0000
0000
3010
0100
0002
0000
0013
0100
2000
0000
3001
0000
0200
0000
0000
0000
,
0301
0000
0010
0100
1000
0000
0010
0100
0001
0000
0010
0001
1000
0000
0010
1000
,
0001
0000
0100
0001
0010
0000
0100
1000
0010
0100
0010
0100
0001
0000
0010
0000
,
0210
0000
1300
1010
0000
0110
0000
0101
,
0000
0011
0021
0000
0100
0130
0000
1001
,
0000
1000
1000
1000
1000
0100
0100
0010
,
0000
0001
0001
0001
0001
0100
0020
0000
,
1030
1000
1000
0001
0100
0100
0100
0000
,
0010
1000
0100
0020
0000
0031
0011
0000
,
2000
0000
3100
0001
2000
0000
3010
0001
,
0200
0000
0310
1000
0002
0000
0013
0001
,
0100
0010
0100
0010
0100
0010
0100
0010
1000
0000
0001
0000
0000
0000
1001
0000
,
0000
0000
1000
0100
0010
0000
0001
0100
0010
1000
0010
1000
0001
0000
1001
0000
,
0000
0000
1000
0100
0010
0000
1000
0010
0001
0000
0100
0000
0001
0000
1001
0000
,
0000
0000
0001
0100
0010
0000
0001
0010
1000
0000
0001
0000
0101
0000
0000
0000
,
1000
0000
0100
0010
0001
0000
0100
0000
0001
0000
0010
0100
1000
0000
0010
0000
,
0100
0001
0100
0000
0001
0010
0001
0000
0010
0100
1000
0100
0010
0000
0012
0000
,
0000
0000
0103
0000
0010
0000
1000
0000
0010
0000
0100
0001
1000
0000
0200
0000
,
0000
0000
0310
0000
0100
0000
0010
0001
1000
0000
0010
0000
0110
0000
0001
0000
,
1000
0000
0100
1000
0100
0000
0010
0000
0001
0100
0001
0000
0010
0000
0210
0000
,
0000
0000
1300
0001
1000
0001
0100
0000
0010
0000
0110
0000
0100
0000
1001
0000
,
0000
0000
1000
0100
0010
0000
0001
0100
0010
0000
0100
0001
0010
0000
0100
1000
,
0010
0000
1000
0001
0010
0000
0001
1000
0010
0100
0010
0100
0001
0000
0010
0100
,
1000
0000
0010
0100
0001
0000
0010
0001
0100
0000
0010
1000
0100
0000
0110
0000
,
0000
0010
0001
0010
0001
1000
0100
1000
0100
0010
0001
1000
0010
0000
0220
0000
,
0000
0000
0330
0000
;

//--------------- dance-double - forcednature ----------------
#NOTEDATA:;
#STEPSTYPE:dance-double;
#DESCRIPTION:forcednature;
#CREDIT:forcednature;
#DIFFICULTY:Easy;
#METER:8;
#RADARVALUES:0,0,0,0,0;
#NOTES:
00000000
00000000
00000000
00000000
,
00000000
00000000
00000000
00000000
,
00000000
00000000
00000000
00000000
,
00000000
00000000
00000000
00000000
,
00000000
00000000
00000000
00000000
,
00000000
00000000
00000000
00000000
,
00000000
00000000
00000000
00000000
,
00000000
00000000
00000000
00000000
,
00000000
00000000
00000000
00000000
,
00011000
00000000
01000000
00000000
,
00010000
00000000
10000000
00100000
,
10000000
00000000
00010000
01000000
,
00010000
00100000
00100000
00000000
,
00011000
00000000
00000000
00001000
00000000
00000000
00000000
00000000
,
00011000
00000000
00000000
00010000
00000000
00000000
00000000
00000000
,
00000100
00000000
00000000
00000100
00000000
00000000
00001000
00000000
,
00000010
00000000
00001001
00000000
,
00000001
00000000
00000001
00000010
,
00000100
00000000
00001000
00000100
,
00010000
00000000
00001000
00010000
,
00001000
00000000
00100000
00000000
,
00010000
00000000
01000000
00100000
,
10000000
00010000
10000000
00000000
,
01000000
01000000
01000000
00000000
,
10010000
00000000
00001000
00000000
,
00011000
00000000
00000100
00001000
,
00000100
00000000
00000010
00000001
,
00000100
00000000
00000010
00001000
,
00000001
00000100
00000010
00000000
,
00010000
00010000
00001000
00000000
,
00001000
00010000
00001000
00000000
,
00100000
00000000
00000000
00100000
00000000
00000000
00100000
00000000
,
00010000
00000000
01000000
00000000
,
00100000
10000000
00100000
00000000
,
10000000
00000000
01000000
00000000
,
00100000
00010000
00100000
00000000
,
00001000
00000000
00010000
00000000
,
00000010
00001000
00000010
00000000
,
00000100
00000000
00000001
00000000
,
00000010
00000001
00000010
00000000
,
00000100
00000100
00000100
00000000
,
00001001
00000000
00001000
00001000
,
00000100
00000000
00010000
00000000
,
00001000
00010000
00001000
00100000
,
00010000
00000000
00100000
00000000
,
10010000
00000000
00010000
00000000
,
01000000
01000000
01000000
00000000
,
00011000
00000000
00000000
00001000
00000000
00001000
00000000
00020000
,
00000000
00000000
00000000
00000000
00030000
00000000
00000000
00011000
,
00000000
00000000
00000100
00000000
00000100
00000000
00000000
00000110
,
00000000
00000001
00000001
00000000
,
00000100
00000100
00000001
00000000
,
00001000
00001000
00000010
00000000
,
00010000
00001000
00100000
00000000
,
00010000
00100000
00001000
00000000
,
00010000
00010000
00001000
01000000
,
00010000
00000000
01000000
00000000
00010000
00000000
00000000
10010000
,
00000000
00000000
10000000
00000000
01000000
00000000
00000000
01100000
,
00000000
00010000
00100000
00000000
,
00010000
01000000
00010000
10000000
,
00100000
00100000
00100000
00000000
,
01000000
00010000
00100000
00001000
,
00010000
00000000
00000100
00000000
00001000
00000000
00000000
00001001
,
00000000
00000000
00000001
00000000
00000001
00000000
00000000
00000010
,
00000000
00000100
00001000
00000100
,
00010000
00001000
00100000
00000000
,
00001000
00010000
00000010
00000000
,
00001000
00000001
00000100
00000010
,
00001000
00000010
00000100
00000001
,
00000010
00000100
00000010
00000000
,
00002002
00000000
00003003
00000000
,
00010000
00010000
00000000
00010000
,
00001000
00001000
00000000
00001000
,
01000000
01000000
00000000
01000000
,
00010000
00010000
00000000
00010000
,
00100000
00000000
00100000
00000000
,
01000000
00000000
01000000
00000000
,
10000000
00000000
00010000
00000000
10000000
00000000
00000000
10010000
,
00000000
00000000
00000000
00000000
00001000
00000000
00000000
00011000
,
00000000
00000000
00000100
00000000
00000100
00000000
00000000
00000110
,
00000000
00001000
00000001
00000000
,
00000100
00000001
00000100
00000000
,
00000010
00001000
00000001
00000000
,
00000010
00000100
00001000
00000100
,
00010000
00001000
00100000
00000000
,
00011000
00000000
00000000
00001000
00000000
00000000
01000000
00000000
,
01000000
00010000
00100000
00000000
,
01000000
10000000
01000000
10000000
,
00010000
00100000
00010000
00100000
,
00001000
00010000
00001000
00010000
,
00000010
00000000
00001000
00000000
00000001
00000000
00000000
00002002
,
00000000
00000000
00003003
00000000
;

//--------------- dance-double - forcednature ----------------
#NOTEDATA:;
#STEPSTYPE:dance-double;
#DESCRIPTION:forcednature;
#CREDIT:forcednature;
#DIFFICULTY:Medium;
#METER:13;
#RADARVALUES:0,0,0,0,0;
#NOTES:
00000000
00000000
00000000
00000000
,
00000000
00000000
00000000
00000000
,
00000000
00000000
00000000
00000000
,
00000000
00000000
00000000
00000000
,
00000000
00000000
00000000
00000000
,
00000000
00000000
00000000
00000000
,
00000000
00000000
00000000
00000000
,
00000000
00000000
00000000
00000000
,
00000000
00000000
00000000
00000000
,
00010000
00001000
00010000
00001000
,
00100000
00000000
00010000
00000000
00100000
00000000
00010000
10000000
,
00100000
01000000
00100000
01000000
,
10010000
00000000
00010000
01000000
00010000
01000000
00001000
00000000
,
00010000
00001000
00010000
00000200
00000000
00001300
00001000
00000000
,
00000001
00000100
00000001
00002000
00000000
00003010
00000010
00000000
,
00010000
00001000
00100000
00020000
00000000
01030000
00100000
00000000
,
10000000
00010000
10000000
00010000
00100000
01000000
00010000
00000000
,
00011000
00001000
00000010
00000001
,
00000100
00000000
00000001
00000000
00000010
00001000
00010000
00000000
,
01000000
10000000
00100000
10000000
,
01000000
00000000
00010000
00000000
00001000
00000100
00000001
00000000
,
00000010
00000001
00000100
00001000
,
00010000
00000000
01000000
00000000
10000000
00010000
00100000
00000000
,
01100000
00000000
10000000
00010000
10000000
00010000
01000000
00000000
,
20020000
00000000
00000000
30030000
,
01100000
00000000
00010000
00100000
00001000
00010000
00001000
00020000
,
00000000
00030100
00001000
00000000
00000010
00000010
00000100
00000000
,
00000001
00000010
00000001
00001000
00000000
00000100
00001000
00000200
,
00000000
00010300
00020000
00000000
00031000
00100000
00010000
00000000
,
02010000
00000000
03100000
10000000
02000000
00000000
03100000
00001000
,
00020000
00000000
00030010
00002000
00000000
00003100
00000010
00000000
,
00000001
00000100
00000100
00000001
00001000
00000010
00001000
00000000
,
00000100
00000000
00000100
00010000
00000000
00010000
00001000
00000000
00001000
00100000
00000000
00000000
,
00110000
00000000
10000000
00020000
00000000
00000000
00000000
00000000
,
00100000
00000000
00100000
00130000
00000000
00000000
00001000
00000000
,
00010000
00000000
00000010
00002000
00000000
00000000
00000000
00000000
,
00000010
00000000
00000010
00000010
00003010
00000000
00000110
00000000
,
00001002
00000000
00000100
00000100
00000000
00000000
00001000
00000000
,
00000100
00000000
00000100
00000103
00000000
00000000
00000010
00000000
,
00001001
00000000
00010000
00002000
00000000
00100000
00100000
00000000
,
00010000
00000000
00100000
00100000
00103000
00000000
00110000
00000000
,
00010000
01000000
00100000
00000000
10000000
01000000
00100000
01000000
,
00000000
00100000
00001000
00000000
00010000
00000000
00011000
00000000
,
00000100
00001000
00000010
00001000
00000000
00000101
00000000
00000011
,
00000000
00000010
00000100
00010000
00001000
00100000
01000000
00000000
,
00100000
00000000
00100000
00010000
10000000
00000000
00100000
10000000
,
00010000
00000000
00010000
00100000
01000000
00010000
00001000
00000000
,
00000010
00000100
00000100
00001000
00000000
00000110
00000000
00001001
,
00000000
00000001
00000100
00001000
00010000
00100000
00000000
10010000
,
00000000
10000000
01000000
00010000
00001000
00000010
00000000
00000110
,
00000000
00000100
00010000
00001000
00100000
00010000
01000000
00000000
,
00100000
10000000
00010000
10000000
01000000
00010000
00001000
00000000
,
00000010
00000100
00001000
00000100
00000000
00000010
00000011
00000000
,
00000001
00000100
00001000
00010000
01000000
10000000
00100000
10000000
,
01000000
00010000
00001000
00000100
00000001
00000010
00000001
00000000
,
00000100
00000010
00000010
00001000
00000100
00010000
00000000
00011000
,
00000000
00100000
00001000
00010000
00100000
10000000
00000000
01100000
,
00000000
00010000
01000000
10000000
01000000
00010000
00000000
00110000
,
00000000
00001000
00010000
00000100
00010000
00001000
00000010
00000000
,
00000100
00010000
00000010
00001000
00000001
00000100
00001000
00000000
,
00010000
00100000
10000000
00200000
00000000
01000000
01300000
00000000
,
00100000
10000000
01000000
10000000
00010000
00100000
01000000
00010000
,
00001000
00000010
00000100
00010000
00000010
00001000
00001000
00000102
,
00000000
00000000
00000000
00000000
00000000
00000000
00000000
00000000
00000010
00000000
00000000
00000010
00000000
00000000
00002003
00000000
,
00000000
00003200
00020300
00032000
,
00103000
00010000
01000000
00100000
10000000
01000000
00010000
00002000
,
00000000
00003010
00000200
00000000
00000301
00000100
00000000
00000100
,
00010000
00001000
00100000
00001000
00010000
00100000
10000000
00100000
,
00010000
00001000
00010000
01000000
10000000
00010000
00100000
00000000
,
01000000
00000000
00010000
00001000
00000000
00011000
00000000
00010100
,
00000000
00000100
00000200
00000000
00001000
00001300
00000000
00000011
,
00000000
00000001
00000100
00000000
00001000
00010000
00000000
00100000
,
00000000
10000000
01000000
00000000
00010000
00000000
00011000
00000000
,
00000020
00000000
00001030
00000100
00020000
00000000
00031000
00000000
,
00100000
00010000
01000000
00010000
00000000
10000000
01000000
00000000
,
00200000
00000000
00301000
00010000
00000020
00000000
00010030
00001000
,
02000000
00000000
03001000
00010000
00000200
00000000
00001300
00000000
,
00000010
00000100
00000010
00000100
00000001
00000010
00000000
00000110
,
00000000
00010000
00001000
00100000
00010000
01000000
00000000
00011000
,
00000000
00000010
00001000
00000100
00000001
00000100
00000000
00001100
,
00000000
00010000
00001000
00100000
00010000
01000000
10000000
00000000
,
01000000
00010000
10000000
00100000
10000000
01000000
00010000
00001000
,
00000100
00000001
00000010
00000100
00000000
00000110
00000000
00001001
,
00000000
00000001
00000010
00000001
00001000
00000100
00000001
00000100
,
00000000
00001000
00000010
00001000
00010000
01000000
00010000
00100000
,
01000000
10000000
10000000
01000000
00010000
00010000
00001000
00010000
,
00000000
00011000
00000000
00001000
00000010
00000001
00000100
00001000
,
00000000
00010000
00100000
10000000
01000000
10000000
00100000
00010000
,
00001000
00000010
00000001
00000100
00000001
00000010
00001000
00011000
,
00000000
00010000
01000000
10000000
01000000
00010000
00001000
00000100
,
00000001
00000010
00001000
00010000
00100000
10000000
01000000
20020000
,
00000000
00000000
30030000
00000000
;

//--------------- dance-double - forcednature ----------------
#NOTEDATA:;
#STEPSTYPE:dance-double;
#DESCRIPTION:forcednature;
#CREDIT:forcednature;
#DIFFICULTY:Hard;
#METER:17;
#RADARVALUES:0,0,0,0,0;
#NOTES:
00000000
00000000
00000000
00000000
,
00000000
00000000
00000000
00000000
,
00000000
00000000
00000000
00000000
,
00000000
00000000
00000000
00000000
,
00000000
00000000
00000000
00000000
,
00000000
00000000
00000000
00000000
,
00000000
00000000
00000000
00000000
,
00000000
00000000
00000000
00000000
,
00000000
00000000
00000000
00000000
,
00001000
00000000
00001000
00010000
00100000
00000000
00100000
10000000
,
00010000
00000000
00010000
00100000
01000000
00010000
00001000
00000000
,
00000010
00000000
00000010
00000100
00010000
00000000
00010000
00001000
,
00000010
00000000
00000000
00000000
00000001
00001000
00000001
00001000
00000001
00001000
00000001
00001000
00000020
00000000
00000000
00000000
,
00000130
00000000
00001000
00000000
00010000
00000000
00200000
00000000
00000000
00000000
10300000
00000000
00010000
10000000
00010000
10000000
,
01000000
00000000
00010000
00000000
00001000
00000000
00000020
00000000
00000000
00000000
00000031
00001000
00000001
00001000
00000001
00000000
,
00000200
00000000
00000000
00000300
00001000
00010000
00002000
00000000
00000000
00003000
00100000
00010000
00200000
00000000
00000000
00300000
,
01000000
10000000
01000000
10000000
01000000
10000000
01000000
10000000
00010000
00100000
00010000
00100000
00010000
00100000
00010000
00000000
,
10000000
00100000
10000000
01000000
10000000
00100000
10000000
01000000
,
00010000
00001000
00000100
00000001
00000010
00000100
00010000
00001000
,
00000010
00000001
00000100
00000001
00000010
00000001
00000100
00001000
,
00010000
01000000
10000000
00100000
01000000
00000000
01100000
00000000
,
00010000
01000000
00010000
00100000
00010000
01000000
10000000
01000000
,
00010000
00100000
00001000
00000010
00000100
00010000
00000010
00000000
,
00001001
00000000
00000000
00000000
00000001
00000000
00000100
00000001
00000100
00000000
00000000
00001000
00000000
00000000
00010000
00000000
,
00022000
00000000
00033000
00000000
00100000
00010000
01000000
00000000
,
01100000
00000000
00100000
10000000
01000000
01000000
10000000
00100000
,
00000000
00000000
10000000
00010000
10000000
00000000
00100000
00000000
00010000
00000000
00010000
00000000
00001000
00000000
00000000
00000000
,
00000010
00000100
00001000
00000100
00000010
00000001
00000000
00000101
,
00000000
00000000
00000100
00000000
00000010
00000000
00000001
00000000
00000010
00001000
00000010
00001000
00000001
00000100
00000001
00000100
,
00002000
00000000
00013000
00100000
20000000
00000000
31000000
00010000
,
00001000
00000000
00000010
00000100
00001000
00000000
00001100
00000000
,
00000011
00001000
00000001
00000100
00001000
00010000
00011000
00000000
,
00100000
00001000
00010000
00000010
00010000
00001000
00000010
00000100
00001000
00000010
00000000
00000000
,
00001001
00000000
00000001
00000100
00001000
00000000
00010000
01000000
,
10000000
00000000
10000000
00100000
00010000
00000000
00001000
00000000
,
10010000
00000000
10000000
01000000
00010000
00000000
00001000
00000100
,
00000001
00000000
00000000
00000000
00000001
00000000
00000010
00000000
00001000
00000000
00000000
00001000
00000000
00000000
00010000
00000000
,
00011000
00000000
10000000
00100000
00010000
00000000
00001000
00000010
,
00000001
00000000
00000000
00000000
00000001
00000000
00000100
00000000
00001000
00000000
00000100
00000000
00000001
00001000
00000001
00001000
,
00000010
00000000
00000100
00001000
00010000
00000000
01000000
00010000
,
00001000
00000000
00001000
00000000
00010000
00000000
00001000
00000000
00100000
00000000
00010000
10000000
00010000
10000000
00100000
01000000
,
00100000
00000000
01000000
00010000
00100000
00000000
01000000
00010000
,
00000000
00001000
00000010
00001000
00010000
00000100
00001000
00000000
,
00000010
00000010
00000100
00000101
00000000
00000011
00000000
00000210
,
00000000
00000000
00001300
00000000
00000001
00000010
00000001
00000010
00000001
00001000
00000100
00001000
00000001
00000000
00000000
00000000
,
00000100
00000000
00001000
00000000
00010000
00000000
00001000
00010000
00001000
00000000
00100000
00010000
00100000
00000000
01000000
10000000
,
01000000
00000000
10000000
00010000
01000000
00000000
00100000
10000000
00010000
00000000
00100000
00000000
01000000
00000000
00000000
00000000
,
00010000
00001000
00000010
00000110
00000000
00010100
00000000
00010020
,
00000000
00000000
00001030
00000000
00001000
00000000
00000001
00000100
00000001
00000100
00000010
00000000
00001000
00000000
00001100
00000000
,
00000000
00011000
00100000
00010000
01000000
00100000
10000000
11000000
,
00000000
01010000
00001000
00100000
00010000
00001000
00000100
00000000
,
00001000
00000000
00000010
00001000
00000001
00000000
00000100
00000000
00000001
00000000
00000010
00000100
00001000
00000000
00000100
00000000
,
00010000
00000000
00001000
00100000
00010000
00000000
00100000
00001000
00010000
00000000
01000000
00000000
20000000
00000000
00000000
00000000
,
30100000
00000000
01000000
00010000
10000000
00000000
01000000
00000000
10000000
00000000
00010000
00100000
00001000
00000000
00010000
00000000
,
00000200
00000000
00000000
00000000
00001300
00000001
00001000
00000001
00000100
00000000
00000010
00000000
00001001
00000000
00000000
00000000
,
00000001
00000000
00000100
00000001
00000100
00000000
00000010
00000000
00001000
00000100
00001000
00000100
00010000
00000000
00011000
00000000
,
00000000
00000000
01000000
00010000
01000000
00010000
01000000
00010000
00100000
00000000
01000000
00000000
00100000
00000000
00110000
00000000
,
00000000
11000000
00010000
00100000
00001000
00010000
00000010
00001010
,
00000000
00000101
00001000
00000010
00010000
00001000
00011000
00000000
,
00101000
00000000
00010000
00000000
01000000
00000000
00010000
10000000
00010000
00000000
00100000
01000000
10000000
00000000
01000000
00000000
,
00100000
00010000
00100000
00000000
00010000
00100000
00001000
00000000
00000010
00000000
00000100
00001000
00000100
00000000
00000000
00000000
,
00000010
00000000
00000001
00000010
00000001
00000000
00000100
00000001
00000100
00000000
00000010
00001000
00000001
00000000
00000010
00000000
,
00000100
00001000
00000100
00001000
00000100
00010000
00001000
00100000
00010000
00000000
00100000
00010000
01000000
00000000
01200000
00000000
,
00000000
00000000
00000000
00000000
00000000
00000000
00000000
00000000
20300000
00000000
00000000
32000000
00000000
00000000
03020000
00000000
,
00000000
00000000
00031000
00010000
00000020
00000000
00001030
00000010
00020000
00000000
00031000
00010000
00000200
00000000
00002300
00000000
,
00003002
00000203
00002300
00023000
00230000
00320000
00032000
00003200
,
00000000
00000000
00000301
00001000
00000200
00000000
00000310
00000100
00020000
00000000
00031000
00000000
00200000
00000000
00000000
00000000
,
00310000
00000000
01000000
00100000
10000000
00000000
01000000
00100000
00010000
00000000
00100000
00001000
00010000
00000000
00000010
00010000
,
00001000
00000000
00000010
00000001
00000100
00000000
00000010
00001000
00000100
00000010
00000100
00000010
00000001
00000000
00000100
00000000
,
00002010
00000000
00003100
00011000
00000000
00101000
00000000
01010000
,
00000000
10100000
10200000
00000000
01000000
01300000
00000000
10010000
,
00000000
10000000
01000000
00000000
00010000
00000000
00001000
00000010
,
00000000
00000001
00000100
00000000
00001000
00000000
00011000
00000000
,
00100000
00010000
00100000
00000000
01000000
10000000
01000000
00000000
,
00010000
00001000
00000010
00000002
00000000
00000100
00000103
00000000
,
00000002
00000000
00000013
00001000
00020000
00000000
00130000
00010000
,
00002000
00000000
00003100
00001000
00020000
00000000
00130000
10000000
,
01000000
00100000
01000000
00100000
01000000
00100000
01000000
00100000
00010000
00000000
01000000
00000000
00000000
00000000
10010000
00000000
,
00000000
00000000
10000000
01000000
00100000
00000000
00010000
00100000
00001000
00010000
00001000
00010000
00000100
00000000
00001100
00000000
,
00000000
00000000
00000001
00000010
00000100
00000000
00000010
00000001
00000100
00000000
00001000
00000000
00010000
00000000
00011000
00000000
,
00000000
00000000
10000000
00100000
01000000
00000000
00100000
10000000
01000000
00000000
00010000
00000000
00001000
00000000
00000000
00000000
,
00100000
00000000
00001000
00010000
00001000
00000000
00000100
00000000
00000010
00000000
00001000
00000001
00001000
00000000
00000100
00000000
,
00000010
00000001
00000010
00000000
00000010
00000100
00000010
00000000
00000100
00010000
00001000
00100000
00010000
00000000
00120000
00000000
,
00000000
00000000
01030000
00000000
00100000
00000000
10000000
00000000
01000000
00000000
00010000
00001000
00010000
00000000
00000020
00000000
,
00000000
00000000
00001030
00000000
00000001
00000000
00000010
00000001
00001000
00000000
00000100
00000000
00001100
00000000
00010000
00000000
,
00001000
00000000
00100000
00010000
01000000
00000000
00100000
00000000
01000000
00010000
00100000
00000000
01000000
00000000
21000000
00000000
,
00000000
00000000
30100000
01000000
00100000
01000000
00010000
00000000
00100000
00000000
00011000
00000000
00000100
00000000
00001100
00000000
,
00000000
00000000
00000001
00000010
00000100
00000000
00000010
00000001
00000100
00000000
00000001
00000010
00000100
00000000
00010000
00001000
,
00100000
00000000
00010000
01000000
00100000
00000000
10000000
01000000
00100000
00010000
00100000
00010000
10000000
00000000
00100000
01000000
,
00010000
00000000
00100000
00001000
00010000
00000000
00000010
00001000
00000100
00000000
00000010
00000001
00000100
00000000
00000110
00000000
,
00000000
00000010
00001000
00000010
00001000
00010000
01000000
00010000
01000000
00100000
10000000
00010000
01000000
00000000
02200000
00000000
,
00000000
00000000
03300000
00000000
;
