#VERSION:0.83;
#TITLE:じゅーじゅー♥焼肉の火からフェニックス!?~再誕の†炭火焼き~;
#SUBTITLE:;
#ARTIST:かめりあ feat. ななひら;
#TITLETRANSLIT:Juju yakiniku no hi kara phoenix!?~saitan no sumibiyaki~;
#SUBTITLETRANSLIT:;
#ARTISTTRANSLIT:Camellia feat. Nanahira;
#GENRE:;
#CREDIT:;
#MUSIC:Juju yakiniku no hi kara phoenix!~saitan no sumibiyaki~.ogg;
#BANNER:Juju yakiniku no hi kara phoenix!~saitan no sumibiyaki~.png;
#BACKGROUND:Juju yakiniku no hi kara phoenix!~saitan no sumibiyaki~-bg.png;
#CDTITLE:./CDTitles/SDVX III GRAVITY WARS.png;
#SAMPLESTART:1.328;
#SAMPLELENGTH:15.000;
#SELECTABLE:YES;
#OFFSET:0.985;
#BPMS:0.000=180.000;
#STOPS:;
#TIMESIGNATURES:0.000=4=4;
#BGCHANGES:2.300=Juju yakiniku no hi kara phoenix!~saitan no sumibiyaki~.mp4=1.000=0=0=0=StretchNoLoop====,
99999.000=-nosongbg-=1.000=0=0=0=StretchNoLoop====
;
#FGCHANGES:;

//--------------- dance-single - forcednature ----------------
#NOTEDATA:;
#STEPSTYPE:dance-single;
#DESCRIPTION:forcednature;
#CREDIT:forcednature;
#DIFFICULTY:Beginner;
#METER:4;
#RADARVALUES:0,0,0,0,0;
#NOTES:
0000
0000
0000
0000
,
0000
0000
0000
0000
,
0000
0000
0000
0000
,
0000
0000
0000
0000
,
0000
0000
0000
0000
,
0000
0000
0000
0000
,
0100
0000
0100
0000
,
0010
0000
0000
0000
,
1001
0000
0000
0000
,
0110
0000
0000
0000
,
1001
0000
0000
0000
,
0100
0000
0100
0000
,
1000
1000
1000
0000
,
0001
0001
0001
0000
,
0100
0100
0100
0000
,
0010
0000
0000
0000
,
1001
0000
0000
0000
,
0100
0000
0100
0000
,
1000
0000
0000
0000
,
0010
0000
0010
0000
,
1001
0000
0000
0000
,
0100
0000
0100
0000
,
0001
0000
0000
0000
,
0010
0000
0010
0000
,
2002
0000
0000
0000
,
0000
0000
3003
0000
,
0200
0000
0000
0000
,
0000
0000
0300
0000
,
0020
0000
0000
0000
,
0000
0000
0030
0000
,
2000
0000
0000
0000
,
0002
0000
3003
0000
,
0001
0000
0001
0000
,
0100
0000
0000
0000
,
1000
0000
1000
0000
,
0100
0000
0100
0000
,
0010
0000
0010
0000
,
0001
0000
0000
0000
,
0010
0000
0010
0000
,
1000
0000
0000
0000
,
1001
0000
0000
0000
,
0010
0000
0010
0000
,
0100
0000
0000
0000
,
1000
0000
0001
0000
,
0100
0000
0000
0000
,
0010
0000
0010
0000
,
0100
0000
0000
0000
,
0001
0000
1000
0000
,
1001
0000
0000
0000
,
0100
0000
0000
0000
,
0110
0000
0110
0000
,
1000
1000
0001
0001
,
0100
0000
0000
0000
,
0010
0000
0010
0000
,
1001
0000
0110
0000
,
0001
1000
0001
0000
,
0000
0100
0000
0100
,
0010
0010
0010
0000
,
1000
0000
0001
0000
,
0010
0000
0000
0000
,
0001
0000
1000
0000
,
0010
0000
0000
0000
,
1001
0000
0110
0000
,
0010
0010
0010
0000
,
1000
0000
0001
0000
,
0010
0010
0010
0000
,
0100
0000
1000
0000
,
0001
0001
0001
0000
,
0100
0000
0010
0000
,
1000
0000
0001
0000
,
1001
0000
0000
0000
,
0010
0000
0010
0000
,
1001
0000
0000
0000
,
0110
0000
0000
0000
,
1000
0000
0001
0000
,
1000
0000
0010
0000
,
0100
0000
0001
0000
,
0010
0000
0100
0000
,
1000
0000
0010
0000
,
1000
0000
0100
0000
,
0010
0000
0001
0000
,
0100
0000
0010
0000
,
1000
1000
1000
0000
,
0001
0001
0001
0000
,
0100
0100
0100
0000
,
0010
0010
1000
1000
,
0001
0001
1001
0000
;

//--------------- dance-single - forcednature ----------------
#NOTEDATA:;
#STEPSTYPE:dance-single;
#DESCRIPTION:forcednature;
#CREDIT:forcednature;
#DIFFICULTY:Easy;
#METER:9;
#RADARVALUES:0,0,0,0,0;
#NOTES:
0000
0000
0000
0000
,
0000
0000
0000
0000
,
0000
0000
0000
0000
,
0000
0000
0000
0000
,
0000
0000
0000
0000
,
0000
0000
0000
0000
,
0001
0001
0100
0010
,
0100
0001
1000
0000
,
0200
0010
0310
0000
,
0002
1000
1003
0000
,
2002
0000
0000
3003
,
0100
0100
0100
0100
,
0010
0000
0000
0001
0000
0000
0100
0000
,
0010
0000
0000
1000
0000
0000
0100
0000
,
1000
0000
0000
0001
0000
0000
0100
0000
,
0010
0000
0000
0010
0000
0000
0020
0000
0000
0000
0000
0000
0030
0000
0000
0000
,
1000
0001
0100
0001
,
1000
1000
0100
0010
,
0001
1000
0010
1000
,
0001
0001
0010
0100
,
1001
0010
0001
0100
,
0010
0000
0000
0000
0010
0000
0000
0000
1000
0000
0000
1000
0000
0000
0001
0000
,
0000
0110
0001
1000
,
0010
0000
0000
0000
0010
0000
0000
0000
0100
0000
0000
0100
0000
0000
0100
0000
,
0020
0000
0000
0000
,
0000
0000
0030
0000
,
2000
0000
0000
0000
,
0000
0000
3000
0000
,
0002
0000
0000
0000
,
0000
0000
0003
0000
,
0020
0000
0000
0000
,
0130
0000
0000
0000
,
1000
0001
0100
0001
,
1000
0010
1000
0001
,
1000
0100
0010
0001
,
0010
0100
1000
0100
,
1000
0010
0100
0001
,
0010
0001
0100
0010
,
1000
0100
0010
0001
,
0100
0200
0000
0000
0000
0000
0300
0000
,
0110
0001
1000
0001
,
1000
0010
1000
0100
,
0010
0010
0100
0100
,
1000
0001
1000
0001
,
0100
0100
0010
1000
,
0100
0100
0010
0001
,
1000
0010
0100
0001
,
0010
0010
0100
0100
,
2002
3003
0001
0001
,
1000
0000
0000
0000
1000
0000
0000
0000
0000
0100
0000
0100
0000
0000
0000
0000
,
0110
0000
1001
0000
,
1000
0000
0001
0000
1000
0000
0001
0000
1000
0000
0001
0000
,
2002
0000
3003
0000
,
1000
1000
0001
0001
,
0101
0000
1100
0000
,
0010
0000
0000
0010
0000
0000
0010
0000
0000
0000
0000
0000
0000
0000
0000
0000
,
0100
0001
0100
1000
,
0100
0000
0000
0100
0000
0000
0100
0000
0000
0000
0000
0000
0000
0000
0000
0000
,
1001
0001
0010
0100
,
1000
0010
1000
0100
,
0010
1001
0100
0100
,
0000
0000
0010
0000
0000
0010
0000
0000
1000
0000
0000
0000
0000
0000
0000
0000
,
0000
0101
0000
0000
0000
1100
0000
0000
,
0010
0000
0000
0010
0000
0000
0010
0000
0000
0000
0000
0000
1000
0000
0000
0000
,
0001
0010
0001
0100
,
0010
0000
0000
1000
0000
0000
1000
0000
0000
0000
0000
0000
0001
0000
0000
0000
,
1001
0100
1000
0010
,
0100
0000
0000
0001
0000
0000
0001
0000
0000
0000
0000
0000
0010
0000
0000
0000
,
1001
0100
1000
0010
,
1001
0100
0001
0010
,
2000
0000
0000
0001
0000
0001
3000
0000
,
0002
0000
0000
1000
0000
1000
0003
0000
,
1001
0000
0000
0000
0000
0010
0000
0220
,
0000
0000
0000
0330
,
1001
0100
1000
0010
,
1000
0100
0010
0001
,
0110
0001
0010
1000
,
0010
0001
0100
0100
,
1001
0000
0000
0000
0110
0000
0000
0000
1000
0000
0000
0000
0010
0000
0000
0100
,
0000
0100
0000
0000
0001
0000
0000
0000
0010
0000
0000
0010
0000
0000
0010
0000
,
0000
1001
0100
1000
,
0010
0100
0100
0001
,
0001
0000
0000
1000
0000
0000
0001
0000
,
1000
0000
0000
0010
0000
0000
1000
0000
,
0001
0000
0000
0010
0000
0000
0001
0000
,
0100
0000
0000
0100
0000
0000
0100
0000
0010
0000
0000
0010
0000
0000
0010
0000
,
1000
0000
0000
0001
0000
0000
2002
0000
0000
0000
0000
0000
0000
0000
0000
0000
,
0000
0000
3003
0000
;

//--------------- dance-single - forcednature ----------------
#NOTEDATA:;
#STEPSTYPE:dance-single;
#DESCRIPTION:forcednature;
#CREDIT:forcednature;
#DIFFICULTY:Medium;
#METER:13;
#RADARVALUES:0,0,0,0,0;
#NOTES:
0000
0000
0000
0000
,
0000
0000
0000
0000
,
0000
0000
0000
0000
,
0000
0000
0000
0000
,
0000
0000
0000
0000
,
0000
0000
0000
0000
,
0001
0100
0001
1000
0010
0000
1000
0000
,
0100
0000
0000
0010
0000
0000
1001
0000
0000
0000
0001
0000
0100
0000
0010
0000
,
0000
1000
1000
1000
0000
0100
1000
0001
,
0000
0100
0100
0100
0010
1000
0001
0000
,
2002
0000
0000
3003
,
0001
0000
0000
1000
0000
0000
0100
0000
0000
0010
0000
0000
0001
0000
1000
0000
,
0001
0001
0001
1000
1000
1000
0010
0100
,
0001
0001
0001
1000
1000
1000
0200
0000
,
0310
0010
0010
0100
0100
0100
0010
0001
,
0100
0000
0000
0010
0000
0000
2002
0000
0000
0000
0000
0000
3003
0000
0000
0000
,
0100
0000
1001
0000
0010
1000
0001
0000
,
1000
0100
0010
0001
0100
0010
1000
0000
,
0010
0000
1001
0000
0001
1000
0010
0000
,
0100
1000
0100
0001
0100
0010
1000
0000
,
0100
0000
0000
0000
1001
0000
0000
0000
0010
0000
0001
0000
1000
0000
0000
0010
,
0000
0010
0000
0000
0100
0000
0000
0000
1001
0000
0000
1001
0000
0000
1001
0000
,
0000
0000
0001
1000
0001
0000
0100
0000
0001
0000
1000
0000
0010
0000
0000
0000
,
1001
0000
0000
0000
0001
0000
1000
0000
0001
0000
0000
0100
0000
0000
0010
0000
,
2002
0000
0000
0000
,
0000
0000
3003
0000
,
2200
0000
0000
0000
,
0000
0000
3300
0000
,
0202
0000
0000
0000
,
0000
0000
0303
0000
,
2002
0000
3003
0100
,
0220
0000
0000
0330
,
1000
0000
0101
0000
1000
0100
0010
0000
,
0100
0000
1001
0000
0010
1000
0001
0000
,
1000
0000
0100
0000
0010
0100
1000
0000
,
0001
0100
1000
0100
0001
0100
0010
0000
,
1000
0100
1000
0010
1000
0000
0001
0000
,
0100
1000
0100
0010
1000
0000
0100
0000
,
0010
0001
0010
1000
0010
0001
1000
0000
,
0010
0010
0200
0000
0000
0010
0300
0000
,
0010
0000
1001
0000
1000
0001
0100
0000
,
0001
0100
0010
0100
0001
1000
0010
0000
,
0100
0000
1001
0000
0010
0100
1000
0001
,
1000
0010
0100
0000
0001
0010
0100
0000
,
1000
1000
1000
0100
0001
0001
0001
0000
,
0100
0100
0100
1000
0010
0010
0010
0000
,
0100
0001
1000
0001
0010
0100
1000
0000
,
0001
0000
1000
0000
0100
0000
0010
0000
0001
1000
0000
0001
1000
0000
0000
0000
,
2002
0000
0000
3003
0000
0000
1000
0001
1000
0001
1000
0001
,
0200
0000
0000
0000
0310
0000
0010
0000
0000
1001
0000
1001
0000
0000
0100
0000
,
0110
0000
1000
0001
1001
0000
0001
1000
,
0101
0000
1000
0000
0001
0000
1100
0000
0001
0000
1000
0000
,
2002
0000
0000
3003
,
0002
0000
0203
0000
2300
0000
3100
0010
,
1001
0000
0001
1000
0110
0000
1000
0001
,
0100
0000
0000
0010
0000
0000
1100
0000
0000
0000
0010
0000
0001
0000
0010
0000
,
0000
0100
1000
0100
0000
1000
0001
0100
,
0010
0000
0000
0110
0000
0000
2002
0000
0000
0000
0000
0000
3003
0000
0000
0000
,
0001
0100
0001
0010
1000
0000
0010
0000
,
0001
0100
0010
1000
0001
0000
0110
0000
,
1100
0000
0101
0000
0001
1000
0100
0010
,
0001
0000
0100
0000
0000
1001
0000
0000
1000
0000
0100
0000
0010
0000
0001
0000
,
0000
0110
0000
0000
0000
1001
0000
0000
,
0110
0000
0000
0110
0000
0000
0110
0000
0000
0000
0001
0000
0010
0000
0100
0000
,
1000
0010
0100
0001
0000
0010
0100
1000
,
0010
0000
0000
0110
0000
0000
1001
0000
0000
0000
0000
0000
0001
0000
0010
0000
,
0001
0100
0010
1000
0100
0000
0010
0000
,
0101
0000
0000
1010
0000
0000
1001
0000
0000
0000
1000
0000
0100
0000
0001
0000
,
0000
0100
1000
0010
0000
0100
1000
0100
,
0000
0001
0010
1000
0010
0001
0100
0000
,
1001
0000
0001
0100
0000
1000
0100
0000
,
0110
0000
1000
0001
0000
1000
0100
1100
,
0000
1000
0010
0100
0000
0001
0100
0101
,
0000
0001
0010
0100
2000
0000
3001
0000
,
0100
0000
1001
0000
0001
1000
0001
0000
,
0010
1000
0010
0001
0100
0010
1000
0000
,
0001
0000
1100
0000
0001
1000
0010
0000
,
1000
0100
0001
0100
1000
0001
1000
0000
,
0010
0000
0000
0000
1001
0000
0000
0000
0001
0000
1000
0000
0010
0000
0000
0100
,
0000
0100
0000
0000
0001
0000
0000
0000
1001
0000
0000
1001
0000
0000
1001
0000
,
0000
0000
0001
1000
0001
0000
0000
0000
0010
0000
0001
0000
1000
0000
0010
0000
,
1000
1000
0001
0001
0010
0100
0010
0000
,
0001
0001
0001
1000
1000
1000
0010
0100
,
0001
0001
0001
1000
1000
1000
0100
0000
,
0010
0010
0010
0100
0100
0100
1000
0001
,
0101
0000
0000
0101
0000
0000
0101
0000
1100
0000
0000
1100
0000
0000
1100
0000
,
1001
0000
0000
1001
0000
0000
2002
0000
0000
0000
0000
0000
0000
0000
0000
0000
,
0000
0000
3003
0000
;

//--------------- dance-single - forcednature ----------------
#NOTEDATA:;
#STEPSTYPE:dance-single;
#DESCRIPTION:forcednature;
#CREDIT:forcednature;
#DIFFICULTY:Hard;
#METER:15;
#RADARVALUES:0,0,0,0,0;
#NOTES:
0000
0000
0000
0000
,
0000
0000
0000
0000
,
0000
0000
0000
0000
,
0000
0000
0000
0000
,
0000
0000
0000
0000
,
0000
0000
0000
0000
,
1000
0100
0001
0100
0010
0000
0001
0000
,
0100
0000
0000
0110
0000
0000
1001
0000
0000
0000
0001
0000
0100
0000
2000
0000
,
0000
3100
0001
0020
0000
0130
1000
0020
,
0000
0000
1030
0000
0100
0000
0001
0000
0100
0000
0010
0001
0010
0000
0000
0000
,
2002
0000
0000
3003
,
0001
0100
0000
0100
0010
0000
0010
1000
0000
1000
0001
0000
0010
0000
0100
0000
,
1000
0001
1000
0001
1000
0000
0010
1000
0010
1000
0010
0000
1000
0000
0100
0000
,
0010
0001
0010
0001
0010
0000
0100
1000
0100
0000
0100
0000
0001
0000
0000
0000
,
0100
1000
0100
1000
0100
0000
1000
0010
1000
0010
1000
0000
0001
0000
0010
0000
,
0100
0000
0000
0110
0000
0000
2002
0000
0000
0000
0000
0000
3003
0000
0000
0000
,
0101
0000
0000
0001
0010
0000
0000
0010
0100
0000
1000
0000
0001
0000
0000
0000
,
0100
1000
0100
0010
1000
0100
0010
0000
,
0011
0000
0000
0001
1000
0000
0000
1000
0010
0000
0100
0000
1000
0000
0100
0000
,
0001
0000
1000
0000
0100
0000
0001
0000
0100
0000
0010
0000
0001
1000
0001
0000
,
1000
0000
0000
1000
0010
0000
0000
0010
0100
0000
0001
0000
0010
0000
0100
1000
,
0000
1000
0000
0001
0100
0000
0010
0000
0110
0000
0000
0101
0000
0000
1100
0000
,
0000
0000
0001
1000
0001
0000
0000
0001
0010
0000
0100
0000
1000
0000
0010
0000
,
1010
0000
0000
0000
0001
0000
0001
0000
1000
0010
0100
0001
0010
0100
0010
0000
,
2002
0000
0000
0000
,
0000
0000
0000
0000
3003
0000
0000
0100
,
0020
0000
0000
0000
,
0000
0000
0030
0000
,
0202
0000
0000
0000
,
0000
0000
0000
0000
0303
0000
0000
1000
,
0200
0000
0000
0000
1300
1000
0001
0001
,
0200
0000
0000
0000
,
0310
0000
0100
0000
1000
0000
0100
0000
0001
0000
0010
0100
0010
0000
0000
0000
,
0100
1000
0001
1000
0010
0100
0001
0000
,
1000
0000
0000
1000
0100
0000
0000
0100
0010
0000
0001
0000
0100
0000
0000
0000
,
0010
0000
0001
0000
0010
0000
1000
0000
0100
0000
0010
0000
0001
1000
0001
0000
,
0100
0000
1000
0000
0100
0000
0010
1000
0010
0000
0100
0001
0100
0000
0000
0000
,
0010
1000
0100
0001
0100
1000
0010
0100
,
0010
0000
1000
0000
0001
0010
0001
0010
0001
0000
0100
0000
0010
0000
1000
0000
,
1001
0000
0001
0000
1000
0000
0000
1000
0001
0000
0010
0000
0200
0000
0000
0000
,
1300
0000
0001
0100
0020
0000
0000
0000
1030
0000
0100
0010
0001
0000
0000
0000
,
1000
0100
0010
0001
0010
1000
0010
0000
,
0001
0000
0000
0001
0100
0000
0000
0100
0010
0000
1000
0000
0001
0000
1000
0000
,
0100
0000
0000
0100
0010
0000
0000
0010
0001
0000
0100
0000
0010
1000
0010
0000
,
0100
0000
0001
0010
0001
0000
1000
0010
1000
0000
0100
0000
0010
0000
0000
0000
,
1000
0000
0010
0000
0001
1000
0001
0000
0100
0000
0010
0000
1000
0000
0100
0000
,
0010
0000
0001
1000
0001
0000
0100
0000
0010
0000
1000
0000
0100
0000
0000
0000
,
0010
0000
0010
0000
0100
0000
0100
0000
1000
0001
0000
1000
0010
0000
0100
0000
,
1002
0000
0000
0000
0000
0000
0000
0000
0000
0000
0000
0000
1003
0000
0000
0001
0000
0000
1000
0000
0000
0001
0000
0000
0010
0000
0000
0000
0100
0000
0000
0000
1000
0000
0000
0000
0001
0000
0000
0000
0100
0000
0000
0000
1000
0000
0000
0000
,
0200
0000
0000
0000
0301
0000
0010
0000
0000
0110
0000
0110
0000
0000
1000
0000
,
1001
0000
0000
0000
0001
1000
0001
1000
0010
0000
0000
0000
0100
0000
0001
0100
,
0001
0000
0011
0000
1100
0000
1010
0000
0101
0000
0110
0000
,
2002
0000
0000
3003
,
0002
0000
0203
0000
0320
0000
1030
0001
,
1001
0000
0000
0000
0010
0100
0000
0000
0110
0000
0000
0000
0001
0000
1000
0000
,
1001
0000
0000
0101
0000
0000
1100
0000
0000
0000
1000
0000
0001
0000
1000
0000
,
0000
0010
0001
0010
0000
0100
0001
0010
,
0110
0000
0000
1100
0000
0000
2020
0000
0000
0000
0000
0000
3030
0000
0000
0000
,
0001
0100
1000
0100
0010
0000
1000
0000
,
0100
0010
1000
0010
0001
0000
0110
0000
,
0101
0000
1100
0000
1000
0010
0001
0010
,
0100
0000
0101
0000
0000
1100
0000
0000
0100
0000
0010
0000
1000
0000
0010
0000
,
0000
1001
0000
0000
0000
0110
0000
0000
,
1100
0000
0000
0101
0000
0000
1001
0000
0000
0000
0001
0000
0010
0000
0100
0000
,
0001
0100
0010
0001
1000
0010
0100
1000
,
0110
0000
0000
0101
0000
0000
0022
0000
0000
0000
0000
0000
0033
0000
0001
0000
,
1000
0010
1000
0100
0001
0100
0010
0000
,
0011
0000
0000
0110
0000
0000
1001
0000
0000
0000
1000
0000
0100
0000
2000
0000
,
0000
3010
0001
0020
0000
1030
0001
2000
,
0000
0000
3100
0000
0001
0000
0100
0000
0010
0001
0010
0000
0100
0000
1000
0010
,
1000
0000
0010
0100
0000
0001
0010
0100
,
1000
0000
0010
0000
0001
0000
0010
0000
0100
0001
0100
0000
0010
1000
0020
0000
,
0000
0100
0100
0100
0030
0100
0001
2010
,
0000
0001
0001
0001
0002
0000
3003
0000
,
1001
0000
0000
1000
0100
0000
0000
0100
0010
0000
0001
0000
1000
0000
0000
0000
,
0010
0001
0010
0100
0001
1000
0100
0000
,
0110
0000
0000
0001
1000
0000
0000
1000
0010
0000
0100
0000
0001
0000
0000
0000
,
1000
0000
0100
0000
0001
0000
0100
0000
0010
0000
1000
0000
0010
0001
0010
0100
,
1000
0000
0000
1000
0010
0000
0000
0010
0100
0000
1000
0000
0100
0000
0001
0100
,
0000
0100
0000
0010
1000
0000
0000
0000
0101
0000
0000
0110
0000
0000
1001
0000
,
0000
0000
0001
0100
0001
0000
0000
0001
0010
0000
1000
0000
0010
0000
0100
0000
,
1000
0000
1000
0000
0010
0000
0010
0000
1000
0100
0010
0001
0100
0010
1000
0000
,
0001
0010
0001
0010
0001
0000
1000
0100
1000
0100
1000
0000
0010
0000
1000
0000
,
0001
0100
0001
0100
0001
0000
1000
0010
1000
0000
1000
0000
0100
0000
0000
0000
,
0010
0001
0010
0001
0010
0000
0001
1000
0001
1000
0001
0000
1000
0000
0010
0000
,
0110
0000
0000
0101
0000
0000
1010
0000
1001
0000
0000
1100
0000
0000
0011
0000
,
1001
0000
0000
0110
0000
0000
2002
0000
0000
0000
0000
0000
0000
0000
0000
0000
,
0000
0000
3003
0000
;

//--------------- dance-single - forcednature ----------------
#NOTEDATA:;
#STEPSTYPE:dance-single;
#DESCRIPTION:forcednature;
#CREDIT:forcednature;
#DIFFICULTY:Challenge;
#METER:17;
#RADARVALUES:0,0,0,0,0;
#NOTES:
0000
0000
0000
0000
,
0000
0000
0000
0000
,
0000
0000
0000
0000
,
0000
0000
0000
0000
,
0000
0000
0000
0000
,
0000
0000
0000
0000
,
1000
0100
1000
0000
0001
0000
0100
0000
0010
1000
0000
0000
1000
0000
0001
0000
,
0010
0000
0100
1000
0000
0100
0010
0000
0001
0000
1000
0001
0100
0000
0010
0000
,
1000
0000
1100
0000
0110
0000
0011
0000
1000
0000
0001
1000
0010
0000
0100
0000
,
0001
0000
0101
0000
0110
0000
1010
0000
1000
0000
0100
0010
0001
0000
1000
0000
,
2002
0000
0000
3003
,
0001
0100
0000
0010
0100
0000
1000
0100
0000
0010
0100
0000
0001
0000
1000
0000
,
0001
0010
0100
0010
1000
0000
0001
0100
0010
0100
1000
0000
0001
0000
1000
0000
,
0001
0100
0010
0100
1000
0000
0001
0010
0100
0000
0010
0000
2000
0000
3000
0000
,
1000
0100
0010
0100
0001
0000
1000
0010
0100
0010
0001
0000
1000
0000
0001
0100
,
0010
0000
0000
1001
0000
0000
0220
0000
0000
0000
0000
0000
0330
0000
0000
0000
,
1000
0100
1000
0000
0001
0100
0001
0000
0010
0000
0100
1000
0001
0000
0100
0000
,
0010
1000
0010
0000
0100
0001
0100
0000
0010
0000
1000
0001
0000
1000
0001
0000
,
1000
0100
0010
0000
0001
0100
0010
0000
1000
0000
0001
0010
0100
0000
1000
0000
,
0001
0100
0010
1000
0001
0000
1000
0000
0001
0010
0100
1000
0001
0100
0010
1000
,
0001
1000
0100
0000
1000
0001
0100
0000
0010
0000
1000
0001
0010
0000
0100
1000
,
0000
1100
0000
1000
0010
0000
0100
0000
0110
0000
0000
1001
0000
0000
0110
0000
,
0000
0000
0000
0000
0000
0000
0001
0000
1000
0000
0001
0000
1000
0000
0000
0000
0000
0000
0010
0000
0000
0000
0000
0000
0001
0000
0000
0000
0000
0000
0010
0000
0000
0000
0000
0000
0100
0000
0000
0001
0000
0000
1000
0000
0000
0010
0000
0000
,
0200
0000
0000
0000
0301
0000
1000
0000
0100
0010
0001
1000
0001
0100
0010
1000
,
0002
0000
0000
0000
,
0000
0000
0000
0000
0003
0000
0000
0011
,
2200
0000
0000
0000
,
0000
0000
0000
3300
,
2002
0000
0000
0000
,
0000
0000
0000
0000
3003
0000
0000
1010
,
0102
0000
0000
0000
0010
0010
1000
1000
,
0200
0000
0000
0303
,
0001
0010
0100
1000
0001
0000
0100
0010
0100
0000
0001
1000
0001
0000
0010
0000
,
0100
1000
0001
0000
0100
0010
1000
0000
0001
0000
0010
0000
0100
1000
0001
0000
,
0100
0010
0100
0000
0001
0010
0001
0000
0100
0000
1000
0000
0100
0000
0000
0000
,
0010
0000
1000
0000
0001
0000
1000
0000
0100
0010
0001
1000
0010
0000
0000
0000
,
0100
0000
0001
1000
0010
0000
0100
0001
1000
0000
0100
0010
0001
0000
0000
0000
,
0100
0010
1000
0000
0001
0010
0100
0000
2000
0000
0010
0000
3002
0000
0010
0000
,
0103
0000
0001
0000
1000
0100
1000
0100
0010
0000
1000
0000
0010
0000
0001
0000
,
1001
0000
1001
0000
0200
0000
0000
0000
0310
0100
0010
0100
0020
0000
0030
0000
,
1001
0000
1000
0000
0200
0000
0000
0000
0310
0001
1000
0001
0100
0000
0000
0000
,
0010
1000
0001
0000
1000
0100
0010
0000
0100
1000
0010
0000
0100
0000
0001
0000
,
0101
0000
0100
0010
1000
0010
1000
0010
0100
0000
1000
0000
0100
0000
0001
0000
,
0010
0000
0100
0000
0110
0000
0000
0000
0010
0001
1000
0001
0100
0000
0000
0000
,
0010
0000
1000
0100
0010
0000
0001
0100
0010
0000
1000
0001
0010
0000
0000
0000
,
0100
1000
0100
0000
0010
0001
1000
0001
0100
0000
0010
1000
0001
0000
0010
0000
,
0100
0000
1000
0001
0100
0001
1000
0000
0010
0000
0100
0000
0101
0000
0000
0000
,
0001
0000
0001
0000
1000
0000
1000
0000
0010
0100
0001
1000
0100
0010
0100
0000
,
0210
0000
0000
0000
0000
0000
0000
0000
0000
0000
0000
0000
0310
0000
0000
0100
0000
0000
0010
0000
0000
0001
0000
0000
1000
0000
0000
0000
0001
0000
0000
0000
0100
0000
0000
0000
1000
0000
0000
0000
0001
0000
0000
0000
0010
0000
0000
0000
,
2000
0000
0000
0000
3100
0000
0100
0000
0000
0110
0000
0110
0000
0000
1001
0000
,
1001
0000
0000
0000
1000
0100
0001
0100
1000
0000
0000
0000
0001
0100
0010
1000
,
0001
0000
0011
0000
0101
0000
1010
0000
1100
0000
0110
0000
,
2002
0000
0000
3003
,
1000
0100
0001
0000
0110
0000
0001
1000
,
1100
0000
0000
0000
1000
0001
0000
0000
0101
0000
0000
0000
0010
0000
0100
0000
,
0110
0000
1000
0001
0000
0100
0010
0000
1000
0100
0010
0001
1000
0001
0100
0000
,
0010
1000
1010
0010
0100
0001
0101
0100
,
0110
0000
0000
1001
0000
0000
0110
0000
1000
0100
0010
0001
1000
0010
0100
0001
,
0010
0000
0100
1000
0100
0000
0010
0001
0010
0000
0001
1000
0001
0000
0100
0000
,
0010
1000
0001
0000
0010
0001
0100
0000
0010
0000
1000
0100
0010
0000
0100
0000
,
0110
0000
1001
0000
1000
0010
0001
0010
,
0100
0000
0100
0001
0000
0001
0010
0000
0100
0000
0001
0000
0100
0000
1000
0000
,
0010
0110
0000
0000
0100
1001
0000
0000
,
0110
0000
0001
0100
0000
0010
1000
0000
0100
0000
0001
0000
0100
0000
0010
0001
,
0100
0000
0010
0000
0001
0000
0010
0000
1000
0000
0100
0010
0001
0000
0100
0000
,
0010
0000
1000
0001
0000
1000
0100
0000
0010
0001
1000
0001
0100
0010
1000
0001
,
0010
0000
0100
1000
0010
0000
0100
0001
0100
0000
1000
0100
0010
0000
1000
0000
,
1001
0000
0001
0010
0100
1000
0010
0000
0100
0001
1000
0000
0100
0000
0010
0000
,
0001
0000
0101
0000
0110
0000
1010
0000
0001
0000
1000
0100
0010
0000
0001
0000
,
1000
0000
1100
0000
0110
0000
0011
0000
0001
1000
0001
0100
0010
0000
1000
0001
,
0010
0000
0000
0000
0100
1000
0100
0000
0000
0000
0010
0000
0011
0000
0001
1000
,
0001
0000
0100
0000
0010
0000
1000
0000
0001
1000
0100
0000
0010
0001
1000
0001
,
0200
1000
0010
0301
0000
0110
1001
0210
,
0000
0000
0001
0000
0010
0000
1300
0000
0100
0010
1000
0001
0010
0100
1000
0001
,
0100
0000
0010
1000
0100
0000
0010
0001
1000
0000
0001
0000
0100
0000
0010
0000
,
1000
0001
0010
0100
1000
0000
0001
0000
0100
0000
0010
0001
0000
0010
1000
0000
,
0001
0010
0100
0000
1000
0010
0100
0000
0001
0000
1000
0100
0010
0000
0001
0000
,
1000
0010
0100
0001
1000
0000
0100
0000
0010
0001
1000
0001
0100
0010
1000
0001
,
0010
0100
1000
0000
0010
0100
0001
0000
1000
0000
0100
0010
0001
0000
0100
0001
,
0000
0101
0000
0100
0010
1000
0001
0010
0100
0000
0000
0110
0000
0000
1001
0000
,
0000
0000
0000
0000
0000
0000
0001
0000
0100
0000
0010
0000
1000
0000
0000
0000
0000
0000
0100
0000
0000
0000
0000
0000
0001
0000
0000
0000
0000
0000
0100
0000
0000
0000
0000
0000
1000
0000
0000
0000
0000
0000
0100
0000
0000
0010
0000
0000
,
0001
0000
1000
0000
1000
0000
0001
0000
0100
0010
1000
0001
0010
0100
1000
0001
,
1000
0100
0010
0100
0001
0000
1000
0010
0100
0010
0001
0000
1000
0000
0001
0000
,
1000
0010
0100
0010
0001
0000
1000
0100
0010
0100
0001
0000
2000
0000
0000
0000
,
3001
0010
0100
0010
1000
0000
0001
0100
0010
0100
1000
0000
0001
0000
0100
0000
,
1001
0000
1000
0100
0000
0010
0001
0000
1001
0000
0001
0100
0000
0010
1000
0000
,
1001
0000
1000
0100
0000
0001
0200
0000
0000
0000
0000
0000
0000
0000
0000
0000
,
0000
0000
0300
0000
;

//--------------- dance-double - forcednature ----------------
#NOTEDATA:;
#STEPSTYPE:dance-double;
#DESCRIPTION:forcednature;
#CREDIT:forcednature;
#DIFFICULTY:Easy;
#METER:8;
#RADARVALUES:0,0,0,0,0;
#NOTES:
00000000
00000000
00000000
00000000
,
00000000
00000000
00000000
00000000
,
00000000
00000000
00000000
00000000
,
00000000
00000000
00000000
00000000
,
00000000
00000000
00000000
00000000
,
00000000
00000000
00000000
00000000
,
00001000
00010000
01000000
00100000
,
00010000
10000000
00010000
01000000
,
01100000
00000000
00010000
00000000
,
00001000
00000100
00000001
00000010
,
00002002
00000000
00000000
00003003
,
00000100
00000100
00000100
00000100
,
00010000
00000000
00000000
00001000
00000000
00000000
01000000
00000000
,
00010000
00000000
00000000
10000000
00000000
00000000
01000000
00000000
,
00100000
00000000
00000000
00001000
00000000
00000000
00010000
00000000
,
00000100
00000000
00000000
00000100
00000000
00000000
00000100
00000000
00000000
00000000
00000000
00000000
00000000
00000000
00000000
00000000
,
00000110
00000001
00001000
00000001
,
00000100
00001000
00010000
00000000
,
00100000
01000000
00010000
10000000
,
01000000
00010000
00001000
00000000
,
00011000
00010000
00000100
00001000
,
00000001
00000000
00000000
00000000
00000100
00000000
00000000
00000000
00000010
00000000
00000000
00000010
00000000
00000000
00000010
00000000
,
00000000
00001001
00000100
00010000
,
00001000
00000000
00000000
00000000
00001000
00000000
00000000
00000000
00010000
00000000
00000000
00010000
00000000
00000000
00010000
00000000
,
00002000
00000000
00000000
00000000
,
00000000
00000000
00003000
00000000
,
02000000
00000000
00000000
00000000
,
00000000
00000000
03000000
00000000
,
00020000
00000000
00000000
00000000
,
00000000
00000000
00030000
00000000
,
20000000
00000000
00000000
00000000
,
02000000
00000000
33000000
00000000
,
10010000
00000000
00010000
01000000
,
00001000
00010000
00000010
00010000
,
00001000
00000000
00000100
00000001
,
00000010
00000100
00001000
00000010
,
00010000
00000000
00001000
00100000
,
00001000
00010000
00100000
10000000
,
00010000
00000000
10000000
01000000
,
00100000
00010000
00100000
00001000
,
00010000
00010000
00001000
00001000
,
00000100
00000001
00000010
00000100
,
00001000
00001000
00000001
00000001
,
00000010
00001000
00010000
00001000
,
00000100
00000100
00001000
00001000
,
00010000
01000000
00010000
00001000
,
00100000
00100000
00010000
00010000
,
10000000
00100000
01000000
00001000
,
00011000
00000000
00000100
00000100
,
00000010
00000000
00000000
00000000
00000010
00000000
00000000
00000000
00000000
00000001
00000000
00001000
00000000
00000000
00000000
00000000
,
00001001
00000000
00000110
00000000
,
00010000
00000000
00001000
00000000
00010000
00000000
00001000
00000000
00010000
00000000
00001000
00000000
,
00022000
00000000
00033000
00000000
,
00001000
00010000
01000000
00100000
,
10010000
00000000
01100000
00000000
,
00010000
00000000
00000000
00010000
00000000
00000000
00010000
00000000
00000000
00000000
00000000
00000000
00000000
00000000
00000000
00000000
,
00000000
01100000
00000000
00010000
,
00001000
00000000
00000000
00001000
00000000
00000000
00001000
00000000
00000000
00000000
00000000
00000000
00000000
00000000
00000000
00000000
,
00000110
00000001
00001000
00000100
,
00000010
00000001
00000100
00001000
,
00010000
00000100
00010000
00001000
,
00000000
00000000
01000000
00000000
00000000
00010000
00000000
00000000
10000000
00000000
00000000
00000000
01000000
00000000
00000000
00000000
,
00000000
10010000
00000000
00000000
00000000
01100000
00000000
00000000
,
00010000
00000000
00000000
00001000
00000000
00000000
00010000
00000000
00000000
00000000
00000000
00000000
00000000
00000000
00000000
00000000
,
00000100
00001000
00000001
00000100
,
00000010
00000000
00000000
00000010
00000000
00000000
00000010
00000000
00000000
00000000
00000000
00000000
00000000
00000000
00000000
00000000
,
00000100
00000001
00000010
00000100
,
00010000
00000000
00000000
00001000
00000000
00000000
00100000
00000000
00000000
00000000
00000000
00000000
00001000
00000000
00000000
00000000
,
00010000
00100000
00010000
00001000
,
00000010
00001000
00010000
00001000
,
00011000
00000000
01000000
00000000
,
00010000
10000000
00010000
00100000
,
10010000
00000000
00000000
00000000
00000000
00000000
00000000
01100000
,
00000000
00000000
00000000
00000000
,
00001000
00010000
00000100
00001000
,
00000001
00000100
00000010
00001000
,
00000100
00000010
00001000
00010000
,
00000010
00001000
00000001
00000010
,
00001001
00000000
00000000
00000000
00000100
00000000
00000000
00000000
00010000
00000000
00000000
00000000
00001000
00000000
00000000
01000000
,
00000000
01000000
00000000
00000000
00010000
00000000
00000000
00000000
10000000
00000000
00000000
10000000
00000000
00000000
10000000
00000000
,
00000000
01100000
00010000
01000000
,
00001000
00001000
00010000
00010000
,
00000100
00000000
00000000
00001000
00000000
00000000
00000010
00000000
,
00000100
00000000
00000000
00000001
00000000
00000000
00000010
00000000
,
00000100
00000000
00000000
00010000
00000000
00000000
00001000
00000000
,
00010000
00000000
00000000
00010000
00000000
00000000
00010000
00000000
00001000
00000000
00000000
00001000
00000000
00000000
00001000
00000000
,
00000100
00000000
00000000
00000100
00000000
00000000
00000200
00000000
00000000
00000000
00000000
00000000
00000000
00000000
00000000
00000000
,
00000000
00000000
00000300
00000000
;

//--------------- dance-double - forcednature ----------------
#NOTEDATA:;
#STEPSTYPE:dance-double;
#DESCRIPTION:forcednature;
#CREDIT:forcednature;
#DIFFICULTY:Medium;
#METER:12;
#RADARVALUES:0,0,0,0,0;
#NOTES:
00000000
00000000
00000000
00000000
,
00000000
00000000
00000000
00000000
,
00000000
00000000
00000000
00000000
,
00000000
00000000
00000000
00000000
,
00000000
00000000
00000000
00000000
,
00000000
00000000
00000000
00000000
,
00011000
01000000
00010000
10000000
,
00100000
10000000
01000000
00000000
00100000
00010000
01000000
00000000
,
00011000
00000000
00000100
00000000
00001000
00000001
00000100
00000000
,
00000110
00000000
00000010
00000000
00001000
00000001
00000010
00000000
,
00022000
00000000
00000000
00033000
,
00010000
00000000
00000000
01000000
00000000
00000000
00100000
00000000
00000000
00010000
00000000
00000000
10000000
00000000
00000000
00000000
,
00100000
00000000
01000000
00010000
00000000
00001000
00000010
00000000
,
00001000
00000000
00000001
00000010
00000000
00000100
00001000
00000000
,
00010000
00000000
00100000
00001000
00000000
00010000
00100000
00000000
,
01000000
00000000
00000000
00001000
00000000
00000000
00022000
00000000
00000000
00000000
00000000
00000000
00033000
00000000
00000000
00000000
,
00010100
00000000
00001000
00000000
00000001
00000100
00000010
00000000
,
00001000
00000100
00000010
00001000
,
00011000
00000000
00010000
00000000
00100000
01000000
00010000
00000000
,
10000000
10000000
00010000
01000000
,
00011000
00000000
00000000
00000000
00000100
00000000
00000000
00000000
00001000
00000000
00000001
00000000
00000010
00000000
00000000
00000100
,
00000000
00000100
00000000
00000000
00010000
00000000
00000000
00000000
00100000
00000000
00000000
01000000
00000000
00000000
10010000
00000000
,
00000000
00000000
00000000
10000000
00100000
00000000
00000000
00000000
00010000
00000000
00000000
00000000
00001000
00000000
00000000
00000000
,
00000110
00000000
00000000
00000000
00000001
00000000
00001000
00000000
00000100
00000000
00000000
00000100
00000000
00000000
00000100
00000000
,
00002002
00000000
00000000
00000000
,
00000000
00000000
00003003
00000000
,
00000200
00000000
00000000
00000000
,
00000000
00000000
00000300
00000000
,
00022000
00000000
00000000
00000000
,
00000000
00000000
00033000
00000000
,
02000000
00000000
00000000
00000000
,
00200000
00000000
00000000
03300000
,
10010000
00000000
00010000
00000000
01000000
00001000
00010000
00000000
,
00000010
00000000
00001000
00000000
00000100
00000010
00000001
00000000
,
00000100
00000000
00001000
00000000
00010000
00100000
00010000
00000000
,
00001000
00000000
00000010
00000000
00001000
00010000
00001000
00000000
,
01001000
00000000
00010000
00000000
10000000
01000000
00100000
00000000
,
01000000
00000000
10000000
00000000
00010000
01000000
00001000
00000000
,
00010000
00001000
00000100
00000000
00001000
00010000
00000100
00000000
,
00000010
00000010
00001002
00000000
00000000
00000100
00000103
00000000
,
00000011
00000000
00000101
00000000
00000100
00001000
00010000
00000000
,
10100000
00000000
11000000
00000000
01000000
00010000
00001000
00000000
,
00000010
00001000
00010000
00000000
00100000
00010000
00001000
00000000
,
00010000
00000000
01000000
00000000
10000000
00010000
10000000
00000000
,
10100000
00000000
01000000
00000000
00001000
00010000
00000100
00000000
,
00000011
00000000
00000100
00000000
00010000
00001000
01000000
00000000
,
00100000
00010000
00001000
00000000
00000010
00000100
00001000
00000000
,
00000001
00000001
00001000
00001000
00000010
00010000
00001000
00000000
,
00011000
00100000
00100000
00010000
,
10000000
00000000
00000000
00000000
01000000
00000000
00010000
00000000
00000000
00001000
00000000
00000010
00000000
00000000
00000001
00000000
,
00001000
00000010
00010000
01000000
,
10000000
00000000
00100000
00000000
00010000
00000000
00001000
00000000
00000100
00000000
00000001
00000000
,
00002002
00000000
00000000
00003003
,
00000001
00001000
00000100
00000010
,
00022000
00033000
02002000
03003000
,
10000000
00000000
00000000
00010000
00000000
00000000
20020000
00000000
00000000
00000000
00000000
00000000
30030000
00000000
00000000
00000000
,
10000000
00000000
01100000
00000000
00010000
01000000
00001000
00000000
,
00010000
00000000
00000000
00000100
00000000
00000000
00002200
00000000
00000000
00000000
00000000
00000000
00003300
00000000
00000000
00000000
,
00001100
00000000
00000001
00000100
00000010
00000000
00001000
00000000
,
00000100
00000010
00001000
00010000
00100000
00000000
00010000
00001000
,
00010000
00000000
01100000
00000000
10000000
00010000
01000000
00000000
,
00100000
00000000
00010000
00000000
00000000
00001000
00000000
00000000
00000100
00000000
00000001
00000000
00000010
00000000
00000001
00000000
,
00000000
00000110
00000000
00000000
00000000
00001001
00000000
00000000
,
00000100
00000000
00000000
00010000
00000000
00000000
00011000
00000000
00000000
00000000
01000000
00000000
00010000
00000000
10000000
00000000
,
00100000
00000000
11000000
00000000
00010000
01000000
00001000
00000000
,
00010000
00000100
00000010
00000001
00000100
00000010
00000100
00000000
,
00001001
00000000
00000001
00000100
00001000
00000000
00010000
00000000
,
00100000
01000000
00010000
10000000
01000000
00000000
00100000
00000000
,
00110000
00000000
00001000
00000000
00010000
00001000
00000100
00000000
,
00001010
00000000
00010000
00000000
00001000
00010000
01000000
00000000
,
10010000
00000000
00000000
01010000
00000000
01001000
00000000
00010000
,
00001000
00000000
00000100
00000001
00000000
00000010
00000100
00000010
,
00000000
00000100
00010000
00001000
00000000
01000000
00010000
00100000
,
00000000
01000000
10000000
00100000
00010000
00001000
00000010
00000000
,
00000110
00000000
00001100
00000000
00000001
00000100
00000010
00000000
,
00001000
00000100
00000010
00000000
00001000
00000000
00010000
00000000
,
01100000
00000000
10010000
00000000
10000000
01000000
00100000
00000000
,
01000000
10000000
00010000
01000000
00001000
00000000
00011000
00000000
,
00010100
00000000
00000000
00000000
00001100
00000000
00000000
00000000
00001000
00000000
00000001
00000000
00000100
00000000
00000000
00000010
,
00000000
00000010
00000000
00000000
00001001
00000000
00000000
00000000
00001000
00000000
00000000
00000100
00000000
00000000
00010100
00000000
,
00000000
00000000
00000000
00001000
01000000
00000000
00000000
00000000
00100000
00000000
10000000
00000000
00010000
00000000
00000000
00000000
,
10000000
01000000
00010000
00001000
00000100
00000001
00000010
00000000
,
00000001
00000000
00000100
00000010
00000000
00000100
00001000
00000000
,
00010000
00000000
00100000
00010000
00000000
00001000
00010000
00000000
,
01000000
00000000
10000000
00010000
00000000
01000000
00100000
00000000
,
10000000
00000000
00000000
01000000
00000000
00000000
00010000
00000000
00001000
00000000
00000000
00000100
00000000
00000000
00000001
00000000
,
00000010
00000000
00000000
00001000
00000000
00000000
00022000
00000000
00000000
00000000
00000000
00000000
00000000
00000000
00000000
00000000
,
00000000
00000000
00033000
00000000
;

//--------------- dance-double - forcednature ----------------
#NOTEDATA:;
#STEPSTYPE:dance-double;
#DESCRIPTION:forcednature;
#CREDIT:forcednature;
#DIFFICULTY:Hard;
#METER:16;
#RADARVALUES:0,0,0,0,0;
#NOTES:
00000000
00000000
00000000
00000000
,
00000000
00000000
00000000
00000000
,
00000000
00000000
00000000
00000000
,
00000000
00000000
00000000
00000000
,
00000000
00000000
00000000
00000000
,
00000000
00000000
00000000
00000000
00000000
00000000
00000000
00001000
,
00010000
01000000
10000000
00100000
01000000
00000000
01010000
00000000
,
00001000
00000000
00000000
00011000
00000000
00000000
00010100
00000000
00000000
00000000
00000100
00000000
00000010
00000000
00000001
00000000
,
00000000
00000100
00001000
00010000
00000000
01000000
00100000
00010000
,
00000000
00000000
10000000
00000000
00100000
00000000
00010000
00000000
00001000
00000000
00010000
00000100
00010000
00000000
00000000
00000000
,
00022000
00000000
00000000
00033000
,
00010000
00001000
00000000
00001000
00000100
00000000
00000100
00000001
00000000
00000001
00000010
00000000
00000100
00000000
00001000
00000000
,
00000100
00010000
00000100
00010000
00000100
00000000
00010000
00001000
00010000
00001000
00010000
00000000
00100000
00000000
01000000
00000000
,
00010000
10000000
00010000
10000000
00010000
00000000
00100000
00010000
00100000
00000000
00001000
00000000
00010000
00000000
00000000
00000000
,
00000100
00001000
00000100
00001000
00000100
00000000
00000010
00000001
00000010
00000001
00000010
00000000
00000001
00000000
00000100
00000000
,
00001100
00000000
00000000
00011000
00000000
00000000
00220000
00000000
00000000
00000000
00000000
00000000
00330000
00000000
00000000
00000000
,
10010000
00000000
00000000
10000000
01000000
00000000
00000000
01000000
00010000
00000000
00001000
00000000
00000010
00000000
00000000
00000000
,
00000100
00001000
00000010
00000100
00001000
00010000
00000100
00000000
,
00000010
00000000
00000000
00000010
00000001
00000000
00000000
00000001
00000100
00000000
00001000
00000000
00010000
00000000
00000000
00000000
,
00000100
00010000
01000000
00010000
00001000
00010000
00100000
00000000
,
10000000
00000000
00000000
10000000
01000000
00000000
00000000
01000000
00100000
00000000
00001000
00000000
00010000
00000000
00000100
00001000
,
00000000
00001000
00000000
00000001
00000100
00000000
00000000
00000000
00001010
00000000
00000000
00011000
00000000
00000000
01010000
00000000
,
00000000
00000000
10000000
01000000
10000000
00000000
00100000
00000000
00010000
00000000
00001000
00000000
00000010
00000000
00000001
00000000
,
00001001
00000000
00000000
00000000
00001000
00000000
00001000
00000000
00000100
00010000
00001000
01000000
00010000
00100000
00001000
00010000
,
00000020
00000000
00000000
00000000
,
00000000
00000000
00000000
00000000
00000030
00000000
00000000
00001000
,
00200000
00000000
00000000
00000000
,
00000000
00000000
00300000
00000000
,
20020000
00000000
00000000
00000000
,
00000000
00000000
00000000
00000000
30030000
00000000
00000000
00000100
,
00000002
00000000
00000000
00000000
00000013
00000010
00000010
00000010
,
00000200
00000000
00000000
00000000
,
00010300
00000000
00000100
00000000
00010000
00000000
00001000
00000000
01000000
00000000
00100000
10000000
00100000
00000000
00000000
00000000
,
01000000
00001000
00000100
00001000
00010000
00000100
00001000
00000000
,
00000010
00000000
00000000
00000010
00001000
00000000
00000000
00001000
00000001
00000000
00000010
00000000
00001000
00000000
00000000
00000000
,
00010000
00000000
00100000
00000000
00010000
00000000
00001000
00000000
00010000
00000000
01000000
00000000
10000000
00100000
10000000
00000000
,
01000000
00000000
00010000
00000000
00001000
00000000
00000010
00000001
00000010
00000000
00000100
00001000
00000100
00000000
00000000
00000000
,
00000010
00010000
00100000
00010000
01000000
00001000
00010000
00001000
,
00000100
00000000
00000001
00000000
00001000
00000100
00001000
00000100
00001000
00000000
00000010
00000000
00010000
00000000
00001000
00000000
,
01001000
00000000
01000000
00000000
00010000
00000000
00000000
10000000
01000000
00000000
00100000
00000000
00020000
00000000
00000000
00000000
,
01030000
00000000
00001000
00010000
00002000
00000000
00000000
00000000
00003010
00000000
00000001
00001000
00000001
00000000
00000000
00000000
,
00000100
00001000
01000000
00001000
00010000
01000000
10000000
00000000
,
00100000
00000000
00000000
00100000
00010000
00000000
00000000
00010000
00000010
00000000
00001000
00000000
00000100
00000000
00000010
00000000
,
00000001
00000000
00000000
00000001
00000100
00000000
00000000
00000100
00000010
00000000
00010000
00000000
00001000
00100000
00001000
00000000
,
00010000
00000000
01000000
00100000
01000000
00000000
10000000
00010000
10000000
00000000
00100000
00000000
00010000
00000000
00000000
00000000
,
00001000
00000000
00000010
00000000
00000100
00001000
00000100
00000000
00010000
00000000
00001000
00000000
01000000
00000000
00010000
00000000
,
00100000
00000000
01000000
10000000
01000000
00000000
00100000
00000000
00001000
00000000
00000010
00000000
00001000
00000000
00000000
00000000
,
00010000
00000000
00010000
00000000
00000100
00000000
00000100
00000000
00001000
00000001
00000000
00000100
00000001
00000000
00000010
00000000
,
00000210
00000000
00000000
00000000
00000000
00000000
00000000
00000000
00000000
00000000
00000000
00000000
00001300
00000000
00000000
00000100
00000000
00000000
00001000
00000000
00000000
00000100
00000000
00000000
00010000
00000000
00000000
00000000
00001000
00000000
00000000
00000000
00010000
00000000
00000000
00000000
01000000
00000000
00000000
00000000
10000000
00000000
00000000
00000000
00100000
00000000
00000000
00000000
,
02000000
00000000
00000000
00000000
03001000
00000000
00010000
00000000
00000000
00101000
00000000
00010100
00000000
00000000
00000110
00000000
,
00001001
00000000
00000000
00000000
00001000
00000100
00001000
00000100
00010000
00000000
00000000
00000000
01000000
00000000
10000000
00010000
,
10000000
00000000
11000000
00000000
01010000
00000000
00011000
00000000
00001100
00000000
00000101
00000000
,
00000022
00000000
00000000
00000033
,
00002000
00000000
00003200
00000000
00020300
00000000
01030000
10000000
,
11000000
00000000
00000000
00000000
00010000
00100000
00000000
00000000
00011000
00000000
00000000
00000000
00010000
00000000
00000100
00000000
,
00001100
00000000
00000000
00001001
00000000
00000000
00000101
00000000
00000000
00000000
00000100
00000000
00001000
00000000
00010000
00000000
,
00000000
01000000
00010000
00001000
00000000
00010000
00100000
10000000
,
11000000
00000000
00000000
00110000
00000000
00000000
00202000
00000000
00000000
00000000
00000000
00000000
00303000
00000000
00000000
00000000
,
00001000
00000100
00000001
00000100
00000010
00000000
00010000
00000000
,
00001000
00100000
10000000
00100000
01000000
00000000
11000000
00000000
,
00011000
00000000
00000101
00000000
00000001
00001000
00010000
00001000
,
00000100
00000000
00001100
00000000
00000000
00011000
00000000
00000000
01010000
00000000
00010000
00000000
10000000
00000000
01000000
00000000
,
00000000
10010000
00000000
00000000
00000000
00001001
00000000
00000000
,
00010100
00000000
00000000
01001000
00000000
00000000
00011000
00000000
00000000
00000000
01000000
00000000
00001000
00000000
00000100
00000000
,
00001000
00010000
00000100
00000010
00000001
00000100
00001000
00010000
,
00110000
00000000
00000000
01100000
00000000
00000000
20020000
00000000
00000000
00000000
00000000
00000000
30030000
00000000
10000000
00000000
,
00100000
00010000
00100000
01000000
00001000
00000100
00001000
00000000
,
01001000
00000000
00000000
00010010
00000000
00000000
00011000
00000000
00000000
00000000
00000100
00000000
00010000
00000000
00000020
00000000
,
00000000
00010030
00001000
00200000
00000000
01300000
00010000
00002000
,
00000000
00000000
00003010
00000000
00000001
00000000
00000100
00000000
00001000
00010000
00001000
00000000
00100000
00000000
01000000
10000000
,
01000000
00000000
00100000
00001000
00000000
00000010
00001000
00010000
,
00100000
00000000
01000000
00000000
00001000
00000000
00010000
00000000
00000100
00000010
00000100
00000000
00001000
00000001
00002000
00000000
,
00000000
01000000
01000000
01000000
00003000
00010000
00001000
01020000
,
00000000
00000100
00000100
00000100
00000200
00000000
00030300
00000000
,
00001001
00000000
00000000
00001000
00000100
00000000
00000000
00000100
00010000
00000000
00001000
00000000
01000000
00000000
00000000
00000000
,
00100000
00010000
00000010
00010000
00001000
00010000
01000000
00000000
,
10000000
00000000
00000000
10000000
00010000
00000000
00000000
00010000
01000000
00000000
00001000
00000000
00010000
00000000
00000000
00000000
,
00000100
00000000
00000001
00000000
00000100
00000000
00000010
00000000
00000001
00000000
00000100
00000000
00000010
00001000
00000010
00010000
,
00001000
00000000
00000000
00001000
00100000
00000000
00000000
00100000
01000000
00000000
10000000
00000000
01000000
00000000
00010000
00001000
,
00000000
00001000
00000000
00000010
00000100
00000000
00000000
00000000
00010100
00000000
00000000
00101000
00000000
00000000
00011000
00000000
,
00000000
00000000
00010000
00000100
00010000
00000000
00000000
00010000
00001000
00000000
00000100
00000000
00000001
00000000
00000010
00000000
,
00000100
00000000
00000100
00000000
00010000
00000000
00010000
00000000
00001000
00100000
00010000
10000000
00100000
10000000
01000000
00000000
,
00100000
00010000
00100000
00010000
00100000
00000000
00001000
00010000
00001000
00010000
00001000
00000000
00000100
00000000
00000001
00000000
,
00001000
00000100
00001000
00000100
00001000
00000000
00000010
00010000
00000010
00000000
00001000
00000000
00000100
00000000
00000000
00000000
,
00010000
00001000
00010000
00001000
00010000
00000000
00100000
01000000
00100000
01000000
00100000
00000000
10000000
00000000
01000000
00000000
,
11000000
00000000
00000000
00101000
00000000
00000000
01010000
00000000
01001000
00000000
00000000
00010010
00000000
00000000
00001100
00000000
,
00010100
00000000
00000000
00000011
00000000
00000000
00002002
00000000
00000000
00000000
00000000
00000000
00000000
00000000
00000000
00000000
,
00000000
00000000
00003003
00000000
;

//--------------- dance-double - forcednature ----------------
#NOTEDATA:;
#STEPSTYPE:dance-double;
#DESCRIPTION:forcednature;
#CREDIT:forcednature;
#DIFFICULTY:Challenge;
#METER:17;
#RADARVALUES:0,0,0,0,0;
#NOTES:
00000000
00000000
00000000
00000000
,
00000000
00000000
00000000
00000000
,
00000000
00000000
00000000
00000000
,
00000000
00000000
00000000
00000000
,
00000000
00000000
00000000
00000000
,
00000000
00000000
00000000
00000000
,
00010000
00001000
00010000
00000000
00000100
00000000
00001000
00000000
00000100
00000000
00000000
00000000
00000010
00000000
00000001
00000000
,
00001000
00000000
00000001
00000100
00000000
00000010
00000100
00000000
00001000
00000000
00010000
00000000
00100000
00000000
01000000
00000000
,
00010000
00000000
00001000
00000000
00010000
00000000
10000000
00000000
01000000
00000000
00100000
00010000
00100000
00000000
00001000
00000000
,
00010000
00000000
00001000
00000000
00000001
00000000
00001000
00000000
00010000
00000000
00000100
00001000
00000010
00000000
00000000
00000000
,
00000220
00000000
00000000
00000330
,
00000001
00000100
00000000
00000100
00001000
00000000
00001000
00010000
00000000
00010000
00100000
00000000
01000000
00000000
00010000
00000000
,
10000000
01000000
00100000
00010000
00100000
00000000
00001000
00010000
00000010
00001000
00000010
00000000
00000100
00000000
00000001
00000000
,
00001000
00000100
00010000
00001000
00010000
00000000
00100000
01000000
00100000
00000000
10000000
00000000
00020000
00000000
00000000
00000000
,
10030000
00100000
01000000
00010000
01000000
00000000
00010000
00100000
00001000
00010000
00001000
00000000
00000010
00000000
00000100
00001000
,
00000001
00000000
00000000
00000110
00000000
00000000
00002002
00000000
00000000
00000000
00000000
00000000
00003003
00000000
00000000
00000000
,
00001000
00000100
00010000
00000000
00000100
00010000
00001000
00000000
01000000
00000000
00010000
10000000
01000000
00000000
00100000
00000000
,
00010000
01000000
00010000
00000000
01000000
00001000
01000000
00000000
00010000
00000000
00100000
00001000
00000000
00010000
00000100
00000000
,
00001000
00000001
00000010
00000000
00000001
00001000
00000010
00000000
00000100
00000000
00001000
00010000
00001000
00000000
00100000
00000000
,
00010000
01000000
00100000
10000000
00010000
00000000
10000000
00000000
01000000
00100000
00010000
00100000
00001000
00010000
00000010
00001000
,
00000010
00000100
00000001
00000000
00000100
00000001
00000010
00000000
00000100
00000000
00010000
00001000
01000000
00000000
00010000
10000000
,
00000000
11000000
00000000
01000000
00100000
00000000
00001000
00000000
01001000
00000000
00000000
00011000
00000000
00000000
00010100
00000000
,
00000000
00000000
00000000
00000000
00000000
00000000
00000001
00000000
00001000
00000000
00000001
00000000
00001000
00000000
00000000
00000000
00000000
00000000
00000010
00000000
00000000
00000000
00000000
00000000
00000100
00000000
00000000
00000000
00000000
00000000
00001000
00000000
00000000
00000000
00000000
00000000
00010000
00000000
00000000
00001000
00000000
00000000
01000000
00000000
00000000
00010000
00000000
00000000
,
02000000
00000000
00000000
00000000
03100000
00000000
10000000
00000000
01000000
00100000
00010000
00100000
00001000
00010000
00000010
00001000
,
00000020
00000000
00000000
00000000
,
00000000
00000000
00000000
00000000
00000030
00000000
00000000
00000101
,
00002002
00000000
00000000
00000000
,
00000000
00000000
00000000
00003003
,
00020200
00000000
00000000
00000000
,
00000000
00000000
00000000
00000000
00030300
00000000
00000000
00011000
,
02001000
00000000
00000000
00000000
10000000
10000000
00100000
00100000
,
00020000
00000000
00000000
03030000
,
00010000
00100000
00001000
00010000
00000100
00000000
00001000
00000100
00000010
00000000
00000001
00001000
00000001
00000000
00000100
00000000
,
00001000
00010000
00001000
00000000
01000000
00010000
01000000
00000000
00100000
00000000
10000000
00000000
01000000
00100000
00010000
00000000
,
01000000
00001000
00010000
00000000
00001000
00010000
00000010
00000000
00001000
00000000
00000100
00000000
00000010
00000000
00000000
00000000
,
00000001
00000000
00000100
00000000
00001000
00000000
00000100
00000000
00000010
00010000
00001000
00010000
00000100
00000000
00000000
00000000
,
00001000
00000000
00000010
00010000
00001000
00000000
01000000
00001000
00010000
00000000
00100000
01000000
00100000
00000000
00000000
00000000
,
10000000
01000000
00100000
00000000
00010000
00100000
01000000
00000000
00200000
00000000
00010000
00000000
00302000
00000000
00010000
00000000
,
00103000
00000000
00001000
00000000
00010000
00000010
00010000
00000010
00001000
00000000
00000100
00000000
00000001
00000000
00000100
00000000
,
00000110
00000000
00000110
00000000
00000020
00000000
00000000
00000000
00000031
00001000
00000001
00001000
00000002
00000000
00000003
00000000
,
00000101
00000000
00000100
00000000
00002000
00000000
00000000
00000000
00013000
00001000
01000000
00010000
01000000
00000000
00000000
00000000
,
00100000
10000000
00010000
00000000
10000000
01000000
00100000
00000000
01000000
00100000
00010000
00000000
00100000
00000000
00001000
00000000
,
00011000
00000000
00010000
00000010
00001000
00000010
00001000
00000010
00000100
00000000
00000001
00000000
00000100
00000000
00001000
00000000
,
00010000
00000000
00100000
00000000
01100000
00000000
00000000
00000000
01000000
00010000
10000000
00010000
00100000
00000000
00000000
00000000
,
01000000
00000000
00100000
00001000
00010000
00000000
00000010
00001000
00000010
00000000
00000100
00000001
00001000
00000000
00000000
00000000
,
00000100
00001000
00000100
00000000
00010000
00001000
01000000
00010000
01000000
00000000
00100000
10000000
00010000
00000000
00100000
00000000
,
01000000
00000000
00100000
00001000
00010000
00001000
00010000
00000000
00000010
00000000
00001000
00000000
00001010
00000000
00000000
00000000
,
00000001
00000000
00000001
00000000
00000100
00000000
00000100
00000000
00001000
00010000
00001000
01000000
00010000
10000000
00010000
00000000
,
21000000
00000000
00000000
00000000
00000000
00000000
00000000
00000000
00000000
00000000
00000000
00000000
30100000
00000000
00000000
10000000
00000000
00000000
00010000
00000000
00000000
10000000
00000000
00000000
01000000
00000000
00000000
00000000
00010000
00000000
00000000
00000000
00001000
00000000
00000000
00000000
00010000
00000000
00000000
00000000
00001000
00000000
00000000
00000000
00000010
00000000
00000000
00000000
,
00000002
00000000
00000000
00000000
00001003
00000000
00001000
00000000
00000000
00000101
00000000
00000110
00000000
00000000
00001010
00000000
,
00010010
00000000
00000000
00000000
00010000
00000100
00010000
00001000
01000000
00000000
00000000
00000000
00001000
01000000
00001000
00010000
,
00000100
00000000
00001100
00000000
00010010
00000000
00101000
00000000
01010000
00000000
00101000
00000000
,
00022000
00000000
00000000
00033000
,
00010000
00100000
10000000
00000000
10010000
00000000
10000000
01000000
,
01010000
00000000
00000000
00000000
00010000
00001000
00000000
00000000
00011000
00000000
00000000
00000000
00000100
00000000
00001000
00000000
,
00000010
00000000
00000100
00000001
00000000
00000010
00000001
00000000
00001000
00000010
00010000
00001000
00100000
00010000
00100000
00000000
,
01000000
00010000
01000000
10000000
00100000
01000000
00010000
01000000
,
00001000
00000000
00000000
00011000
00000000
00000000
00010100
00000000
00000100
00001000
00000100
00000010
00000001
00001000
00000001
00000100
,
00000010
00000000
00010000
00001000
00010000
00000000
00001000
01000000
00010000
00000000
10000000
01000000
00100000
00000000
00010000
00000000
,
00100000
00001000
00010000
00000000
00000010
00010000
00001000
00000000
00000010
00000000
00000100
00001000
00000001
00000000
00000100
00000000
,
00000110
00000000
00001001
00000000
00001000
00000100
00010000
00001000
,
01000000
00000000
01000000
00010000
00000000
00010000
00100000
00000000
01000000
00000000
10000000
00000000
00010000
00000000
10000000
00000000
,
00100000
01100000
00000000
00000000
00010000
00011000
00000000
00000000
,
00000100
00000000
00001000
00000100
00000000
00000001
00000100
00000000
00000010
00000000
00000001
00000000
00001000
00000000
00000001
00000100
,
00000010
00000000
00010000
00000000
00001000
00000000
00010000
00000000
00100000
00000000
01000000
00100000
10000000
00000000
00010000
00000000
,
10000000
00000000
01000000
00100000
00000000
00010000
00100000
00000000
00001000
00010000
00000010
00001000
00000010
00000100
00000001
00001000
,
00000100
00000000
00010000
00001000
01000000
00000000
00010000
10000000
00010000
00000000
00100000
01000000
10000000
00000000
00100000
00000000
,
01100000
00000000
01000000
00010000
01000000
00001000
00010000
00000000
00000100
00001000
00000100
00000000
00000010
00000000
00000001
00000000
,
00000100
00000000
00001000
00000000
01000000
00000000
00001000
00000000
00010000
00000000
00000100
00001000
00000100
00000000
00010000
00000000
,
00001000
00000000
00000010
00000000
00001000
00000000
00100000
00000000
00010000
10000000
00010000
01000000
00100000
00000000
10000000
01000000
,
00100000
00000000
00000000
00000000
10010000
00000000
10000000
00000000
00000000
00000000
00010000
00000000
01010000
00000000
01000000
00001000
,
00010000
00000000
00000100
00000000
00001000
00000000
00000100
00000000
00000010
00000001
00001000
00000000
00000001
00000100
00000010
00001000
,
00000010
00010000
00000100
00010000
00000000
00100000
01000000
02100000
,
00000000
00000000
10000000
00000000
00100000
00000000
03010000
00000000
01000000
00100000
01000000
00100000
10000000
01000000
00100000
00010000
,
01000000
00000000
00001000
00010000
00000100
00000000
00001000
00000100
00000010
00000000
00000001
00000000
00000100
00000000
00001000
00000000
,
00000100
00000010
00001000
00000010
00010000
00000000
00001000
00000000
00100000
00000000
01000000
10000000
00000000
01000000
10000000
00000000
,
00100000
01000000
00010000
00000000
00100000
01000000
10000000
00000000
00010000
00000000
01000000
00001000
00010000
00000000
00000100
00000000
,
00001000
00000100
00000010
00000001
00001000
00000000
00000010
00000000
00010000
00001000
01000000
00010000
01000000
00100000
10000000
00010000
,
10000000
01000000
00100000
00000000
00010000
01000000
00100000
00000000
10000000
00000000
00010000
01000000
00001000
00000000
00010000
00000100
,
00000000
00001100
00000000
00001000
00000010
00000100
00000001
00001000
00000001
00000000
00000000
00000110
00000000
00000000
00001001
00000000
,
00000000
00000000
00000000
00000000
00000000
00000000
00001000
00000000
00000100
00000000
00001000
00000000
00000100
00000000
00000000
00000000
00000000
00000000
00010000
00000000
00000000
00000000
00000000
00000000
00001000
00000000
00000000
00000000
00000000
00000000
00010000
00000000
00000000
00000000
00000000
00000000
00100000
00000000
00000000
00000000
00000000
00000000
00010000
00000000
00000000
00001000
00000000
00000000
,
01000000
00000000
01000000
00000000
00010000
00000000
00010000
00000000
10000000
01000000
00100000
00010000
00100000
00001000
00010000
00000010
,
00001000
00000100
00000010
00000100
00001000
00000000
00000001
00000100
00000010
00000100
00000001
00000000
00001000
00000000
00000100
00000000
,
00010000
00001000
01000000
00010000
01000000
00000000
00100000
10000000
00010000
10000000
01000000
00000000
00020000
00000000
00000000
00000000
,
00031000
00010000
00000100
00001000
00000100
00000000
00000010
00000001
00001000
00000010
00001000
00000000
00010000
00000000
01000000
00000000
,
01100000
00000000
00100000
10000000
00000000
10000000
01000000
00000000
00010000
00000000
00001000
00000010
00000000
00000010
00000100
00000000
,
00001000
00000000
00000001
00000100
00000000
00000100
00002000
00000000
00000000
00000000
00000000
00000000
00000000
00000000
00000000
00000000
,
00000000
00000000
00003000
00000000
;
