#VERSION:0.83;
#TITLE:Jailbreaker;
#SUBTITLE:;
#ARTIST:Hommarju feat. かぼけゃ;
#TITLETRANSLIT:;
#SUBTITLETRANSLIT:;
#ARTISTTRANSLIT:Hommarju feat. Kabocha;
#GENRE:;
#CREDIT:;
#MUSIC:Jailbreaker.ogg;
#BANNER:Jailbreaker.png;
#BACKGROUND:Jailbreaker-bg.png;
#CDTITLE:./CDTitles/SDVX EXCEED GEAR.png;
#SAMPLESTART:49.312;
#SAMPLELENGTH:15.000;
#SELECTABLE:YES;
#OFFSET:0.002;
#BPMS:0.000=180.000;
#STOPS:;
#TIMESIGNATURES:0.000=4=4;
#BGCHANGES:0.000=../BGAs/22bk.mp4=1.000=0=0=0=StretchNoLoop====,
99999.000=-nosongbg-=1.000=0=0=0=StretchNoLoop====
;
#FGCHANGES:;

//--------------- dance-single - forcednature ----------------
#NOTEDATA:;
#STEPSTYPE:dance-single;
#DESCRIPTION:forcednature;
#DIFFICULTY:Beginner;
#METER:4;
#RADARVALUES:0,0,0,0,0;
#CREDIT:forcednature;
#NOTES:
0000
0000
0000
0000
,
0000
0000
0000
0000
,
0000
0000
0000
0000
,
0100
0000
0000
0000
,
2002
0000
3003
0000
,
1000
0000
0001
0000
,
0001
0000
0000
0000
,
0001
0000
1000
0000
,
1000
0000
0000
0000
,
1000
0000
1000
0000
,
0100
0000
0000
0000
,
0001
0000
0001
0000
,
0100
0000
0000
0000
,
1001
0000
0000
0000
,
0010
0000
0000
0000
,
1000
0000
0000
0000
,
0100
0000
0000
0000
,
0010
0000
0000
0000
,
0001
0000
0000
0000
,
0100
0000
0000
0000
,
0010
0000
0000
0000
,
1000
0000
0000
0000
,
0100
0000
0100
0000
,
0100
0000
0000
0000
,
0010
0000
0010
0000
,
0010
0000
0000
0000
,
0001
0000
0001
0000
,
0001
0000
0000
0000
,
1000
0000
1000
0000
,
0001
0000
0000
0000
,
0100
0000
0000
0000
,
0010
0000
0000
0000
,
1000
0000
0000
0000
,
0100
0000
0000
0000
,
0010
0000
0000
0000
,
0100
0000
0000
0000
,
0020
0000
0030
0000
,
1000
0000
1000
0000
,
0001
0000
0001
0000
,
0100
0000
0010
0000
,
0100
0000
0000
0000
,
0001
0000
0001
0000
,
1000
0000
1000
0000
,
0100
0000
0010
0000
,
0100
0000
0000
0000
,
1001
0000
0000
0000
,
0001
0000
0000
0000
,
0100
0000
0000
0000
,
0000
0000
0000
0000
,
1000
0000
0000
0000
,
1000
0000
0000
0000
,
0100
0000
0000
0000
,
0000
0000
0000
0000
,
1000
0000
0000
0000
,
0010
0000
0000
0000
,
0100
0000
0000
0000
,
0001
0000
0000
0000
,
0010
0000
0000
0000
,
0100
0000
0000
0000
,
1000
0000
0000
0000
,
0001
0000
0000
0000
,
1000
0000
1000
0000
,
0001
0000
0001
0000
,
0100
0000
0010
0000
,
0100
0000
0100
0000
,
0001
0000
0001
0000
,
1000
0000
1000
0000
,
0100
0000
0010
0000
,
0110
0000
0000
0000
,
1000
0000
1000
0000
,
0001
0000
0001
0000
,
0100
0000
0010
0000
,
0100
0000
0010
0000
,
1000
0000
1000
0000
,
0001
0000
0001
0000
,
0010
0000
0100
0000
,
0010
0000
0100
0000
,
1000
0000
1000
0000
,
1000
0000
0000
0000
,
0001
0000
0001
0000
,
0001
0000
0000
0000
,
1001
0000
0000
0000
,
0010
0000
0000
0000
,
1000
0000
0100
0000
,
1000
0000
0000
0000
,
0001
0000
0100
0000
,
0001
0000
0000
0000
,
0010
0000
0100
0000
,
0010
0000
0000
0000
,
2002
0000
0000
0000
,
0000
0000
0000
0000
,
0000
0000
0000
0000
,
0000
0000
3003
0000
;

//--------------- dance-single - forcednature ----------------
#NOTEDATA:;
#STEPSTYPE:dance-single;
#DESCRIPTION:forcednature;
#DIFFICULTY:Easy;
#METER:9;
#RADARVALUES:0,0,0,0,0;
#CREDIT:forcednature;
#NOTES:
0000
0000
0000
0000
,
0000
0000
0000
0000
,
0000
0000
0000
0000
,
1000
0001
0100
0010
,
2002
0000
3003
1000
,
0100
1000
0010
0100
,
0001
0000
0000
0001
0000
0000
0001
0000
0000
0001
0000
0000
0000
0000
0000
0000
,
1000
0100
0010
0001
,
0100
0000
0000
0100
0000
0000
0100
0000
0000
0100
0000
0000
0100
0000
0000
0000
,
0010
1000
0001
0010
,
0100
0000
0000
0100
0000
0000
0100
0000
0000
0100
0000
0000
0000
0000
0000
0000
,
1000
0001
0100
0010
,
1000
0000
0000
1000
0000
0000
1000
0000
0000
1000
0000
0000
0000
0000
0000
0000
,
0100
0001
0100
0010
,
0001
1000
2002
3003
,
1000
0010
0100
0001
,
0010
0100
0220
0330
,
0100
1000
0001
1000
,
0010
0100
2002
3003
,
1000
0100
0001
0100
,
0010
0000
0001
0000
0000
1001
0000
0000
,
1000
0000
0010
0000
1000
0001
1000
0000
,
0100
0010
0220
0330
,
0010
0000
0001
0000
1000
0001
1000
0000
,
0010
0000
0100
0000
0000
1001
0000
1001
,
0000
0000
1000
0000
0001
0100
0001
0000
,
0010
0100
0220
0330
,
0100
0000
1000
0000
0001
1000
0001
0000
,
0100
0000
0000
0100
0000
0000
0100
0000
0000
0000
0010
0000
0000
0000
0000
0000
,
1000
1000
1000
0000
,
0001
0001
0001
0000
,
0010
0100
1000
0000
,
0010
0100
0001
0000
,
1000
0100
1000
1000
,
0001
0100
0001
0001
,
2002
0000
0000
3003
,
0100
0000
0000
0100
0000
0000
0100
0000
0020
0000
0000
0000
0030
0000
0000
0000
,
1000
0001
0100
0010
,
1000
0000
0100
0010
0100
0000
1000
0000
,
0001
0100
0001
0000
1000
0100
1000
0000
,
0010
0100
2002
3003
,
1000
0001
0100
1000
,
0100
0000
0010
1000
0010
0000
0100
0000
,
0001
0010
0001
0000
1000
0010
1000
0000
,
2002
0000
0000
3003
,
2000
0000
0100
0100
,
0100
0100
0100
3000
,
0002
0000
0100
0100
,
0100
0100
0100
0003
,
2000
0000
0010
0010
,
0010
0010
0010
3000
,
0002
0000
0010
0010
,
0010
0010
0010
0003
,
0101
1000
1000
0000
,
1100
0001
0001
0000
,
0011
1000
1000
0000
,
1010
0001
0001
0000
,
0110
1000
1000
0000
,
0110
0001
0001
0000
,
2002
0000
0000
3003
,
0100
0000
0000
0100
0000
0000
0100
0000
0020
0000
0000
0000
0030
0000
0000
0000
,
1000
1000
0000
0000
0001
0001
0000
0000
,
0100
0100
0000
0000
0010
0010
0010
0000
,
0001
0001
0000
0000
1000
1000
0000
0000
,
0100
0100
0000
0000
0010
0010
0010
0000
,
0001
0001
0000
0000
0100
0100
0000
0000
,
1000
1000
0000
0000
0100
0100
0100
0000
,
0010
0010
0000
0000
0100
0100
0000
0000
,
2002
0000
0000
3003
,
1000
0100
0010
0001
,
0100
0000
0010
1000
0010
0000
0100
0000
,
0001
1000
0100
0000
1000
0001
0100
0000
,
0010
0100
2002
3003
,
0001
0100
1000
0100
,
0010
0000
1000
0100
1000
0000
0010
0000
,
0100
0001
0010
0000
0100
1000
0010
0000
,
2002
0000
0000
3003
,
1000
1000
0000
0000
0001
0001
0000
0000
,
0100
0100
0000
0000
0010
0010
0010
0000
,
0001
0001
0000
0000
1000
1000
0000
0000
,
0220
0000
0000
0330
,
1000
0001
0100
0010
,
1000
0000
0000
1000
0000
0000
1000
0000
0000
1000
0000
0000
0000
0000
0000
0000
,
0100
0010
0001
0100
,
0010
0000
0000
0010
0000
0000
0010
0000
0000
0010
0000
0000
0010
0000
0000
0000
,
1000
0001
0010
0100
,
1000
0000
0000
1000
0000
0000
1000
0000
0000
1000
0000
0000
0000
0000
0000
0000
,
0010
0100
0001
1000
,
0100
0000
0000
0100
0000
0000
0100
0000
0000
0100
0000
0000
0000
0000
0000
0000
,
2002
0000
0000
0000
,
0000
0000
0000
0000
,
0000
0000
0000
0000
,
0000
0000
3003
0000
;

//--------------- dance-single - forcednature ----------------
#NOTEDATA:;
#STEPSTYPE:dance-single;
#DESCRIPTION:forcednature;
#DIFFICULTY:Medium;
#METER:12;
#RADARVALUES:0,0,0,0,0;
#CREDIT:forcednature;
#NOTES:
0000
0000
0000
0000
,
0000
0000
0000
0000
,
0000
0000
0000
0000
,
1000
0010
1000
0010
0001
0010
0001
0010
,
0100
0000
0000
0100
0000
0000
0200
0000
0000
0000
0000
0000
0310
0000
1000
0000
,
0001
0000
0000
0100
0000
0000
0002
0000
0000
0000
1003
0000
0100
0000
1000
0000
,
0010
0000
0000
0100
0000
0000
1000
0000
0000
0100
0000
0000
0001
0000
0100
0000
,
0010
0000
0000
1000
0000
0000
0002
0000
0000
0000
1003
0000
0100
0000
0001
0000
,
0100
0000
0000
0010
0000
0000
0100
0000
0000
1000
0000
0000
0010
0000
0000
0000
,
1000
0000
0000
0001
0000
0000
0020
0000
0000
0000
0031
0000
0100
0000
0010
0000
,
1000
0000
0000
0001
0000
0000
1000
0000
0000
0100
0000
0000
0001
0000
0100
0000
,
0010
0000
0000
0001
0000
0000
0200
0000
0000
0000
1300
0000
0100
0000
0010
0000
,
1000
0000
0000
0001
0000
0000
1000
0000
0000
0100
0000
0000
0010
0000
0001
0000
,
0100
0000
0100
0000
0001
1000
0100
0000
,
0010
0001
0010
0001
0010
0000
0011
0000
,
0100
0000
1000
0000
0001
1000
0001
0000
,
1000
0000
0010
0000
1000
0000
0010
0000
0100
0000
0001
0000
0000
0001
0000
0000
,
1000
0000
0100
0000
0010
0001
0100
0000
,
0010
1000
0010
1000
0001
0000
0101
0000
,
0001
0000
1000
0000
0100
0010
0100
1000
,
0010
0010
0100
0100
0000
0001
0001
0001
,
0100
0000
0101
0000
1000
0010
1000
0000
,
0001
0010
0100
1000
0010
0000
0110
0000
,
0001
0000
1000
0000
0100
0010
0100
0000
,
1000
0001
0100
0010
0000
0110
0000
1001
,
0000
0000
1100
0000
0001
0100
0010
0000
,
1000
0100
0010
0001
1000
0000
0010
0000
,
0001
0000
0110
0000
1000
0001
0010
0000
,
0100
0000
0000
0100
0000
0000
0100
0000
0000
0000
2002
0000
0000
0000
3003
0000
,
1000
0010
1000
0000
,
0001
0100
0001
0000
,
1000
0100
0001
0000
,
1000
0010
0001
0000
,
1000
0010
1000
0001
,
0100
0001
1000
0100
,
0020
0000
0100
0130
,
1000
0000
0000
0001
0000
0000
0100
0000
0020
0000
0000
0000
0030
0000
0000
0000
,
0100
0101
1000
1010
,
1000
0000
0100
0001
0100
0000
1001
0000
,
0001
0100
0010
1000
0100
0010
0001
1000
,
0010
1000
0001
0010
0200
0000
0000
0000
,
1300
1001
1000
0110
,
0100
0000
0001
1000
0100
0000
0110
0000
,
0001
1000
0010
1000
0001
0100
0010
1000
,
0200
0000
0000
0010
0000
0000
0010
0000
0000
0000
0000
0000
0300
0000
0000
0000
,
0002
0100
0010
0100
,
0010
0100
0010
0100
,
2003
0100
0010
0100
,
0010
0100
0010
0100
,
3002
0100
0010
0100
,
0010
0100
0010
0100
,
2003
0100
0010
0100
,
0010
0100
0010
3000
,
0001
1000
1001
0000
,
0100
0010
0110
0000
,
1000
0100
1100
0000
,
0001
0100
0101
0000
,
1000
0010
1010
1000
,
0001
0010
0011
0001
,
2002
0000
0000
3003
,
1000
0000
0000
0001
0000
0000
0010
0000
0200
0000
0000
0000
0300
0000
0000
0000
,
1000
1100
0000
0000
0001
0101
0000
0000
,
0100
0110
0000
0000
0010
0010
0110
0000
,
1000
1001
0000
0000
0001
1001
0000
0000
,
0100
0110
0000
0000
0010
0010
0110
0000
,
0001
0100
0001
0000
1000
0100
1000
0000
,
0010
0100
0010
0000
0100
0100
0110
0000
,
0001
1000
0100
0000
1000
0001
0100
0000
,
2002
0000
0000
3003
,
1000
1100
0001
0101
,
0001
0000
1000
0001
0010
0000
0110
0000
,
1000
0000
0001
0000
0010
0000
0100
0000
1000
0000
0001
0100
0001
0000
1000
0000
,
0010
1000
0100
0010
0002
0000
0000
0000
,
0103
0101
0010
1010
,
1000
0000
0100
0010
0001
0000
1001
0000
,
1000
0000
0001
0000
0010
0000
0001
0000
0100
0000
0010
1000
0010
0000
0100
0000
,
0002
0000
0000
0100
0000
0000
0100
0000
0000
0000
1000
0000
1003
0000
1000
0000
,
0001
0101
0000
0000
1000
1100
0000
0000
,
0010
0110
0000
0000
0100
0100
0100
0000
,
0010
1010
0000
0000
0010
0011
0000
0000
,
2002
0000
0000
0000
3003
0000
0001
0100
,
0010
0000
0000
1000
0000
0000
0002
0000
0000
0000
1003
0000
0100
0000
0010
0000
,
0001
0000
0100
0001
0000
0100
0001
0000
1000
0010
0000
1000
0010
0000
0000
0000
,
0100
0000
0000
0001
0000
0000
0200
0000
0000
0000
0310
0000
1000
0000
0100
0000
,
0010
0000
0001
0010
0000
0001
0010
0000
0100
1000
0000
0100
1000
0000
0000
0000
,
0001
0000
0000
1000
0000
0000
0200
0000
0000
0000
0310
0000
0001
0000
0100
0000
,
0010
0000
1000
0001
0000
1000
0001
0000
0010
0100
0000
0010
0100
0000
0000
0000
,
1000
0000
0000
0001
0000
0000
0200
0000
0000
0000
0310
0000
1000
0000
0001
0000
,
0010
0000
0100
1000
0000
0001
0010
0000
0001
0100
0000
0010
1000
0000
0000
0000
,
2002
0000
0000
0000
,
0000
0000
0000
0000
,
0000
0000
0000
0000
,
0000
0000
3003
0000
;

//--------------- dance-single - forcednature ----------------
#NOTEDATA:;
#STEPSTYPE:dance-single;
#DESCRIPTION:forcednature;
#DIFFICULTY:Hard;
#METER:16;
#RADARVALUES:0,0,0,0,0;
#CREDIT:forcednature;
#NOTES:
0000
0000
0000
0000
,
0000
0000
0000
0000
,
0000
0000
0000
0000
,
0001
0100
0010
1000
0001
1000
0100
0010
,
1001
0000
0000
0110
0000
0000
2002
0000
0000
0000
3003
0000
1000
0000
0010
0000
,
1000
0000
0100
0010
0000
0001
0020
0000
0000
0000
0130
1000
0100
0000
0010
0000
,
0001
0000
0100
0001
0000
0100
0001
0000
1000
0010
0000
1000
0001
0000
0010
0000
,
0100
0000
1000
0001
0000
1000
0020
0000
0000
0000
0130
0001
0100
0000
0010
0000
,
1000
0000
0100
1000
0000
0100
1000
0000
0001
0010
0000
0001
0010
0000
0000
0000
,
0001
0000
0100
0001
0000
1000
0020
0000
0000
0000
1030
0001
1000
0000
0100
0000
,
0010
0000
0001
0010
0000
0100
0010
0000
0100
1000
0000
0001
1000
0000
0010
0000
,
0100
0000
0001
1000
0000
0100
0020
0000
0000
0000
0031
1000
0001
0000
0100
0000
,
0010
0000
1000
0100
0000
0010
0001
0000
1000
0010
1000
0010
1000
0000
0001
0100
,
0001
0010
0001
0100
0010
0100
1000
0100
,
0001
0000
1000
0000
0100
0000
0010
0000
0002
0000
0000
0010
0000
0000
1003
0000
,
0001
0100
0010
1000
0100
0001
0100
1000
,
0010
0000
0100
0000
0001
0000
1000
0000
0100
0000
0010
0001
0000
0001
0010
0001
,
1000
0010
0100
0001
1000
0100
0010
1000
,
0010
0000
0001
0000
1000
0000
0010
0000
0200
0000
0000
1000
0000
0000
0301
0000
,
0100
0010
1000
0001
1000
0100
0001
0100
,
0010
0000
0001
0000
1000
0000
0020
0000
0000
0000
0130
0001
0100
0001
0100
0001
,
0100
0010
0100
1000
0100
0010
0100
0001
,
0010
0100
1000
2002
0000
0000
3003
0000
,
0000
1000
0001
1000
0100
0001
0100
0010
,
0001
1000
0010
0100
0000
0101
0000
0101
,
0000
0001
0100
1000
0100
0010
0001
0010
,
1000
0001
1000
2200
0000
0000
3300
0000
,
0000
0001
0100
0001
0010
1000
0010
0100
,
0110
0000
0000
1001
0000
0000
0110
0000
0000
0000
0001
1000
0001
0000
0000
0000
,
0110
0000
0000
1000
0000
0000
0100
0000
0010
0000
0000
0000
,
0101
0110
1010
0000
,
1100
0000
0000
0100
0000
0000
0010
0000
0001
0000
0000
0000
,
0101
0000
0000
0000
0000
0000
0000
0000
0000
0000
0000
0000
1100
0000
0000
0000
0000
0000
0000
0000
0000
0000
0000
0000
0001
0000
0000
1000
0000
0000
0001
0000
0000
1000
0000
0000
0001
0000
0000
0000
0100
0000
0000
0000
0010
0000
0000
0000
,
1000
0000
0000
1100
0000
0010
0001
0000
0000
0101
0000
0010
,
1000
0000
0000
0000
0000
0000
0000
0000
0000
0000
0000
0000
0110
0000
0000
0000
0000
0000
0000
0000
1000
0000
0000
0000
0001
0000
0000
0100
0000
0000
0001
0000
0000
0100
0000
0000
0010
0000
0000
0000
1000
0000
0000
0000
0001
0000
0000
0000
,
0100
0000
0001
0010
0001
0000
1000
0010
1000
0000
0001
0100
0001
0000
1000
0100
,
1000
0000
0000
1001
0000
0000
0110
0000
2002
0000
0000
0000
3003
0000
0000
0000
,
1000
0101
0001
1100
,
0001
0000
1000
0100
0010
0000
1001
0000
,
1000
0000
0100
0000
0001
0000
0100
0000
0010
0000
0001
0100
0010
0000
1000
0000
,
0001
0010
1000
0010
0001
0101
0000
1010
,
1000
0110
0001
0110
,
1000
0000
0001
0100
0010
0000
1001
0000
,
1000
0000
0010
0000
0001
0000
0010
0000
0100
0000
0001
0010
0100
0000
1000
0000
,
0110
0000
0000
1001
0000
0000
0110
0000
0000
0000
0001
1000
0002
0000
0000
0000
,
2003
0100
0001
0010
,
0001
0000
0100
0000
0001
0000
3020
0230
,
0302
0000
2003
0000
3200
0000
0320
0000
0000
0001
0000
0000
,
1000
0001
0230
0010
,
2300
0000
0010
0000
0100
0000
3002
2003
,
3200
0000
0302
0000
2003
0000
3020
0000
0032
0000
2003
0000
,
3010
0100
0001
1000
0100
1000
0001
0100
0010
1000
0100
0010
,
0001
0000
0000
0000
0100
0000
0000
0000
0010
0000
0000
0000
1000
0000
0000
0000
0001
0000
0000
0000
0010
0000
0000
0000
0200
0000
0000
0000
0000
0000
0000
0000
0000
0000
0000
0000
1300
0000
0000
0001
0000
0000
1000
0000
0000
0001
0000
0000
,
0100
0000
0001
1000
0000
0100
1000
0100
0010
0001
0000
0100
,
0010
0000
1000
0001
0000
1000
0010
0100
0001
1000
0000
0010
,
1000
0000
0001
0100
0000
1000
0100
0010
0100
0001
0000
1000
,
0100
0000
0010
0001
0000
1000
0010
0000
0000
0010
1000
0100
,
1000
0000
0100
0010
0000
0001
0100
1000
0100
0010
0000
1000
,
0001
0000
0000
0000
0000
0000
0000
0000
1000
0000
0000
0000
0100
0000
0000
0000
0000
0000
0000
0000
0010
0000
0000
0000
0001
0000
0000
0100
0000
0000
0001
0000
0000
0100
0000
0000
0001
0000
0000
0000
0010
0000
0000
0000
0100
0000
0000
0000
,
1000
0000
0001
0100
0001
0000
1000
0010
1000
0000
0001
0010
0001
0000
1000
0100
,
1000
0000
0010
0100
0000
0001
1000
0000
2002
0000
0000
0000
3003
0000
0000
0000
,
1000
1000
0100
0000
0001
0001
0100
0000
,
1000
1000
0001
0100
0010
0010
0010
0000
,
1000
1000
0100
0001
0100
0100
0010
0001
,
0100
0100
0010
1000
0001
0001
0001
0000
,
1000
0100
1100
0000
0001
0100
0101
0000
,
1000
0001
1001
0000
0100
0100
0100
0000
,
0001
0100
0101
0001
1000
0100
1100
1000
,
0001
1000
0100
0000
1000
0001
0100
0000
0001
1000
0010
0000
1000
0001
0010
0000
,
0100
1000
0001
0100
1000
0001
1000
0100
,
0001
1000
0100
0010
1000
0010
0001
0000
,
1000
0000
0010
0000
0100
0000
1000
0000
0100
0000
0001
1000
0100
0000
0010
0000
,
1000
0010
0001
1000
0010
0110
0000
1001
,
1000
0100
0001
1000
0010
1000
0001
0100
,
1000
0010
0001
0010
0100
0001
0010
0000
,
0100
0000
0001
0000
1000
0000
0010
0000
0001
0000
1000
0010
0100
0000
0001
0000
,
0101
0000
0000
1001
0000
0000
1100
0000
0000
0000
0001
1000
0001
1000
0001
1000
,
0001
0001
0010
0000
1000
1000
0010
0000
,
0100
0100
0000
0000
0010
0010
0010
0000
,
0001
0100
1010
0000
1000
0100
0011
0000
,
1000
0100
1000
0100
0010
0001
0010
0001
1000
0010
1000
0010
0100
0001
0100
0001
,
1000
0000
0100
0010
0000
0001
0100
0000
0010
0000
0100
0001
1000
0000
0100
0000
,
0010
0000
0001
0010
0000
0100
0010
0000
0001
0100
0000
0010
0100
0000
0001
0000
,
1000
0000
0010
1000
0000
0001
0100
0000
0010
0000
1000
0001
0010
0000
0100
0000
,
1000
0000
0001
0100
0000
0010
1000
0000
0001
0010
0000
0100
1000
0000
0001
0000
,
0100
0000
0001
0010
0000
0100
1000
0000
0010
0000
1000
0100
0010
0000
0001
0000
,
1000
0000
0001
0100
0000
0010
0100
0000
1000
0100
0000
0010
0100
0000
0001
0000
,
1000
0000
0100
0010
0000
0001
0010
0000
0100
0000
1000
0001
0100
0000
0010
0000
,
1000
0000
0100
0010
0000
0001
1000
0000
0010
1000
0010
1000
0100
0000
0010
0001
,
0200
0000
0000
0000
,
0000
0000
0000
0000
,
0000
0000
0000
0000
,
0000
0000
0300
0000
;

//--------------- dance-double - forcednature ----------------
#NOTEDATA:;
#STEPSTYPE:dance-double;
#DESCRIPTION:forcednature;
#DIFFICULTY:Easy;
#METER:9;
#RADARVALUES:0,0,0,0,0;
#CREDIT:forcednature;
#NOTES:
00000000
00000000
00000000
00000000
,
00000000
00000000
00000000
00000000
,
00000000
00000000
00000000
00000000
,
00001000
00010000
00001000
00010000
,
00022000
00000000
00033000
00000000
,
00001000
01000000
00010000
10000000
,
01000000
00000000
00000000
01000000
00000000
00000000
01000000
00000000
00000000
01000000
00000000
00000000
00000000
00000000
00000000
00000000
,
00100000
00001000
00010000
00000100
,
00000010
00000000
00000000
00000010
00000000
00000000
00000010
00000000
00000000
00000010
00000000
00000000
00000010
00000000
00000000
00000000
,
00000001
00000100
00000010
00010000
,
00001000
00000000
00000000
00001000
00000000
00000000
00001000
00000000
00000000
00001000
00000000
00000000
00000000
00000000
00000000
00000000
,
00100000
00010000
01000000
00001000
,
00010000
00000000
00000000
00010000
00000000
00000000
00010000
00000000
00000000
00010000
00000000
00000000
00000000
00000000
00000000
00000000
,
00000100
00001000
00000001
00001000
,
00000100
00010000
00001000
00000000
,
01000000
00010000
10000000
00100000
,
00010000
00000000
00001000
00000000
00000000
00000010
00000000
00000010
,
00000000
00000100
00001000
00000001
,
00001000
00000010
00010000
00000000
,
00001000
00100000
00010000
10000000
,
00100000
00000000
01000000
00000000
00000000
00011000
00000000
00000000
,
00000100
00001000
00000100
00000001
,
00000100
00000010
00000100
00000000
00001000
00000000
00000000
00000000
,
00000010
00010000
00001000
01000000
,
00010000
10000000
00010000
00000000
00000000
00100000
00000000
00100000
,
00000000
01000000
10000000
00010000
,
01000000
00001000
01000000
00000000
00010000
00000000
00000000
00000000
,
00001000
00000010
00001000
00000100
,
00000010
00000000
00000000
00000010
00000000
00000000
00000010
00000000
00000000
00000000
00001001
00000000
00000000
00000000
00000000
00000000
,
00000001
00000100
00001000
00000000
,
00010000
01000000
10000000
00000000
,
00010000
10000000
00100000
00000000
,
00010000
00001000
00100000
00000000
,
00010000
01000000
00001000
00000000
,
00010000
00000100
00001000
00000000
,
00022000
00000000
00000000
00033000
,
00001000
00010000
00022000
00033000
,
00001000
00010000
01000000
00100000
,
00010000
00000000
10000000
00100000
10000000
00000000
01000000
00000000
,
00010000
00001000
00010000
00000000
00000100
00001000
00000100
00000000
,
00000010
00000001
00000010
00000000
00000200
00000000
00000000
00000000
,
00001300
00000001
00000100
00001000
,
00010000
00000000
00100000
10000000
00100000
00000000
01000000
00000000
,
00001000
00010000
00001000
00000000
00010000
00000100
00010000
00000000
,
00002002
00000000
00003003
00000000
,
00000002
00000100
00000100
00000100
,
00000100
00000100
00000100
00000003
,
00002000
00000100
00000100
00000100
,
00000100
00000100
00000100
00003000
,
00020000
01000000
01000000
01000000
,
01000000
01000000
01000000
00030000
,
20000000
01000000
01000000
01000000
,
01000000
01000000
01000000
30000000
,
10000000
01000000
10000000
00000000
,
00010000
01000000
00001000
00000000
,
00010000
00000100
00001000
00000000
,
00000001
00000100
00000010
00000000
,
00001000
00000100
00000010
00000000
,
00001000
00010000
00100000
00000000
,
00022000
00000000
00000000
00033000
,
00001000
00010000
00022000
00033000
,
00000100
00000100
00000000
00000000
00010000
00010000
00000000
00000000
,
00001000
00001000
00000000
00000000
01000000
01000000
01000000
00000000
,
00100000
00100000
00000000
00000000
00001000
00001000
00000000
00000000
,
00010000
00010000
00000000
00000000
00000010
00000010
00000010
00000000
,
00010000
00010000
00000000
00000000
00001000
00001000
00000000
00000000
,
01000000
01000000
00000000
00000000
00001000
00001000
00001000
00000000
,
00001000
00001000
00000000
00000000
00010000
00010000
00000000
00000000
,
00022000
00000000
00000000
00033000
,
00001000
00000100
00000001
00000010
,
00000100
00000000
00001000
00000010
00001000
00000000
00000100
00000000
,
00010000
00001000
00010000
00000000
00100000
10000000
00100000
00000000
,
01000000
00010000
01000000
00000000
00002000
00000000
00000000
00000000
,
00003010
00000001
00001000
00000010
,
00010000
00000000
00001000
01000000
00001000
00000000
00100000
00000000
,
00010000
10000000
00010000
00000000
00100000
01000000
00100000
00000000
,
00022000
00000000
00000000
00033000
,
00010000
00010000
00000000
00000000
00000100
00000100
00000000
00000000
,
00010000
00010000
00000000
00000000
00001000
00001000
00001000
00000000
,
01000000
01000000
00000000
00000000
00001000
00001000
00000000
00000000
,
00022000
00000000
00033000
00001000
,
00010000
01000000
00100000
00010000
,
10000000
00000000
00000000
10000000
00000000
00000000
10000000
00000000
00000000
10000000
00000000
00000000
00000000
00000000
00000000
00000000
,
00100000
01000000
00001000
00010000
,
00000100
00000000
00000000
00000100
00000000
00000000
00000100
00000000
00000000
00000100
00000000
00000000
00000100
00000000
00000000
00000000
,
00000010
00000001
00001000
00000010
,
00010000
00000000
00000000
00010000
00000000
00000000
00010000
00000000
00000000
00010000
00000000
00000000
00000000
00000000
00000000
00000000
,
00001000
01000000
00010000
10000000
,
01000000
00000000
00000000
01000000
00000000
00000000
01000000
00000000
00000000
01000000
00000000
00000000
00000000
00000000
00000000
00000000
,
00022000
00000000
00000000
00000000
,
00000000
00000000
00000000
00000000
,
00000000
00000000
00000000
00000000
,
00000000
00000000
00033000
00000000
;

//--------------- dance-double - forcednature ----------------
#NOTEDATA:;
#STEPSTYPE:dance-double;
#DESCRIPTION:forcednature;
#DIFFICULTY:Medium;
#METER:12;
#RADARVALUES:0,0,0,0,0;
#CREDIT:forcednature;
#NOTES:
00000000
00000000
00000000
00000000
,
00000000
00000000
00000000
00000000
,
00000000
00000000
00000000
00000000
,
00010000
01000000
00001000
00000100
,
00011000
00000000
00000000
00011000
00000000
00000000
00022000
00000000
00000000
00000000
00033000
00000000
00001000
00000000
00010000
00000000
,
00100000
00000000
00000000
10000000
00000000
00000000
00020000
00000000
00000000
00000000
00130000
00000000
01000000
00000000
00010000
00000000
,
00001000
00000000
00000000
00000100
00000000
00000000
00000010
00000000
00000000
00001000
00000000
00000000
00000001
00000000
00000010
00000000
,
00000100
00000000
00000000
00001000
00000000
00000000
00000002
00000000
00000000
00000000
00000103
00000000
00001000
00000000
00010000
00000000
,
01000000
00000000
00000000
00100000
00000000
00000000
00010000
00000000
00000000
10000000
00000000
00000000
00100000
00000000
00000000
00000000
,
10000000
00000000
00000000
00010000
00000000
00000000
02000000
00000000
00000000
00000000
03100000
00000000
00010000
00000000
00001000
00000000
,
00000100
00000000
00000000
00000001
00000000
00000000
00001000
00000000
00000000
00000100
00000000
00000000
00000010
00000000
00001000
00000000
,
00010000
00000000
00000000
00001000
00000000
00000000
00000200
00000000
00000000
00000000
00000310
00000000
00010000
00000000
00001000
00000000
,
00100000
00000000
00000000
00001000
00000000
00000000
00010000
00000000
00000000
00100000
00000000
00000000
01000000
00000000
00010000
00000000
,
10000000
00100000
10000000
00000000
01000000
00100000
01000000
00000000
,
10000000
00010000
01000000
00001000
00010000
00000000
00011000
00000000
,
00000100
00001000
00000001
00000000
00000100
00000010
00001000
00000000
,
00000100
00000000
00000010
00000000
00001000
00000000
00010000
00000000
00000000
00000000
00100000
00000000
00000000
00100000
00000000
00000000
,
01000000
00010000
10000000
00000000
01000000
00010000
00001000
00000000
,
00000010
00000100
00001000
00000001
00000100
00000000
00000110
00000000
,
00000001
00001000
00000010
00000000
00010000
00001000
00100000
00000000
,
00001000
00010000
00100000
01000000
00000000
20020000
00000000
30030000
,
10000000
01000000
10000000
00010000
10000000
00100000
10000000
00000000
,
01000000
00010000
00001000
00000010
00000100
00000000
00001001
00000000
,
00000001
00000100
00000001
00001000
00000001
00000010
00000001
00000000
,
00000100
00001000
00010000
00100000
00000000
01100000
00000000
10010000
,
00000000
00000000
10000000
01000000
00100000
00010000
01000000
00000000
,
00100000
00010000
00001000
00000100
00000010
00000000
00000110
00000000
,
00000000
00000000
00000001
00000100
00000010
00001000
00000100
00000000
,
00000010
00001000
00010000
01000000
00000000
02200000
00000000
03300000
,
10000000
00010000
00001000
00000000
,
00000100
00000010
00000001
00000000
,
00000100
00001000
00100000
00000000
,
01000000
10000000
00010000
00000000
,
01000000
00001000
00010000
00000100
,
00000010
00001000
00010000
00100000
,
00022000
00000000
00000000
00033000
,
01001000
00000000
00000000
00010100
00000000
00000000
00022000
00000000
00000000
00000000
00000000
00000000
00033000
00000000
00000000
00000000
,
00010000
01000000
00100000
00010000
,
10000000
00000000
00100000
01000000
00001000
00000000
00010000
00000000
,
00000100
00000000
00000010
00000000
00000001
00000000
00000100
00000000
00000010
00000000
00001000
00000100
00001000
00000000
00000010
00000000
,
00000100
00000001
00000100
00001000
00020000
00000000
00000000
00000000
,
00030100
00001000
00000001
00000100
,
00001000
00000000
00010000
00100000
01000000
00000000
00010000
00000000
,
10000000
00000000
01000000
00000000
00010000
00000000
00001000
00000000
00010000
00000000
00000100
00001000
00000100
00000000
00000010
00000000
,
00000002
00000000
00000000
00000003
,
00000100
00001000
00010000
01000000
,
10000000
00100000
00010000
00001000
,
00000010
00000001
00000100
00001000
,
00010000
01000000
10000000
00100000
,
00010000
00001000
00000100
00000001
,
00000010
00001000
00010000
01000000
,
10000000
00100000
00010000
00001000
,
00000100
00000001
00000010
00001000
,
00010000
00100000
01000000
00000000
,
00001000
00000010
00000100
00000000
,
00010000
01000000
10000000
00000000
,
00001000
00000100
00000001
00000000
,
00010000
01000000
00100000
00010000
,
00001000
00000010
00000100
00001000
,
00022000
00000000
00000000
00033000
,
00010010
00000000
00000000
00101000
00000000
00000000
00022000
00000000
00000000
00000000
00000000
00000000
00033000
00000000
00000000
00000000
,
01000000
01000000
00000000
00000000
00001000
00001000
00000000
00000000
,
00010000
00010000
00000000
00000000
00000100
00000100
00001000
00000000
,
00000010
00000010
00000000
00000000
00010000
00010000
00000000
00000000
,
00001000
00001000
00000000
00000000
00100000
00100000
00010000
00000000
,
01000000
00010000
01010000
00000000
00001000
00010000
00011000
00000000
,
00010000
00000100
00010100
00000000
00000100
00001000
00000001
00000000
,
00000100
00001000
00001100
00000000
00001000
00010000
00011000
00000000
,
00022000
00000000
00000000
00033000
,
00010000
01000000
00100000
00001000
,
00010000
00000000
00100000
10000000
01000000
00000000
00010000
00000000
,
00001000
00000000
00000010
00000000
00000001
00000000
00001000
00000000
00000010
00000000
00010000
00001000
00010000
00000000
00000100
00000000
,
00010000
00001000
01000000
00010000
00200000
00000000
00000000
00000000
,
01300000
00010000
00001000
00000010
,
00000001
00000000
00000100
00001000
00010000
00000000
00000100
00000000
,
00001000
00000000
00000010
00000000
00010000
00000000
00001000
00000000
01000000
00000000
00010000
10000000
00010000
00000000
00100000
00000000
,
02000000
00000000
00000000
10000000
00000000
00000000
10000000
00000000
00000000
00000000
00100000
00000000
03100000
00000000
00100000
00000000
,
01000000
00010000
00000000
00000000
00001000
00000010
00000000
00000000
,
00000001
00001000
00000000
00000000
00000010
00010000
00000100
00000000
,
00010000
00001000
00000000
00000000
01000000
00100000
00000000
00000000
,
20020000
00000000
00000000
00000000
30030000
00000000
10000000
01000000
,
00010000
00000000
00000000
00001000
00000000
00000000
00000020
00000000
00000000
00000000
00000031
00000000
00001000
00000000
00000010
00000000
,
00010000
00000000
00001000
01000000
00000000
00001000
01000000
00000000
00001000
01000000
00000000
00001000
01000000
00000000
00000000
00000000
,
00010000
00000000
00000000
10000000
00000000
00000000
02000000
00000000
00000000
00000000
03100000
00000000
00001000
00000000
00010000
00000000
,
00000010
00000000
00001000
00000001
00000000
00001000
00000001
00000000
00001000
00000001
00000000
00001000
00000001
00000000
00000000
00000000
,
00000100
00000000
00000000
00001000
00000000
00000000
00020000
00000000
00000000
00000000
01030000
00000000
00100000
00000000
00010000
00000000
,
10000000
00000000
00010000
01000000
00000000
00010000
01000000
00000000
00010000
01000000
00000000
00010000
01000000
00000000
00000000
00000000
,
00100000
00000000
00000000
00010000
00000000
00000000
00002000
00000000
00000000
00000000
00003010
00000000
00000100
00000000
00001000
00000000
,
00000010
00000000
00010000
00001000
00000000
00010000
00001000
00000000
00010000
00001000
00000000
00010000
00001000
00000000
01000000
00000000
,
00200000
00000000
00000000
00000000
,
00000000
00000000
00000000
00000000
,
00000000
00000000
00000000
00000000
,
00000000
00000000
00300000
00000000
;

//--------------- dance-double - forcednature ----------------
#NOTEDATA:;
#STEPSTYPE:dance-double;
#DESCRIPTION:forcednature;
#DIFFICULTY:Hard;
#METER:16;
#RADARVALUES:0,0,0,0,0;
#CREDIT:forcednature;
#NOTES:
00000000
00000000
00000000
00000000
,
00000000
00000000
00000000
00000000
,
00000000
00000000
00000000
00000000
,
00010000
00001000
00000010
00000100
00001000
00000010
00010000
00001000
,
01001000
00000000
00000000
00010100
00000000
00000000
00022000
00000000
00000000
00000000
00033000
00000000
00001000
00000000
01000000
00000000
,
00010000
00000000
10000000
01000000
00000000
00100000
00020000
00000000
00000000
00000000
01030000
00010000
01000000
00000000
00001000
00000000
,
00010000
00000000
00000100
00001000
00000000
00000100
00001000
00000000
00000001
00000100
00000000
00000010
00001000
00000000
00000100
00000000
,
00010000
00000000
00001000
01000000
00000000
00010000
20000000
00000000
00000000
00000000
31000000
00100000
01000000
00000000
10000000
00000000
,
00010000
00000000
01000000
00001000
00000000
01000000
00001000
00000000
00010000
00000010
00000000
00010000
00000010
00000000
00000000
00000000
,
00000100
00000000
00000001
00001000
00000000
00000100
00002000
00000000
00000000
00000000
00003010
00001000
00000010
00000000
00010000
00000000
,
00001000
00000000
00100000
00010000
00000000
00100000
00010000
00000000
10000000
01000000
00000000
10000000
00010000
00000000
01000000
00000000
,
00001000
00000000
00010000
00000100
00000000
00001000
00000002
00000000
00000000
00000000
00000103
00000001
00000100
00000000
00001000
00000000
,
00010000
00000000
00100000
10000000
00000000
00100000
10000000
00000000
00010000
00100000
00010000
00100000
00010000
00000000
01000000
00001000
,
01000000
00010000
00100000
00001000
00010000
00001000
00000010
00000100
,
00001000
00000000
00000001
00000000
00000100
00000000
00001000
00000000
00020000
00000000
00000000
00100000
00000000
00000000
00031000
00000000
,
00010000
01000000
00100000
00010000
10000000
00100000
00001000
00100000
,
01000000
00000000
00001000
00000000
00010000
00000000
00000100
00000000
00000010
00000000
00000001
00001000
00000000
00000001
00001000
00000001
,
00000100
00001000
00000100
00000010
00001000
00000100
00010000
01000000
,
00010000
00000000
00001000
00000000
00100000
00000000
00001000
00000000
02000000
00000000
00000000
10000000
00000000
00000000
03010000
00000000
,
01000000
00100000
00010000
00001000
00100000
01000000
00010000
00001000
,
00000100
00000000
00000001
00000000
00000010
00000000
00000002
00000000
00000000
00000000
00001003
00000100
00001000
00000100
00001000
00000100
,
00000010
00000100
00010000
00001000
00010000
00100000
10000000
00010000
,
10000000
00100000
00010000
00022000
00000000
00000000
00033000
00000000
,
00000000
00000100
00000001
00000100
00000010
00000001
00000100
00001000
,
00000100
00010000
01000000
00010000
00000000
01001000
00000000
00010100
,
00000000
00000100
00010000
00001000
01000000
00100000
00010000
00100000
,
10000000
00010000
00100000
00202000
00000000
00000000
00303000
00000000
,
00000000
00001000
00000010
00001000
01000000
00001000
00010000
00100000
,
10000000
00000000
00000000
11000000
00000000
00000000
00110000
00000000
00000000
00000000
00001000
00010000
00002000
00000000
00000000
00000000
,
00003010
00000000
00000000
00000001
00000000
00000000
00000100
00000000
00001000
00000000
00000000
00000000
,
00011000
01100000
10010000
00000000
,
11000000
00000000
00000000
00010000
00000000
00000000
01000000
00000000
00001000
00000000
00000000
00000000
,
00010100
00000000
00000000
00000000
00000000
00000000
00000000
00000000
00000000
00000000
00000000
00000000
00001001
00000000
00000000
00000000
00000000
00000000
00000000
00000000
00000000
00000000
00000000
00000000
00010000
00000000
00000000
00000010
00000000
00000000
00010000
00000000
00000000
00000010
00000000
00000000
00010000
00000000
00000000
00000000
00001000
00000000
00000000
00000000
00100000
00000000
00000000
00000000
,
00010000
00000000
00000000
01100000
00000000
10000000
00010000
00000000
00000000
01001000
00000000
00100000
,
00001000
00000000
00000000
00000000
00000000
00000000
00000000
00000000
00000000
00000000
00000000
00000000
00010100
00000000
00000000
00000000
00000000
00000000
00000000
00000000
00001000
00000000
00000000
00000000
00000010
00000000
00000000
00001000
00000000
00000000
00000010
00000000
00000000
00001000
00000000
00000000
00000001
00000000
00000000
00000000
00000010
00000000
00000000
00000000
00000100
00000000
00000000
00000000
,
00001000
00000000
00000010
00010000
00000010
00000000
00010000
00001000
00010000
00000000
00001000
00010000
00001000
00000000
00100000
00001000
,
00100000
00000000
00000000
00110000
00000000
00000000
11000000
00000000
20020000
00000000
00000000
00000000
30030000
00000000
00000000
00000000
,
00010000
01001000
00001000
00010100
,
00000010
00000000
00001000
00000001
00000010
00000000
00000110
00000000
,
00010000
00000000
00001000
00000000
00010000
00000000
01000000
00000000
00100000
00000000
00010000
10000000
00100000
00000000
00010000
00000000
,
00001000
00000010
00000001
00000010
00000100
00000110
00000000
00001001
,
00001000
00010010
00010000
00101000
,
01000000
00000000
00010000
10000000
01000000
00000000
01100000
00000000
,
01000000
00000000
00010000
00000000
00001000
00000000
00010000
00000000
00100000
00000000
01000000
00001000
00010000
00000000
00000100
00000000
,
00010100
00000000
00000000
00011000
00000000
00000000
01001000
00000000
00000000
00000000
00010000
00001000
00020000
00000000
00000000
00000000
,
02030000
00010000
00001000
00010000
,
10000000
00000000
00010000
00000000
00001000
00000000
03020000
00032000
,
00003200
00000000
00000302
00000000
00002003
00000000
00003200
00000000
00000000
00010000
00000000
00000000
,
00001000
00000001
00020300
01000000
,
00032000
00000000
00000100
00000000
00010000
00000000
00003020
00000032
,
00002003
00000000
00003200
00000000
00020300
00000000
00032000
00000000
02003000
00000000
03020000
00000000
,
01030000
00010000
10000000
01000000
00010000
00001000
00000100
00000001
00001000
00000010
00000100
00000001
,
00000010
00000000
00000000
00000000
00000100
00000000
00000000
00000000
00010000
00000000
00000000
00000000
00001000
00000000
00000000
00000000
01000000
00000000
00000000
00000000
00010000
00000000
00000000
00000000
10000000
00000000
00000000
00000000
00000000
00000000
00000000
00000000
00000000
00000000
00000000
00000000
00010000
00000000
00000000
00100000
00000000
00000000
00010000
00000000
00000000
00100000
00000000
00000000
,
00001000
00000000
00010000
00000100
00000000
00000010
00000100
00000001
00000100
00001000
00000000
00000010
,
00010000
00000000
00001000
00100000
00000000
00010000
01000000
10000000
01000000
00100000
00000000
10000000
,
00010000
00000000
10000000
01000000
00000000
00100000
00001000
00010000
00001000
00000100
00000000
00000001
,
00001000
00000000
00000100
00010000
00000000
00001000
01000000
00000000
00000000
01000000
00100000
10000000
,
00010000
00000000
01000000
00001000
00000000
00010000
00000100
00000010
00000001
00000010
00000000
00000001
,
00000100
00000000
00000000
00000000
00000000
00000000
00000000
00000000
00001000
00000000
00000000
00000000
00010000
00000000
00000000
00000000
00000000
00000000
00000000
00000000
00100000
00000000
00000000
00000000
10000000
00000000
00000000
00010000
00000000
00000000
10000000
00000000
00000000
00010000
00000000
00000000
10000000
00000000
00000000
00000000
01000000
00000000
00000000
00000000
00010000
00000000
00000000
00000000
,
00001000
00000000
00010000
00000100
00010000
00000000
00001000
01000000
00001000
00000000
00010000
00000010
00010000
00000000
00001000
00100000
,
00001000
00000000
00010000
00000100
00000000
00000010
00000001
00000000
00002002
00000000
00000000
00000000
00003003
00000000
00000000
00000000
,
00000001
00000100
00010000
00000000
00001000
00100000
10000000
00000000
,
10000000
01000000
00001000
01000000
00010000
00000010
00000100
00000000
,
00000010
00001000
00000100
00000010
00001000
00100000
00001000
00010000
,
00100000
00001000
00100000
10000000
01000000
00010000
00001000
00000000
,
00000100
00000001
00001000
00000000
01000000
10000000
00010000
00000000
,
00100000
00001000
01000000
00010000
10000000
00010000
00100000
00000000
,
01000000
00001000
00000100
00001000
00000010
00010000
00100000
00010000
,
00001000
01000000
00001000
00000000
00010000
00000100
00010000
00000000
00001000
00100000
00001000
00000000
00010000
00000010
00010000
00000000
,
00001000
01000000
00100000
00001000
00100000
10000000
01000000
00010000
,
00001000
00000010
00000001
00001000
00000010
00000100
00010000
00000000
,
01000000
00000000
00001000
00000000
00010000
00000000
01000000
00000000
10000000
00000000
00010000
01000000
00100000
00000000
00010000
00000000
,
00001000
00000010
00000100
00000001
00000100
00010100
00000000
01001000
,
01000000
00010000
00100000
00001000
00000010
00001000
00010000
00000100
,
00001000
00000001
00000100
00010000
00000100
00000010
00001000
00000000
,
00000100
00000000
00010000
00000000
01000000
00000000
00010000
00000000
00001000
00000000
00010000
00100000
01000000
00000000
00010000
00000000
,
10010000
00000000
00000000
01001000
00000000
00000000
00011000
00000000
00000000
00000000
00010000
00001000
00010000
00001000
00010000
00001000
,
00010000
00001000
00000010
00000000
00001000
00010000
00100000
00000000
,
00011000
00011000
00000000
00000000
00000100
00010000
01000000
00000000
,
00100000
00001000
00000100
00000000
00000010
00010000
01000000
00000000
,
00010000
00001000
01000000
00000000
00001000
00010000
00000100
00000000
00010000
00001000
01000000
00000000
00001000
00010000
00000100
00000000
,
00001000
00000000
00000001
00000100
00000000
00000010
00001000
00000000
00000100
00000000
00010000
00001000
01000000
00000000
00100000
00000000
,
10000000
00000000
01000000
00100000
00000000
00010000
00100000
00000000
00001000
00100000
00000000
00001000
00010000
00000000
00100000
00000000
,
00010000
00000000
00001000
00000100
00000000
00000010
00000100
00000000
00000001
00000000
00001000
00000100
00010000
00000000
00001000
00000000
,
00100000
00000000
01000000
00100000
00000000
10000000
00100000
00000000
00010000
00100000
00000000
00001000
00100000
00000000
00010000
00000000
,
01000000
00000000
00001000
00010000
00000000
00000010
00001000
00000000
00000001
00000000
00000010
00000100
00001000
00000000
00000001
00000000
,
00000100
00000000
00010000
00000100
00000000
00001000
00000100
00000000
00000001
00000100
00000000
00000010
00001000
00000000
00010000
00000000
,
01000000
00000000
00100000
10000000
00000000
00010000
00100000
00000000
01000000
00000000
00010000
00001000
00010000
00000000
00000100
00000000
,
00001000
00000000
00000001
00000100
00000000
00001000
00000100
00000000
00000010
00010000
00000010
00010000
00001000
00000000
00100000
00010000
,
20000000
00000000
00000000
00000000
,
00000000
00000000
00000000
00000000
,
00000000
00000000
00000000
00000000
,
00000000
00000000
30000000
00000000
;
