#VERSION:0.83;
#TITLE:It's my Miracle;
#SUBTITLE:;
#ARTIST:Another Infinity feat. Mayumi Morinaga;
#TITLETRANSLIT:;
#SUBTITLETRANSLIT:;
#ARTISTTRANSLIT:;
#GENRE:;
#CREDIT:;
#MUSIC:It's my Miracle.ogg;
#BANNER:It's my Miracle.png;
#BACKGROUND:It's my Miracle-bg.png;
#CDTITLE:./CDTitles/REFLEC BEAT colette.png;
#SAMPLESTART:34.893;
#SAMPLELENGTH:13.686;
#SELECTABLE:YES;
#OFFSET:0.736;
#BPMS:0.000=175.000;
#STOPS:;
#TIMESIGNATURES:0.000=4=4;
#BGCHANGES:0.000=../BGAs/10di.mp4=1.000=0=0=0=StretchNoLoop====,
99999.000=-nosongbg-=1.000=0=0=0=StretchNoLoop====
;
#FGCHANGES:;

//--------------- dance-single - forcednature ----------------
#NOTEDATA:;
#STEPSTYPE:dance-single;
#DESCRIPTION:forcednature;
#DIFFICULTY:Beginner;
#METER:2;
#RADARVALUES:0,0,0,0,0;
#CREDIT:forcednature;
#NOTES:
0000
0000
0000
0000
,
0000
0000
0000
0000
,
0000
0000
0000
0000
,
0000
0000
0000
0000
,
0000
0000
0000
0000
,
0000
0000
0000
0000
,
1000
0000
0000
0000
,
0001
0000
0000
0000
,
0100
0000
0000
0000
,
0010
0000
0000
0000
,
1000
0000
0000
0000
,
0000
0000
0000
0000
,
0100
0000
0000
0000
,
0000
0000
0000
0000
,
0010
0000
0000
0000
,
0000
0000
0000
0000
,
0001
0000
0000
0000
,
0000
0000
0000
0000
,
1001
0000
0000
0000
,
1000
0000
0000
0000
,
0010
0000
0000
0000
,
0100
0000
0000
0000
,
0001
0000
0000
0000
,
0010
0000
0000
0000
,
0001
0000
0000
0000
,
0100
0000
0000
0000
,
1001
0000
0000
0000
,
1000
0000
0000
0000
,
0010
0000
0000
0000
,
0100
0000
0000
0000
,
0001
0000
0000
0000
,
0010
0000
0000
0000
,
0100
0000
0000
0000
,
1000
0000
0000
0000
,
1001
0000
0000
0000
,
0001
0000
0000
0000
,
0100
0000
0000
0000
,
0001
0000
0000
0000
,
0110
0000
0000
0000
,
1001
0000
0000
0000
,
1000
0000
1000
0000
,
0001
0000
0001
0000
,
0100
0000
0000
0000
,
0000
0000
0000
0000
,
0010
0000
0000
0000
,
0000
0000
0000
0000
,
1000
0000
0000
0000
,
0000
0000
0000
0000
,
0001
0000
0000
0000
,
0010
0000
0000
0000
,
0100
0000
0000
0000
,
0000
0000
0000
0000
,
1000
0000
0000
0000
,
0001
0000
0000
0000
,
1001
0000
0000
0000
,
0000
0000
0000
0000
,
0110
0000
0000
0000
,
1001
0000
0000
0000
,
1000
0000
0001
0000
,
0010
0000
0010
0000
,
0000
0000
0000
0000
,
1001
0000
0000
0000
,
1000
0000
0000
0000
,
0001
0000
0000
0000
,
0100
0000
0000
0000
,
0010
0000
0000
0000
,
1000
0000
0000
0000
,
0001
0000
0000
0000
,
0010
0000
0000
0000
,
0100
0000
1000
0000
,
0100
0000
0000
0000
,
1000
0000
0010
0000
,
1000
0000
0000
0000
,
0001
0000
0010
0000
,
0001
0000
0000
0000
,
0100
0000
0001
0000
,
0100
0000
0000
0000
,
1001
0000
0000
0000
;

//--------------- dance-single - forcednature ----------------
#NOTEDATA:;
#STEPSTYPE:dance-single;
#DESCRIPTION:forcednature;
#DIFFICULTY:Easy;
#METER:6;
#RADARVALUES:0,0,0,0,0;
#CREDIT:forcednature;
#NOTES:
0000
0000
0000
0000
,
0000
0000
0000
0000
,
0000
0000
0000
0000
,
0000
0000
0000
0000
,
0000
0000
0000
0000
,
0000
0000
0000
0000
,
1000
0100
1000
0000
,
0001
0100
0001
0000
,
0010
0100
0010
0100
,
1000
0000
0000
0000
,
1001
0000
0001
0100
,
0000
0001
0020
0030
,
0100
0000
1000
0010
,
0000
1000
0002
0003
,
0010
0000
0100
1000
,
0000
0001
0200
0300
,
0010
0000
1000
0100
,
0000
0010
0002
0003
,
0001
0000
1000
0001
,
0100
0001
1000
0010
,
1000
0000
0001
0010
,
0100
1000
0100
0010
,
0001
0000
0100
0001
,
0100
0010
1000
0010
,
0100
0000
0001
1000
,
0200
0000
0000
0300
,
0100
1001
0010
1001
,
0000
1000
0002
0003
,
1000
0110
0001
0110
,
0000
0001
2000
3000
,
0010
1001
0100
1001
,
0000
0001
0020
0030
,
0001
0110
1000
0110
,
0000
0001
2000
3000
,
1000
0000
0001
0000
,
0010
0000
0001
0000
,
1000
0000
0100
0000
,
1000
0000
0010
0000
,
1001
0000
0001
0010
,
1001
0000
1000
0010
,
1000
1000
0100
0100
,
0010
0001
0100
0001
,
1000
0000
0100
1000
,
0000
0010
2000
3000
,
0001
0000
0100
0001
,
0000
0010
0001
0000
,
0100
0000
0010
1000
,
0000
0001
0020
0030
,
0100
0000
0010
0001
,
0000
1000
0020
0030
,
0110
0000
0001
0000
,
1000
0000
0100
0000
,
1000
0000
0001
0000
,
0010
0000
0001
1000
,
0001
0000
0100
0000
,
0010
0000
1000
0001
,
1000
0000
0100
0010
,
0001
0000
0100
0010
,
1001
0000
0110
0000
,
0001
0001
1000
1000
,
0000
0100
0020
0030
,
1001
0000
1000
0001
,
0100
0010
1000
0001
,
0010
0000
0100
1000
,
0001
0100
0010
1000
,
0001
0000
0010
0100
,
0010
0001
1000
0010
,
0100
0000
0001
1000
,
0200
0000
0000
0300
,
0010
1001
0100
1001
,
0000
1000
0020
0030
,
1000
0110
0001
0110
,
0000
0001
0020
0030
,
0100
1001
0010
1001
,
0000
0001
0200
0300
,
0001
0110
1000
0110
,
0000
0001
0010
0100
,
1000
0000
0000
0000
;

//--------------- dance-single - forcednature ----------------
#NOTEDATA:;
#STEPSTYPE:dance-single;
#DESCRIPTION:forcednature;
#DIFFICULTY:Medium;
#METER:10;
#RADARVALUES:0,0,0,0,0;
#CREDIT:forcednature;
#NOTES:
0000
0000
0000
0000
,
0000
0000
0000
0000
,
0000
0000
0000
0000
,
0000
0000
0000
0000
,
0000
0000
0000
0000
,
0000
0000
0000
0000
,
1001
0001
0100
0001
,
1000
0010
1000
0001
,
0010
0010
0100
0100
,
2000
0000
0000
3001
,
1000
0000
0010
0000
0100
0000
0100
0001
,
0000
1000
0010
0000
0100
0001
0000
0000
,
0001
0000
0010
0000
0100
0000
0100
1000
,
0000
0001
0010
0000
0100
0000
0000
0000
,
1000
0000
0001
0000
0100
0000
0100
0010
,
0000
1000
0001
0000
0001
0010
0000
0000
,
0001
0000
1000
0000
0010
0000
0010
0100
,
0000
0001
1000
0001
1000
0100
0010
0000
,
0001
0100
0010
1000
,
0001
0000
0010
0000
0001
0000
0100
0010
,
1000
0001
0010
0001
,
0100
0000
0010
0000
1000
0000
0001
0010
,
0100
0010
0001
1000
,
0010
0000
0100
0000
0001
0000
1000
0100
,
0010
0100
1000
0001
,
0200
1000
0010
0301
,
0110
0000
1001
0000
1000
0000
0100
0010
,
0000
0001
0010
0000
0100
1000
0000
0000
,
1010
0000
0101
0000
0001
0000
0010
0001
,
0000
1000
0010
0000
0100
0000
0000
0000
,
0101
0000
1100
0000
0001
0000
0010
0100
,
0000
1000
0001
0000
0100
0010
0000
0000
,
1010
0000
0011
0000
1000
0000
0010
0100
,
0000
0001
1000
0001
0010
0100
0010
0000
,
1001
1000
0100
0100
,
1000
0001
0100
0100
,
0001
1000
0010
0010
,
1000
0001
0010
0010
,
1001
0000
0000
0000
0001
0000
0000
0000
0100
0000
0020
0000
0000
0030
0000
0000
,
1001
0000
0000
0000
1000
0000
0000
0000
0100
0000
0020
0000
0000
0030
0000
0000
,
0001
0100
0001
0000
1000
0100
1000
0000
,
0020
0230
0302
2003
,
3100
0000
0010
0000
0001
0000
0010
0100
,
0000
0010
0001
0000
0010
0100
0000
0000
,
1000
0000
0001
0000
0100
0000
0010
1000
,
0000
0001
0100
0000
0010
0000
0000
0000
,
1000
0000
0100
0000
0010
0000
0100
1000
,
0000
0100
0010
0000
0100
1000
0000
0000
,
0001
0000
0100
0000
0010
0000
1000
0001
,
0000
0010
0100
1000
0001
0100
0010
0000
,
1001
1000
0100
0001
,
0100
1000
0100
0010
,
0001
0100
1000
0100
,
0002
0010
1000
0103
,
0001
0010
0100
1000
,
0010
0100
0001
1000
,
0110
0001
1000
0010
,
0110
1000
0001
0010
,
1001
0100
1001
0010
,
1100
0000
0101
0000
0100
0001
0100
0001
,
0000
0010
0100
1000
0100
0010
0001
0000
,
1001
0000
0000
0000
1000
0000
0000
0000
0010
0000
0000
0100
0000
0000
0001
0000
,
0100
0000
0000
0010
0000
0000
1000
0000
0001
0000
0000
1000
0000
0000
0100
0000
,
0000
0000
0010
0000
0000
0001
0000
0000
0010
0000
0000
0100
0000
0000
1000
0000
,
0001
0000
0000
1000
0000
0000
0010
0000
0100
0000
0001
0000
0100
0000
0001
0000
,
0000
0000
1000
0000
0000
0100
0000
0000
1000
0000
0000
0001
0000
0000
0100
0000
,
0010
0000
0000
1000
0000
0000
0001
0000
0010
0000
0000
0100
0000
0000
0010
0000
,
0000
0000
0001
0000
0000
0100
0000
0000
0010
0000
0000
1000
0000
0000
0001
0000
,
1000
0000
0000
0100
0000
0000
0010
0000
0001
0000
0100
0000
0010
0000
0000
0000
,
1001
0000
0110
0000
1000
0000
0001
0100
,
0000
0010
1000
0000
0001
0010
0000
0000
,
1100
0000
0011
0000
1000
0000
0001
0100
,
0000
0010
1000
0000
0001
0000
0000
0000
,
0011
0000
0101
0000
1000
0000
0010
0100
,
0000
0001
1000
0000
0100
0010
0000
0000
,
0101
0000
1100
0000
0001
0000
1000
0010
,
0000
0100
0001
0100
0010
1000
0010
0000
,
1001
0000
0000
0000
;

//--------------- dance-single - forcednature ----------------
#NOTEDATA:;
#STEPSTYPE:dance-single;
#DESCRIPTION:forcednature;
#DIFFICULTY:Hard;
#METER:13;
#RADARVALUES:0,0,0,0,0;
#CREDIT:forcednature;
#NOTES:
0000
0000
0000
0000
,
0000
0000
0000
0000
,
0000
0000
0000
0000
,
0000
0000
0000
0000
,
0000
0000
0000
0000
,
0000
0000
0000
0000
,
1000
0000
0000
1000
0100
0000
0010
0000
0001
0000
0000
0001
0100
0000
0010
0000
,
1000
0000
0000
1000
0001
0000
0010
0000
0001
0000
0000
0001
1000
0000
0010
0000
,
0100
0001
0010
0001
1000
0010
1000
0100
,
0220
0000
0000
0330
,
1002
0000
0203
0000
0310
1000
0010
1000
,
0000
0001
0010
0100
1000
0010
0000
0000
,
0200
0000
0302
0000
1003
0100
1000
0010
,
0000
0100
0001
0010
0100
0000
0000
0000
,
2000
0000
3002
0000
0103
0001
0100
0010
,
0000
1000
0001
0010
0100
1000
0000
0000
,
0002
0000
0203
0000
0310
1000
0001
0010
,
0000
0100
1000
0010
0100
0001
0010
0000
,
0100
0000
1000
0100
1000
0000
0001
0000
0010
0000
0001
0000
1000
0000
0010
0000
,
0100
0000
0001
0100
0001
0000
0010
0000
0100
0000
1000
0000
0001
0000
0100
0000
,
0010
0000
1000
0010
1000
0000
0001
0000
0010
0000
0001
0000
0100
0000
0010
0000
,
1000
0000
0100
1000
0100
0000
0010
0001
0010
0000
0100
0000
1000
0000
0001
0000
,
0100
0000
0001
0100
0001
0000
1000
0000
0010
0000
0100
0000
0001
0000
0010
0000
,
0100
0000
1000
0100
1000
0000
0010
0000
0100
0000
0001
0000
0010
0000
0001
0000
,
1000
0000
0010
1000
0010
0000
0100
0000
0001
0000
0010
0000
0100
0000
0010
0000
,
0001
0000
0000
0100
0000
0000
0010
0000
0000
0000
1000
0001
0020
0000
0000
0000
,
0130
1000
0000
0000
0001
0010
0000
0000
0100
0000
1000
0000
0010
0000
1000
0000
,
0000
0001
0010
0100
0010
0001
1000
0000
,
0010
1000
0000
0000
0001
0100
0000
0000
0010
0000
1000
0000
0001
0000
0010
0000
,
0000
0100
0010
0001
1000
0000
0110
0000
,
0001
0010
0000
0000
0100
1000
0000
0000
0001
0000
0100
0000
1000
0000
0100
0000
,
0000
0010
1000
0001
0010
0100
0010
0000
,
0001
0100
0000
0000
0010
1000
0000
0000
0100
0000
1000
0000
0010
0000
0100
0000
,
0000
1000
0100
0001
0010
0100
1000
0000
,
1001
0000
0001
0000
0100
0001
0010
0000
,
0100
0000
1000
0000
0010
1000
0001
0000
,
0010
0000
0100
0000
0010
0001
1000
0000
,
0010
0000
0100
0000
0001
1000
0100
0000
,
0110
0000
0000
0010
0001
0000
1000
0000
0010
0000
0200
0000
0000
0300
0000
0000
,
1001
0000
0000
0001
0010
0000
0100
0000
1000
0000
0020
0000
0000
0030
0000
0000
,
0100
0001
0010
0001
1000
0010
1000
0100
,
0010
0010
0001
0001
1000
1000
0010
0000
,
0200
0000
0302
0000
0013
0001
1000
0010
,
0000
0100
0001
1000
0100
0010
0000
0000
,
0100
0000
1000
0000
0001
0100
0010
1000
,
0000
0100
1000
0010
0100
0000
0000
0000
,
0002
0000
2003
0000
3100
1000
0001
0010
,
0000
0100
0010
0001
1000
0010
0000
0000
,
0100
0000
0001
0000
1000
0100
0010
0001
,
0000
0100
0010
1000
0001
0010
0200
0000
,
1300
0000
0010
0000
0100
0001
0000
0000
0010
0000
0000
0100
0000
0000
1000
0000
,
0001
0000
0000
0100
0000
0000
0001
0000
1000
0000
0000
0100
0000
0000
1000
0000
,
0010
0000
0100
0000
0001
0010
0000
0000
0100
0000
0000
1000
0000
0000
0001
0000
,
0100
0000
0000
0001
0000
0000
1000
0000
0010
0000
1000
0000
0100
0000
0001
0000
,
0100
0000
0010
0000
0001
0010
0000
0000
0100
0000
1000
0100
0000
0000
0010
0000
,
0001
0000
0000
0100
0000
0000
0010
0000
1000
0000
0000
0001
0000
0000
0010
0000
,
0100
0000
1000
0000
0010
0100
0000
0000
0001
0000
0010
0100
0000
0000
1000
0000
,
0001
0000
0100
0000
0010
1000
0000
0000
0100
0000
0010
0001
0000
0000
1000
0000
,
0010
0000
0100
0000
0001
1000
0000
0000
0100
0000
0010
0000
0001
1000
0000
0000
,
0010
0001
0010
1000
0100
0100
0010
0010
,
0000
0001
0100
0010
1000
0100
1001
0000
,
0001
0000
0010
0000
0100
1000
0000
0100
0010
0000
0000
0010
0001
0000
1000
0000
,
0010
0000
0000
0010
0100
0000
0001
0000
1000
0000
0000
1000
0100
0000
0010
0000
,
0001
0000
0100
0000
0010
1000
0000
0001
0010
0000
0000
0010
0100
0000
1000
0000
,
0001
0000
0000
0001
0100
0000
0010
0000
1000
0000
0100
0000
0001
0000
0100
0000
,
0010
0000
0001
0000
1000
0010
0000
0100
0001
0000
0000
0001
0010
0000
0100
0000
,
1000
0000
0000
1000
0001
0000
0100
0000
0010
0000
0000
0010
1000
0000
0001
0000
,
0010
0000
0100
0000
1000
0001
0000
1000
0010
0000
0000
0010
0100
0000
0001
0000
,
0010
0000
0000
0100
0000
0000
1000
0000
0001
0000
0100
0000
1001
0000
0000
0000
,
1000
0010
1000
0000
0001
0100
0001
0000
1000
0000
0100
0000
0010
0000
0001
0000
,
0100
0010
1000
0001
0010
0001
1000
0000
,
0001
0010
0001
0000
1000
0100
1000
0000
0010
0000
0100
0000
0001
0000
1000
0000
,
0100
1000
0001
0100
0001
0010
0100
0000
,
1000
0100
1000
0000
0001
0100
0001
0000
0010
0000
0100
0000
0010
0000
0001
0000
,
1000
0010
1000
0001
0010
0100
1000
0000
,
0001
0010
0001
0000
1000
0010
1000
0000
0100
0000
1000
0000
0001
0000
0100
0000
,
0010
0010
1000
1000
0001
0010
1001
0000
,
0110
0000
0000
0000
;

//--------------- dance-double - forcednature ----------------
#NOTEDATA:;
#STEPSTYPE:dance-double;
#DESCRIPTION:forcednature;
#DIFFICULTY:Easy;
#METER:6;
#RADARVALUES:0,0,0,0,0;
#CREDIT:forcednature;
#NOTES:
00000000
00000000
00000000
00000000
,
00000000
00000000
00000000
00000000
,
00000000
00000000
00000000
00000000
,
00000000
00000000
00000000
00000000
,
00000000
00000000
00000000
00000000
,
00000000
00000000
00000000
00000000
,
00011000
00000000
00001000
01000000
,
00001000
00000000
00010000
00000100
,
00010000
00000000
00001000
00100000
,
00002000
00000000
00000000
00003000
,
00010000
00000010
00001000
00000010
,
00000000
00000100
00000001
00000000
,
00001000
00000100
00010000
00000100
,
00000000
00010000
00001000
00000000
,
01000000
00010000
01000000
00100000
,
00000000
10000000
00100000
00000000
,
10000000
01000000
00100000
01000000
,
00000000
00100000
00010000
00000000
,
10010000
00000000
10000000
00000000
,
00100000
00000000
01000000
00010000
,
00100000
00000000
00001000
00000000
,
00010000
00000000
00000010
00001000
,
00000001
00000000
00001000
00000000
,
00000100
00000000
00000010
00000001
,
00001000
00000000
00000100
00000000
,
00020000
00000000
00000000
00031000
,
00010000
00000100
00010000
00001000
,
00010000
00000010
00001000
00000000
,
00000100
00010000
00001000
00100000
,
00001000
00010000
00001000
00000000
,
01000000
00010000
01000000
00100000
,
10000000
00100000
01000000
00000000
,
00010000
00100000
00001000
00010000
,
00000010
00001000
00000010
00000000
,
00001001
00000000
00001000
00000000
,
00000100
00000000
00001000
00000000
,
00000010
00000000
00001000
00000000
,
00000100
00000000
00010000
00000000
,
00011000
00000000
00001000
01000000
,
00010000
00000000
10000000
01000000
,
10000000
10000000
00010000
00010000
,
01000000
00001000
00010000
00001000
,
00100000
00000000
00100000
00010000
,
00000000
00100000
00001000
00000000
,
00010000
00000000
00010000
00000010
,
00000000
00001000
00000010
00000000
,
00000100
00000000
00000100
00000001
,
00000000
00000010
00000001
00000000
,
00001000
00000000
00001000
00000010
,
00000000
00001000
00000100
00000000
,
00011000
00000000
00001000
00000000
,
01000000
00000000
00010000
00000000
,
10000000
00000000
00100000
00000000
,
20020000
00000000
00000000
30030000
,
10000000
00000000
01000000
00000000
,
00100000
00000000
01000000
00000000
,
10010000
00000000
01000000
00000000
,
10010000
00000000
00100000
00000000
,
00011000
00000000
00011000
00000000
,
00010000
00000100
00010000
00000100
,
00000000
00002000
00000000
00003000
,
00000010
00000100
00000001
00000100
,
00000010
00001000
00000001
00000000
,
00000010
00000100
00001000
00000100
,
00010000
00001000
01000000
00010000
,
01000000
00100000
10000000
00010000
,
10000000
01000000
00100000
00000000
,
01000000
10000000
00010000
10000000
,
00200000
00000000
00000000
00300000
,
01000000
10010000
00100000
10010000
,
00000000
00010000
01000000
00000000
,
00001000
00011000
00010000
00011000
,
00000000
00010000
00000100
00000000
,
00000010
00001001
00000100
00001001
,
00000000
00001000
00000010
00000000
,
00010000
00011000
00001000
00011000
,
00000000
01000000
00010000
00100000
,
10010000
00000000
00000000
00000000
;

//--------------- dance-double - forcednature ----------------
#NOTEDATA:;
#STEPSTYPE:dance-double;
#DESCRIPTION:forcednature;
#DIFFICULTY:Medium;
#METER:11;
#RADARVALUES:0,0,0,0,0;
#CREDIT:forcednature;
#NOTES:
00000000
00000000
00000000
00000000
,
00000000
00000000
00000000
00000000
,
00000000
00000000
00000000
00000000
,
00000000
00000000
00000000
00000000
,
00000000
00000000
00000000
00000000
,
00000000
00000000
00000000
00000000
,
00011000
00010000
00001000
01000000
,
00010000
01000000
00100000
10000000
,
00100000
00100000
01000000
01000000
,
00002000
00000000
00000000
00013000
,
00001000
00000000
00000010
00000000
00000100
00000000
00000010
00000100
,
00000000
00001000
00000100
00000000
00000010
00000001
00000000
00000000
,
00000100
00000000
00001000
00000000
00010000
00000000
00001000
00010000
,
00000000
00001000
00100000
00000000
00001000
00000000
00000000
00000000
,
00010000
00000000
00100000
00000000
01000000
00000000
00100000
10000000
,
00000000
00100000
01000000
00000000
00100000
10000000
00000000
00000000
,
01000000
00000000
00010000
00000000
00001000
00000000
00010000
00000100
,
00000000
00001000
00000001
00001000
00000001
00000100
00000010
00000000
,
00001000
00010000
01000000
00010000
,
00100000
00000000
00010000
00000000
10000000
00000000
00100000
10000000
,
00010000
00100000
01000000
00100000
,
00001000
00000000
00010000
00000000
00000010
00000000
00010000
00001000
,
00000010
00000100
00001000
00000100
,
00000010
00000000
00000001
00000000
00000100
00000000
00000001
00000010
,
00000100
00010000
00001000
00010000
,
00200000
01000000
10300000
10010000
,
01100000
00000000
10010000
00000000
10000000
00000000
01000000
00100000
,
00000000
00010000
00100000
00000000
00001000
00010000
00000000
00000000
,
00011000
00000000
00010100
00000000
00000100
00000000
00001000
00000100
,
00000000
00000010
00000001
00000000
00000100
00000000
00000000
00000000
,
00000110
00000000
00001010
00000000
00001000
00000000
00000100
00010000
,
00000000
00001000
00010000
00000000
00000010
00001000
00000000
00000000
,
00001100
00000000
00010100
00000000
00010000
00000000
00001000
01000000
,
00000000
00010000
10000000
00010000
00100000
01000000
00100000
00000000
,
10010000
10000000
01000000
00010000
,
00001000
00001000
00010000
01000000
,
10000000
10000000
01000000
00010000
,
00001000
00000010
00000100
00000010
,
00000110
00000000
00000000
00000000
00000100
00000000
00000000
00000000
00010000
00000000
00002000
00000000
00000000
00003000
00000000
00000000
,
00011000
00000000
00000000
00000000
00001000
00000000
00000000
00000000
01000000
00000000
00200000
00000000
00000000
00300000
00000000
00000000
,
10000000
01000000
10000000
00000000
00010000
01000000
00010000
00000000
,
00200000
00302000
00023000
00030020
,
00000130
00000000
00000001
00000000
00000010
00000000
00000001
00000100
,
00000000
00000001
00000010
00000000
00000001
00000100
00000000
00000000
,
00001000
00000000
00010000
00000000
00001000
00000000
01000000
00010000
,
00000000
00100000
00010000
00000000
10000000
00000000
00000000
00000000
,
00100000
00000000
10000000
00000000
01000000
00000000
10000000
00100000
,
00000000
10000000
01000000
00000000
10000000
00100000
00000000
00000000
,
01000000
00000000
00001000
00000000
00010000
00000000
00000100
00001000
,
00000000
00000010
00000100
00000001
00000010
00000100
00010000
00000000
,
00011000
00001000
01000000
00010000
,
01000000
00001000
01000000
00010000
,
00100000
00001000
00010000
00000100
,
00000020
00001000
00000100
00000031
,
00000110
00000100
00010000
00001000
,
01000000
00010000
01000000
00100000
,
01100000
01000000
00001000
00010000
,
00011000
00001000
00010000
00000100
,
00001001
00000010
00011000
00100000
,
01010000
00000000
11000000
00000000
00010000
10000000
00010000
10000000
,
00000000
01000000
00100000
00001000
00010000
00000100
00000010
00000000
,
00001001
00000000
00000000
00000000
00001000
00000000
00000000
00000000
00000100
00000000
00000000
00010000
00000000
00000000
00001000
00000000
,
00100000
00000000
00000000
00001000
00000000
00000000
00010000
00000000
00000010
00000000
00000000
00010000
00000000
00000000
00001000
00000000
,
00000000
00000000
01000000
00000000
00000000
00010000
00000000
00000000
01000000
00000000
00000000
00100000
00000000
00000000
10000000
00000000
,
00010000
00000000
00000000
10000000
00000000
00000000
01000000
00000000
00010000
00000000
00001000
00000000
00010000
00000000
00001000
00000000
,
00000000
00000000
00010000
00000000
00000000
00000100
00000000
00000000
00010000
00000000
00000000
00001000
00000000
00000000
00000010
00000000
,
00000100
00000000
00000000
00001000
00000000
00000000
00000001
00000000
00000100
00000000
00000000
00000010
00000000
00000000
00001000
00000000
,
00000000
00000000
00010000
00000000
00000000
01000000
00000000
00000000
00010000
00000000
00000000
10000000
00000000
00000000
00100000
00000000
,
10000000
00000000
00000000
01000000
00000000
00000000
00010000
00000000
00001000
00000000
00010000
00000000
00001000
00000000
00000000
00000000
,
00011000
00000000
00010100
00000000
00000100
00000000
00001000
00000010
,
00000000
00001000
00000100
00000000
00010000
00001000
00000000
00000000
,
01001000
00000000
01010000
00000000
00010000
00000000
10000000
01000000
,
00000000
00100000
01000000
00000000
10000000
00000000
00000000
00000000
,
10100000
00000000
11000000
00000000
01000000
00000000
00010000
00001000
,
00000000
00010000
00000100
00000000
00001000
00000100
00000000
00000000
,
00000110
00000000
00000011
00000000
00000010
00000000
00000001
00000100
,
00000000
00001000
00010000
00100000
10000000
00010000
01000000
00000000
,
10010000
00000000
00000000
00000000
;

//--------------- dance-double - forcednature ----------------
#NOTEDATA:;
#STEPSTYPE:dance-double;
#DESCRIPTION:forcednature;
#DIFFICULTY:Hard;
#METER:14;
#RADARVALUES:0,0,0,0,0;
#CREDIT:forcednature;
#NOTES:
00000000
00000000
00000000
00000000
,
00000000
00000000
00000000
00000000
,
00000000
00000000
00000000
00000000
,
00000000
00000000
00000000
00000000
,
00000000
00000000
00000000
00000000
,
00000000
00000000
00000000
00000000
,
00001000
00000000
00000000
00001000
01000000
00000000
00001000
00000000
00010000
00000000
00000000
00010000
00000100
00000000
00010000
00000000
,
00001000
00000000
00000000
00001000
00100000
00000000
00001000
00000000
00010000
00000000
00000000
00010000
00000010
00000000
00010000
00000000
,
00001000
00100000
01000000
00100000
00010000
01000000
10000000
01000000
,
02200000
00000000
00000000
03300000
,
20010000
00000000
32000000
00000000
03100000
00010000
00100000
00010000
,
00000000
00001000
00000100
00001000
00000010
00010000
00000000
00000000
,
00002000
00000000
00003020
00000000
00000031
00000010
00000001
00000100
,
00000000
00001000
00010000
00100000
01000000
00000000
00000000
00000000
,
00020000
00000000
00230000
00000000
00301000
00010000
00001000
01000000
,
00000000
00100000
00010000
00100000
10000000
00010000
00000000
00000000
,
00200000
00000000
02300000
00000000
03100000
00001000
00010000
00000010
,
00000000
00000100
00001000
00000100
00000001
00000010
00000001
00000000
,
00000100
00000000
00000001
00000100
00000001
00000000
00001000
00000000
00000100
00000000
00001000
00000000
00000010
00000000
00010000
00000000
,
00001000
00000000
01000000
00001000
01000000
00000000
00010000
00000000
10000000
00000000
01000000
00000000
00100000
00000000
01000000
00000000
,
10000000
00000000
00100000
10000000
00100000
00000000
01000000
00000000
00010000
00000000
01000000
00000000
00001000
00000000
00010000
00000000
,
00000100
00000000
00001000
00000100
00001000
00000000
00000100
00000010
00000100
00000000
00000010
00000000
00000001
00000000
00001000
00000000
,
00000001
00000000
00000100
00000001
00000100
00000000
00000010
00000000
00001000
00000000
00000010
00000000
00010000
00000000
00001000
00000000
,
00100000
00000000
00010000
00100000
00010000
00000000
10000000
00000000
00100000
00000000
01000000
00000000
00010000
00000000
01000000
00000000
,
00001000
00000000
00010000
00001000
00010000
00000000
00000100
00000000
00001000
00000000
00000100
00000000
00000010
00000000
00000001
00000000
,
00001000
00000000
00000000
00000010
00000000
00000000
00001000
00000000
00000000
00000000
00000100
00010000
00002000
00000000
00000000
00000000
,
01003000
00010000
00000000
00000000
10000000
00100000
00000000
00000000
10000000
00000000
01000000
00000000
00010000
00000000
00001000
00000000
,
00000000
00100000
00010000
01000000
00001000
00010000
00000010
00000000
,
00000100
00000001
00000000
00000000
00001000
00000010
00000000
00000000
00000100
00000000
00001000
00000000
00010000
00000000
00100000
00000000
,
00000000
01000000
00010000
10000000
01000000
00000000
01100000
00000000
,
00100000
00010000
00000000
00000000
01000000
00001000
00000000
00000000
00010000
00000000
00000100
00000000
00001000
00000000
00000010
00000000
,
00000000
00000100
00001000
00000100
00000001
00000010
00000001
00000000
,
00000100
00000010
00000000
00000000
00001000
00000100
00000000
00000000
00010000
00000000
00001000
00000000
01000000
00000000
00010000
00000000
,
00000000
00100000
10000000
00100000
00010000
01000000
00010000
00000000
,
10010000
00000000
10000000
00000000
01000000
00010000
00001000
00000000
,
00000100
00000000
00000001
00000000
00000100
00001000
00010000
00000000
,
01000000
00000000
10000000
00000000
01000000
00010000
00001000
00000000
,
00000100
00000000
00000001
00000000
00000100
00001000
00010000
00000000
,
00011000
00000000
00000000
00001000
00010000
00000000
00001000
00000000
01000000
00000000
00020000
00000000
00000000
00030000
00000000
00000000
,
10010000
00000000
00000000
10000000
01000000
00000000
00010000
00000000
00001000
00000000
00200000
00000000
00000000
00300000
00000000
00000000
,
00001000
00010000
00100000
00010000
00001000
00000010
00000100
00000010
,
00000001
00000001
00000100
00000100
00001000
00001000
00010000
00010000
,
00200000
00000000
20300000
00000000
30010000
10000000
01000000
10000000
,
00000000
00100000
00010000
00001000
00000100
00001000
00000000
00000000
,
00010000
00000000
00000100
00000000
00001000
00000010
00000001
00000010
,
00000000
00000100
00000001
00001000
00000100
00000000
00000000
00000000
,
00020000
00000000
00032000
00000000
01003000
00010000
10000000
00100000
,
00000000
10000000
01000000
00010000
00001000
00010000
00000000
00000000
,
00000010
00000000
00001000
00000000
00000100
00010000
00001000
00100000
,
00000000
01000000
00010000
00001000
00000010
00001000
00020000
00000000
,
00030100
00000000
00001000
00000000
00000100
00000010
00000000
00000000
00000001
00000000
00000000
00000100
00000000
00000000
00001000
00000000
,
00010000
00000000
00000000
01000000
00000000
00000000
10000000
00000000
00100000
00000000
00000000
10000000
00000000
00000000
00100000
00000000
,
01000000
00000000
00010000
00000000
01000000
00001000
00000000
00000000
00010000
00000000
00000000
00000100
00000000
00000000
00010000
00000000
,
00001000
00000000
00000000
00000100
00000000
00000000
00000001
00000000
00000010
00000000
00000100
00000000
00010000
00000000
00001000
00000000
,
00100000
00000000
01000000
00000000
00100000
00010000
00000000
00000000
01000000
00000000
00010000
01000000
00000000
00000000
00100000
00000000
,
10000000
00000000
00000000
01000000
00000000
00000000
00010000
00000000
00001000
00000000
00000000
00000100
00000000
00000000
00000001
00000000
,
00000010
00000000
00000100
00000000
00001000
00000100
00000000
00000000
00010000
00000000
00001000
00010000
00000000
00000000
00100000
00000000
,
01000000
00000000
00100000
00000000
10000000
00010000
00000000
00000000
00100000
00000000
00010000
10000000
00000000
00000000
00100000
00000000
,
01000000
00000000
00001000
00000000
00010000
00000010
00000000
00000000
00000010
00000000
00010000
00000000
00001000
00100000
00000000
00000000
,
00100000
01000000
10000000
01000000
00010000
00010000
00001000
00001000
,
00000000
00000010
00000100
00010000
00000010
00000100
00001001
00000000
,
00001000
00000000
00000100
00000000
00010000
00001000
00000000
01000000
00001000
00000000
00000000
00001000
00100000
00000000
00010000
00000000
,
10000000
00000000
00000000
10000000
00100000
00000000
01000000
00000000
00010000
00000000
00000000
00010000
00100000
00000000
00001000
00000000
,
00010000
00000000
00000010
00000000
00001000
00000100
00000000
00000010
00000100
00000000
00000000
00000100
00001000
00000000
00000001
00000000
,
00000100
00000000
00000000
00000100
00000010
00000000
00001000
00000000
00010000
00000000
01000000
00000000
00010000
00000000
00100000
00000000
,
01000000
00000000
10000000
00000000
00100000
10000000
00000000
00010000
10000000
00000000
00000000
10000000
01000000
00000000
00010000
00000000
,
00001000
00000000
00000000
00001000
00100000
00000000
00010000
00000000
01000000
00000000
00000000
01000000
00001000
00000000
00010000
00000000
,
00000100
00000000
00001000
00000000
00000010
00010000
00000000
00001000
00010000
00000000
00000000
00010000
00000100
00000000
00001000
00000000
,
00000010
00000000
00000000
00000100
00000000
00000000
00000001
00000000
00000010
00000000
00000100
00000000
00001001
00000000
00000000
00000000
,
00001000
00000100
00001000
00000000
00000100
00010000
00000100
00000000
00001000
00000000
00000010
00000000
00000100
00000000
00001000
00000000
,
00010000
01000000
00100000
00001000
00010000
00100000
10000000
00000000
,
01000000
00100000
01000000
00000000
00100000
00010000
00100000
00000000
01000000
00000000
00010000
00000000
00001000
00000000
00000100
00000000
,
00000010
00001000
00000010
00010000
00001000
00100000
01000000
00000000
,
10000000
00100000
10000000
00000000
00010000
00100000
00010000
00000000
01000000
00000000
10000000
00000000
01000000
00000000
00010000
00000000
,
00100000
00001000
00000100
00001000
00010000
00000010
00001000
00000000
,
00000100
00000010
00000100
00000000
00000010
00000001
00000010
00000000
00000001
00000000
00000100
00000000
00001000
00000000
00010000
00000000
,
01000000
01000000
10000000
10000000
00100000
01000000
10010000
00000000
,
00011000
00000000
00000000
00000000
;
