#VERSION:0.83;
#TITLE:色を喪った街;
#SUBTITLE:;
#ARTIST:かめりあ feat. かめりあ;
#TITLETRANSLIT:Iro wo ushinatta machi;
#SUBTITLETRANSLIT:;
#ARTISTTRANSLIT:Camellia feat. Camellia;
#GENRE:;
#CREDIT:;
#MUSIC:Iro wo ushinatta machi.ogg;
#BANNER:Iro wo ushinatta machi.png;
#BACKGROUND:Iro wo ushinatta machi-bg.png;
#CDTITLE:./CDTitles/SDVX VIVID WAVE.png;
#SAMPLESTART:78.057;
#SAMPLELENGTH:15.000;
#SELECTABLE:YES;
#OFFSET:0.000;
#BPMS:0.000=166.000
,75.000=83.000
,76.500=166.000
,101.000=83.000
,103.000=166.000
;
#STOPS:46.000=0.361
,76.500=0.181
;
#TIMESIGNATURES:0.000=4=4,
44.000=3=4,
47.000=4=4,
75.000=2=4,
77.000=4=4,
101.000=2=4,
103.000=4=4
;
#DISPLAYBPM:166.000;
#BGCHANGES:0.000=../BGAs/28bk.mp4=1.000=0=0=0=StretchNoLoop====,
99999.000=-nosongbg-=1.000=0=0=0=StretchNoLoop====
;
#FGCHANGES:;

//--------------- dance-single - forcednature ----------------
#NOTEDATA:;
#STEPSTYPE:dance-single;
#DESCRIPTION:forcednature;
#DIFFICULTY:Beginner;
#METER:5;
#RADARVALUES:0,0,0,0,0;
#CREDIT:forcednature;
#NOTES:
0000
0000
0000
0000
,
0000
0000
0000
0000
,
0000
0000
0000
0000
,
0000
0000
0000
0000
,
0000
0000
0000
0000
,
0000
0000
0000
0000
,
0001
0000
0000
0000
,
0100
0000
0000
0000
,
0010
0000
0000
0000
,
1000
0000
0000
0000
,
0001
0000
0001
0000
,
0010
0000
0000
0200
,
0000
0000
0000
0300
,
0000
0000
0000
0020
,
0000
0000
0000
0030
,
0000
0000
0000
0001
,
0000
0000
0000
1000
,
0000
0000
0000
0010
,
0000
0010
0000
0010
,
0000
0110
0000
0000
,
0000
0001
0000
0000
,
0000
1000
0000
0100
,
0000
1000
0000
1000
,
0000
0010
0000
0000
,
0000
0100
0000
0000
,
0000
0001
0001
1000
,
0000
0000
0000
0010
,
0000
0010
0000
0100
,
0000
0010
0000
1000
,
0000
0001
0000
1000
,
0000
0000
0000
0100
,
0000
0100
0000
0010
,
0000
0100
0000
1000
,
0000
0001
0000
0001
,
0000
0000
0000
0110
,
0000
0000
0000
1001
,
0000
0000
0000
0010
,
0000
0010
0000
0010
,
0000
0000
0000
0110
,
0000
0000
0000
1001
,
0000
0000
0000
0100
,
0000
0100
0000
0100
,
0000
0000
0000
0110
,
0000
1000
0000
0001
,
0000
1000
0000
0100
,
0100
0100
0000
0010
,
0000
0010
0000
1001
,
0000
0000
0000
0110
,
0000
0000
0000
0000
,
0001
0001
0001
0000
,
1000
1000
1000
0000
,
0010
0010
0000
0100
,
0100
0000
0000
1001
,
0000
1000
0000
0100
,
0000
1000
0000
0010
,
1000
0010
0000
0100
,
0000
1001
0000
0001
,
0000
0010
0000
0001
,
0000
0100
0000
0001
,
1000
0001
0000
0010
,
0000
0110
0000
0000
,
0100
0100
0000
1000
,
0000
0010
0000
0100
,
0100
0100
0000
0001
,
0000
1000
0000
0100
,
0000
1000
1000
1000
,
0000
0010
0000
0100
,
0100
0000
0000
0001
,
0001
0000
0000
0010
,
0010
0000
0000
0110
,
0000
0000
0000
2002
,
0000
3003
0000
1000
,
0000
1000
0000
0010
,
0000
0100
0000
0001
,
1000
0001
0000
0001
,
1000
0001
0000
0010
,
0000
0100
0100
1000
,
0000
0010
0000
0100
,
0000
0001
1000
0001
,
0000
0010
0000
0110
,
0000
0000
0000
1000
,
1000
0001
0001
1001
;

//--------------- dance-single - forcednature ----------------
#NOTEDATA:;
#STEPSTYPE:dance-single;
#DESCRIPTION:forcednature;
#DIFFICULTY:Easy;
#METER:9;
#RADARVALUES:0,0,0,0,0;
#CREDIT:forcednature;
#NOTES:
0000
0000
0000
0000
,
0000
0000
0000
0000
,
0000
0000
0000
0000
,
0000
0000
0000
0000
,
0000
0000
0000
0000
,
0000
0000
0000
0000
,
1000
1000
0100
1000
,
0001
0001
0200
0300
,
0010
0000
0000
0010
0000
0000
0010
0000
0000
0000
0000
0000
0000
0000
0000
0000
,
1000
0000
0000
1000
0000
0000
1000
0000
0000
0000
0000
0000
0000
0000
0000
0000
,
0001
0000
0000
0001
0000
0000
0001
0000
0000
0000
0000
0000
0010
0000
0000
0000
,
0110
0000
0000
1001
0000
0000
2200
0000
,
0000
0000
0000
0000
3300
0000
0001
0010
,
0000
0000
0000
0202
,
0000
0000
0000
0000
0303
0000
1000
0010
,
0000
0000
0000
1000
,
1000
0100
1000
0001
,
0001
0100
0001
0010
,
0100
0000
0010
0100
0010
0000
0200
0000
,
0300
1000
1001
0001
,
1001
1000
0010
0100
,
0001
0010
0110
0100
,
0110
0001
1000
0010
,
0100
0001
1001
0100
,
1001
1000
0010
0100
,
0001
0000
0000
0000
0020
0000
0030
0000
0100
0100
0100
0000
1000
0000
0000
0000
,
1000
0001
0001
0110
,
0000
0000
0001
0000
1000
0000
0010
0100
,
0010
0000
1000
0000
0001
0000
0010
0010
,
0000
0000
0100
0000
1000
0000
0001
0010
,
0001
1000
0000
0010
,
0100
0000
0001
0000
1000
0000
0001
0100
,
0001
1000
0010
1000
,
0100
0000
0010
0000
0001
0000
1000
0010
,
1000
0002
0003
0020
,
0000
0000
0030
0200
,
0000
0000
0300
1000
,
1000
0000
0001
0001
0001
0000
1000
0000
,
1000
0000
0001
0001
0001
0000
0200
0000
,
0000
0000
0300
0020
,
0000
0000
0030
0001
,
0001
0000
1000
1000
1000
0000
0001
0000
,
0001
0000
1000
1000
1000
0000
0010
0000
,
0100
0001
0100
0010
,
1000
0001
1000
0100
,
0110
0010
0110
1000
,
1001
0001
1001
1000
,
1000
0010
1001
0001
,
0001
0000
0000
0000
0010
0000
0000
0000
1001
0000
0000
0000
0000
1000
0000
0000
,
1000
0000
0000
1000
0000
0000
1000
0000
0000
1000
0000
0000
0000
0001
0000
0000
,
0001
0000
0000
0001
0000
0000
0001
0000
0000
0001
0000
0000
0000
0100
0000
0000
,
0100
0000
0000
0010
0000
0000
0010
0000
0000
0100
0000
0000
0001
0000
0000
0001
,
0000
0002
0000
0000
1003
0000
1001
0000
,
0010
0000
0110
0000
0001
0000
1000
0100
,
1000
0001
0010
1001
,
0100
0000
0110
0000
0010
0000
1000
0001
,
1000
0020
0030
0101
,
1000
0000
1100
0000
0001
0000
0010
0100
,
0010
0001
1000
1010
,
0100
0000
0011
0000
0100
0000
0001
1000
,
0001
2000
3010
1001
,
0000
0000
1000
0000
0100
0010
0100
0000
,
1000
0000
0001
0000
0100
0010
0100
0000
,
0001
1000
0010
0110
,
1001
0110
0000
0001
,
0010
0000
0100
0010
0100
0000
1000
0000
,
0010
0000
0000
0000
0100
0000
0010
0000
0100
0000
0000
0000
0001
0000
0000
0001
,
0000
0000
0002
0000
0000
0000
0003
0000
0000
0000
0000
0000
1000
0000
0000
1000
,
0000
0000
2000
0000
0000
0000
3000
0000
0000
0000
0000
0000
0010
0000
0000
0010
,
0000
0200
0000
0300
0110
0000
2002
0000
,
0000
0000
0000
0000
0000
0000
0000
0000
3003
0000
0000
0000
0010
0000
0000
0100
,
0000
0220
0000
0000
0330
0000
1000
0000
,
0001
0000
0010
0000
0001
0000
1000
0100
,
1000
0000
0001
0010
0001
0000
1000
0000
,
0010
0000
0100
0000
0010
0000
1000
0100
,
1000
0000
0001
0100
0001
0000
0010
0000
,
0100
0000
1000
0000
0100
0000
0010
0001
,
0010
0000
0001
1000
0001
0000
0110
0000
,
1000
0000
0001
0000
0010
0000
0100
0100
,
0100
1000
0001
2002
,
0000
0000
0000
0000
3003
0000
0010
0010
,
0010
0000
0100
0100
0100
0000
0220
0000
,
0000
0330
0000
0000
;

//--------------- dance-single - forcednature ----------------
#NOTEDATA:;
#STEPSTYPE:dance-single;
#DESCRIPTION:forcednature;
#DIFFICULTY:Medium;
#METER:13;
#RADARVALUES:0,0,0,0,0;
#CREDIT:forcednature;
#NOTES:
0000
0000
0000
0000
,
0000
0000
0000
0000
,
0000
0000
0000
0000
,
0000
0000
0000
0000
,
0000
0000
0000
0000
,
0000
0000
0000
0000
,
1100
0000
0001
0010
0100
0000
0010
0000
,
0101
0000
1000
0010
0200
0000
0300
0000
,
0001
0000
0000
0010
0000
0000
0022
0000
0000
0000
0033
0000
0000
0000
0000
0000
,
1000
0000
0000
0100
0000
0000
2200
0000
0000
0000
3300
0000
0000
0000
0000
0000
,
0001
0000
0000
0100
0000
0000
0001
0000
1000
0000
1000
0000
0010
0000
0000
0000
,
0110
0000
0000
0110
0000
0000
1001
0000
0000
0000
0000
0000
2000
0000
0000
0000
,
0100
0000
0001
0000
0010
0000
0100
3100
,
0000
0000
0000
0002
,
0100
0000
1000
0000
0010
0000
0100
0103
,
0000
0000
0000
0000
0001
0000
0000
0001
0000
0000
1000
0000
0100
0000
0010
0000
,
0100
0010
0001
1000
0001
1000
0010
0100
,
0001
0100
0010
1000
0001
0000
1000
1000
,
0100
0100
0010
0010
0001
0001
2000
0000
,
3010
0100
0110
0000
0101
0000
0000
0000
0011
0000
0000
0000
0101
0000
0000
0000
,
0011
0000
0010
0100
1000
0010
0100
0001
,
0010
1100
1010
1100
,
1010
0000
0001
0010
0100
1000
0010
0100
,
0001
1100
0101
1100
,
0101
0000
0000
0000
1000
0000
0010
0000
0100
0000
0000
0001
0000
0000
0101
0000
,
0000
0000
0000
0000
0021
0000
0130
1000
0001
1000
0100
0000
0000
0110
0000
0000
,
0011
0000
0000
1100
0000
0000
0001
0000
0000
1000
0000
0000
0010
0000
0100
0000
,
0001
0100
0010
1000
0001
0000
1000
0100
,
0001
0000
0100
1000
0010
0000
0100
0110
,
0010
0000
1000
0001
0010
0001
1000
0010
,
0001
0000
0000
0000
0010
0000
1000
0000
0100
0000
0000
0000
0010
0001
0000
0010
,
0001
0000
0000
0000
0000
0000
0000
0000
0000
0000
0000
0000
1000
0000
0000
0000
0000
0000
0100
0000
0000
0000
0000
0000
0010
0000
0000
0000
0000
0000
0000
0000
0000
0000
0000
0000
0100
0000
0000
0000
1000
0000
0000
0000
0000
0100
0000
0000
,
0000
1100
0000
0001
0000
0010
0001
0000
2000
0000
0000
0000
3010
0000
0100
0000
,
0001
0000
0000
0000
0000
0000
0100
0000
0000
0000
0000
0000
1000
0000
0000
0000
0000
0000
0100
0000
0000
0000
0000
0000
0001
0000
0000
0000
0000
0000
0000
0000
0000
0000
0000
0000
0010
0000
0000
0000
0100
0000
0000
0000
0000
0010
0000
0000
,
0000
0000
0001
0000
1000
0000
0010
1000
0010
0000
0000
0000
0200
0000
0000
0000
,
0000
0000
0302
0023
,
0000
0000
0130
1000
0001
0000
0100
0100
,
0010
1000
0010
0100
0001
0000
0010
0010
,
0100
0010
0001
1000
0100
0000
0120
0000
,
0000
0000
0032
2003
,
0010
0010
0000
0000
3100
0000
1000
0001
,
0010
0001
1000
0100
1000
0000
0001
0100
,
0001
1000
0010
1000
0001
0000
0010
0001
,
0011
0000
1000
0100
1000
0000
0010
1000
,
1010
0000
0001
0100
0001
0000
1100
0000
,
0001
0000
0000
0010
0000
0000
0011
0000
0000
0000
0000
0000
1100
0000
0000
0000
0000
0000
0001
0000
0100
0000
0010
0000
,
1000
0000
0000
0000
0001
1000
0000
0001
1000
0000
0000
0000
0010
0000
0100
0000
,
0001
0100
0010
1000
0002
0000
0013
0100
,
1000
0000
0100
0000
0010
0000
0001
0000
2000
0000
0000
0000
3000
0010
0000
0000
,
0110
0000
0000
1000
0000
0000
0110
0000
0000
0001
0000
0000
0000
0100
0000
0000
,
1001
0000
0000
0010
0000
0000
1001
0000
0000
0001
0000
0000
0000
1000
0000
0000
,
1100
0000
0000
0001
0000
0000
0101
0000
0000
0010
0000
0000
0100
0000
0000
0110
,
0000
2002
0000
0000
3003
0000
1000
0100
,
0001
0100
1000
0001
0010
0001
1000
0010
,
0001
0010
1000
0001
0100
0010
1000
0100
,
0001
1000
0010
0001
1000
0000
0110
0000
,
1001
0000
0220
0000
0330
0000
0001
0100
,
1000
0100
0001
1000
0010
1000
0001
0010
,
1000
0010
0001
1000
0100
0010
0001
0100
,
1000
0100
0001
1000
0010
0000
0220
0000
,
0330
0000
0000
0000
2002
0000
0000
0000
3003
0000
0000
0000
1000
0000
0000
1000
,
0100
0000
0010
0000
0001
0000
0000
0000
1001
0000
0000
0000
0001
0000
0000
0001
,
0100
0000
0010
0000
2000
0000
0000
0000
3001
0000
0010
0000
0100
0000
0000
0100
,
1000
0001
0100
0000
0010
0000
1010
0000
,
1000
0000
0100
0000
0001
0000
0100
0000
1000
0000
0000
0000
0011
0000
0000
0011
,
0000
0000
0001
0000
1000
0000
0100
0000
1000
0000
0000
0000
1010
0000
0000
1010
,
0000
0000
1000
0000
0001
0000
0100
0000
0001
0000
0000
0000
0011
0000
0000
0110
,
0000
0000
2200
0000
0000
0000
3300
0000
0000
0000
0000
0000
1010
0000
0000
0110
,
0000
0000
0202
0000
0000
0000
0303
0000
0000
0000
0000
0000
1001
0000
0000
1100
,
0000
0220
0000
0330
0000
0000
2002
0000
,
0000
0000
0000
0000
0000
0000
0000
0000
3003
0000
0000
0000
0001
1000
0000
0001
,
1000
0000
0001
1000
0000
0000
0010
0100
0010
0000
0000
0000
1000
0000
0100
0000
,
0001
0000
0100
0000
1000
0000
0010
0000
0001
0000
0010
0000
1000
0001
0000
1000
,
0001
0000
0000
0010
0000
0000
0001
0000
1000
0000
0000
0000
0201
0000
0000
0000
,
1300
0000
0100
0001
0010
0000
1000
0010
,
0001
0000
0100
0000
1000
0000
0100
0000
0001
0000
0000
0000
1000
0001
1000
0001
,
2000
0000
0000
0000
3010
0000
0100
0000
0001
0000
0000
0000
0001
1000
0000
0001
,
0000
1000
0000
0000
0010
0100
0000
0010
0000
0100
0000
0000
1002
0000
0000
0000
,
0013
0100
0001
0100
2000
0000
3001
0001
,
0010
0000
0001
0010
0001
0000
1000
0000
0100
0000
0010
0000
0200
0000
0000
0000
,
0000
0000
0000
0000
0000
0000
1300
1000
,
0010
0000
0010
0000
0100
0001
0000
0100
0001
0000
0010
0000
0200
0000
0000
0000
,
0000
0300
0000
0000
;

//--------------- dance-single - forcednature ----------------
#NOTEDATA:;
#STEPSTYPE:dance-single;
#DESCRIPTION:forcednature;
#DIFFICULTY:Hard;
#METER:17;
#RADARVALUES:0,0,0,0,0;
#CREDIT:forcednature;
#NOTES:
0000
0000
0000
0000
,
0000
0000
0000
0000
,
0000
0000
0000
0000
,
0000
0000
0000
0000
,
0000
0000
0000
0000
,
0000
0000
0000
0000
,
0001
0000
0000
0100
0000
0000
0010
0000
2000
0000
0000
0000
3002
0000
0000
0000
,
1003
0000
0000
0100
0000
0000
0010
0000
0002
0000
0000
0000
0003
0000
1000
0000
,
0010
0000
0000
0100
0000
0000
0002
0000
0000
0000
0003
0000
0000
0000
0001
0000
,
0010
0000
0000
0100
0000
0000
2000
0000
0000
0000
3000
0000
0000
0000
1000
0000
,
0010
0000
0000
0100
0000
0000
0001
1000
0001
0000
0001
0000
0010
0000
0000
0000
,
0100
0010
0000
0100
0010
0000
0100
1000
0000
0000
0000
0000
0022
0000
0000
0000
,
0000
0000
0000
0000
0033
0000
1100
1100
,
0000
0000
0000
0000
0000
0000
0000
0000
1000
0001
1000
0001
2000
0000
0000
0000
,
0000
0000
0000
0000
0000
3000
0101
0101
,
0000
0000
0001
1000
0001
0000
0000
0011
0000
0000
0110
0000
1000
0000
0100
0000
,
1000
0010
0100
0001
0010
0001
0100
0010
,
1000
0000
0001
0000
0010
0000
0100
0000
1000
0000
0001
0000
0100
0001
0100
0001
,
0100
0000
0001
0000
1000
0010
1000
0010
1000
0000
0001
0000
0020
0000
0000
0000
,
0031
1000
0001
1000
0200
0300
0000
0000
0010
0000
0000
0000
0001
0000
0000
0000
1000
0000
0100
0000
1000
0000
0000
0000
0100
0000
0010
0000
0100
0000
0000
0000
,
1000
0100
1000
0000
0001
0000
0010
0000
0001
1000
0000
0010
1000
0000
0001
0100
,
0001
1000
0010
0000
0100
0000
0100
0000
0001
0010
0001
0000
0010
0100
0010
0000
,
0001
0010
0001
0000
1000
0010
0000
0100
0010
0000
0100
0001
1000
0001
0000
0020
,
0000
0000
0130
0000
0010
0001
0000
0100
0001
0000
1000
0010
1000
0000
0001
0010
,
0001
0000
1000
0000
0010
0100
0010
0100
0001
0000
0000
0011
0000
0000
1100
0000
,
2000
0000
0000
0000
0000
0000
0000
0000
3002
0000
0003
0000
0100
0010
0000
0100
0010
0000
1000
0001
1000
0001
1000
0000
0002
0000
0013
0000
0000
0000
0100
0000
,
0010
0000
0100
1000
0000
0001
0010
0000
0001
0100
0001
0000
1000
0000
0010
0000
,
0100
0000
0010
0000
1000
0000
0100
0000
0010
0001
1000
0000
0001
0000
0100
0000
,
0010
0000
0100
0000
0001
0000
0010
0000
0100
1000
0001
0000
0100
0000
0110
0000
,
0001
0000
1000
0000
0100
0000
1000
0000
0001
0010
0100
0010
0001
0000
1000
0000
,
0010
0100
0000
0001
0100
0001
0000
0011
0000
0010
0100
0000
1000
0100
0000
1000
,
0010
0000
0000
0000
0000
0000
0100
0000
0000
0000
0000
0000
0001
0000
0000
1000
0000
0000
0001
0000
0000
1000
0000
0000
0001
0000
0000
0000
0000
0000
0010
0000
0000
0000
0000
0000
0100
0000
0000
0000
1000
0000
0000
0000
0000
0100
0000
0000
,
0000
0110
0000
1001
0000
0001
0100
0001
1000
0000
0010
0000
1000
0100
0000
0010
,
0100
0000
0000
0000
0000
0000
0010
0000
0000
0001
0000
0000
0000
0000
0000
1000
0000
0000
0001
0000
0000
0000
0000
0000
0100
0000
0000
0010
0000
0000
1000
0000
0000
0000
0000
0000
0001
0000
0000
0000
0010
0000
0000
0000
0000
0011
0000
0000
,
0000
0000
0000
0000
0000
0000
1000
0000
0000
0100
0000
0000
1000
0000
0000
0000
0100
0000
0000
0000
0000
0020
0000
0000
0000
0000
0000
0000
0000
0000
0000
0000
0000
0000
0000
0000
0032
0000
0000
0000
0000
0000
1000
0000
0000
0000
0000
0000
,
0000
0000
0100
0000
0010
0000
2003
0001
,
0000
0000
0000
0000
3100
0000
0010
0000
0110
0000
0000
0000
1000
0100
1000
0000
,
0001
0010
0001
0000
1000
0000
0100
0010
0100
0010
0100
0000
1000
0010
1000
0000
,
0001
0100
0001
0000
1000
0000
0010
0100
0010
0100
0010
0000
2000
0000
0100
0000
,
0000
0000
0001
0000
0010
0000
3002
0100
,
0000
0000
0000
0000
1003
0000
0001
1000
0001
1000
0010
0000
0100
0001
0100
0000
,
0010
1000
0010
0000
0100
0000
0001
1000
0001
1000
0001
0000
0010
0001
0010
0000
,
0100
1000
0100
0000
0010
0000
0001
1000
0020
0000
0000
0000
0130
0000
0001
0100
,
0001
0000
1000
0000
0010
0000
0000
0010
0100
0000
0001
0000
0010
0000
0100
1000
,
0100
0000
0010
0001
0010
0000
0000
0001
1000
0000
0000
0000
1010
0000
0000
0000
,
0101
0000
0000
0101
0000
0000
0101
0000
0000
0000
0000
0000
0011
0000
0000
0000
0000
0000
1000
0000
0001
0000
1000
0000
,
1001
0000
0000
0000
0001
0010
0000
0100
0000
0010
0100
0000
1000
0100
0000
1000
,
0010
0000
0000
0000
0000
0000
0100
0000
0000
0000
0000
0000
0001
0000
0000
0000
0010
0000
0000
0000
0100
0000
0000
0000
0020
0000
0000
0000
0000
0000
0000
0000
0000
0000
0000
0000
0031
0000
0000
0100
0000
0000
0000
0000
0000
0001
0000
0000
,
0010
0100
0010
0000
0100
1000
0001
1000
0200
0000
0000
0000
0300
0010
0001
0000
,
0100
0001
0000
1000
0100
0000
1000
0010
0000
0100
0010
0100
0000
0001
0010
0000
,
0100
0010
0000
0100
1000
0000
0001
0100
0000
0010
1000
0010
0000
1000
0100
0000
,
0010
0001
0000
1000
0010
0000
0100
0001
0000
0010
0100
0000
1000
0010
0000
0001
,
0010
0000
0100
0010
0000
1000
0001
1000
0002
0000
0000
0000
0013
0100
1000
0000
,
0100
0010
0000
0001
0000
1000
0010
0100
0010
0000
1000
0000
0001
0010
0100
0000
,
0010
0001
0000
1000
0010
0000
0100
0001
1000
0000
0010
0000
1000
0100
0010
0001
,
1000
0000
0001
0100
0010
1000
0001
0000
1000
0100
0010
0001
2000
0000
3010
0100
,
0002
0000
0013
0100
2000
0000
0000
0000
3001
0100
0010
0100
0001
0000
1000
0000
,
0010
0100
0000
0010
1000
0000
0001
0010
0100
0000
0010
0000
0001
1000
0100
0000
,
1000
0001
0000
0100
0001
0100
0010
1000
0010
0100
0000
0001
0010
0000
1000
0010
,
0000
0001
0010
0000
0100
1000
0001
1000
0200
0000
0000
0000
0310
0001
0200
0000
,
0000
0000
0310
0000
0100
0001
1000
0010
0100
0000
0220
0000
0000
0000
0330
0000
,
1001
0000
1000
0100
0010
0000
0100
1000
0001
0000
0010
0000
0001
1000
0010
1000
,
0001
0000
0100
0001
1000
0001
0000
0010
0100
0000
1000
0200
0000
0300
0001
0100
,
1000
0000
0001
0010
0001
0010
0100
0010
0001
1000
0000
1000
0010
0100
0010
0000
,
0100
0001
0000
1000
0010
1000
0001
0100
0002
0000
0000
0000
1003
0100
0000
0010
,
0100
0000
0010
0001
1000
0000
1100
0000
0011
0000
0000
0000
0001
0100
0000
0010
,
0100
0010
1000
0000
0001
0000
0101
0000
1010
0000
0000
0000
1000
0100
1000
0001
,
0010
0001
2000
0000
0000
0000
0000
0000
3000
0000
0000
0000
0001
0100
0001
1000
,
0010
1000
0002
0000
0000
0000
0000
0000
0003
0000
0000
0000
0010
0100
1000
0001
,
0100
0010
2000
0000
0000
0000
3001
0010
0001
1000
0100
0000
0220
0000
0000
0000
,
0000
0000
0000
0000
0330
0000
0000
0000
1000
0001
1000
0001
0100
0010
0000
1000
,
0010
0000
0001
0010
0000
1000
0010
0100
0001
0000
0000
0000
1000
0100
0010
0001
,
1000
0000
0010
0100
0001
0000
0010
0100
1000
0100
0010
0000
0001
1000
0100
1000
,
0001
0000
0010
0001
0000
1000
0010
0100
0001
0000
0000
0000
0021
0000
0000
0000
,
1030
0000
0000
0000
0001
0010
0100
1000
0001
0000
0000
0000
1000
0010
0100
0001
,
1000
0000
1000
0000
0001
0010
0100
1000
0100
0010
0001
0000
1000
0010
1000
0010
,
0100
0000
0001
1000
0010
0000
1000
0001
0010
0000
0100
0000
0010
0001
1000
0001
,
0010
0000
0100
1000
0001
0100
0000
0110
0000
1010
0000
0000
0201
0000
0000
0000
,
0310
1000
0001
1000
0010
0100
0001
0100
0010
0000
1000
0000
0001
0000
0010
0000
,
0100
0010
0100
1000
0001
0100
0000
0010
0100
0010
1000
0000
0002
0000
0000
0000
,
0000
0000
0000
0000
0000
0000
0000
0000
0000
0000
0000
0003
1000
0100
0010
0100
,
1000
0001
0010
0000
0001
0100
0010
0100
0001
1000
0010
0000
2002
0000
0000
0000
,
0000
3003
0000
0000
;

//--------------- dance-single - forcednature ----------------
#NOTEDATA:;
#STEPSTYPE:dance-single;
#DESCRIPTION:forcednature;
#DIFFICULTY:Challenge;
#METER:18;
#RADARVALUES:0,0,0,0,0;
#CREDIT:forcednature;
#NOTES:
0000
0000
0000
0000
,
0000
0000
0000
0000
,
0000
0000
0000
0000
,
0000
0000
0000
0000
,
0000
0000
0000
0000
,
0000
0000
0000
0000
,
2001
0000
0000
3200
0000
0000
0320
0000
0032
0000
0000
0000
2003
0000
0000
0000
,
3020
0000
0000
0230
0000
0000
0302
0000
0023
0000
0000
0000
0030
0000
0100
1000
,
0200
0000
0000
0320
0000
0000
0032
0000
0000
0000
0000
0000
0003
0000
0200
0000
,
0302
0000
0000
2003
0000
0000
3020
0000
0000
0000
0100
0000
0100
0000
0130
0000
,
0002
0000
0000
2003
0000
0000
3100
0010
0001
0000
0001
0000
1000
0010
0100
0001
,
1000
0100
0000
0001
0100
0000
0010
0001
0000
0000
0000
0000
2010
0000
0000
0000
,
0001
0000
0010
0000
0001
0000
3100
1100
,
0000
0000
0000
0000
0000
0000
0000
0000
0001
0010
0100
1000
0002
0000
0000
0000
,
0010
0000
1000
0000
0010
0000
0103
0101
,
0000
0000
0001
1000
0010
0000
0000
0110
0000
0000
0100
0000
0001
1000
0010
0000
,
1000
0001
0010
0000
0100
1000
0001
0000
0100
0001
1000
0000
0010
1000
0100
0000
,
0010
0001
0100
0000
0010
1000
0010
0100
0001
1000
0001
0000
0010
0100
0010
0100
,
1000
0100
1000
0100
0010
0001
1000
0100
0010
0001
0010
0100
2000
0000
0000
0000
,
3010
0100
0010
0100
0002
0003
0000
0000
1000
0000
0000
0000
0100
0000
0010
0000
0001
0000
0000
0000
0100
0000
0010
0000
1000
0000
0000
0000
0100
0000
0010
0000
,
0001
0010
0100
0000
1000
0001
0100
0000
0001
1000
0000
0010
1000
0000
0001
0010
,
0200
0000
1000
0000
1000
0000
0310
0000
0100
0010
0000
0001
0010
0000
0100
1000
,
0001
1000
0100
0000
0010
0001
0000
1000
0010
0100
0010
0100
0001
1000
0000
1100
,
0000
0001
0020
0000
0031
0100
0000
1000
0100
0000
0001
1000
0010
0000
1000
0001
,
0010
0001
1000
0000
0100
0010
0001
0010
0100
0000
0000
1100
0000
0000
1020
0000
,
0000
0000
0031
0000
0000
0000
0000
0000
0110
0000
0000
0000
1000
0001
0000
0100
0001
0000
1000
0010
1000
0010
1000
0000
0002
0000
0013
0000
0000
0000
0100
0000
,
0010
0000
0100
0001
0000
0100
1000
0000
0001
0100
0010
1000
0001
0000
1000
0100
,
0010
0000
0100
1000
0001
0000
0010
0001
1000
0000
0010
0000
0100
0001
1000
0001
,
0100
0000
0010
0000
1000
0001
0010
0100
0010
0000
0100
1000
0002
0000
0203
0000
,
2300
0000
3100
0001
1000
0000
0010
1000
0001
1000
0010
0000
0100
0001
0000
0001
,
0010
0100
0010
0100
1000
0001
0000
0101
0000
1000
0010
0000
1000
0100
0000
0010
,
0100
0000
0000
0000
0000
0000
1000
0000
0000
0000
0000
0000
0001
0000
0000
0100
0000
0000
1000
0000
0000
0100
0000
0000
0001
0000
0000
0000
0000
0000
2000
0000
0000
0000
0000
0000
3001
0000
0000
0000
0010
0000
0000
0000
0000
0100
0000
0000
,
0000
0011
0000
1100
0000
0100
0001
0100
1000
0000
0001
0000
1000
0010
1000
0010
,
0100
0000
0000
0001
0000
0000
1000
0000
0000
0000
0000
0000
0001
0000
0000
0010
0000
0000
0200
0000
0000
0000
0000
0000
1300
0000
0000
0010
0000
0000
0200
0000
0000
0000
0000
0000
0301
0000
0000
0000
1000
0000
0000
0000
0000
1001
0000
0000
,
0000
0000
0000
0000
0000
0000
0010
0000
0000
0100
0000
0000
0010
0000
0000
0000
0100
0000
0000
0000
0000
0220
0000
0000
0000
0000
0000
0000
0000
0000
0330
0000
0000
0000
0000
0000
2000
0000
0000
0000
0000
0000
0100
0000
0000
0000
0000
0000
,
0000
0000
0001
0000
3010
0000
0002
0100
,
0000
0000
0000
0000
1003
0000
0001
0010
0100
0000
0010
0000
0100
1000
0010
0000
,
0100
0001
0010
0000
0100
0000
0010
0001
0100
0001
0010
0000
0100
1000
0010
0000
,
0100
0001
0010
0000
0100
1000
0010
1000
0100
0000
0000
0000
0020
0000
0001
0000
,
0000
0000
0100
0000
0031
0000
2000
0010
,
0000
0000
0000
0000
3001
0000
1000
0100
0010
0000
0100
0000
0010
0001
0100
0000
,
0010
1000
0100
0000
0010
0000
0100
1000
0010
1000
0100
0010
0000
0001
0100
0010
,
0000
1000
0100
0010
0100
0000
1000
0001
0020
0000
0000
0000
0031
0000
0001
0100
,
0010
0000
0000
0000
1010
0000
0000
1000
0001
0000
0001
0000
1000
0000
1000
0100
,
0010
0000
0000
0001
0100
0000
0000
0220
0000
0000
0330
0000
1001
0000
0000
0000
,
1100
0000
0000
1100
0000
0000
1100
0000
0000
0000
0000
0000
0011
0000
0000
0000
0000
0000
0001
0000
0100
0000
0001
0000
,
0101
0000
0000
0010
1000
0010
0000
1000
0010
0100
0001
0000
1000
0100
0000
0010
,
0100
0000
0000
0000
0000
0000
0001
0000
0000
0000
0000
0000
0100
0000
0000
0000
1000
0000
0000
0000
0001
0000
0000
0000
0020
0000
0000
0000
0000
0000
0000
0000
0000
0000
0000
0000
0031
0000
0000
0100
0000
0000
0000
0000
0000
0010
0000
0000
,
0100
1000
0100
0010
0100
0001
1000
0010
0200
0000
0000
0000
0300
0001
0010
0000
,
1000
0010
0000
0001
1000
0000
0100
1000
0000
0010
0200
0000
0300
0001
0010
0000
,
0100
0001
0000
0100
1000
0000
0010
0100
0000
0001
0020
0000
0030
0100
0100
0000
,
1000
1000
0000
0001
0001
0000
0100
0100
0000
0010
0010
0100
0010
0100
0000
0110
,
0000
0000
1001
0000
1000
0100
0010
0001
0100
0010
1000
0000
0001
0010
0100
0010
,
0001
1000
0100
1000
0001
0010
0100
1000
0010
0000
0110
0000
1000
0001
0100
0001
,
1000
0010
0100
1000
0100
0001
1000
0000
0010
0000
1001
0000
0001
0010
0100
0010
,
0001
0000
0000
1000
0000
0000
0001
0000
0000
0010
0000
0000
0100
0000
0000
0010
0000
0000
0001
0000
0000
1000
0000
0000
0001
0000
0000
0100
0000
0000
0010
0000
0000
0000
0000
0000
1000
0000
0100
0000
1000
0000
0100
0000
0000
0000
0000
0000
,
0010
0000
0001
0000
0010
0000
0001
0000
0000
0000
0000
0000
2001
0000
0000
0000
0000
0000
0000
0000
0000
0000
0000
0000
3001
0000
0000
0100
0000
0000
0010
0000
0000
1000
0000
0000
0001
0000
0000
0010
0000
0000
1000
0000
0000
0010
0000
0000
,
0001
0010
0000
0110
0000
0100
1000
0001
0010
0001
1000
0000
0001
0100
0010
0100
,
0001
1000
0000
1010
0000
0010
0100
0001
0010
0100
0010
0000
0001
1000
0100
0001
,
0000
0000
0000
0100
0000
0000
1000
0000
0000
0001
0000
0000
0010
0000
0000
0001
0000
0000
1000
0000
0000
0010
0000
0000
0100
0000
0000
0001
0000
0000
1000
0000
0000
0000
0000
0000
0001
0000
0010
0000
0001
0000
0020
0000
0000
0000
0000
0000
,
0000
0000
0000
0030
0000
0000
0100
0000
0000
0010
0000
0000
0100
0000
1000
0000
0100
0000
1000
0000
0100
0000
1000
0000
0001
0000
0000
0000
0000
0000
0100
0000
0000
0000
0000
0000
0120
0000
0000
0000
0000
0000
0000
0000
0000
0000
0000
0000
,
0031
0000
0010
1000
0001
0000
0100
0001
1000
0010
1000
0000
0001
0010
0000
0100
,
0010
0000
0000
0100
0000
0000
1000
0000
0001
0000
1000
0000
0001
0000
0000
0100
0000
0000
0000
0000
0000
0110
0000
0000
0000
0000
0000
0010
0000
0000
1000
0000
0000
0001
0000
0000
0010
0000
0000
1000
0000
0000
0000
0000
0000
0010
0000
0000
,
0001
0000
0000
0000
0000
0000
0010
0000
0000
0100
0000
0000
1000
0000
0100
0000
1000
0000
0100
0000
0000
1000
0000
0000
0001
0000
0000
0010
0000
0000
0000
0000
0000
0001
0000
0000
0200
0000
0000
0000
0000
0000
1300
0000
0000
0100
0000
0000
,
0002
0000
0000
0000
0000
0000
0103
0000
0000
0010
0000
0000
1000
0000
0001
0000
1000
0000
0001
0000
0000
1000
0000
0000
0020
0000
0000
0000
0000
0000
0000
0000
0000
0000
0000
0000
0130
0000
0000
1000
0000
0000
0000
0000
0000
0100
0000
0000
,
0001
1000
0010
1000
0001
0000
0011
0000
1100
0000
0000
0000
0100
0001
0000
0100
,
1000
0001
0010
0001
1000
0000
1010
0000
0101
0000
0000
0000
0001
0010
0100
1000
,
0010
0000
0000
0100
0000
0000
0002
0000
0000
0000
0000
0000
0000
0000
0000
0000
0000
0000
0013
0000
0000
0100
0000
0000
0010
0000
0100
0000
0010
0000
0100
0000
0000
0000
0000
0000
1000
0000
0000
0010
0000
0000
0100
0000
0000
0001
0000
0000
,
0010
0100
2000
0000
0000
0000
3010
0100
1000
0100
0001
0000
1000
0010
0100
0001
,
0010
0100
1000
0010
0100
0001
0010
1000
0010
0001
0100
0000
0220
0000
0000
0000
,
0000
0000
0000
0000
0000
0000
0000
0000
0000
0000
0000
0000
0330
0000
0000
0000
0000
0000
0000
0000
0000
0000
0000
0000
0001
0000
1000
0000
0001
0000
1000
0000
0001
0000
1000
0000
0001
0000
0000
0010
0000
0000
0000
0000
0000
0100
0000
0000
,
0010
0000
0100
1000
0001
0010
1000
0010
0002
0000
0000
0000
1003
0010
0100
0010
,
1000
0001
0100
0001
1000
0000
0001
0010
1000
0000
1000
0010
0100
1000
0000
1000
,
0010
0000
0100
0001
0000
0000
0011
0000
0000
1100
0000
0000
1020
0000
0000
0000
,
0031
0000
0000
0000
1000
0100
0001
0100
2000
0000
3000
0000
0001
0100
1000
0100
,
0001
0000
0001
0010
0100
0010
0001
1000
0200
0000
0320
0000
0031
1000
0010
1000
,
0001
0100
1000
0100
0001
0000
1000
0010
0100
0000
0101
0000
1000
0001
0000
0011
,
0000
1000
0100
0001
0100
1000
0000
1010
0000
0001
0100
1000
0200
0000
0000
0000
,
0301
1000
0010
1000
0001
0100
0010
0100
0001
1000
0010
0000
1000
0100
0010
0100
,
1000
0000
0000
0001
0000
0000
0010
0000
0001
0000
0010
0000
0001
0000
0000
0100
0000
0000
0010
0000
0000
1000
0000
0000
0100
0000
0000
0010
0000
0000
0001
0000
0000
0100
0000
0000
0020
0000
0000
0000
0000
0000
0000
0000
0000
0000
0000
0000
,
0000
0000
0000
0000
0000
0000
0000
0000
0000
0000
0000
0000
1030
0100
0001
0100
,
1000
0001
0010
0001
0100
1000
0100
0010
1000
0001
0010
0100
0002
0000
0000
0000
,
0000
0003
0000
0000
;

//--------------- dance-double - forcednature ----------------
#NOTEDATA:;
#STEPSTYPE:dance-double;
#DESCRIPTION:forcednature;
#DIFFICULTY:Easy;
#METER:9;
#RADARVALUES:0,0,0,0,0;
#CREDIT:forcednature;
#NOTES:
00000000
00000000
00000000
00000000
,
00000000
00000000
00000000
00000000
,
00000000
00000000
00000000
00000000
,
00000000
00000000
00000000
00000000
,
00000000
00000000
00000000
00000000
,
00000000
00000000
00000000
00000000
,
00001000
00001000
00010000
00001000
,
00010000
00010000
00002000
00003000
,
00100000
00000000
00000000
00100000
00000000
00000000
00100000
00000000
00000000
00000000
00000000
00000000
00000000
00000000
00000000
00000000
,
00010000
00000000
00000000
00010000
00000000
00000000
00010000
00000000
00000000
00000000
00000000
00000000
00000000
00000000
00000000
00000000
,
10000000
00000000
00000000
10000000
00000000
00000000
10000000
00000000
00000000
00000000
00000000
00000000
01000000
00000000
00000000
00000000
,
01100000
00000000
00000000
10010000
00000000
00000000
00002000
00000000
,
00000000
00000000
00000000
00000000
00003000
00000000
00010000
00010000
,
00000000
00000000
00000000
00020000
,
00000000
00000000
00000000
00000000
00030000
00000000
00001000
00010000
,
00000000
00000000
00000000
00010000
,
00010000
00000100
00001000
00000001
,
00000001
00000100
00000010
00001000
,
00000001
00000000
00001000
00000001
00001000
00000000
00000200
00000000
,
00000300
00010000
00011000
00100000
,
00011000
01000000
00001000
00010000
,
00010000
00000010
00011000
00000100
,
00011000
00100000
00001000
00010000
,
00000100
00001000
00001001
00000010
,
00001001
00000001
00001000
00000100
,
00010000
00000000
00000000
00000000
00002000
00000000
00003000
00000000
00001000
00001000
00001000
00000000
01000000
00000000
00000000
00000000
,
01000000
00010000
00010000
01100000
,
00000000
00000000
10000000
00000000
00010000
00000000
00100000
00010000
,
00100000
00000000
00001000
00000000
00010000
00000000
00000010
00000010
,
00000000
00000000
00001000
00000000
00000100
00000000
00000010
00000001
,
00000010
00000100
00000000
00010000
,
00001000
00000000
00100000
00000000
00001000
00000000
00010000
00001000
,
00010000
00000010
00001000
00000010
,
00000100
00000000
00000001
00000000
00000010
00000000
00000100
00001000
,
00000100
00020000
00030000
00002000
,
00000000
00000000
00003000
02000000
,
00000000
00000000
03000000
00010000
,
00010000
00000000
10000000
10000000
10000000
00000000
01000000
00000000
,
01000000
00000000
00100000
00100000
00100000
00000000
02000000
00000000
,
00000000
00000000
03000000
00200000
,
00000000
00000000
00300000
00001000
,
00001000
00000000
00010000
00010000
00010000
00000000
00001000
00000000
,
00001000
00000000
00010000
00010000
00010000
00000000
00000010
00000000
,
00001000
00000010
00000100
00000001
,
00000100
00000010
00000100
00000001
,
00000110
00001000
00000110
00000100
,
00011000
00100000
00011000
01000000
,
01000000
00010000
00100000
01000000
,
01000000
00000000
00000000
00000000
10000000
00000000
00000000
00000000
00100000
00000000
00000000
00000000
00000000
10000000
00000000
00000000
,
10000000
00000000
00000000
10000000
00000000
00000000
10000000
00000000
00000000
00010000
00000000
00000000
00000000
00100000
00000000
00000000
,
00100000
00000000
00000000
00100000
00000000
00000000
00100000
00000000
00000000
00001000
00000000
00000000
00000000
00010000
00000000
00000000
,
00010000
00000000
00000000
00000100
00000000
00000000
00000100
00000000
00000000
00001000
00000000
00000000
00000010
00000000
00000000
00000010
,
00000000
00000020
00000000
00000000
00000130
00000000
00001001
00000000
,
00001000
00000000
00000100
00000000
00010000
00000000
00001000
00010000
,
00001000
01000000
00010000
00100000
,
01000000
00000000
10000000
00000000
01000000
00000000
00100000
00010000
,
00100000
00002000
00003000
00011000
,
00010000
00000000
00000100
00000000
00001000
00000000
00000010
00000100
,
00000010
00001000
00000001
00000010
,
00000100
00000000
00001000
00000000
00000100
00000000
00010000
00001000
,
00010000
00002000
00013000
00011000
,
00000000
00000000
01000000
00000000
00010000
01000000
00010000
00000000
,
10000000
00000000
00100000
00000000
10000000
01000000
10000000
00000000
,
00010000
00100000
00001000
00011000
,
00011000
00011000
00000000
00000100
,
00001000
00000000
00000010
00001000
00000010
00000000
00000100
00000000
,
00000001
00000000
00000000
00000000
00000010
00000000
00000001
00000000
00000010
00000000
00000000
00000000
00000100
00000000
00000000
00000100
,
00000000
00000000
00000200
00000000
00000000
00000000
00000300
00000000
00000000
00000000
00000000
00000000
00010000
00000000
00000000
00010000
,
00000000
00000000
00020000
00000000
00000000
00000000
00030000
00000000
00000000
00000000
00000000
00000000
00001000
00000000
00000000
00001000
,
00000000
00002000
00000000
00003000
00010000
00000000
00022000
00000000
,
00000000
00000000
00000000
00000000
00000000
00000000
00000000
00000000
00033000
00000000
00000000
00000000
01000000
00000000
00000000
01000000
,
00000000
02200000
00000000
00000000
03300000
00000000
10000000
00000000
,
00010000
00000000
00100000
00000000
00010000
00000000
00100000
00010000
,
00100000
00001000
00010000
00000010
,
00001000
00000000
00000010
00000000
00000100
00000000
00000001
00001000
,
00000001
00000010
00000100
00001000
,
00000100
00000000
00010000
00000000
00001000
00000000
00100000
00010000
,
00100000
00001000
00010000
00011000
,
01000000
00000000
00010000
00000000
00100000
00000000
01000000
01000000
,
01000000
10000000
00010000
20020000
,
00000000
00000000
30030000
00010000
,
01000000
00001000
00010000
00022000
,
00000000
00033000
00000000
00000000
;

//--------------- dance-double - forcednature ----------------
#NOTEDATA:;
#STEPSTYPE:dance-double;
#DESCRIPTION:forcednature;
#DIFFICULTY:Medium;
#METER:13;
#RADARVALUES:0,0,0,0,0;
#CREDIT:forcednature;
#NOTES:
00000000
00000000
00000000
00000000
,
00000000
00000000
00000000
00000000
,
00000000
00000000
00000000
00000000
,
00000000
00000000
00000000
00000000
,
00000000
00000000
00000000
00000000
,
00000000
00000000
00000000
00000000
,
00011000
00000000
00010000
00001000
00100000
00000000
00010000
00000000
,
01010000
00000000
10000000
00100000
02000000
00000000
03000000
00000000
,
00010000
00000000
00000000
00100000
00000000
00000000
00220000
00000000
00000000
00000000
00330000
00000000
00000000
00000000
00000000
00000000
,
00001000
00000000
00000000
00010000
00000000
00000000
00022000
00000000
00000000
00000000
00033000
00000000
00000000
00000000
00000000
00000000
,
00000100
00000000
00000000
00001000
00000000
00000000
00000100
00000000
00000010
00000000
00000010
00000000
00000001
00000000
00000000
00000000
,
00000110
00000000
00000000
00000110
00000000
00000000
00001001
00000000
00000000
00000000
00000000
00000000
00002000
00000000
00000000
00000000
,
00000100
00000000
00000001
00000000
00000010
00000000
00000100
00003100
,
00000000
00000000
00000000
00020000
,
01000000
00000000
10000000
00000000
00100000
00000000
01000000
01030000
,
00000000
00000000
00000000
00000000
00010000
00000000
00000000
00010000
00000000
00000000
10000000
00000000
01000000
00000000
00100000
00000000
,
01000000
00100000
00010000
01000000
00010000
01000000
00001000
00010000
,
00000100
00010000
00001000
00000010
00000001
00000000
00001000
00001000
,
00000100
00000100
00010000
00010000
00001000
00001000
00200000
00000000
,
00310000
00010000
10000000
00000000
10100000
00000000
00000000
00000000
11000000
00000000
00000000
00000000
00110000
00000000
00000000
00000000
,
01010000
00000000
00010000
00100000
00001000
00010000
00000100
00001000
,
00000010
00000110
00000101
00000110
,
00001010
00000000
00000001
00000010
00000100
00001000
00000100
00010000
,
00001000
00011000
00101000
00011000
,
01001000
00000000
00000000
00000000
01000000
00000000
00010000
00000000
00100000
00000000
00000000
00100000
00000000
00000000
01100000
00000000
,
00000000
00000000
00000000
00000000
20000000
00000000
30010000
00100000
00001000
00010000
00000100
00000000
00000000
00001000
00000000
00000000
,
00001000
00000000
00000000
00000010
00000000
00000000
00000100
00000000
00000000
00001001
00000000
00000000
00000001
00000000
00000010
00000000
,
00001000
00010000
00000100
00001000
00000010
00000000
00000100
00001000
,
00010000
00000000
00100000
00010000
00001000
00000000
01000000
01000000
,
01000000
00000000
00010000
10000000
00100000
10000000
01000000
00010000
,
00001000
00000000
00000000
00000000
00100000
00000000
00010000
00000000
01000000
00000000
00000000
00000000
00001000
00010000
00000000
00001000
,
00010000
00000000
00000000
00000000
00000000
00000000
00000000
00000000
00000000
00000000
00000000
00000000
00000100
00000000
00000000
00000000
00000000
00000000
00001000
00000000
00000000
00000000
00000000
00000000
00000010
00000000
00000000
00000000
00000000
00000000
00000000
00000000
00000000
00000000
00000000
00000000
00010000
00000000
00000000
00000000
00001000
00000000
00000000
00000000
00000000
00010000
00000000
00000000
,
00000000
00011000
00000000
00001000
00000000
00010000
00001000
00000000
02000000
00000000
00000000
00000000
03010000
00000000
10000000
00000000
,
00100000
00000000
00000000
00000000
00000000
00000000
10000000
00000000
00000000
00000000
00000000
00000000
01000000
00000000
00000000
00000000
00000000
00000000
00010000
00000000
00000000
00000000
00000000
00000000
00001000
00000000
00000000
00000000
00000000
00000000
00000000
00000000
00000000
00000000
00000000
00000000
00100000
00000000
00000000
00000000
00010000
00000000
00000000
00000000
00000000
00100000
00000000
00000000
,
00000000
00001000
00010000
00001000
00011000
00000000
00000200
00000000
,
00000000
00000000
00002300
00003020
,
00000000
00000000
00000130
00000001
00001000
00000000
00000100
00000100
,
00010000
00001000
00100000
00001000
00010000
00000000
01000000
01000000
,
10000000
00000000
00010000
00100000
00001000
00000000
00020000
00000000
,
00000000
00000000
00030020
00002030
,
00000100
00000100
00000000
00000000
00003010
00000000
00001000
00000001
,
00000100
00000001
00001000
00000010
00001000
00000000
00010000
01000000
,
00100000
00000000
10000000
01000000
00100000
00000000
00010000
10000000
,
10010000
00000000
00010000
00100000
00001000
00000000
00010000
00001000
,
00011000
00000000
00000100
00001000
00000010
00000000
00000101
00000000
,
00001000
00000000
00000000
00000010
00000000
00000000
00001010
00000000
00000000
00000000
00000000
00000000
00011000
00000000
00000000
00000000
00000000
00000000
00100000
00000000
00010000
00000000
00100000
00000000
,
00010000
00000000
00000000
00000000
10000000
00010000
00000000
00010000
10000000
00000000
00000000
00000000
00100000
00000000
01000000
00000000
,
00010000
00100000
00001000
00010000
00000200
00000000
00001300
00000010
,
00010000
00000000
00001000
00000000
01000000
00000000
00010000
00000000
00200000
00000000
00000000
00000000
00300000
01000000
00000000
00000000
,
01100000
00000000
00000000
10000000
00000000
00000000
01100000
00000000
00000000
00010000
00000000
00000000
00000000
00001000
00000000
00000000
,
00011000
00000000
00000000
00000100
00000000
00000000
00011000
00000000
00000000
00000010
00000000
00000000
00000000
00000100
00000000
00000000
,
00000110
00000000
00000000
00000010
00000000
00000000
00001001
00000000
00000000
00010000
00000000
00000000
00001000
00000000
00000000
00011000
,
00000000
00202000
00000000
00000000
00303000
00000000
00100000
00010000
,
01000000
00100000
10000000
01000000
00010000
00000000
00001000
00000010
,
00000001
00000100
00000001
00001000
00000010
00000000
00000100
00001000
,
00010000
00000000
01000000
00010000
00001000
00000000
00011000
00000000
,
00101000
00000000
00220000
00000000
00330000
00000000
00100000
01000000
,
10000000
01000000
00010000
00001000
00100000
00000000
00001000
00010000
,
00000100
00010000
00001000
00000010
00000001
00000000
00000100
00001000
,
00010000
00000000
01000000
00010000
00001000
00000000
00022000
00000000
,
00033000
00000000
00000000
00000000
00020200
00000000
00000000
00000000
00030300
00000000
00000000
00000000
00000100
00000000
00000000
00000100
,
00001000
00000000
00000010
00000000
00000100
00000000
00000000
00000000
00001001
00000000
00000000
00000000
00000001
00000000
00000000
00000001
,
00000010
00000000
00000100
00000000
00002000
00000000
00000000
00000000
00003010
00000000
00001000
00000000
00000100
00000000
00000000
00000100
,
00010000
00001000
00100000
00000000
00010000
00000000
10010000
00000000
,
10000000
00000000
01000000
00000000
00010000
00000000
00001000
00000000
00100000
00000000
00000000
00000000
00110000
00000000
00000000
00110000
,
00000000
00000000
00001000
00000000
00010000
00000000
00000000
00000000
00000100
00000000
00000000
00000000
00001010
00000000
00000000
00001010
,
00000000
00000000
00010000
00000000
00001000
00000000
00000000
00000000
01000000
00000000
00000000
00000000
01100000
00000000
00000000
01100000
,
00000000
00000000
02200000
00000000
00000000
00000000
03300000
00000000
00000000
00000000
00000000
00000000
00011000
00000000
00000000
00011000
,
00000000
00000000
00022000
00000000
00000000
00000000
00033000
00000000
00000000
00000000
00000000
00000000
00000110
00000000
00000000
00000110
,
00000000
00000220
00000000
00000330
00000000
00000000
00002002
00000000
,
00000000
00000000
00000000
00000000
00000000
00000000
00000000
00000000
00003003
00000000
00000000
00000000
00001000
00000001
00000000
00001000
,
00000001
00000000
00001000
00000001
00000000
00000000
00000010
00000100
00000010
00000000
00000000
00000000
00000100
00000000
00010000
00000000
,
00001000
00000000
00000010
00000000
00000001
00000000
00001000
00000000
00000100
00000000
00000000
00000000
00010000
00001000
00000000
00001000
,
00010000
00000000
00000000
00001000
00000000
00000000
00100000
00000000
00010000
00000000
00000000
00000000
02010000
00000000
00000000
00000000
,
13000000
00000000
01000000
00010000
10000000
00000000
01000000
00010000
,
00001000
00000000
00100000
00000000
00010000
00000000
00100000
00000000
00001000
00000000
00000000
00000000
00010000
00001000
00010000
00001000
,
00020000
00000000
00000000
00000000
00030100
00000000
00001000
00000000
00000010
00000000
00000000
00000000
00000100
00000001
00000000
00000100
,
00000000
00000001
00000000
00000000
00001000
00000010
00000000
00001000
00000000
00000010
00000000
00000000
00020000
00000000
00000000
00000000
,
00031000
00100000
00010000
01000000
00200000
00000000
10300000
10000000
,
00010000
00000000
10000000
00010000
10000000
00000000
00000000
10000000
00000000
00000000
01000000
00000000
00020000
00000000
00000000
00000000
,
00000000
00000000
00000000
00000000
00000000
00000000
00031000
00001000
,
00010000
00000000
00010000
00000000
00000100
00001000
00000000
00001000
00000100
00000000
00000010
00000000
00000002
00000000
00000000
00000000
,
00000000
00000003
00000000
00000000
;

//--------------- dance-double - forcednature ----------------
#NOTEDATA:;
#STEPSTYPE:dance-double;
#DESCRIPTION:forcednature;
#DIFFICULTY:Hard;
#METER:17;
#RADARVALUES:0,0,0,0,0;
#CREDIT:forcednature;
#NOTES:
00000000
00000000
00000000
00000000
,
00000000
00000000
00000000
00000000
,
00000000
00000000
00000000
00000000
,
00000000
00000000
00000000
00000000
,
00000000
00000000
00000000
00000000
,
00000000
00000000
00000000
00000000
,
00010000
00000000
00000000
00001000
00000000
00000000
00010000
00000000
00200000
00000000
00000000
00000000
20300000
00000000
00000000
00000000
,
30010000
00000000
00000000
00100000
00000000
00000000
01000000
00000000
20000000
00000000
00000000
00000000
30000000
00000000
01000000
00000000
,
00010000
00000000
00000000
00001000
00000000
00000000
00020000
00000000
00000000
00000000
00030000
00000000
00000000
00000000
00001000
00000000
,
00010000
00000000
00000000
00001000
00000000
00000000
00000020
00000000
00000000
00000000
00000030
00000000
00000000
00000000
00000001
00000000
,
00000100
00000000
00000000
00000001
00000000
00000000
00000010
00000001
00000010
00000000
00000010
00000000
00000100
00000000
00000000
00000000
,
00010000
00001000
00000000
00010000
00001000
00000000
00100000
00010000
00000000
00000000
00000000
00000000
22000000
00000000
00000000
00000000
,
00000000
00000000
00000000
00000000
33000000
00000000
00110000
00110000
,
00000000
00000000
00000000
00000000
00000000
00000000
00000000
00000000
00001000
00010000
00001000
00010000
00002000
00000000
00000000
00000000
,
00000000
00000000
00000000
00000000
00000000
00003000
00010100
00010100
,
00000000
00000000
00000100
00001000
00000100
00000000
00000000
00000110
00000000
00000000
00000011
00000000
00001000
00000000
00000010
00000000
,
00001000
00000100
00010000
00001000
00100000
00001000
00010000
01000000
,
10000000
00000000
01000000
00000000
00010000
00000000
00001000
00000000
00100000
00000000
00010000
00000000
10000000
00100000
10000000
00100000
,
10000000
00000000
00000000
00000000
00010000
00000000
00000000
00000000
01000000
00000000
00010000
00000000
01000000
00000000
00010000
00000000
01000000
00000000
00000000
00000000
00001000
00000000
00000000
00000000
00020000
00000000
00000000
00000000
00000000
00000000
00000000
00030000
,
00001000
00010000
00001000
00010000
00000200
00000300
00000000
00000000
00001000
00000000
00000000
00000000
00000001
00000000
00000000
00000000
00000100
00000000
00000001
00000000
00000100
00000000
00000000
00000000
00000010
00000000
00001000
00000000
00000010
00000000
00000000
00000000
,
00000100
00000001
00000100
00000000
00000010
00000000
00001000
00000000
00000010
00010000
00000000
00001000
00010000
00000000
00001000
00010000
,
00001000
00100000
00010000
00000000
01000000
00000000
01000000
00000000
00100000
10000000
00100000
00000000
01000000
00010000
01000000
00000000
,
00100000
10000000
00100000
00000000
10000000
01000000
00000000
00100000
01000000
00000000
00100000
00010000
00100000
00001000
00000000
00020000
,
00000000
00000000
00030100
00000000
00001000
00000100
00000000
00000010
00000100
00000000
00000010
00000001
00000010
00000000
00000100
00001000
,
00000100
00000000
00010000
00000000
00001000
00010000
00001000
00010000
00001000
00000000
00000000
00011000
00000000
00000000
01010000
00000000
,
02000000
00000000
00000000
00000000
00000000
00000000
00000000
00000000
03200000
00000000
00300000
00000000
01000000
00100000
00000000
01000000
00100000
00000000
10000000
00010000
10000000
00010000
10000000
00000000
00020000
00000000
00130000
00000000
00000000
00000000
01000000
00000000
,
00100000
00000000
01000000
10000000
00000000
01000000
00010000
00000000
00001000
00010000
00001000
00000000
00000010
00000000
00000100
00000000
,
00010000
00000000
00000100
00000000
00001000
00000000
00000001
00000000
00000010
00000001
00001000
00000000
00000010
00000000
00000100
00000000
,
00001000
00000000
00010000
00000000
00100000
00000000
01000000
00000000
00010000
10000000
00100000
00000000
01000000
00000000
01100000
00000000
,
00010000
00000000
10000000
00000000
01000000
00000000
00010000
00000000
00001000
00100000
00010000
00100000
00001000
00010000
00000000
00000000
,
00000100
00001000
00000000
00000100
00000010
00000100
00000000
00000110
00000000
00000010
00000001
00000000
00001000
00000010
00000000
00000100
,
00000010
00000000
00000000
00000000
00000000
00000000
00000100
00000000
00000000
00000000
00000000
00000000
00000001
00000000
00000000
00001000
00000000
00000000
00000001
00000000
00000000
00001000
00000000
00000000
00000001
00000000
00000000
00000000
00000000
00000000
00000010
00000000
00000000
00000000
00000000
00000000
00000100
00000000
00000000
00000000
00001000
00000000
00000000
00000000
00000000
00001000
00000000
00000000
,
00000000
00001100
00000000
00010100
00000000
00010000
00001000
00010000
00001000
00000000
00100000
00000000
00010000
01000000
00000000
00100000
,
01000000
00000000
00000000
00000000
00000000
00000000
00100000
00000000
00000000
10000000
00000000
00000000
00000000
00000000
00000000
00010000
00000000
00000000
00100000
00000000
00000000
00000000
00000000
00000000
00001000
00000000
00000000
00010000
00000000
00000000
00001000
00000000
00000000
00000000
00000000
00000000
00010000
00000000
00000000
00000000
00001000
00000000
00000000
00000000
00000000
00011000
00000000
00000000
,
00000000
00000000
00000000
00000000
00000000
00000000
00000100
00000000
00000000
00001000
00000000
00000000
00000100
00000000
00000000
00000000
00001000
00000000
00000000
00000000
00000000
00000002
00000000
00000000
00000000
00000000
00000000
00000000
00000000
00000000
00000000
00000000
00000000
00000000
00000000
00000000
00000023
00000000
00000000
00000000
00000000
00000000
00000001
00000000
00000000
00000000
00000000
00000000
,
00000000
00000000
00000100
00000000
00000001
00000000
00000230
00001000
,
00000000
00000000
00000000
00000000
00010300
00000000
00001000
00000000
00011000
00000000
00000000
00000000
01000000
00010000
01000000
00000000
,
00100000
10000000
00100000
00000000
10000000
00000000
01000000
00100000
01000000
00100000
01000000
00000000
00100000
00010000
00100000
00000000
,
00010000
00100000
00001000
00000000
00010000
00000000
00001000
00010000
00000010
00001000
00000010
00000000
00000200
00000000
00000001
00000000
,
00000000
00000000
00000010
00000000
00000001
00000000
00000320
00001000
,
00000000
00000000
00000000
00000000
00010030
00000000
00001000
00010000
00001000
00010000
00001000
00000000
01000000
00010000
01000000
00000000
,
00100000
10000000
00100000
00000000
10000000
00000000
01000000
10000000
01000000
10000000
00010000
00000000
00100000
00010000
00100000
00000000
,
00010000
00100000
00001000
00000000
00010000
00000000
00001000
00010000
00002000
00000000
00000000
00000000
00013000
00000000
00001000
00010000
,
00000100
00000000
00001000
00000000
00000010
00000000
00000000
00000010
00000100
00000000
00000001
00000000
00000010
00000000
00000001
00000100
,
00000001
00000000
00000100
00000010
00000100
00000000
00000000
00001000
00010000
00000000
00000000
00000000
00011000
00000000
00000000
00000000
,
01010000
00000000
00000000
01010000
00000000
00000000
01010000
00000000
00000000
00000000
00000000
00000000
00011000
00000000
00000000
00000000
00000000
00000000
00000100
00000000
00001000
00000000
00000100
00000000
,
00001100
00000000
00000000
00000000
00010000
00001000
00000000
00100000
00000000
00010000
00100000
00000000
01000000
10000000
00000000
00100000
,
10000000
00000000
00000000
00000000
00000000
00000000
00100000
00000000
00000000
00000000
00000000
00000000
01000000
00000000
00000000
00000000
00010000
00000000
00000000
00000000
10000000
00000000
00000000
00000000
00020000
00000000
00000000
00000000
00000000
00000000
00000000
00000000
00000000
00030000
00000000
00000000
00100000
00000000
00000000
00010000
00000000
00000000
00000000
00000000
00000000
00100000
00000000
00000000
,
00001000
00010000
00001000
00000000
00010000
00001000
00010000
00000100
00002000
00000000
00000000
00000000
00003000
00000001
00000100
00000000
,
00000010
00000100
00000000
00000010
00001000
00000000
00000001
00000010
00000000
00000100
00000010
00000100
00000000
00001000
00000100
00000000
,
00010000
00001000
00000000
00100000
00010000
00000000
01000000
00100000
00000000
10000000
01000000
10000000
00000000
00010000
00100000
00000000
,
00001000
00010000
00000000
00001000
00100000
00000000
00001000
00010000
00000000
00000010
00001000
00000000
00000100
00000010
00000000
00000001
,
00000010
00000000
00001000
00000010
00000000
00001000
00010000
00001000
00020000
00000000
00000000
00000000
00031000
00100000
00010000
00000000
,
00100000
00001000
00000000
00010000
00000000
00001000
00010000
00000100
00001000
00000000
00000010
00000000
00000100
00000001
00001000
00000000
,
00000010
00001000
00000000
00000010
00010000
00000000
00001000
00010000
00001000
00000000
00010000
00000000
00001000
00010000
00001000
00100000
,
00010000
00000000
00100000
00010000
10000000
01000000
10000000
00000000
00010000
01000000
00001000
00010000
00002000
00000000
00100000
00000000
,
00023000
00000000
00000010
00000000
00032000
00000000
00000000
00000000
00003010
00000100
00001000
00000100
00000010
00000000
00000001
00000000
,
00001000
00000010
00000000
00000100
00000010
00000000
00000100
00000001
00001000
00000000
00000100
00000000
00010000
00001000
00010000
00000000
,
00001000
00100000
00000000
00010000
01000000
00010000
10000000
00100000
10000000
00010000
00000000
00100000
00010000
00000000
00100000
01000000
,
00000000
10000000
01000000
00000000
00100000
00010000
00100000
00001000
00020000
00000000
00000000
00030000
00001000
00010000
00000020
00000000
,
00000000
00000000
00001030
00000000
00000010
00000100
00000001
00000100
00000010
00000000
00000220
00000000
00000000
00000000
00000330
00000000
,
00001001
00000000
00001000
00000100
00010000
00000000
00001000
00010000
00001000
00000000
00100000
00000000
00010000
10000000
00100000
10000000
,
00010000
00000000
01000000
00010000
10000000
00010000
00000000
00100000
01000000
00000000
10000000
02000000
00000000
03000000
00010000
00000000
,
00001000
00000000
00100000
00010000
00100000
00001000
00010000
00001000
00010000
00000100
00000000
00001000
00000100
00000010
00000100
00000000
,
00000010
00000001
00000000
00000100
00000010
00001000
00000100
00010000
00002000
00000000
00000000
00000000
01003000
00010000
00000000
01000000
,
00100000
00000000
10000000
00010000
00100000
00000000
00110000
00000000
11000000
00000000
00000000
00000000
00010000
01000000
00000000
00010000
,
00100000
00010000
00100000
00000000
00001000
00000000
00011000
00000000
00010100
00000000
00000000
00000000
00000100
00001000
00000100
00000010
,
00000001
00000010
00000200
00000000
00000000
00000000
00000000
00000000
00000300
00000000
00000000
00000000
00010000
00001000
00010000
00000010
,
00001000
00000010
00020000
00000000
00000000
00000000
00000000
00000000
00030000
00000000
00000000
00000000
00001000
00010000
00001000
00100000
,
00010000
00100000
02000000
00000000
00000000
00000000
13000000
00010000
10000000
00100000
01000000
00000000
02200000
00000000
00000000
00000000
,
00000000
00000000
00000000
00000000
03300000
00000000
00000000
00000000
10000000
00010000
10000000
00010000
10000000
01000000
00000000
00100000
,
01000000
00000000
00100000
00010000
00000000
00100000
00001000
00010000
00001000
00000000
00000000
00000000
00010000
00000100
00001000
00000100
,
00000010
00000000
00000100
00001000
00000100
00000000
00010000
00001000
00010000
00001000
00010000
00000000
00000010
00001000
00000001
00001000
,
00000010
00000000
00000100
00000001
00000000
00000010
00000001
00000010
00000100
00000000
00000000
00000000
00020100
00000000
00000000
00000000
,
00030010
00000000
00000000
00000000
00010000
00001000
00100000
00001000
00010000
00000000
00000000
00000000
00001000
00010000
00000010
00010000
,
00001000
00000000
00001000
00000000
00010000
00001000
01000000
00001000
00010000
00000000
00000000
00000000
00100000
01000000
00100000
01000000
,
00100000
00000000
01000000
00010000
10000000
00000000
01000000
10000000
00010000
00000000
00100000
00000000
00001000
00010000
00000100
00001000
,
00000100
00000000
00000010
00000001
00001000
00000100
00000000
00000110
00000000
00000011
00000000
00000000
00000201
00000000
00000000
00000000
,
00000310
00001000
00000010
00001000
00000001
00000100
00000010
00001000
00000001
00000000
00000001
00000000
00000010
00000000
00000100
00000000
,
00001000
00000100
00010000
00001000
00010000
00001000
00000000
00100000
00010000
00100000
00010000
10000000
02000000
00000000
00000000
00000000
,
00000000
00000000
00000000
00000000
00000000
00000000
00000000
00000000
00000000
00000000
00000000
03000000
10000000
01000000
10000000
01000000
,
00100000
00010000
00100000
00000000
00001000
00010000
00000010
00001000
00000010
00010000
00001000
00000000
00022000
00000000
00000000
00000000
,
00000000
00033000
00000000
00000000
;

//--------------- dance-double - forcednature ----------------
#NOTEDATA:;
#STEPSTYPE:dance-double;
#DESCRIPTION:forcednature;
#DIFFICULTY:Challenge;
#METER:18;
#RADARVALUES:0,0,0,0,0;
#CREDIT:forcednature;
#NOTES:
00000000
00000000
00000000
00000000
,
00000000
00000000
00000000
00000000
,
00000000
00000000
00000000
00000000
,
00000000
00000000
00000000
00000000
,
00000000
00000000
00000000
00000000
,
00000000
00000000
00000000
00000000
,
00020000
00000000
00000000
00032000
00000000
00000000
00003020
00000000
00000230
00000000
00000000
00000000
00002300
00000000
00000000
00000000
,
00003002
00000000
00000000
00000203
00000000
00000000
00002300
00000000
00023000
00000000
00000000
00000000
00030000
00000000
00100000
01000000
,
00200000
00000000
00000000
20300000
00000000
00000000
30020000
00000000
00000000
00000000
00000000
00000000
00030000
00000000
00200000
00000000
,
02300000
00000000
00000000
03020000
00000000
00000000
00032000
00000000
00000000
00000000
00100000
00000000
00100000
00000000
00103000
00000000
,
00011000
00000000
00000000
00010010
00000000
00000000
00000010
00001000
00000001
00000000
00000000
00000000
00000010
00000100
00001000
00000000
,
00000001
00000100
00000000
00001000
00000100
00000000
00001000
00010000
00000001
00000000
00000000
00000000
00002001
00000000
00000000
00000000
,
00000100
00000000
00000001
00000000
00000010
00000000
00013000
01010000
,
00000000
00000000
00000000
00000000
00000000
00000000
00000000
00000000
00010000
00100000
01000000
10000000
00020000
00000000
00000000
00000000
,
01000000
00000000
10000000
00000000
00100000
00000000
00031000
00001100
,
00000000
00000000
00000100
00000010
00000001
00000000
00000000
00001001
00000000
00000000
00001000
00000000
00000010
00000100
00000001
00000000
,
00000010
00000100
00001000
00000000
00000010
00000000
00000100
00000000
00001000
00000000
00010000
00000000
00100000
01000000
00010000
00000000
,
00100000
01000000
10000000
00000000
00100000
00000000
01000000
00000000
00001000
00000000
00010000
00000000
00000010
00001000
00000010
00001000
,
00000001
00000100
00000001
00000100
00000010
00001000
00000010
00010000
00001000
00100000
00010000
00100000
02000000
00000000
00000000
00000000
,
13000000
00010000
10000000
00010000
00200000
00300000
00000000
00000000
01000000
00000000
00000000
00000000
00100000
00000000
00010000
00000000
01000000
00000000
00000000
00000000
00100000
00000000
10000000
00000000
01000000
00000000
00000000
00000000
00100000
00000000
00010000
00000000
,
00100000
00001000
00010000
00000000
00000010
00001000
00000100
00000000
00000010
00000001
00000000
00000100
00000001
00000000
00000010
00000100
,
00002000
00000000
00000001
00000000
00000001
00000000
00003010
00000000
00001000
00000100
00000000
00010000
00001000
00000000
00100000
00010000
,
10000000
00010000
00100000
00000000
01000000
10000000
00000000
00100000
01000000
00010000
01000000
00010000
00100000
00001000
00000000
00011000
,
00000000
00010000
00000200
00000000
00001300
00000010
00000000
00000001
00000010
00000000
00001000
00000001
00000100
00000000
00000010
00001000
,
00000001
00001000
00000010
00000000
00010000
00001000
00100000
00001000
00010000
00000000
00000000
00101000
00000000
00000000
02010000
00000000
,
00000000
00000000
03100000
00000000
00000000
00000000
00000000
00000000
10010000
00000000
00000000
00000000
10000000
01000000
00000000
00100000
01000000
00000000
00100000
00010000
00100000
00001000
00010000
00000000
00000020
00000000
00001030
00000000
00000000
00000000
00000010
00000000
,
00000100
00000000
00000001
00000010
00000000
00000100
00000010
00000000
00000100
00001000
00000100
00010000
00001000
00000000
00100000
00010000
,
01000000
00000000
00100000
10000000
01000000
00000000
00100000
00010000
01000000
00000000
00001000
00000000
00010000
00000010
00001000
00000010
,
00010000
00000000
00001000
00000000
00000010
00000100
00000010
00000001
00001000
00000000
00000010
00000100
00002000
00000000
00023000
00000000
,
00130000
00000000
01000000
00100000
10000000
00000000
00010000
10000000
00100000
10000000
00010000
00000000
00100000
01000000
00000000
01000000
,
00010000
00001000
00010000
00001000
00000010
00000100
00000000
00000110
00000000
00000010
00000001
00000000
00001000
00000010
00000000
00000001
,
00000010
00000000
00000000
00000000
00000000
00000000
00001000
00000000
00000000
00000000
00000000
00000000
00000001
00000000
00000000
00000100
00000000
00000000
00001000
00000000
00000000
00010000
00000000
00000000
00100000
00000000
00000000
00000000
00000000
00000000
20000000
00000000
00000000
00000000
00000000
00000000
30010000
00000000
00000000
00000000
00010000
00000000
00000000
00000000
00000000
00100000
00000000
00000000
,
00000000
00110000
00000000
11000000
00000000
01000000
00010000
00001000
00010000
00000000
00001000
00000000
00000010
00000100
00001000
00000100
,
00000010
00000000
00000000
00000001
00000000
00000000
00001000
00000000
00000000
00000000
00000000
00000000
00000010
00000000
00000000
00000100
00000000
00000000
00002000
00000000
00000000
00000000
00000000
00000000
00013000
00000000
00000000
00100000
00000000
00000000
02000000
00000000
00000000
00000000
00000000
00000000
03010000
00000000
00000000
00000000
10000000
00000000
00000000
00000000
00000000
10010000
00000000
00000000
,
00000000
00000000
00000000
00010000
00000000
00000000
00100000
00000000
00000000
01000000
00000000
00000000
10000000
00000000
00000000
00000000
10000000
00000000
00000000
00000000
00000000
02020000
00000000
00000000
00000000
00000000
00000000
00000000
00000000
00000000
03030000
00000000
00000000
00000000
00000000
00000000
20000000
00000000
00000000
00000000
00000000
00000000
01000000
00000000
00000000
00000000
00000000
00000000
,
00000000
30010000
00100000
00001000
00010000
00000000
00000020
00001000
,
00000000
00000000
00000130
00000000
00000001
00000000
00001000
00000010
00000100
00000000
00000001
00000000
00000010
00000100
00010000
00000000
,
00001000
00100000
01000000
00000000
00100000
00000000
00001000
00010000
00001000
00000000
00010000
00000000
00100000
01000000
00001000
00000000
,
00010000
00000010
00000100
00000000
00000001
00001000
00000010
00001000
00000001
00000000
00000000
00000000
00000020
00000000
00000100
00000000
,
00000000
00000031
00001000
00000100
00010000
00000000
00002000
00100000
,
00000000
00000000
00013000
00000000
01000000
00000000
00100000
00010000
10000000
00000000
10000000
00000000
00100000
01000000
00001000
00000000
,
00010000
00000010
00000100
00000000
00001000
00000000
00010000
00001000
00010000
00000100
00001000
00000010
00000000
00000100
00000001
00000100
,
00000000
00001000
00010000
00001000
00100000
00000000
01000000
10000000
00200000
00000000
00000000
00000000
10300000
00000000
10000000
01000000
,
00010000
00000000
00000000
00000000
00011000
00000000
00000000
00001000
00000010
00000000
00000010
00000000
00000001
00000000
00000001
00000100
,
00001000
00000000
00000000
00001000
00010000
00000000
00000000
02200000
00000000
00000000
03300000
00000000
10010000
00000000
00000000
00000000
,
00110000
00000000
00000000
00011000
00000000
00000000
00001100
00000000
00000000
00000000
00000000
00000000
00002001
00000000
00000000
00003000
00000000
00000000
00000010
00000000
00001000
00000000
00010000
00000000
,
01000000
00000000
00000000
00100000
10000000
01000000
00000000
00100000
00010000
01000000
00010000
00000000
00100000
01000000
00000000
10000000
,
01000000
00000000
00000000
00000000
00000000
00000000
00010000
00000000
00000000
00000000
00000000
00000000
00001000
00000000
00000000
00000000
00000010
00000000
00000000
00000000
00000100
00000000
00000000
00000000
00002000
00000000
00000000
00000000
00000000
00000000
00000000
00000000
00000000
00000000
00000000
00000000
00003001
00000000
00000000
00000100
00000000
00000000
00000000
00000000
00000000
00001000
00000000
00000000
,
00000100
00000001
00001000
00000010
00010000
00001000
01000000
00010000
00200000
00000000
00000000
00000000
00300000
01000000
10000000
00000000
,
01000000
00010000
00000000
00001000
00010000
00000000
00001000
00000010
00000000
00000001
00000020
00000000
00000030
00000100
00001000
00000000
,
00000010
00000100
00000000
00001000
00010000
00000000
01000000
00100000
00000000
00010000
02000000
00000000
03000000
00100000
00100000
00000000
,
10000000
10000000
00000000
01000000
01000000
00000000
00010000
00010000
00000000
00001000
00001000
00010000
00001000
00010000
00000000
00011000
,
00000000
00000000
00011000
00000000
00001000
00000010
00000100
00000010
00000001
00000100
00001000
00000000
00010000
00100000
01000000
00100000
,
10000000
01000000
00100000
01000000
00010000
00001000
00100000
00001000
00010000
00000000
00011000
00000000
00000100
00001000
00000010
00000100
,
00000001
00000010
00001000
00010000
00000100
00001000
00000010
00000000
00000100
00000000
00001001
00000000
00000001
00000010
00000100
00010000
,
00000100
00000000
00000000
00000010
00000000
00000000
00000100
00000000
00000000
00010000
00000000
00000000
00001000
00000000
00000000
00100000
00000000
00000000
00001000
00000000
00000000
00010000
00000000
00000000
01000000
00000000
00000000
00100000
00000000
00000000
00010000
00000000
00000000
00000000
00000000
00000000
10000000
00000000
00100000
00000000
10000000
00000000
00100000
00000000
00000000
00000000
00000000
00000000
,
01000000
00000000
00010000
00000000
01000000
00000000
00010000
00000000
00000000
00000000
00000000
00000000
20010000
00000000
00000000
00000000
00000000
00000000
00000000
00000000
00000000
00000000
00000000
00000000
30010000
00000000
00000000
00100000
00000000
00000000
01000000
00000000
00000000
10000000
00000000
00000000
00010000
00000000
00000000
01000000
00000000
00000000
10000000
00000000
00000000
01000000
00000000
00000000
,
00010000
00100000
00000000
00011000
00000000
00000100
00001000
00000010
00000100
00000001
00000010
00000000
00000001
00000100
00000010
00000100
,
00001000
00010000
00000000
00011000
00000000
00001000
00100000
00010000
01000000
00100000
10000000
00000000
01000000
00010000
00001000
00100000
,
00000000
00000000
00000000
00001000
00000000
00000000
00010000
00000000
00000000
00000100
00000000
00000000
00010000
00000000
00000000
00001000
00000000
00000000
00000010
00000000
00000000
00000100
00000000
00000000
00000010
00000000
00000000
00000001
00000000
00000000
00000100
00000000
00000000
00000000
00000000
00000000
00000010
00000000
00001000
00000000
00000010
00000000
00002000
00000000
00000000
00000000
00000000
00000000
,
00000000
00000000
00000000
00003000
00000000
00000000
00000100
00000000
00000000
00010000
00000000
00000000
00001000
00000000
00010000
00000000
00001000
00000000
00010000
00000000
00001000
00000000
00010000
00000000
00100000
00000000
00000000
00000000
00000000
00000000
00100000
00000000
00000000
00000000
00000000
00000000
02100000
00000000
00000000
00000000
00000000
00000000
00000000
00000000
00000000
00000000
00000000
00000000
,
03010000
00000000
10000000
00100000
01000000
00000000
00010000
00100000
00001000
00010000
00000100
00000000
00000010
00001000
00000000
00000010
,
00000001
00000000
00000000
00001000
00000000
00000000
00000100
00000000
00000010
00000000
00000100
00000000
00000010
00000000
00000000
00000001
00000000
00000000
00000000
00000000
00000000
00000101
00000000
00000000
00000000
00000000
00000000
00001000
00000000
00000000
00000010
00000000
00000000
00010000
00000000
00000000
00001000
00000000
00000000
00000010
00000000
00000000
00000000
00000000
00000000
00000100
00000000
00000000
,
00001000
00000000
00000000
00000000
00000000
00000000
00000100
00000000
00000000
00010000
00000000
00000000
00001000
00000000
00100000
00000000
00010000
00000000
00100000
00000000
00000000
01000000
00000000
00000000
00010000
00000000
00000000
00001000
00000000
00000000
00000000
00000000
00000000
00100000
00000000
00000000
00002000
00000000
00000000
00000000
00000000
00000000
00013000
00000000
00000000
00000100
00000000
00000000
,
00020000
00000000
00000000
00000000
00000000
00000000
00031000
00000000
00000000
00000010
00000000
00000000
00000100
00000000
00000010
00000000
00000100
00000000
00000010
00000000
00000000
00000001
00000000
00000000
00002000
00000000
00000000
00000000
00000000
00000000
00000000
00000000
00000000
00000000
00000000
00000000
00003010
00000000
00000000
00000100
00000000
00000000
00000000
00000000
00000000
00001000
00000000
00000000
,
00010000
00001000
00100000
00010000
01000000
00000000
01100000
00000000
10010000
00000000
00000000
00000000
10000000
01000000
00000000
00010000
,
00001000
00100000
00001000
00010000
00000100
00000000
00001100
00000000
00000011
00000000
00000000
00000000
00000001
00000100
00001000
00010000
,
00100000
00000000
00000000
10000000
00000000
00000000
00020000
00000000
00000000
00000000
00000000
00000000
00000000
00000000
00000000
00000000
00000000
00000000
00130000
00000000
00000000
01000000
00000000
00000000
00100000
00000000
01000000
00000000
00100000
00000000
01000000
00000000
00000000
00000000
00000000
00000000
10000000
00000000
00000000
01000000
00000000
00000000
00010000
00000000
00000000
00001000
00000000
00000000
,
00000010
00000001
00002000
00000000
00000000
00000000
00003010
00000100
00000001
00000010
00000100
00000000
00001000
00000001
00000010
00001000
,
00010000
00000100
00010000
00001000
00000010
00000100
00010000
00001000
00100000
00001000
00010000
01000000
00200000
00000000
00000000
00000000
,
00000000
00000000
00000000
00000000
00000000
00000000
00000000
00000000
00000000
00000000
00000000
00000000
00300000
00000000
00000000
00000000
00000000
00000000
00000000
00000000
00000000
00000000
00000000
00000000
00010000
00000000
10000000
00000000
00010000
00000000
10000000
00000000
00010000
00000000
10000000
00000000
00010000
00000000
00000000
00100000
00000000
00000000
00000000
00000000
00000000
01000000
00000000
00000000
,
00010000
00000000
00001000
00000010
00000000
00000100
00000001
00000100
00002000
00000000
00000000
00000000
00003010
00000100
00000001
00000100
,
00000010
00001000
00000100
00000010
00001000
00000000
00010000
00001000
00010000
00000000
00010000
01000000
10000000
01000000
00000000
00100000
,
01000000
00000000
00100000
00001000
00000000
00000000
00011000
00000000
00000000
00000110
00000000
00000000
00002001
00000000
00000000
00000000
,
00003010
00000000
00000000
00000000
00000010
00000100
00001000
00010000
00200000
00000000
00300000
00000000
01000000
00100000
00010000
00001000
,
00000100
00000000
00000100
00000001
00000010
00000001
00000100
00000010
00002000
00000000
00003200
00000000
00010300
00001000
00100000
00010000
,
00100000
00001000
00010000
01000000
10000000
00000000
00010000
00100000
00001000
00000000
00011000
00000000
00010000
00000010
00000000
00001010
,
00000000
00000001
00000100
00001000
00000100
00000001
00000000
00000011
00000000
00000010
00000100
00010000
00002000
00000000
00000000
00000000
,
00103000
00010000
01000000
00100000
10000000
01000000
00100000
00001000
00010000
00000100
00001000
00000000
00000001
00000100
00000010
00000100
,
00000001
00000000
00000000
00001000
00000000
00000000
00000010
00000000
00001000
00000000
00000010
00000000
00010000
00000000
00000000
00001000
00000000
00000000
00100000
00000000
00000000
00010000
00000000
00000000
01000000
00000000
00000000
00100000
00000000
00000000
10000000
00000000
00000000
01000000
00000000
00000000
00200000
00000000
00000000
00000000
00000000
00000000
00000000
00000000
00000000
00000000
00000000
00000000
,
00000000
00000000
00000000
00000000
00000000
00000000
00000000
00000000
00000000
00000000
00000000
00000000
01300000
00010000
00001000
00010000
,
00000100
00001000
00000010
00000100
00001000
00010000
00100000
01000000
00010000
10000000
00100000
00000000
02200000
00000000
00000000
00000000
,
00000000
03300000
00000000
00000000
;
