#VERSION:0.83;
#TITLE:Invitation from Mr.C;
#SUBTITLE:;
#ARTIST:C-Show;
#TITLETRANSLIT:;
#SUBTITLETRANSLIT:;
#ARTISTTRANSLIT:;
#GENRE:HOLIC;
#CREDIT:;
#MUSIC:Invitation from Mr.C.ogg;
#BANNER:Invitation from Mr.C.png;
#BACKGROUND:Invitation from Mr.C-bg.png;
#CDTITLE:./CDTitles/SDVX III GRAVITY WARS.png;
#SAMPLESTART:18.778;
#SAMPLELENGTH:15.000;
#SELECTABLE:YES;
#OFFSET:-0.001;
#BPMS:0.000=230.000
,240.000=115.000
,243.000=230.000
,260.000=115.000
,279.000=57.500
,279.500=115.000
,280.500=57.500
,281.000=115.000
,282.000=57.500
,282.500=115.000
,283.500=57.500
,284.000=115.000
,290.000=230.000
;
#STOPS:240.000=0.783
,243.000=0.522
,290.000=0.783
;
#TIMESIGNATURES:0.000=4=4,
288.000=3=4,
291.000=4=4
;
#DISPLAYBPM:115.000:230.000;
#BGCHANGES:0.000=../BGAs/17te.mp4=1.000=0=0=0=StretchNoLoop====,
99999.000=-nosongbg-=1.000=0=0=0=StretchNoLoop====
;
#FGCHANGES:;

//--------------- dance-single - forcednature ----------------
#NOTEDATA:;
#STEPSTYPE:dance-single;
#DESCRIPTION:forcednature;
#CREDIT:forcednature;
#DIFFICULTY:Beginner;
#METER:4;
#RADARVALUES:0,0,0,0,0;
#NOTES:
0000
0000
0000
0000
,
0000
0000
0000
0000
,
0000
0000
0000
0000
,
0000
0000
0000
0000
,
0000
0000
0000
0000
,
0000
0000
0000
0000
,
0000
0000
0000
0000
,
0000
0000
0000
0000
,
0000
0000
0000
0000
,
0000
0000
0000
0000
,
0001
0000
0000
0000
,
0000
0000
0000
0000
,
1000
0000
0000
0000
,
0000
0000
0000
0000
,
0010
0000
0000
0000
,
0000
0000
0000
0000
,
0100
0000
0000
0000
,
0000
0000
0000
0000
,
0001
0000
0000
0001
,
0000
0000
0001
0000
,
0000
0000
1000
0000
,
0000
0000
0001
0000
,
1000
0000
0000
1000
,
0000
0000
1000
0000
,
0000
0000
0001
0000
,
0000
0000
1000
0000
,
0010
0000
0000
0010
,
0000
0000
0010
0000
,
0100
0000
0000
0100
,
0000
0000
0100
0000
,
0010
0000
0000
0010
,
0000
0000
0010
0000
,
2002
0000
0000
0000
,
0000
0000
0000
0000
,
0000
0000
0000
0000
,
0000
0000
0000
0000
,
3003
0000
0000
0000
,
0000
0000
1000
0000
,
0000
0000
1000
0000
,
0000
0000
0001
0000
,
0000
0000
0100
0000
,
0000
0000
0001
0000
,
0000
0000
0001
0000
,
0000
0000
1000
0000
,
0000
0000
0000
0000
,
0100
0000
0000
0000
,
0010
0000
0000
0000
,
0001
0000
0000
0000
,
0100
0000
0000
0000
,
0001
0000
0000
0000
,
1000
0000
0000
0000
,
0010
0000
0000
0000
,
1000
0000
0000
0000
,
0100
0000
0000
0000
,
0010
0000
0000
0000
,
0001
0000
0000
0000
,
0100
0000
0000
0000
,
0110
0000
0000
0000
,
0010
0000
0000
0000
,
2002
0000
0000
0000
,
3003
0000
0000
0000
,
0220
0000
0000
0000
,
0000
0000
0000
0000
,
0000
0000
0000
0000
,
0000
0000
0000
0000
,
0330
0000
0000
0001
,
0000
0001
0000
1000
,
0000
1000
0000
0010
,
0000
0010
0000
0100
,
0000
0000
0000
0000
0001
0000
0000
1000
,
0000
0000
0001
0000
0000
1000
0000
0000
,
2002
0000
0000
0000
,
0000
0000
3003
1000
,
0000
0000
0000
0100
,
0000
1000
0000
0100
,
0000
0000
0000
1000
,
0000
1000
0000
0001
,
0000
0000
0000
0100
,
0000
0001
0000
0100
,
0000
0000
0000
0001
,
0000
0001
0000
0010
,
0000
0000
0000
0100
,
0000
0010
0000
0100
,
0000
0000
0000
0010
,
0000
0010
0000
0001
,
0000
0000
0000
1000
,
0000
0001
0000
1000
,
0000
0000
0000
0010
,
0000
0000
0000
0000
,
0000
0100
0000
0000
,
0000
0100
0000
0001
,
0000
0010
0000
0000
,
0000
0010
0000
0100
,
0000
0000
1001
0000
;

//--------------- dance-single - forcednature ----------------
#NOTEDATA:;
#STEPSTYPE:dance-single;
#DESCRIPTION:forcednature;
#CREDIT:forcednature;
#DIFFICULTY:Easy;
#METER:8;
#RADARVALUES:0,0,0,0,0;
#NOTES:
0000
0000
0000
0000
,
0000
0000
0000
0000
,
0000
0000
0000
0000
,
0000
0000
0000
0000
,
0000
0000
0000
0000
,
0000
0000
0000
0000
,
0000
0000
0000
0000
,
0000
0000
0000
0000
,
0000
0000
0000
0000
,
0000
0000
0000
0000
,
0001
0000
0100
0000
,
0001
0000
0100
0000
,
0010
0000
1000
0000
,
0010
0000
0000
0000
,
1000
0000
0001
0000
,
1000
0000
0001
0000
,
0010
0000
0010
0000
,
0110
0000
0000
0000
,
0001
0000
0000
1000
0000
0000
0001
0000
,
0000
1000
0000
0000
0001
0000
0001
0000
,
0100
0000
0010
0000
,
1000
0000
0010
0000
,
1000
0000
0000
0001
0000
0000
1000
0000
,
0000
0001
0000
0000
1000
0000
1000
0000
,
0100
0000
0010
0000
,
0001
0000
0010
0000
,
0100
0000
0000
0010
0000
0000
0100
0000
,
0000
0010
0000
0000
0100
0000
0100
0000
,
1000
0000
0000
0001
0000
0000
1000
0000
,
0000
0001
0000
0000
1000
0000
1000
0000
,
0010
0000
0000
0100
0000
0000
0010
0000
,
0000
0100
0000
0000
0010
0000
0010
0000
,
2002
0000
0000
0000
,
0000
0000
0000
0000
,
0000
0000
0000
0000
,
0000
0000
0000
0000
,
3003
0000
0000
0000
,
1000
0000
1000
0000
,
1000
1000
1000
0000
,
0010
0000
0010
0000
,
0010
0010
0010
0000
,
0100
0000
0100
0000
,
0100
0100
0100
0000
,
0001
0000
0001
0000
,
0001
0001
0001
0000
,
1001
0000
1000
0000
,
0100
0000
1000
0000
,
0001
0000
0010
0000
,
0001
0000
0000
0000
,
0100
0000
0001
0000
,
0100
0000
0010
0000
,
1000
0000
0010
0000
,
0100
0000
0000
0000
,
1001
0000
1000
0000
,
0100
0000
1000
0000
,
0001
0000
0100
0000
,
0010
0000
0000
0000
,
0110
0000
0100
0000
,
1001
0000
0010
0000
,
0110
0000
0000
0000
,
1001
0000
0000
1000
0000
0001
0000
0000
,
2002
0000
0000
0000
,
0000
0000
0000
0000
,
0000
0000
0000
0000
,
0000
0000
0000
0000
,
3003
0000
1000
0100
,
1000
0100
1000
0000
0000
0000
0001
0000
,
0100
0001
0010
0001
,
0010
0001
0010
0000
0000
0000
1000
0000
,
0010
0000
1000
0000
2002
0000
3003
0220
,
0000
0330
2002
0000
3003
0220
0000
0330
,
2002
0000
0000
0000
,
0000
0000
3003
1000
,
0100
0010
0000
0010
,
0100
1000
0000
0001
,
0100
0010
1000
0010
,
0100
0001
0000
0010
,
0100
1000
0000
0100
,
0010
0001
0000
1000
,
0010
0100
0001
0100
,
0000
0110
0000
0010
,
1000
0001
0010
0001
,
1000
0010
0000
0100
,
0001
1000
0001
0010
,
0000
0110
0000
0100
,
1000
0010
1000
0001
,
0010
0001
0000
0100
,
0010
1000
0001
0010
,
0100
0010
0100
1000
,
0000
1000
0000
1000
,
1000
1000
0000
0001
,
0000
0001
0000
0001
,
0001
0001
0000
0100
,
0000
0010
0000
0000
0110
0000
0000
0000
;

//--------------- dance-single - forcednature ----------------
#NOTEDATA:;
#STEPSTYPE:dance-single;
#DESCRIPTION:forcednature;
#CREDIT:forcednature;
#DIFFICULTY:Medium;
#METER:12;
#RADARVALUES:0,0,0,0,0;
#NOTES:
0000
0000
0000
0000
,
0000
0000
0000
0000
,
0000
0000
0000
0000
,
0000
0000
0000
0000
,
0000
0000
0000
0000
,
0000
0000
0000
0000
,
0000
0000
0000
0000
,
0000
0000
0000
0000
,
0000
0000
0000
0000
,
0000
0000
0000
0000
,
1001
0000
1000
0100
,
0010
0001
1000
0010
,
0100
0000
0001
0010
,
0100
1000
0010
0000
,
0110
0000
0100
0001
,
0010
0001
1000
0010
,
0100
0000
0000
0100
0000
0100
0000
0000
,
2002
0000
3003
0000
,
1200
0000
0000
0302
0000
0000
2003
0000
,
0000
3020
0000
0000
0032
0000
0103
0000
,
0110
0000
0010
1000
,
0100
0010
0001
0000
,
0201
0000
0000
2300
0000
0000
3002
0000
,
0000
0023
0000
0000
2030
0000
3200
0000
,
0310
0000
0010
0000
0010
0100
0000
0100
,
0010
0000
0100
0010
0100
0000
1000
0000
,
1020
0000
0000
0032
0000
0000
2003
0000
,
0000
3200
0000
0000
0302
0000
0013
0000
,
0021
0000
0000
2030
0000
0000
3002
0000
,
0000
0203
0000
0000
2300
0000
3010
0000
,
0210
0000
0000
2300
0000
0000
3002
0000
,
0000
0023
0000
0000
2030
0000
3100
0000
,
0120
0000
0001
0001
,
0001
0000
0100
0100
,
0100
0000
1000
1000
,
1000
0000
0100
0100
,
0200
0000
0330
0000
,
0001
0000
0100
0010
0100
0000
0001
0000
,
1000
0000
0100
0010
0200
0000
0300
0000
,
1000
0000
0010
0100
0010
0000
1000
0000
,
0001
0000
0010
0100
0010
0000
0100
0000
,
1000
0000
0100
0010
0100
0000
1000
0000
,
0001
0000
0100
0010
0200
0000
0300
0000
,
0001
0000
1000
0010
1000
0000
0100
0000
,
0010
0000
0001
1000
0002
0000
0003
0000
,
0101
1000
0001
0010
,
0100
1000
0001
0000
1000
0100
0010
0000
,
0001
1000
0000
0001
0100
0000
0010
0000
,
1000
0100
0010
0000
0100
1000
0000
0001
,
0010
0000
0001
1000
0001
0000
0100
0001
,
0100
0010
1000
0001
,
0010
0100
0000
1000
0001
0000
0100
0000
,
0010
1000
0010
1000
0002
0000
0023
0000
,
0130
1000
0100
0000
0010
0001
1000
0000
,
0010
0100
0001
0000
1000
0100
1000
0000
,
0001
0100
0010
0000
1000
0000
0001
0000
,
0010
0100
1000
0000
0020
0000
0230
0000
,
0301
1000
0001
0100
0010
0000
0010
0000
,
1000
0001
1000
0100
0010
0000
0010
0000
,
0220
0000
0000
0000
,
0330
0000
0000
0000
0000
0000
0001
0000
0000
0000
1000
0000
0020
0030
0000
0000
,
2002
0000
0000
0000
,
0000
0000
0000
0000
,
0000
0000
0000
0000
,
0000
0000
0000
0000
,
3003
0000
0000
0000
0000
0000
0000
0000
1000
0000
0100
0000
0010
0100
0000
0010
,
0001
0000
0010
0200
0000
0000
0300
0000
1000
0000
0010
0000
0100
0001
0000
0100
,
0010
0000
1000
0001
1000
0000
0100
0000
0010
0000
0001
0000
0100
0010
0000
0100
,
0001
0000
0100
0020
0000
0000
0030
0000
1000
0000
0001
0000
0010
0100
0000
1000
,
0001
0000
1000
0010
0100
0000
0001
0000
0011
0000
0000
0000
0100
0100
1100
0000
,
0000
0000
0010
0000
0011
0000
0000
0000
0001
0001
0101
0000
0000
0000
1000
1000
,
2002
0000
0000
0000
,
0000
0000
0000
0000
3003
0000
0001
0100
,
0001
0000
1000
0010
1000
0000
0001
0010
,
0100
1000
0100
0000
0010
0000
0001
0100
,
0001
0000
1000
0100
1000
0000
0010
0100
,
0010
1000
0010
0100
0010
0000
1000
0001
,
0010
0000
0001
1000
0010
0000
0100
0001
,
1000
0100
1000
0000
0001
0000
0100
0010
,
1000
0000
0100
0010
0001
0000
0202
0000
,
0303
0000
2020
0000
3030
0000
1000
0100
,
0010
0100
1000
0000
0001
0000
0010
0100
,
0010
0001
1000
0000
0010
0000
0100
0001
,
0100
0010
1000
0000
0001
0000
0010
0100
,
1000
0100
0010
0100
2000
0000
3001
0000
,
0010
0100
0010
0001
1000
0000
1010
0000
,
0010
0100
0010
1000
0001
0000
1001
0000
,
1000
0100
0010
0001
0100
0000
0020
0000
,
0000
0000
0030
0100
,
0001
0010
0001
0000
0100
0000
0001
0000
,
0010
0100
0020
0000
0030
0000
1001
0000
,
1000
0010
1000
0000
0001
0000
0010
0100
,
1000
0001
0100
0000
0100
0000
0020
0000
,
0030
0220
0000
0330
2002
0000
0000
3003
;

//--------------- dance-single - forcednature ----------------
#NOTEDATA:;
#STEPSTYPE:dance-single;
#DESCRIPTION:forcednature;
#CREDIT:forcednature;
#DIFFICULTY:Hard;
#METER:16;
#RADARVALUES:0,0,0,0,0;
#NOTES:
0000
0000
0000
0000
,
0000
0000
0000
0000
,
0000
0000
0000
0000
,
0000
0000
0000
0000
,
0000
0000
0000
0000
,
0000
0000
0000
0000
,
0000
0000
0000
0000
,
0000
0000
0000
0000
,
0000
0000
0000
0000
,
0000
0000
0000
0000
,
0001
0001
0100
0100
,
0010
0010
1000
1000
,
0001
0001
0010
0010
,
0100
0100
2000
3000
,
0001
0100
0001
0100
0010
1000
0010
1000
,
0001
0010
0001
0010
0100
1000
0100
1000
,
0001
0000
0000
1001
0000
0110
0000
1000
,
0020
0000
0000
0030
,
1000
0100
0001
1000
0010
0001
1000
0100
,
0001
1000
0010
0001
1000
0100
0001
0100
,
0110
0000
0010
0001
0100
0000
0001
0010
,
0100
0000
0010
0001
0100
0000
0110
0000
,
0001
0100
1000
0001
0010
1000
0001
0100
,
1000
0001
0010
1000
0001
0100
1000
0100
,
0110
0000
0010
0000
0010
1000
0000
1000
,
0100
0100
1000
0001
0100
0000
0110
0000
,
1000
0010
0001
1000
0100
0001
1000
0010
,
0001
1000
0100
0001
1000
0010
0001
0010
,
1000
0100
0001
1000
0010
0001
1000
0100
,
0001
1000
0010
0001
1000
0000
0110
0000
,
0001
0100
1000
0001
0010
1000
0001
0100
,
1000
0001
0010
1000
0001
0100
1000
0100
,
0120
1000
1000
0100
,
0100
0001
0001
0100
,
1030
0001
1000
0001
0100
0010
0100
0010
,
1000
0100
1000
0100
0010
0001
0010
0001
,
0200
0000
0000
0300
,
0001
0010
0001
0100
0001
0010
0001
0100
,
0001
0010
0001
0100
0010
0000
1001
0000
,
1000
0010
1000
0100
1000
0010
1000
0100
,
1000
0010
1000
0100
0010
0001
0100
0000
,
0001
0010
0001
0100
0001
0010
0001
0100
,
0001
0010
0001
0100
0010
0000
1001
0000
,
1000
0010
1000
0100
1000
0010
1000
0100
,
0010
0001
0100
0010
2000
0000
3002
0000
,
0103
0010
0100
0001
0010
0100
0010
0001
,
0000
0100
0010
1000
0100
0010
0100
1000
,
0001
0100
0000
0010
1000
0001
0010
0001
,
0100
1000
0100
0001
0000
0010
0100
1000
,
0100
0010
0100
1000
0010
0100
0010
1000
,
0000
0100
0010
0001
0100
0010
0100
0001
,
1000
0100
0000
0010
0001
1000
0010
1000
,
0200
0300
0200
0300
0110
0000
1001
0000
,
1000
0010
0100
1000
0100
0010
1000
0001
,
0000
0010
0100
1000
0001
0010
1000
0010
,
0100
1000
0000
0001
0100
0010
1000
0010
,
0100
1000
0100
0001
0020
0000
0130
0000
,
1001
0000
0001
0100
1000
0100
0001
0000
,
1001
0000
1000
0100
0001
0100
1000
0000
,
0001
1000
0010
0000
0000
0100
0010
1000
,
0002
0003
0000
0000
0010
0000
0100
0000
1000
0001
1000
0000
0020
0030
0000
0000
,
1002
1000
1000
1000
,
1000
1000
1000
1003
,
0001
1000
0001
1000
0001
1000
0001
1000
,
0010
0100
0010
0100
0010
0100
0010
0100
,
0002
0000
0000
0000
1000
0000
1003
0000
0110
0000
1000
0000
0100
0001
0100
1000
,
0001
0100
1000
0100
0020
0000
0000
0000
1030
0100
0010
0100
0001
0100
0000
0100
,
1000
0001
0010
0100
1000
0010
0100
1000
0100
0000
0001
0000
0100
1000
0100
0001
,
1000
0100
0001
0100
0020
0000
0000
0000
0031
0100
0010
0100
1000
0100
0000
0100
,
0001
0000
1000
0000
0010
0000
0100
0000
0001
0000
0000
0000
1000
0000
0000
0000
1001
0000
0000
0000
0000
0000
0000
0000
0020
0030
0020
0030
0110
0000
0000
0000
,
0000
0000
0000
0000
0200
0000
0300
0000
1001
0000
0000
0000
1000
0000
0001
0000
0200
0320
2030
3000
0110
0000
0000
0000
0000
0000
0000
0000
0020
0230
0320
0130
,
2002
0000
0000
0000
,
0000
0000
0000
0000
3003
0000
1000
0100
,
0010
0100
0010
0000
0100
0000
0010
0000
0001
0000
1000
0000
0000
0000
0001
0000
,
0100
0010
0100
1000
0100
0001
1000
0001
,
0010
0001
0010
0000
0100
0000
0010
0000
0100
0000
1000
0000
0001
0000
0100
0000
,
1000
0100
0001
0100
1000
0100
0010
1000
,
0010
0100
0010
0000
0100
0000
0001
0000
1000
0000
0001
0000
0000
0000
0010
0000
,
0100
0001
0100
0010
0100
1000
0001
0100
,
0010
0100
0010
0000
0100
0000
0010
0000
1000
0000
0001
0000
1000
0000
0100
0000
,
0001
0100
1000
0100
0001
0100
0010
0001
,
1000
0100
1000
0000
0001
0000
0100
0000
0010
0000
1000
0000
0001
0010
0001
0000
,
1000
0010
0100
0010
0001
0010
0100
0001
,
1000
0010
1000
0000
0001
0000
0010
0000
0100
0000
1000
0000
0010
0000
0001
0000
,
0010
1000
0010
0000
0110
0000
0100
0001
,
0010
0001
0010
0000
0100
0000
1000
0000
0001
0000
0100
0000
0010
1000
0010
0000
,
0100
1000
0100
0010
0100
0001
1000
0001
,
0010
0001
0010
0000
0100
0000
0010
0000
0100
0000
1000
0000
0002
0000
0000
0000
,
0103
0000
2000
0000
3100
0000
1000
0100
,
0010
0100
1000
0010
0100
0010
1000
0100
,
0010
0100
2000
0000
3002
0000
0103
0010
,
0001
0010
0100
0001
0010
0100
0001
0100
,
1000
0001
0010
1000
0010
0001
0202
0000
,
0303
2200
0000
3300
2020
0000
0000
3030
;

//--------------- dance-double - forcednature ----------------
#NOTEDATA:;
#STEPSTYPE:dance-double;
#DESCRIPTION:forcednature;
#CREDIT:forcednature;
#DIFFICULTY:Easy;
#METER:8;
#RADARVALUES:0,0,0,0,0;
#NOTES:
00000000
00000000
00000000
00000000
,
00000000
00000000
00000000
00000000
,
00000000
00000000
00000000
00000000
,
00000000
00000000
00000000
00000000
,
00000000
00000000
00000000
00000000
,
00000000
00000000
00000000
00000000
,
00000000
00000000
00000000
00000000
,
00000000
00000000
00000000
00000000
,
00000000
00000000
00000000
00000000
,
00000000
00000000
00000000
00000000
,
00001000
00000000
00010000
00000000
,
00001000
00000000
00010000
00000000
,
00000100
00000000
00001000
00000000
,
00000100
00000000
00000000
00000000
,
00000010
00000000
00000001
00000000
,
00000010
00000000
00000001
00000000
,
00000100
00000000
00000100
00000000
,
00000110
00000000
00000000
00000000
,
00001000
00000000
00000000
00000001
00000000
00000000
00001000
00000000
,
00000000
00000001
00000000
00000000
00001000
00000000
00000000
00000000
,
00000100
00000000
00010000
00000000
,
00001000
00000000
01000000
00000000
,
00010000
00000000
00000000
10000000
00000000
00000000
00010000
00000000
,
00000000
10000000
00000000
00000000
00010000
00000000
00000000
00000000
,
01000000
00000000
00001000
00000000
,
00100000
00000000
00001000
00000000
,
00010000
00000000
00000000
00000100
00000000
00000000
00010000
00000000
,
00000000
00000100
00000000
00000000
00010000
00000000
00000000
00000000
,
00001000
00000000
00000000
01000000
00000000
00000000
00001000
00000000
,
00000000
01000000
00000000
00000000
00001000
00000000
00000000
00000000
,
00010000
00000000
00000000
00000010
00000000
00000000
00010000
00000000
,
00000000
00000010
00000000
00000000
00010000
00000000
00000000
00000000
,
00022000
00000000
00000000
00000000
,
00000000
00000000
00000000
00000000
,
00000000
00000000
00000000
00000000
,
00000000
00000000
00000000
00000000
,
00033000
00000000
00000000
00000000
,
00100000
00000000
00100000
00000000
,
00100000
00100000
00100000
00000000
,
00010000
00000000
00010000
00000000
,
00010000
00010000
00010000
00000000
,
01000000
00000000
01000000
00000000
,
01000000
01000000
01000000
00000000
,
00001000
00000000
00001000
00000000
,
00001000
00001000
00001000
00000000
,
00011000
00000000
00010000
00000000
,
00000100
00000000
00001000
00000000
,
00000100
00000000
00000010
00000000
,
00000001
00001000
00000001
00000000
,
00000100
00000000
00000010
00000000
,
00001000
00000000
00000010
00000000
,
00010000
00000000
00001000
00000000
,
00100000
01000000
00100000
00000000
,
10010000
00000000
10000000
00000000
,
01000000
00000000
10000000
00000000
,
00010000
00000000
01000000
00000000
,
00001000
00010000
00001000
00000000
,
00011000
00000000
00000100
00000000
,
00011000
00000000
01000000
00000000
,
01100000
00000000
00000000
00000000
,
10010000
00000000
00000000
10000000
00000000
00010000
00000000
00000000
,
00022000
00000000
00000000
00000000
,
00000000
00000000
00000000
00000000
,
00000000
00000000
00000000
00000000
,
00000000
00000000
00000000
00000000
,
00033000
00000000
00000100
00001000
,
00000100
00001000
00000100
00000000
00000000
00000000
00000010
00000000
,
00000001
00000100
00000001
00000010
,
00000001
00000010
00000001
00000000
00000000
00000000
00000100
00000000
,
00001000
00000000
00010000
00000000
00022000
00000000
00033000
02200000
,
00000000
03300000
00022000
00000000
00033000
00000220
00000000
00000330
,
00022000
00000000
00000000
00000000
,
00000000
00000000
00033000
01000000
,
00010000
10000000
00000000
01000000
,
10000000
00010000
00000000
01000000
,
00001000
00010000
00000010
00010000
,
00001000
01000000
00000000
00001000
,
00010000
00000100
00000000
00001000
,
00000001
00000010
00000000
00000001
,
00000100
00000010
00001000
00000100
,
00000000
00000110
00000000
00000010
,
00000001
00001000
00000010
00010000
,
00001000
01000000
00000000
00010000
,
00100000
01000000
10000000
00100000
,
00000000
01100000
00000000
01000000
,
00010000
00100000
00001000
00010000
,
00000010
00001000
00000000
00000100
,
00000010
00000001
00000100
00000010
,
00000000
00000010
00000000
00001000
,
00000000
00001000
00000000
00001000
,
00001000
00001000
00000000
00000100
,
00000000
00000100
00000000
00000100
,
00000100
00000100
00000000
00010000
,
00000000
00001000
00000000
00000000
01000000
00000000
00000000
00000000
;

//--------------- dance-double - forcednature ----------------
#NOTEDATA:;
#STEPSTYPE:dance-double;
#DESCRIPTION:forcednature;
#CREDIT:forcednature;
#DIFFICULTY:Medium;
#METER:12;
#RADARVALUES:0,0,0,0,0;
#NOTES:
00000000
00000000
00000000
00000000
,
00000000
00000000
00000000
00000000
,
00000000
00000000
00000000
00000000
,
00000000
00000000
00000000
00000000
,
00000000
00000000
00000000
00000000
,
00000000
00000000
00000000
00000000
,
00000000
00000000
00000000
00000000
,
00000000
00000000
00000000
00000000
,
00000000
00000000
00000000
00000000
,
00000000
00000000
00000000
00000000
,
00011000
00000000
00001000
01000000
,
00010000
00100000
01000000
00100000
,
00001000
00000000
00010000
00000010
,
00001000
00000100
00000010
00000000
,
00000110
00000000
00000100
00010000
,
00001000
00100000
00001000
00010000
,
01000000
00000000
00000000
01000000
00000000
01000000
00000000
00000000
,
20020000
00000000
30030000
00000000
,
12000000
00000000
00000000
03020000
00000000
00000000
00032000
00000000
,
00000000
00003020
00000000
00000000
00000032
00000000
00001003
00000000
,
00001001
00000000
00000001
00000100
,
00001000
00010000
00000010
00000000
,
00000201
00000000
00000000
00002300
00000000
00000000
00023000
00000000
,
00000000
00230000
00000000
00000000
20300000
00000000
30010000
00000000
,
10010000
00000000
10000000
00000000
10000000
01000000
00000000
01000000
,
00010000
00000000
01000000
10000000
01000000
00000000
00010000
00000000
,
00012000
00000000
00000000
00003020
00000000
00000000
00000032
00000000
,
00000000
00000203
00000000
00000000
00001300
00000000
00010000
00000000
,
00021000
00000000
00000000
00230000
00000000
00000000
20300000
00000000
,
00000000
32000000
00000000
00000000
03020000
00000000
00031000
00000000
,
00012000
00000000
00000000
00203000
00000000
00000000
02300000
00000000
,
00000000
03002000
00000000
00000000
00023000
00000000
00130000
00000000
,
02200000
00000000
00000000
00000000
,
00000000
00000000
00000000
00000000
,
00000000
00000000
00000000
00000000
,
00000000
00000000
00000000
00000000
,
03300000
00000000
00000000
00000000
,
00010000
00000000
01000000
00001000
01000000
00000000
00010000
00000000
,
00100000
00000000
00001000
01000000
00002000
00000000
00003000
00000000
,
00010000
00000000
00000010
00001000
00000010
00000000
00010000
00000000
,
00001000
00000000
00000010
00000100
00000010
00000000
00000001
00000000
,
00000100
00000000
00001000
00010000
00001000
00000000
00100000
00000000
,
01000000
00000000
00010000
00001000
00020000
00000000
00030000
00000000
,
00001000
00000000
01000000
00010000
01000000
00000000
00100000
00000000
,
10000000
00000000
01000000
00100000
02000000
00000000
03000000
00000000
,
01100000
00100000
00001000
00010000
,
00000100
00001000
00000010
00000000
00000100
00000001
00000010
00000000
,
00000100
00010000
00000000
00001000
00100000
00000000
01000000
00000000
,
00100000
00001000
00010000
00000000
00001000
01000000
00000000
00001000
,
00010000
00000000
00000100
00001000
00000010
00000000
00000100
00000001
,
00001000
00000100
00010000
00001000
,
00100000
01000000
00000000
10000000
01000000
00000000
00010000
00000000
,
00001000
00010000
00001000
00010000
00002000
00000000
00003020
00000000
,
00000031
00000100
00000001
00000000
00001000
00000010
00010000
00000000
,
00001000
01000000
00010000
00000000
10000000
01000000
00100000
00000000
,
00010000
01000000
00001000
00000000
00010000
00000000
00000010
00000000
,
00001000
00000100
00010000
00000000
00002000
00000000
00203000
00000000
,
01300000
10000000
00010000
10000000
00100000
00000000
00100000
00000000
,
01000000
00001000
00010000
00000010
00001000
00000000
00001000
00000000
,
00002002
00000000
00000000
00000000
,
00003003
00000000
00000000
00000000
00000000
00000000
00000001
00000000
00000100
00000000
00001000
00000000
00020000
00030000
00000000
00000000
,
02200000
00000000
00000000
00000000
,
00000000
00000000
00000000
00000000
,
00000000
00000000
00000000
00000000
,
00000000
00000000
00000000
00000000
,
03300000
00000000
00000000
00000000
00000000
00000000
00000000
00000000
10000000
00000000
01000000
00000000
00010000
01000000
00000000
00010000
,
00001000
00000000
00010000
02000000
00000000
00000000
03000000
00000000
00100000
00000000
00001000
00000000
00010000
00000100
00000000
00001000
,
00000100
00000000
00000010
00000001
00000010
00000000
00000100
00000000
00010000
00000000
00000010
00000000
00000100
00001000
00000000
00010000
,
00001000
00000000
00000100
00002000
00000000
00000000
00003000
00000000
00010000
00000000
00100000
00000000
01000000
00010000
00000000
00100000
,
01000000
00000000
10000000
00010000
01000000
00000000
00100000
00000000
00011000
00000000
00000000
00000000
01000000
01000000
00011000
00000000
,
00000000
00000000
00000100
00000000
00011000
00000000
00000000
00000000
00100000
00100000
00011000
00000000
00000000
00000000
00000010
00000010
,
00002002
00000000
00000000
00000000
,
00000000
00000000
00000000
00000000
00003003
00000000
00010000
00001000
,
00010000
00000000
00001000
00100000
00001000
00000000
01000000
00010000
,
01000000
00100000
10000000
00000000
01000000
00000000
00100000
00010000
,
00100000
00000000
00001000
00010000
00001000
00000000
00010000
00000010
,
00001000
00000010
00010000
00000010
00001000
00000000
00000001
00000010
,
00000100
00000000
00001000
00000100
00010000
00000000
00001000
01000000
,
00010000
01000000
00100000
00000000
10000000
00000000
01000000
00100000
,
00001000
00000000
00010000
00000100
00000010
00000000
00000220
00000000
,
00000330
00000000
00002002
00000000
00003003
00000000
00001000
00000100
,
00010000
00001000
00010000
00000000
00000010
00000000
00001000
00000100
,
00010000
00001000
01000000
00000000
00010000
00000000
00100000
01000000
,
10000000
00100000
01000000
00000000
00001000
00000000
00010000
00000010
,
00001000
00000010
00010000
00000010
00002000
00000000
00003001
00000000
,
00000010
00000100
00010000
00001000
00100000
00000000
01100000
00000000
,
01000000
10000000
00010000
10000000
00100000
00000000
01100000
00000000
,
01000000
00001000
00010000
00000010
00001000
00000000
00000002
00000000
,
00000000
00000000
00000003
00000010
,
00000100
00001000
00000100
00000000
00010000
00000000
00001000
00000000
,
01000000
00010000
02000000
00000000
03000000
00000000
01100000
00000000
,
00100000
10000000
00100000
00000000
01000000
00000000
00001000
00010000
,
00000010
00001000
00000001
00000000
00000010
00000000
00000200
00000000
,
00000300
00020000
00000000
00030000
02000000
00000000
00000000
03000000
;

//--------------- dance-double - forcednature ----------------
#NOTEDATA:;
#STEPSTYPE:dance-double;
#DESCRIPTION:forcednature;
#CREDIT:forcednature;
#DIFFICULTY:Hard;
#METER:16;
#RADARVALUES:0,0,0,0,0;
#NOTES:
00000000
00000000
00000000
00000000
,
00000000
00000000
00000000
00000000
,
00000000
00000000
00000000
00000000
,
00000000
00000000
00000000
00000000
,
00000000
00000000
00000000
00000000
,
00000000
00000000
00000000
00000000
,
00000000
00000000
00000000
00000000
,
00000000
00000000
00000000
00000000
,
00000000
00000000
00000000
00000000
,
00000000
00000000
00000000
00000000
,
00001000
00001000
01000000
00001000
,
00010000
00010000
00000100
00010000
,
00001000
00001000
00100000
00001000
,
00010000
00000010
00002000
00003000
,
00000001
00000010
00000001
00000010
00000100
00010000
00000100
00010000
,
00001000
00100000
00001000
00100000
01000000
10000000
01000000
10000000
,
00100000
00000000
00000000
01100000
00000000
01100000
00000000
10000000
,
00020000
00000000
00000000
00030000
,
01000000
00001000
00100000
01000000
00100000
00001000
01000000
00001000
,
00100000
01000000
00100000
00001000
01000000
00100000
00010000
00001000
,
00100000
00000000
01000000
00010000
00001000
00000000
00000100
00001000
,
00010000
00000000
01000000
00010000
00001000
00000000
00011000
00000000
,
00000100
00010000
00000010
00000100
00000010
00010000
00000100
00010000
,
00000010
00000100
00000010
00010000
00000100
00000010
00001000
00010000
,
00000010
00000000
00000010
00000000
00000010
00000100
00000000
00000100
,
00001000
00010000
00001000
00010000
00100000
00000000
01100000
00000000
,
01000000
10000000
01000000
00010000
00100000
00010000
00001000
00000100
,
00001000
00000010
00000001
00000010
00000100
00000001
00000010
00000100
,
00000001
00000100
00000001
00001000
00000010
00001000
00010000
01000000
,
10000000
00010000
10000000
00100000
01000000
00000000
10010000
00000000
,
00010000
01000000
00100000
00010000
00100000
01000000
00001000
00010000
,
00000100
00000010
00000100
00010000
00001000
00000100
00000001
00000010
,
00000200
00000000
00000000
00000000
,
00000000
00000000
00000000
00000000
,
00001300
00000100
00001000
00000100
00010000
00001000
00010000
00001000
,
01000000
00010000
00100000
01000000
10000000
00100000
01000000
00010000
,
00200000
00000000
00000000
00300000
,
01000000
00010000
00001000
00010000
01000000
00010000
00001000
00010000
,
01000000
00010000
00001000
00010000
00000010
00000000
00000110
00000000
,
00000100
00001000
00010000
00001000
00000100
00001000
00010000
00001000
,
00000100
00001000
00010000
00100000
01000000
00100000
00010000
00000000
,
00001000
00100000
01000000
00100000
00001000
00100000
01000000
00100000
,
00001000
00100000
01000000
00100000
00010000
00000000
10010000
00000000
,
10000000
00100000
00010000
00100000
10000000
00100000
00010000
00100000
,
10000000
00010000
01000000
00001000
00020000
00000000
00030020
00000000
,
00001030
00000100
00000001
00000100
00001000
00000001
00000010
00000001
,
00000000
00000100
00001000
00010000
00100000
00010000
00001000
01000000
,
00010000
00100000
00000000
01000000
00010000
01000000
00100000
00001000
,
00010000
00000010
00010000
00001000
00000000
00000010
00001000
00010000
,
00000100
00001000
00000010
00010000
00000010
00001000
00000100
00010000
,
00000000
00001000
01000000
00100000
00010000
00100000
01000000
00001000
,
00010000
00000010
00000000
00010000
00001000
00000010
00000001
00000010
,
00002000
00003000
00002000
00003000
00011000
00000000
01001000
00000000
,
10000000
00100000
01000000
10000000
01000000
00010000
00100000
00001000
,
00000000
00010000
00000010
00001000
00000100
00000010
00001000
00000010
,
00000100
00010000
00000000
00001000
01000000
00010000
00100000
00010000
,
01000000
10000000
01000000
00010000
00200000
00000000
00301000
00000000
,
00011000
00000000
00001000
00000010
00000100
00000010
00001000
00000000
,
00011000
00000000
00010000
00100000
01000000
00100000
00010000
00000000
,
00001000
00000010
00000002
00000000
00000003
00000010
00001000
00010000
,
00002000
00003000
00000000
00000000
01000000
00000000
00010000
00000000
00100000
01000000
10000000
00000000
00200000
00300000
00000000
00000000
,
20020000
00000000
00000000
00000000
,
00000000
00000000
00000000
30030000
,
10000000
01000000
10000000
01000000
00010000
01000000
00010000
01000000
,
00010000
00001000
00010000
00001000
00000010
00001000
00000010
00001000
,
00000020
00000000
00000000
00000000
00000001
00000000
00000031
00000000
00001001
00000000
00001000
00000000
00000010
00000100
00001000
00010000
,
00001000
00000100
00000010
00010000
00002000
00000000
00000000
00000000
00103000
01000000
00010000
01000000
10000000
01000000
00000000
01000000
,
00010000
00001000
00100000
01000000
00100000
00001000
00010000
00100000
01000000
00000000
00001000
00000000
00010000
00000010
00000100
00001000
,
00010000
00001000
00000100
00000010
00002000
00000000
00000000
00000000
00003001
00000010
00000100
00000010
00001000
00010000
00000000
00010000
,
00001000
00000000
01000000
00000000
00010000
00000000
00100000
00000000
01000000
00000000
00000000
00000000
00010000
00000000
00000000
00000000
00011000
00000000
00000000
00000000
00000000
00000000
00000000
00000000
00000020
00000030
00000020
00000030
00011000
00000000
00000000
00000000
,
00000000
00000000
00000000
00000000
00200000
00000000
00300000
00000000
00011000
00000000
00000000
00000000
00010000
00000000
00001000
00000000
02000000
03002000
00023000
00030000
00011000
00000000
00000000
00000000
00000000
00000000
00000000
00000000
00000200
00000320
00000230
00000320
,
00000032
00000000
00000000
00000000
,
00000000
00000000
00000000
00000000
00000003
00000000
00010000
00001000
,
01000000
00010000
01000000
00000000
00100000
00000000
10000000
00000000
01000000
00000000
10000000
00000000
00000000
00000000
00100000
00000000
,
01000000
00010000
01000000
00001000
00010000
00000010
00001000
00000010
,
00000100
00000001
00000100
00000000
00000010
00000000
00001000
00000000
00000100
00000000
00010000
00000000
00001000
00000000
00100000
00000000
,
01000000
00100000
00001000
00100000
01000000
00100000
00010000
10000000
,
00010000
01000000
00010000
00000000
10000000
00000000
01000000
00000000
10000000
00000000
00010000
00000000
00000000
00000000
00100000
00000000
,
00001000
00010000
00000100
00010000
00001000
00000010
00000100
00001000
,
00000100
00010000
00000100
00000000
00010000
00000000
00001000
00000000
01000000
00000000
00010000
00000000
10000000
00000000
01000000
00000000
,
00010000
01000000
10000000
01000000
00010000
01000000
00100000
00010000
,
00100000
00001000
00100000
00000000
00001000
00000000
00010000
00000000
00000010
00000000
00001000
00000000
00000010
00000100
00000010
00000000
,
00000100
00000001
00000010
00000001
00001000
00000010
00010000
00001000
,
01000000
00010000
01000000
00000000
00010000
00000000
00100000
00000000
01000000
00000000
10000000
00000000
00100000
00000000
00010000
00000000
,
00100000
10000000
00100000
00000000
01100000
00000000
01000000
00010000
,
01000000
00001000
01000000
00000000
00001000
00000000
00010000
00000000
00000100
00000000
00001000
00000000
00000100
00000010
00000100
00000000
,
00000010
00000001
00001000
00000010
00010000
00001000
00100000
00010000
,
00100000
01000000
00100000
00000000
01000000
00000000
10000000
00000000
00100000
00000000
10000000
00000000
02000000
00000000
00000000
00000000
,
03010000
00000000
00002000
00000000
00013000
00000000
00000100
00010000
,
00000010
00000100
00000010
00010000
00001000
00000010
00000100
00000010
,
00000001
00000100
00002000
00000000
00023000
00000000
00130000
01000000
,
00001000
00100000
01000000
10000000
00100000
01000000
00001000
00010000
,
00000100
00000010
00000001
00000100
00000001
00000010
00000200
00000000
,
00000300
00022000
00000000
00033000
02200000
00000000
00000000
03300000
;
