#VERSION:0.83;
#TITLE:Initiation;
#SUBTITLE:;
#ARTIST:BEMANI Sound Team "謎の勢力";
#TITLETRANSLIT:;
#SUBTITLETRANSLIT:;
#ARTISTTRANSLIT:Nazo no seiryoku;
#GENRE:00's TECHNO;
#CREDIT:;
#MUSIC:Initiation.ogg;
#BANNER:Initiation.png;
#BACKGROUND:Initiation-bg.png;
#CDTITLE:./CDTitles/bm IIDX 25 CANNON BALLERS.png;
#SAMPLESTART:97.979;
#SAMPLELENGTH:15.000;
#SELECTABLE:YES;
#OFFSET:1.005;
#BPMS:0.000=160.000;
#STOPS:;
#TIMESIGNATURES:0.000=4=4;
#BGCHANGES:0.000=Initiation.mp4=1.000=0=0=0=StretchNoLoop====,
99999.000=-nosongbg-=1.000=0=0=0=StretchNoLoop====
;
#FGCHANGES:;

//--------------- dance-single - forcednature ----------------
#NOTEDATA:;
#STEPSTYPE:dance-single;
#DESCRIPTION:forcednature;
#CREDIT:forcednature;
#DIFFICULTY:Beginner;
#METER:5;
#RADARVALUES:0,0,0,0,0;
#NOTES:
0000
0000
0000
0000
,
0000
0000
0000
0000
,
0000
0000
0000
0000
,
0000
0000
0000
0000
,
0000
0000
0000
0000
,
2002
0000
0000
0000
,
0000
0000
0000
0000
,
3003
0000
0010
0000
,
0010
0000
0100
0100
,
0100
0000
0000
0000
,
1001
0000
1000
0000
,
0001
0000
0100
0000
,
0010
0000
1000
0000
,
0001
0000
0010
0000
,
0110
0000
0100
0000
,
1000
0000
0001
0000
,
1000
0000
0010
0000
,
0100
0000
0001
0000
,
1001
0000
1000
0000
,
0100
0000
0010
0000
,
0001
0000
1000
0000
,
0001
0000
0100
0000
,
0110
0000
0010
0000
,
1001
0000
1000
0000
,
0100
0000
0100
0000
,
0010
0010
0010
0010
,
0001
0000
0001
0000
,
1000
1000
0001
0000
,
1000
0000
1000
0000
,
0001
0001
1000
0000
,
0110
0000
0001
0000
,
1000
0000
0100
0000
,
0010
0000
0010
0000
0001
0000
0000
1001
,
0000
0000
0000
0000
,
1001
0000
0001
0000
,
0100
0000
0010
0000
,
1000
0000
0010
0000
,
0100
0000
0001
1000
,
0001
0000
0010
0000
,
0100
0000
1000
0000
,
0010
0000
0100
0000
,
0001
0000
0010
0100
,
0010
0000
0010
0000
,
0001
0000
0001
0000
,
1000
0000
1000
0000
,
0010
0000
0010
0000
,
0220
0000
0000
0000
,
0000
0000
0000
0000
,
0000
0000
0000
0000
,
0000
0000
0330
0000
,
2000
0000
0000
0000
,
3002
0000
0203
0000
,
0320
0000
2030
0000
,
3002
0000
0023
0000
,
0230
0000
0000
0000
,
2300
0000
3002
0000
,
0203
0000
0302
0000
,
2003
0000
3020
0000
,
0230
0000
0000
0000
,
0302
0000
0023
0000
,
0230
0000
2300
0000
,
3002
0000
0000
0003
,
2002
0000
3003
0000
,
0220
0000
0330
0000
,
2002
0000
3003
0000
,
0200
0300
0020
0030
,
1000
0001
0100
0010
,
1001
0000
0000
0000
,
0001
1000
0100
0010
,
1001
0000
1000
1000
,
0001
0100
0001
0100
,
0010
1000
0010
1000
,
0001
0010
0001
0010
,
0100
1000
0001
0000
,
1000
0100
0010
0001
,
1001
0000
0000
0000
,
0001
0100
0010
1000
,
1001
0000
0001
0001
,
1000
0100
1000
0100
,
0010
0001
0010
0001
,
1000
0010
0100
0001
,
0010
0010
0100
0100
,
2002
0000
0000
0000
,
0000
0000
0000
0000
,
3003
0000
0000
0000
;

//--------------- dance-single - forcednature ----------------
#NOTEDATA:;
#STEPSTYPE:dance-single;
#DESCRIPTION:forcednature;
#CREDIT:forcednature;
#DIFFICULTY:Easy;
#METER:9;
#RADARVALUES:0,0,0,0,0;
#NOTES:
0000
0000
0000
0000
,
0000
0000
0000
0000
,
0000
0000
0000
0000
,
0000
0000
0000
0000
,
0000
0000
0000
0000
0000
0000
0000
1001
,
0000
0000
0000
1000
0000
1000
0000
0001
,
0000
0001
0000
0100
0000
0100
0000
0010
,
0000
0000
0000
0000
0000
0000
0010
0000
0000
0000
0000
0000
0000
0000
0000
0000
0000
0000
0000
0000
0000
0000
0000
0000
1000
0000
0000
0000
0000
0000
0000
0000
0000
1000
0000
0000
0000
0000
0000
0000
1000
0000
0000
0000
0000
0000
0000
0000
,
0001
0000
0000
0000
0000
0000
0000
0000
0000
0001
0000
0000
0000
0000
0000
0000
0001
0000
0000
0000
0000
0000
0000
0000
0100
0000
0000
0000
0000
0000
0000
0000
0100
0000
0000
0000
0000
0000
0000
0000
0100
0000
0000
0000
0000
0000
0000
0000
,
0100
0000
0000
0000
,
0110
0001
1000
0010
,
0100
0001
1000
0010
,
0100
0001
1000
0010
,
0100
0001
1000
0100
,
0110
1000
0100
0010
,
0001
1000
0100
0010
,
0001
1000
0100
0010
,
0001
1000
0100
0010
,
0110
0001
0100
0010
,
1000
0000
0001
0000
0100
0000
0010
1000
,
0010
1000
0100
0010
,
0001
0000
1000
0000
0100
0000
0010
0001
,
0010
0000
0100
0000
1000
0000
0010
1000
,
0010
0000
1000
0000
0001
0000
0010
0001
,
0010
0010
0010
0010
,
0010
0100
0010
0100
1000
0001
1000
0000
,
0001
0000
0000
0000
0001
0000
0000
0000
0100
0000
0000
0100
0000
0000
0100
0000
,
0000
0010
0000
0000
1000
0000
0000
0000
0001
0000
0000
0010
0000
0000
0100
0000
,
1000
0000
0000
0000
1000
0000
0000
0000
0001
0000
0000
0001
0000
0000
0001
0000
,
0000
0100
0000
0000
0010
0000
0000
0000
1000
0000
0001
0000
1000
0000
0000
0000
,
0110
0001
1000
0010
,
0100
0001
1000
0100
,
0110
0000
0000
0000
0110
0000
0000
0000
1000
0000
0000
0001
0000
0000
1001
0000
,
0000
0000
0000
0000
,
0110
0001
1000
0010
,
0100
0001
1000
0100
,
0010
0001
1000
0010
,
0100
0000
0001
0000
1000
0100
0010
0000
,
1001
0001
1000
0010
,
0100
0001
1000
0100
,
0010
0001
1000
0010
,
0100
0000
0001
0000
1000
0100
0010
0000
,
1001
0001
1000
1000
,
0010
0000
0010
0000
0100
0001
1000
0000
,
0100
0100
0010
0010
,
0001
0000
0001
0000
1000
0010
0100
0000
,
2002
0000
0000
0000
,
0000
0000
0000
3003
,
0010
0010
0010
0010
,
0010
0100
0010
0100
0010
0100
0010
0000
,
2002
0000
0003
0000
,
3020
0000
0230
0000
,
0302
0000
2003
0000
,
3200
0000
0320
0000
,
0032
0000
0000
0000
,
2003
0000
3002
0000
,
0203
0000
0320
0000
,
2030
0000
3002
0000
,
2003
0000
0000
0000
,
3200
0000
0320
0000
,
0032
0000
0203
0000
,
0320
0000
0000
0030
,
2020
0000
0000
0030
0000
0000
3100
0000
,
0022
0000
0000
0030
0000
0000
0103
0000
,
2002
0000
0000
3003
,
0220
0330
2002
3003
,
1000
0100
1000
0100
0010
0001
0010
0001
,
1000
0001
0010
0000
,
0001
0100
0001
0100
0010
1000
0010
1000
,
0001
1000
0010
0100
,
1001
0000
1000
0100
0010
0001
1000
0100
,
0010
0000
0001
0100
0010
1000
0001
0100
,
0010
0000
1000
0100
0010
0001
1000
0000
,
0002
0000
0203
0000
,
0310
1000
0010
1000
0001
0010
0001
0010
,
0100
1000
0010
0000
,
0100
0001
0100
0001
1000
0100
1000
0100
,
0010
0001
0100
0010
,
0110
0000
0100
0001
1000
0001
0010
0000
,
0110
0000
0100
1000
0001
1000
0010
0000
,
0100
0001
0100
0000
0010
1000
0010
0000
,
1000
0100
0010
0001
0010
0100
1000
0000
,
2002
0000
0000
0000
,
0000
0000
0000
0000
,
3003
0000
0000
0000
;

//--------------- dance-single - forcednature ----------------
#NOTEDATA:;
#STEPSTYPE:dance-single;
#DESCRIPTION:forcednature;
#CREDIT:forcednature;
#DIFFICULTY:Medium;
#METER:12;
#RADARVALUES:0,0,0,0,0;
#NOTES:
0000
0000
0000
0000
,
0000
0000
0000
0000
,
0000
0000
0000
0000
,
0000
0000
0000
0000
,
0000
0000
0000
0000
0000
0000
0000
1001
,
0000
0001
0000
0100
0000
0001
0000
0100
,
0000
0010
0000
1000
0000
0010
0000
1000
,
0000
0000
0000
0000
0000
0000
0001
0000
0000
0000
0000
0000
0000
0000
0000
0000
0000
0000
0010
0000
0000
0000
0000
0000
0100
0000
0000
0000
0000
0000
0000
0000
0000
0100
0000
0000
0000
0000
0000
0000
1000
0000
0000
0000
0001
0000
0000
0000
,
0100
0000
0000
0000
0000
0000
0000
0000
0000
0100
0000
0000
0000
0000
0000
0000
0001
0000
0000
0000
1000
0000
0000
0000
0001
0000
0000
0000
1000
0000
0000
0000
0001
0000
0000
0000
1000
0000
0000
0000
0001
0000
0000
0000
1000
0000
0000
0000
,
0001
0000
0000
0000
,
0110
0000
1000
0100
1000
0000
0001
0100
,
0001
0000
1000
0100
1000
0000
0001
0100
,
0001
0000
1000
0100
1000
0000
0001
0100
,
0001
0000
1000
0010
0100
0001
1000
0000
,
1001
0000
0001
0010
0001
0000
1000
0010
,
1000
0000
0001
0010
0001
0000
1000
0010
,
1000
0000
0001
0010
0001
0000
1000
0010
,
1000
0000
0001
0010
0100
1000
0001
0000
,
1001
0000
1000
0100
0010
0000
0001
0100
,
0010
0000
1000
0100
0010
0001
1000
0000
,
0001
0000
0100
0010
1000
0000
0100
0010
,
0001
0000
0100
0010
1000
0100
0010
0000
,
0110
0000
0100
1000
0001
1000
0010
0000
,
0110
0000
0100
0001
1000
0001
0010
0000
,
0110
1000
1000
1000
,
1000
0001
1000
0001
0100
0100
0100
0000
,
0110
0000
0000
0000
0010
0000
0000
0000
1000
0000
0000
1000
0000
0000
0100
0000
,
0000
0010
0000
0000
0001
0000
0010
0000
0001
0000
0000
0100
0000
0010
0000
0000
,
1000
0000
0000
0000
1000
0000
0000
0000
0001
0000
0000
0010
0000
0000
0001
0000
,
0000
0100
0000
0000
0010
0000
1000
0000
0100
0000
0010
0000
0001
0000
0100
0000
,
0010
1000
0100
0001
,
0100
1000
0010
0001
,
0110
0000
0000
0000
0110
0000
0000
0000
0001
1000
0000
0001
0000
1000
0010
0000
,
0000
0000
0000
0000
,
0110
0000
1000
0001
0010
0000
0001
1000
,
0010
0000
1000
0001
0010
0000
0001
1000
,
0010
0000
1000
0001
0010
0000
0001
1000
,
0010
0000
1000
0001
0010
0100
1000
0001
,
0100
0000
0010
1000
0100
0000
0010
0001
,
0100
0000
0010
1000
0100
0000
0010
0001
,
0100
0000
0010
1000
0100
0000
0010
0001
,
0100
0000
0010
1000
0100
0010
0001
1000
,
1001
0001
1000
1000
,
0010
0000
0010
0000
0100
0001
1000
0000
,
0100
0100
0010
0010
,
0001
0000
0001
0000
1000
0010
1000
0010
,
0200
0000
0000
0001
,
0000
0000
0000
0001
,
0001
0001
0001
0001
,
0301
0100
0001
0100
0010
0010
0010
0000
,
2002
0000
3000
0000
,
0023
0000
0230
0000
,
2300
0000
3002
0000
,
0203
0000
0320
0000
,
2030
0000
0000
0000
,
3200
0000
0320
0000
,
0032
0000
0023
0000
,
0230
0000
2300
0000
,
3002
0000
0000
0000
,
0203
0000
0302
0000
,
2003
0000
3020
0000
,
2030
0000
0000
3000
,
2200
0000
3300
1001
,
0202
0000
0303
1001
,
0220
0000
0000
0330
,
2002
3003
0220
0330
,
1000
0100
0010
0001
1000
0001
0100
0010
,
1010
0001
0010
0100
,
1000
0001
0100
0010
1000
0100
0010
0001
,
0011
0000
0001
0000
0100
0100
0100
0000
,
0010
0001
0010
1000
0010
0001
0010
1000
,
0100
0001
0100
1000
0100
0001
0100
1000
,
0010
0001
0010
1000
0010
0001
0010
0000
,
2000
0100
3002
0100
,
1003
0010
0100
0001
1000
0100
0010
0001
,
0011
1000
0001
0100
,
0010
1000
0001
1000
0100
0010
0001
0100
,
0110
0000
0010
0000
1000
1000
1000
0000
,
0001
0100
1000
0100
0001
0100
1000
0100
,
0001
0010
1000
0010
0001
0010
1000
0010
,
0001
0100
1000
0100
0001
0010
1000
0010
,
0001
0001
1000
1000
0010
0001
1000
0100
,
0002
0000
0000
0000
,
0000
0000
0000
0000
,
0003
0000
0000
0000
;

//--------------- dance-single - forcednature ----------------
#NOTEDATA:;
#STEPSTYPE:dance-single;
#DESCRIPTION:forcednature;
#CREDIT:forcednature;
#DIFFICULTY:Hard;
#METER:15;
#RADARVALUES:0,0,0,0,0;
#NOTES:
0000
0000
0000
0000
,
0000
0000
0000
0000
,
0000
0000
0000
0000
,
0000
0000
0000
0000
,
0000
0000
0000
0000
0000
0000
0000
1001
,
0000
1000
0000
1000
0000
0001
0000
0001
,
0000
0100
0000
0100
0000
0010
0000
0010
,
0000
0000
0000
0000
0000
0000
1000
0000
0000
0000
0000
0000
0000
0000
0000
0000
0000
0000
1000
0000
0000
0000
0000
0000
0010
0000
0000
0000
0000
0000
0000
0000
0000
0110
0000
0000
0000
0000
0000
0000
1000
0000
0000
0000
0001
0000
0000
0000
,
0010
0000
0000
0000
0000
0000
0000
0000
0000
0110
0000
0000
0000
0000
0000
0000
0001
0000
0000
0000
1000
0000
0000
0000
0010
0000
0000
0000
0100
0000
0000
0000
0001
0000
0000
0000
0010
0000
0000
0000
0100
0000
0000
0000
1000
0000
0000
0000
,
0010
0000
0000
0000
,
0110
0000
0001
0100
0020
0000
1030
0100
,
0020
0000
0031
0100
0020
0000
1030
0100
,
0020
0000
0031
0100
0020
0000
1030
0100
,
0020
0000
0031
0100
0010
1000
0001
0010
,
0110
0000
1000
0100
0020
0000
0031
0100
,
0020
0000
1030
0100
0020
0000
0031
0100
,
0020
0000
1030
0100
0020
0000
0031
0100
,
0020
0000
1030
0100
0001
0100
0010
0001
,
1001
0000
0001
0100
0010
1000
0001
0010
,
0100
0000
1000
0000
0001
0000
0100
0000
0010
0000
1000
0000
0001
0010
0001
0000
,
1000
0000
1000
0100
0010
0001
1000
0010
,
0100
0000
0001
0000
1000
0000
0100
0000
0010
0000
0001
0000
1000
0010
1000
0000
,
0001
0000
0000
0000
1000
0000
0100
0000
0010
0000
0001
0000
1000
0100
1000
0000
,
0001
0000
0000
0000
0001
0000
0100
0000
0010
0000
1000
0000
0001
0100
0001
0000
,
1000
0100
1000
0000
0001
0100
0001
0000
1000
0100
1000
0000
0001
0100
0001
0000
,
0010
0000
0010
0000
0010
0000
0010
0000
0010
0100
0010
0100
0010
0000
0000
0000
,
1001
0000
0000
0000
1000
0000
0000
0001
0010
0001
0000
0100
0000
0010
1000
0000
,
0000
0001
0010
0000
0100
0000
1000
0000
0001
0000
0000
0100
0000
0010
1000
0000
,
0001
0000
0000
0000
0001
0000
0000
1000
0100
1000
0000
0010
0000
0100
0001
0000
,
0000
0010
0100
0000
1000
0000
0010
0000
0001
0000
0010
0000
0100
0000
0001
0000
,
1001
0000
0000
0000
1100
0000
0000
0000
0100
0000
0000
0010
0000
0000
0001
0000
,
0100
0001
0100
0010
1000
0100
0010
0001
,
1001
0000
0000
0000
1001
0000
0000
0100
0010
0100
0000
0010
0000
0100
0010
0000
,
0000
0000
0000
0000
,
2001
0000
3001
0100
2000
0000
3001
0010
,
2000
0000
3001
0100
2000
0000
3001
0010
,
2000
0000
3001
0100
2000
0000
3001
0010
,
2000
0000
3001
0100
1000
0100
0010
1000
,
0002
0000
1003
0100
0002
0000
1003
0010
,
0002
0000
1003
0100
0002
0000
1003
0010
,
0002
0000
1003
0100
0002
0000
1003
0010
,
0002
0000
1003
0100
0001
0100
0010
0001
,
0100
0100
0010
0010
,
1000
0000
1000
0000
0001
0010
0001
0000
,
1000
1000
0100
0100
,
0010
0000
0000
0000
0010
0000
0000
0000
0001
0000
0100
0000
0001
0100
0001
0100
,
0020
0000
0000
1000
,
0100
0000
0000
1000
,
1000
1000
1000
1000
,
1030
1000
1000
1000
0010
1000
0010
0000
,
2002
0000
0003
0000
,
3200
0000
0320
0000
,
0032
0000
0203
0000
,
0320
0000
2030
0000
,
3002
0000
0000
0000
,
0023
0000
0230
0000
,
2300
0000
3002
0000
,
0203
0000
0320
0000
,
2030
0000
0000
0000
,
3200
0000
0320
0000
,
0032
0000
2003
0000
,
3020
0000
0000
0030
,
0202
0000
0303
0011
,
2200
0000
3300
1010
,
2002
0000
0000
3003
,
0220
0330
2002
3003
,
1000
0100
0010
0000
0001
0000
1000
0000
0010
0100
0001
0000
1000
0000
0100
0000
,
0110
0000
0000
0000
0001
0000
1000
0000
0001
0100
0000
0010
0000
1000
0001
0000
,
0010
0100
1000
0000
0001
0000
0100
0000
0010
1000
0001
0000
0010
0000
0100
0000
,
0110
0000
0000
0000
1000
0000
0001
0000
0010
0000
0001
0100
0010
0000
1000
0000
,
0200
0000
1000
0001
0000
0000
0001
1000
0000
0000
1300
0001
0010
0000
0001
0000
,
0200
0000
0001
1000
0000
0000
1000
0001
0000
0000
0301
1000
0010
0000
1000
0000
,
0200
0000
1000
0001
0000
0000
0001
1000
0000
0000
1000
0001
0000
0000
0301
0000
,
0010
0000
0100
0000
1000
0001
0100
0000
0010
0000
0100
0000
0001
1000
0100
0000
,
0010
0001
1000
0000
0001
0000
0100
0000
0010
1000
0001
0000
1000
0000
0100
0000
,
1001
0000
0000
0000
1000
0000
0100
0000
0010
0001
0000
1000
0000
0001
0100
0000
,
0010
1000
0100
0000
1000
0000
0001
0000
0010
0001
0100
0000
0001
0000
1000
0000
,
1001
0000
0000
0000
0001
0000
0100
0000
0010
0000
1000
0100
0010
0000
0001
0000
,
0200
0000
0001
1000
0000
0000
1000
0001
0000
0000
0301
1000
0010
0000
1000
0000
,
0200
0000
1000
0001
0000
0000
0001
1000
0000
0000
1300
0001
0010
0000
0100
0000
,
0110
0000
0010
0001
1000
0001
0100
0000
0110
0000
0010
1000
0001
1000
0100
0000
,
1001
0000
0001
0000
0100
0010
1000
0000
0001
0010
0001
0010
0100
1000
0100
1000
,
0002
0000
0000
0000
,
0000
0000
0000
0000
,
0003
0000
0000
0000
;

//--------------- dance-single - forcednature ----------------
#NOTEDATA:;
#STEPSTYPE:dance-single;
#DESCRIPTION:forcednature;
#CREDIT:forcednature;
#DIFFICULTY:Challenge;
#METER:17;
#RADARVALUES:0,0,0,0,0;
#NOTES:
0000
0000
0000
0000
,
0000
0000
0000
0000
,
0000
0000
0000
0000
,
0000
0000
0000
0000
,
0000
0000
0000
0000
0000
0000
0000
1001
,
0000
0001
0000
0001
0000
0001
0000
0001
,
0000
1000
0000
1000
0000
1000
0000
1000
,
0000
0000
0000
0000
0000
0000
0010
0000
0000
0000
0000
0000
0000
0000
0000
0000
0000
0000
0010
0000
0000
0000
0000
0000
0100
0000
0000
0000
0000
0000
0000
0000
0000
0101
0000
0000
0000
0000
0000
0000
0001
0000
0000
0000
1000
0000
0000
0000
,
0100
0000
0000
0000
0000
0000
0000
0000
0000
1100
0000
0000
0000
0000
0000
0000
1000
0000
0000
0000
0001
0000
0000
0000
0100
0000
0000
0000
0001
0000
0000
0000
0010
0000
0000
0000
0100
0000
0000
0000
1000
0000
0000
0000
0010
0000
0000
0000
,
0100
0000
0000
MMMM
,
0201
0000
0310
1000
1200
0000
0310
0001
,
0201
0000
0310
1000
1200
0000
0310
0001
,
0201
0000
0310
1000
1200
0000
0310
0001
,
0201
0000
0000
0000
0310
0000
1000
0000
1100
0000
0100
0000
0010
0001
1000
0000
,
1020
0000
1030
0100
0021
0000
0031
0100
,
1020
0000
1030
0100
0021
0000
0031
0100
,
1020
0000
1030
0100
0021
0000
0031
0100
,
1020
0000
0000
0000
1030
0000
0100
0000
0011
0000
0001
0000
0100
0001
0010
0000
,
0110
0100
1000
0010
0110
0100
0001
0010
,
0110
0000
0100
0000
1000
0000
0010
0000
0110
0000
0100
0000
0001
0010
0100
0000
,
0110
0010
0001
0100
0110
0010
1000
0100
,
0110
0000
0010
0000
0001
0000
0100
0000
0110
0000
0010
0000
1000
0100
0010
0000
,
1001
0000
0000
0000
1000
0000
0010
0000
0100
0000
0001
0000
1000
0100
0010
0000
,
1001
0000
0000
0000
0001
0000
0010
0000
0100
0000
1000
0000
0001
0100
0010
0000
,
1000
0001
0010
0000
0001
1000
0010
0000
1000
0001
0010
0000
0001
1000
0010
0000
,
1000
0100
1000
0100
0010
0001
0010
0001
1000
0010
0100
0001
1000
0000
0000
0000
,
0011
0000
0000
0000
0011
0000
0000
0010
0100
1000
0000
1100
0000
1000
0001
0000
,
0000
0100
0001
0000
0101
0000
0100
0000
1010
0000
0000
1001
0000
1000
0100
0000
,
0110
0000
0000
0000
0110
0000
0000
0010
0001
1000
0000
1001
0000
0001
0100
0000
,
0000
0010
1000
0001
1000
0100
0010
0001
1000
0001
0200
0000
0320
0000
2030
0000
,
3001
0000
1001
0000
1000
0100
0001
0100
,
1000
0100
0001
0100
0010
0001
1000
0010
,
0110
0000
0000
0000
0110
0000
0000
1000
0001
0100
0000
0110
0000
0010
1000
0000
,
0000
0000
0000
MMMM
,
1200
0000
0000
0000
0310
0001
1000
0000
0201
0000
0000
0000
0310
1000
0001
0000
,
1200
0000
0000
0000
0310
0001
1000
0000
0201
0000
0000
0000
0310
1000
0001
0000
,
1200
0000
0000
0000
0310
0001
1000
0000
0201
0000
0000
0000
0310
1000
0001
0000
,
1200
0000
0000
0000
0310
0001
1000
0000
0001
0000
0100
0010
1000
0001
1000
0000
,
0102
0000
0000
0000
0013
0100
1000
0000
2100
0000
0000
0000
3010
0100
0001
0000
,
0102
0000
0000
0000
0013
0100
1000
0000
2100
0000
0000
0000
3010
0100
0001
0000
,
0102
0000
0000
0000
0013
0100
1000
0000
2100
0000
0000
0000
3010
0100
0001
0000
,
0102
0000
0000
0000
0013
0100
1000
0000
0100
0000
0010
0001
1000
0001
0100
0010
,
1000
1000
0100
0100
,
0010
0000
0010
0000
0001
0000
0001
1000
,
0001
0001
0100
0100
,
0010
0000
0000
0000
0010
0000
0000
0000
1000
0000
0001
0000
1000
0001
1000
0001
,
2000
0100
0100
0010
,
0100
0100
0100
0010
,
0010
0010
0010
0010
,
3010
0000
0010
0000
0010
0000
0010
0000
0010
1000
0010
1000
0010
0000
0000
0000
,
2200
0000
3000
0000
,
0320
0000
0032
0000
,
0203
0000
0320
0000
,
2030
0000
3002
0000
,
0023
0000
0000
0000
,
0230
0000
2300
0000
,
3002
0000
0203
0000
,
2300
0000
3200
0000
,
0320
0000
0000
0000
,
2030
0000
3002
0000
,
0023
0000
0032
0000
,
0203
0000
0000
0300
,
2020
0000
3030
0101
,
0022
0000
0033
1100
,
0220
0000
0000
0330
,
2002
3003
0110
MMMM
,
1001
0000
1000
0001
0010
0000
0100
1000
0001
0000
0100
0010
1000
0010
0100
0001
,
1000
0000
0001
1000
0100
0010
0001
1000
0010
0200
0000
0301
0100
0010
1000
0000
,
0100
0000
0010
0001
1000
0000
0001
0100
0010
0000
1000
0100
0010
0001
1000
0010
,
1000
0000
0001
0100
0010
1000
0001
1000
0100
0010
0001
1000
0001
0100
1000
0100
,
0010
0000
1000
0100
0010
0001
0010
0100
1000
0100
0010
0001
0010
0100
1000
0100
,
0010
0000
0001
0100
0010
1000
0010
0100
0001
0100
0010
1000
0010
0100
0001
0100
,
0010
0000
1000
0100
0010
0001
0100
0010
1000
0100
0010
0001
0100
0010
1000
0000
,
0001
0010
0001
1000
0010
0100
0001
0000
0010
0100
1000
0001
0010
1000
0010
0001
,
1000
0000
0010
0100
0001
0000
1000
0100
0010
0000
0001
0100
0010
0100
0001
1000
,
0100
0000
0010
0001
1000
0010
0100
0001
0010
0200
0000
1300
0001
0100
0010
0000
,
1000
0000
0001
0010
0100
0000
1000
0001
0100
0000
0010
1000
0001
0010
0001
1000
,
0010
0000
0100
0001
1000
0100
0010
0001
0100
0001
1000
0100
0001
0100
0010
0001
,
1000
0000
0001
0100
0001
0010
0100
1000
0010
1000
0100
0010
0001
0100
0001
0010
,
0100
0000
1000
0100
1000
0010
0100
0001
0010
0001
0100
0010
1000
0100
1000
0010
,
0100
0000
1000
0100
0001
1000
0001
0010
0100
0000
0001
0100
1000
0001
1000
0010
,
0100
0001
0020
0000
0130
1000
0020
0000
0130
0001
1000
0010
0100
1000
0100
0001
,
0020
0000
0000
0000
,
0000
0000
0000
0000
,
0030
0000
0000
0000
;

//--------------- dance-double - forcednature ----------------
#NOTEDATA:;
#STEPSTYPE:dance-double;
#DESCRIPTION:forcednature;
#CREDIT:forcednature;
#DIFFICULTY:Easy;
#METER:9;
#RADARVALUES:0,0,0,0,0;
#NOTES:
00000000
00000000
00000000
00000000
,
00000000
00000000
00000000
00000000
,
00000000
00000000
00000000
00000000
,
00000000
00000000
00000000
00000000
,
00000000
00000000
00000000
00000000
00000000
00000000
00000000
00011000
,
00000000
00000000
00000000
01000000
00000000
00010000
00000000
01000000
,
00000000
00001000
00000000
00010000
00000000
00000100
00000000
00001000
,
00000000
00000000
00000100
00000000
00000000
00000000
00000000
00000000
00000010
00000000
00000000
00000010
00000000
00000000
00000000
00000000
,
00000001
00000000
00000000
00000000
00000000
00000000
00000000
00000000
00000000
00000001
00000000
00000000
00000000
00000000
00000000
00000000
00000000
00000000
00000000
00000000
00000000
00000000
00000000
00000000
00000100
00000000
00000000
00000000
00000000
00000000
00000000
00000000
00000010
00000000
00000000
00000000
00000000
00000000
00000000
00000000
00000100
00000000
00000000
00000000
00000000
00000000
00000000
00000000
,
00000010
00000000
00000000
00000000
,
00001001
00000001
00000100
00000010
,
00001000
00000100
00010000
00001000
,
00100000
00010000
01000000
00100000
,
10000000
01000000
00100000
00010000
,
10010000
10000000
00100000
01000000
,
00010000
00100000
00001000
00010000
,
00000100
00001000
00000010
00000100
,
00000001
00001000
00000001
00000010
,
00000110
00000100
00001000
00000010
,
00010000
00001000
00100000
00010000
,
01000000
00001000
00010000
00001000
,
00100000
00010000
01000000
00100000
,
10010000
10000000
01000000
00010000
,
00011000
00001000
00000100
00000001
,
00001001
00001000
00000001
00000001
,
00000010
00000100
00010000
00001000
,
00011000
00000000
01000000
00000000
,
00010000
00100000
00010000
01000000
,
00100000
00000000
10000000
00000000
,
01000000
00010000
00001000
00010000
,
00000010
00000010
00001000
00001000
,
00000001
00000001
00000010
00000010
,
00000100
00000000
00000000
00000000
00000100
00000000
00000000
00000000
00010000
00000000
00000000
00001000
00000000
00000000
00010000
00000000
,
00000000
00000000
00000000
00000000
,
00011000
00001000
01000000
00010000
,
00100000
01000000
10000000
01000000
,
00010000
00001000
00000010
00000100
,
00001000
00000000
00000001
00000000
00000100
00000010
00000100
00000000
,
00001001
00000001
00000010
00000100
,
00010000
00001000
01000000
00010000
,
00100000
00001000
00010000
00100000
,
01000000
00000000
00010000
00000000
00100000
01000000
00100000
00000000
,
10010000
10000000
01000000
01000000
,
00010000
00000000
00010000
00000000
00001000
00000000
00000010
00000100
,
00000010
00000010
00000001
00000001
,
00000100
00000000
00000100
00000000
00001000
00000000
00010000
00100000
,
00010000
00010000
00001000
00000010
,
00001000
00010000
00001000
00000010
,
00000100
00000010
00000001
00000010
,
00000010
00000000
00000010
00000000
00000010
00000100
00000010
00000000
,
00002002
00000000
00003000
00000000
,
00000203
00000000
00000320
00000000
,
00002030
00000000
00003200
00000000
,
00020300
00000000
00000000
00000000
,
00032000
00000000
00000000
00000000
,
02003000
00000000
03020000
00000000
,
00230000
00000000
02300000
00000000
,
23000000
00000000
30200000
00000000
,
02300000
00000000
00000000
00000000
,
03002000
00000000
00023000
00000000
,
00030200
00000000
00002300
00000000
,
00003020
00000000
00000000
00000030
,
00000220
00000000
00000330
00001000
,
00022000
00000000
00033000
00100000
,
02200000
00000000
00000000
03300000
,
20020000
30030000
02200000
03300000
,
10000000
01000000
10000000
01000000
00100000
00010000
00100000
00010000
,
01000000
00001000
00010000
00000100
,
00001000
00000010
00001000
00000010
00000100
00000001
00000100
00000001
,
00000010
00000100
00001000
00000001
,
00001001
00000000
00001000
00000100
00001000
00000010
00000100
00000000
,
00000001
00000000
00000010
00000100
00001000
00000100
00010000
00000000
,
00001000
00000000
01000000
00010000
01000000
00100000
10000000
00000000
,
00010000
00100000
01000000
00000000
10000000
01000000
00100000
00000000
,
00010000
01000000
00010000
01000000
00001000
00010000
00000010
00001000
,
00000100
00000010
00000001
00000100
,
00000001
00000010
00000001
00000010
00000100
00001000
00000100
00010000
,
00001000
00000000
01000000
00000000
00010000
00100000
01000000
00000000
,
01100000
00000000
00100000
00010000
00100000
00001000
00010000
00000000
,
00011000
00000000
00001000
00010000
00000010
00001000
00000010
00000000
,
00000110
00000100
00001001
00000010
,
00001000
00000100
00001000
00000100
00010000
00001000
01000000
00000000
,
02200000
00000000
00000000
00000000
,
00000000
00000000
00000000
00000000
,
03300000
00000000
00000000
00000000
;

//--------------- dance-double - forcednature ----------------
#NOTEDATA:;
#STEPSTYPE:dance-double;
#DESCRIPTION:forcednature;
#CREDIT:forcednature;
#DIFFICULTY:Medium;
#METER:12;
#RADARVALUES:0,0,0,0,0;
#NOTES:
00000000
00000000
00000000
00000000
,
00000000
00000000
00000000
00000000
,
00000000
00000000
00000000
00000000
,
00000000
00000000
00000000
00000000
,
00000000
00000000
00000000
00000000
00000000
00000000
00000000
00011000
,
00000000
01000000
00000000
01000000
00000000
00001000
00000000
00001000
,
00000000
00010000
00000000
00010000
00000000
00000100
00000000
00000100
,
00000000
00000000
00000000
00000000
00000000
00000000
00001000
00000000
00000000
00000000
00000000
00000000
00000000
00000000
00000000
00000000
00000000
00000000
00001000
00000000
00000000
00000000
00000000
00000000
00000010
00000000
00000000
00000000
00000000
00000000
00000000
00000000
00000000
00000010
00000000
00000000
00000000
00000000
00000000
00000000
00000100
00000000
00000000
00000000
00000001
00000000
00000000
00000000
,
00000010
00000000
00000000
00000000
00000000
00000000
00000000
00000000
00000000
00000010
00000000
00000000
00000000
00000000
00000000
00000000
00000100
00000000
00000000
00000000
00001000
00000000
00000000
00000000
00000100
00000000
00000000
00000000
00010000
00000000
00000000
00000000
00001000
00000000
00000000
00000000
00100000
00000000
00000000
00000000
00010000
00000000
00000000
00000000
00100000
00000000
00000000
00000000
,
01000000
00000000
00000000
00000000
,
01100000
00000000
01000000
00010000
00001000
00000000
00000100
00001000
,
00010000
00000000
01000000
00010000
00001000
00000000
00000100
00001000
,
00010000
00000000
01000000
00010000
00001000
00000000
00000100
00001000
,
00010000
00000000
01000000
00010000
00001000
00000000
00000010
00000000
,
00000110
00000000
00000010
00001000
00010000
00000000
00100000
00010000
,
00001000
00000000
00000010
00001000
00010000
00000000
00100000
00010000
,
00001000
00000000
00000010
00001000
00010000
00000000
00100000
00010000
,
00001000
00000000
00000010
00001000
00010000
00000000
00100000
00000000
,
01100000
00000000
01000000
00001000
00010000
00001000
00100000
00001000
,
00010000
00001000
01000000
00001000
00010000
00001000
00100000
00000000
,
00011000
00000000
00000100
00010000
00001000
00010000
00000010
00010000
,
00001000
00010000
00000100
00010000
00001000
00010000
00000010
00000000
,
00000110
00000000
00000100
00001000
00010000
01000000
00100000
00000000
,
01100000
00000000
01000000
00010000
00001000
00000100
00000010
00000000
,
00000100
00001000
00010000
00001000
00000100
00001000
00010000
00001000
,
00100000
00100000
00010000
00010000
01000000
00100000
10000000
00000000
,
10010000
00000000
00000000
00000000
10000000
00000000
00000000
00000000
01000000
00000000
00000000
00010000
00000000
00000000
00001000
00000000
,
00000000
00000010
00000000
00000000
00000100
00000000
00001000
00000000
00000001
00000000
00000000
00000100
00000000
00000000
00000010
00000000
,
00001000
00000000
00000000
00000000
00001000
00000000
00000000
00000000
00000001
00000000
00000000
00000100
00000000
00000000
00001000
00000000
,
00000000
00010000
00000000
00000000
01000000
00000000
00100000
00000000
00010000
00000000
01000000
00000000
00100000
00000000
00000000
00000000
,
10010000
00000000
10000000
00000000
01000000
00010000
01000000
00010000
,
00001000
00010000
00001000
00010000
00000010
00010000
00000010
00010000
,
00001000
00000000
00000000
00000000
00001000
00000000
00000000
00000000
00000100
00000000
00000000
00000001
00000000
00000000
00000010
00000000
,
00000000
00000000
00000000
00000000
,
00000110
00000000
00000010
00000001
00000100
00000001
00000010
00001000
,
00010000
00001000
01000000
00010000
00100000
00010000
01000000
00100000
,
10000000
00100000
01000000
00001000
00010000
00001000
00000100
00000010
,
00001000
00000010
00010000
00001000
00100000
00001000
01000000
00000000
,
01100000
00000000
00100000
10000000
00010000
10000000
01000000
00100000
,
00010000
00100000
00001000
00010000
00000010
00010000
00000100
00001000
,
00000010
00001000
00000100
00000010
00001000
00000010
00000001
00000100
,
00000010
00000100
00001000
00010000
00100000
00010000
00001000
00000000
,
00011000
00010000
00000100
00000100
,
00001000
00000000
00001000
00000000
00000010
00010000
00001000
00000000
,
01000000
01000000
00010000
00010000
,
00100000
00000000
00100000
00000000
00001000
00010000
00000100
00000000
,
00000110
00000010
00000001
00000100
,
00001000
00010000
00100000
01000000
,
01000000
01000000
01000000
01000000
,
01000000
00100000
01000000
00100000
10000000
00010000
00100000
00000000
,
02100000
00000000
00000000
00000000
,
03020000
00000000
00032000
00000000
,
00003200
00000000
00000320
00000000
,
00002030
00000000
00003002
00000000
,
00000023
00000000
00000000
00000000
,
00000230
00000000
00020300
00000000
,
00032000
00000000
02003000
00000000
,
03020000
00000000
20030000
00000000
,
32000000
00000000
00000000
00000000
,
03200000
00000000
00302000
00000000
,
00023000
00000000
00030020
00000000
,
00002030
00000000
00000000
00003000
,
00020200
00000000
00030300
00011000
,
02002000
00000000
03003000
00011000
,
00020020
00000000
00000000
00030030
,
00202000
00303000
00022000
00033000
,
01000000
00010000
00100000
01000000
00010000
00001000
00000010
00000100
,
00001100
00000001
00000100
00000010
,
00001000
00000001
00000010
00001000
00010000
00000100
00001000
00010000
,
00110000
00000000
01000000
00010000
00100000
00001000
00010000
00100000
,
01100000
00000000
01000000
00001000
00010000
00000100
00000010
00000000
,
00000110
00000000
00000100
00010000
00001000
01000000
00100000
00000000
,
01100000
00000000
01000000
00010000
00100000
01000000
10000000
00000000
,
00100000
00010000
00001000
00000000
00000010
00001000
00010000
00000000
,
00001000
00000100
00000001
00001000
00000001
00000010
00001000
00010000
,
00011000
00000000
01000000
00010000
00100000
00001000
00010000
00000000
,
00100000
10000000
01000000
00010000
00001000
00010000
00100000
01000000
,
01010000
00000000
10000000
00100000
00010000
00001000
00010000
00000100
,
00000110
00000000
00000010
00000100
00001000
00010000
01000000
00000000
,
01100000
00000000
00100000
01000000
00010000
00001000
00000100
00000000
,
00000110
00000000
00000010
00001000
00011000
00000000
00010000
00100000
,
01000000
10000000
01000000
00010000
00100000
01000000
00010000
00001000
,
00000020
00000000
00000000
00000000
,
00000000
00000000
00000000
00000000
,
00000030
00000000
00000000
00000000
;

//--------------- dance-double - forcednature ----------------
#NOTEDATA:;
#STEPSTYPE:dance-double;
#DESCRIPTION:forcednature;
#CREDIT:forcednature;
#DIFFICULTY:Hard;
#METER:15;
#RADARVALUES:0,0,0,0,0;
#NOTES:
00000000
00000000
00000000
00000000
,
00000000
00000000
00000000
00000000
,
00000000
00000000
00000000
00000000
,
00000000
00000000
00000000
00000000
,
00000000
00000000
00000000
00000000
00000000
00000000
00000000
00011000
,
00000000
00000100
00000000
00000100
00000000
00010000
00000000
00010000
,
00000000
00001000
00000000
00001000
00000000
01000000
00000000
01000000
,
00000000
00000000
00000000
00000000
00000000
00000000
00010000
00000000
00000000
00000000
00000000
00000000
00000000
00000000
00000000
00000000
00000000
00000000
00010000
00000000
00000000
00000000
00000000
00000000
00100000
00000000
00000000
00000000
00000000
00000000
00000000
00000000
00000000
01100000
00000000
00000000
00000000
00000000
00000000
00000000
01000000
00000000
00000000
00000000
10000000
00000000
00000000
00000000
,
00100000
00000000
00000000
00000000
00000000
00000000
00000000
00000000
00000000
01100000
00000000
00000000
00000000
00000000
00000000
00000000
01000000
00000000
00000000
00000000
00010000
00000000
00000000
00000000
00100000
00000000
00000000
00000000
00001000
00000000
00000000
00000000
00010000
00000000
00000000
00000000
00000010
00000000
00000000
00000000
00001000
00000000
00000000
00000000
00000001
00000000
00000000
00000000
,
00000010
00000000
00000000
00000000
,
00000110
00000000
00000100
00010000
00001000
01000000
00010000
00100000
,
00001000
00010000
00000010
00001000
00000100
00010000
00001000
01000000
,
00010000
00100000
00001000
00010000
00000010
00001000
00000100
00010000
,
00001000
01000000
00010000
00100000
00001000
00010000
00000010
00000000
,
00000110
00000000
00000100
00001000
00010000
00100000
01000000
00010000
,
00100000
01000000
00010000
00001000
00000010
00000100
00001000
00000010
,
00000100
00001000
00010000
00100000
01000000
00010000
00100000
01000000
,
00010000
00001000
00000010
00000100
00001000
00000010
00000100
00000000
,
00001001
00000000
00000001
00000100
00001000
00000100
00001000
00010000
,
01000000
00010000
01000000
00010000
00001000
00010000
00100000
00000000
,
10010000
00000000
10000000
01000000
00010000
01000000
00010000
00001000
,
00000100
00001000
00000100
00001000
00010000
00001000
00000010
00000000
,
00001001
00000000
00000001
00000100
00001000
00010000
00100000
00000000
,
10010000
00000000
10000000
01000000
00010000
00001000
00000010
00000000
,
00000100
00001000
00000000
00000000
00000100
00000001
00000000
00000000
00000100
00001000
00000000
00000000
00000100
00000001
00000000
00000000
,
00000100
00010000
00001000
01000000
00100000
00100000
00100000
00000000
,
10010000
00000000
00000000
00000000
10000000
00000000
00000000
01000000
00100000
00010000
00000000
01000000
00000000
00001000
00010000
00000000
,
00000000
00000100
00001000
00000000
00000010
00000000
00010000
00000000
00001000
00000000
00000000
00000010
00000000
00000100
00000010
00000000
,
00000001
00000000
00000000
00000000
00001000
00000000
00000000
00000001
00000100
00000010
00000000
00001000
00000000
00000100
00010000
00000000
,
00000000
00001000
01000000
00000000
00010000
00000000
00100000
00000000
01000000
00000000
10000000
00000000
01000000
00000000
00010000
00000000
,
00011000
00000000
01100000
00000000
10000000
00100000
00010000
00100000
,
10000000
01000000
00010000
01000000
10000000
00100000
00010000
00001000
,
00000010
00000000
00000000
00000000
00000110
00000000
00000000
00000100
00001000
00000001
00000000
00000100
00000000
00001000
00010000
00000000
,
00000000
00000000
00000000
00000000
,
01100000
00000000
10000000
01000000
00100000
00010000
00001000
00000100
,
00000010
00000001
00001000
00000001
00000100
00000010
00001000
00010000
,
01000000
00100000
10000000
00010000
10000000
01000000
00100000
00010000
,
00001000
00000100
00000010
00000001
00001000
00000001
00000100
00000000
,
00001001
00000000
00000001
00000100
00001000
00010000
00001000
00000010
,
00001000
00010000
00100000
00010000
00001000
00010000
01000000
00010000
,
00001000
00000100
00001000
00010000
00001000
00000010
00001000
00010000
,
00100000
00010000
00001000
00010000
01000000
10000000
00100000
00000000
,
10010000
10000000
00010000
00010000
,
00001000
00000000
00001000
00000000
00000010
00000100
00000010
00001000
,
00000001
00000001
00001000
00001000
,
00010000
00000000
00010000
00000000
00100000
01000000
00100000
00010000
,
10010000
00000000
10000000
00000000
01000000
00000000
00010000
00001000
,
00000010
00000000
00000001
00000000
00000100
00000000
00001000
00010000
,
00100000
00100000
00100000
00100000
,
00100000
10000000
00100000
00010000
00100000
00100000
00100000
00000000
,
20020000
00000000
00030000
00000000
,
32000000
00000000
03020000
00000000
,
00032000
00000000
00003200
00000000
,
00000302
00000000
00000023
00000000
,
00000230
00000000
00000000
00000000
,
00020300
00000000
00032000
00000000
,
02003000
00000000
03020000
00000000
,
00230000
00000000
00302000
00000000
,
00023000
00000000
00000000
00000000
,
00030020
00000000
00002030
00000000
,
00003002
00000000
00000023
00000000
,
00002030
00000000
00000000
00003000
,
00020200
00000000
00030300
00101000
,
02002000
00000000
03003000
00010010
,
00022000
00000000
00000000
00033000
,
00202000
00303000
00020020
00030030
,
00010000
00001000
00100000
00000000
00010000
00000000
01000000
00000000
00001000
00010000
00000010
00000000
00001000
00000000
00000100
00000000
,
00000110
00000000
00000000
00000000
00000010
00000000
00000001
00000000
00001000
00000010
00000000
00000100
00000000
00000001
00001000
00000000
,
00000100
00010000
00001000
00000000
00100000
00000000
00010000
00000000
01000000
00001000
00010000
00000000
00000010
00000000
00001000
00000000
,
00001001
00000000
00000000
00000000
00000001
00000000
00000010
00000000
00001000
00000000
00010000
00001000
01000000
00000000
00100000
00000000
,
01000000
00010000
00100000
00000000
00001000
00010000
00000100
00000000
00001000
00000010
00010000
00000000
00001000
01000000
00010000
00000000
,
00100000
00001000
00010000
00000000
00000100
00001000
00000010
00000000
00010000
00001000
01000000
00000000
00010000
00100000
00001000
00000000
,
00010000
00000100
00001000
00000000
00000010
00010000
00001000
00000000
01000000
00010000
00100000
00000000
00001000
00010000
00000100
00000000
,
00001000
00000010
00000100
00001000
00010000
01000000
01100000
00000000
,
00100000
00010000
10000000
00000000
00010000
00000000
01000000
00000000
00001000
00010000
00000100
00000000
00001000
00000000
00000010
00000000
,
00000110
00000000
00000000
00000000
00000100
00000000
00000001
00000000
00000010
00000100
00000000
00001000
00000000
00000010
00010000
00000000
,
00001000
00100000
00010000
00000000
01000000
00000000
00100000
00000000
01000000
00001000
00010000
00000000
00000100
00000000
00000010
00000000
,
00000110
00000000
00000000
00000000
00000100
00000000
00001000
00000000
00000001
00000000
00000100
00000010
00001000
00000000
00000100
00000000
,
00011000
00000000
00001000
01000000
00010000
01000000
00001000
01000000
00010000
01000000
00001000
01000000
00010000
00000000
00100000
00000000
,
00011000
00000000
00010000
00000100
00001000
00000100
00010000
00000100
00001000
00000100
00010000
00000100
00001000
00000000
00000010
00000000
,
00011000
00000000
01000000
00010000
00100000
00001000
00010000
00000000
00011000
00000000
00000100
00001000
00000010
00010000
00001000
00000000
,
00011000
00000000
01000000
00000000
00010000
00100000
01000000
00000000
10000000
00100000
10000000
00100000
01000000
00010000
01000000
00001000
,
00020000
00000000
00000000
00000000
,
00000000
00000000
00000000
00000000
,
00030000
00000000
00000000
00000000
;

//--------------- dance-double - forcednature ----------------
#NOTEDATA:;
#STEPSTYPE:dance-double;
#DESCRIPTION:forcednature;
#CREDIT:forcednature;
#DIFFICULTY:Challenge;
#METER:17;
#RADARVALUES:0,0,0,0,0;
#NOTES:
00000000
00000000
00000000
00000000
,
00000000
00000000
00000000
00000000
,
00000000
00000000
00000000
00000000
,
00000000
00000000
00000000
00000000
,
00000000
00000000
00000000
00000000
00000000
00000000
00000000
00011000
,
00000000
00010000
00000000
00010000
00000000
00100000
00000000
00100000
,
00000000
10000000
00000000
10000000
00000000
01000000
00000000
01000000
,
00000000
00000000
00000000
00000000
00000000
00000000
00010000
00000000
00000000
00000000
00000000
00000000
00000000
00000000
00000000
00000000
00000000
00000000
00010000
00000000
00000000
00000000
00000000
00000000
00001000
00000000
00000000
00000000
00000000
00000000
00000000
00000000
00000000
00000010
00000000
00000000
00000000
00000000
00000000
00000000
00000100
00000000
00000000
00000000
00010000
00000000
00000000
00000000
,
00001000
00000000
00000000
00000000
00000000
00000000
00000000
00000000
00000000
00000010
00000000
00000000
00000000
00000000
00000000
00000000
00000100
00000000
00000000
00000000
00010000
00000000
00000000
00000000
00001000
00000000
00000000
00000000
00000100
00000000
00000000
00000000
00001000
00000000
00000000
00000000
00010000
00000000
00000000
00000000
01000000
00000000
00000000
00000000
00100000
00000000
00000000
00000000
,
00010000
00000000
00000000
MMMMMMMM
,
10010000
00000000
00001000
01000000
00010000
00100000
00001000
01000000
,
00010000
00100000
00001000
01000000
00010000
00100000
00001000
01000000
,
00010000
00100000
00001000
01000000
00010000
00100000
00001000
01000000
,
00010000
00000000
00100000
00000000
00001000
00000000
01000000
00000000
00010000
00000000
00100000
00000000
00001000
00010000
00001000
00000000
,
01001000
00000000
00010000
00000100
00001000
00000010
00000000
00000100
,
00001000
00000010
00010000
00000100
00001000
00000010
00010000
00000100
,
00001000
00000010
00010000
00000100
00001000
00000010
00010000
00000100
,
00001000
00000000
00000010
00000000
00010000
00000000
00000100
00000000
00001000
00000000
00000010
00000000
00010000
00001000
00010000
00000000
,
00000100
00000000
00010000
00000000
00001000
00100000
00001000
00000000
01000000
00000000
00001000
00000000
00010000
00000010
00010000
00000000
,
00000100
00000000
00010000
00000000
00001000
00100000
00001000
00000000
01000000
00000000
00001000
00000000
00010000
00000010
00001000
00000000
,
00000100
00000000
00010000
00000000
00001000
00100000
00001000
00000000
01000000
00000000
00001000
00000000
00010000
00000010
00010000
00000000
,
00000100
00000000
00010000
00000000
00001000
00100000
00001000
00000000
01000000
00000000
00001000
00000000
00010000
00000010
00001000
00000000
,
00000100
00000000
00000010
00000000
00000100
00001000
00000100
00000000
00010000
00000000
00010000
00000000
00001000
00100000
00010000
00000000
,
01000000
00000000
00100000
00000000
01000000
00010000
01000000
00000000
00001000
00000000
00001000
00000000
00010000
00000010
00001000
00000000
,
00000100
00010000
00001000
00000000
01000000
00001000
00010000
00000000
00000100
00010000
00001000
00000000
01000000
00001000
00010000
00000000
,
00100000
00000000
00100000
00000000
10000000
00000000
10000000
00010000
10000000
01000000
00100000
00010000
01000000
00000000
00000000
00000000
,
01001000
00000000
00000000
00000000
01001000
00000000
00000000
00001000
00010000
00000100
00000000
00000110
00000000
00000010
00000001
00000000
,
00000000
00000100
00001000
00000000
00010000
00000000
00100000
00000000
01100000
00000000
00000000
10010000
00000000
10000000
01000000
00000000
,
00110000
00000000
00000000
00000000
00110000
00000000
00000000
00100000
00010000
01000000
00000000
00011000
00000000
00000100
00001000
00000000
,
00000000
00000010
00001000
00000010
00010000
00001000
00000010
00000100
00000010
00000001
00000200
00000000
00000302
00000000
00002003
00000000
,
00003010
00000100
00001000
00010000
00000100
00000010
00001000
00010000
,
00000010
00000100
00001000
00010000
00000100
00000010
00001000
00010000
,
00100000
00000000
00000000
00000000
01100000
00000000
00000000
01000000
00010000
00100000
00000000
00101000
00000000
00010000
00000100
00000000
,
00000000
00000000
00000000
MMMMMMMM
,
00000001
00000000
00000010
00000001
00000010
00000100
00001000
00000000
00000010
00000000
00000100
00000010
00000100
00001000
00010000
00000000
,
00000100
00000000
00001000
00000100
00001000
00010000
00100000
00000000
00001000
00000000
00010000
00001000
00010000
00100000
01000000
00010000
,
10000000
00000000
00100000
10000000
00100000
01000000
00010000
00000000
00100000
00000000
01000000
00100000
01000000
00010000
00001000
00000000
,
01000000
00000000
00010000
01000000
00010000
00001000
00000010
00000000
00010000
00000000
00001000
00010000
00001000
00000010
00000100
00001000
,
00000001
00000000
00000100
00000001
00000100
00000010
00001000
00000000
00000100
00000000
00000010
00000100
00000010
00001000
00010000
00000000
,
00000010
00000000
00001000
00000010
00001000
00010000
01000000
00000000
00001000
00000000
00010000
00001000
00010000
01000000
00100000
00010000
,
10000000
00000000
01000000
10000000
01000000
00100000
00010000
00000000
01000000
00000000
00100000
01000000
00100000
00010000
00001000
00000000
,
00100000
00000000
00010000
00100000
00010000
00001000
00000100
00000000
00010000
00000000
00001000
00010000
00001000
00000100
00000010
00001000
,
00000001
00000010
00000100
00001000
00010000
00100000
01000000
10000000
,
10000000
00000000
01000000
00000000
00100000
00000000
00010000
00000000
00001000
00000000
00000100
00000000
00000010
00000001
00001000
00000000
,
00000001
00000100
00000010
00001000
00010000
01000000
00100000
10000000
,
10000000
00000000
00100000
00000000
01000000
00000000
00010000
00000000
00001000
00000000
00000010
00000000
00000100
00000001
00000100
00000001
,
00000010
00000000
00000100
00001000
00010000
00100000
01000000
00000000
,
00100000
00000000
01000000
00100000
00010000
00001000
00000100
00000000
,
00000100
00000100
00000100
00000100
,
00000100
00000000
00000100
00000000
00000100
00000000
00000100
00000000
00000100
00000001
00000100
00001000
00000100
00000000
00000000
00000000
,
00002002
00000000
00000003
00000000
,
00023000
00000000
02030000
00000000
,
03200000
00000000
20300000
00000000
,
32000000
00000000
03020000
00000000
,
00030020
00000000
00000000
00000000
,
00002030
00000000
00003200
00000000
,
02000300
00000000
03002000
00000000
,
00203000
00000000
00300020
00000000
,
00020030
00000000
00000000
00000000
,
00030200
00000000
00000302
00000000
,
00002003
00000000
02003000
00000000
,
03020000
00000000
00000000
00030000
,
20200000
00000000
30300000
00011000
,
00000022
00000000
00000033
00011000
,
02000200
00000000
00000000
03000300
,
00022000
00033000
00100010
MMMMMMMM
,
00011000
00000000
01000000
00010000
00100000
00000000
01000000
10000000
00010000
00000000
00100000
00001000
00010000
00000100
00001000
00000010
,
00010000
00000000
00001000
00000010
00000100
00000010
00000001
00001000
00000010
00000200
00000000
00000301
00000100
00000010
00001000
00000000
,
00000100
00000000
00010000
00001000
00100000
00000000
00001000
00010000
00000010
00000000
00001000
00000100
00010000
00001000
00010000
00000010
,
00001000
00000000
00000100
00000010
00000001
00001000
00000001
00000100
00000010
00001000
00000010
00010000
00001000
00100000
00010000
00100000
,
01000000
00000000
10000000
01000000
00100000
00010000
00100000
00001000
00010000
00000100
00001000
00000100
00000010
00000001
00001000
00000001
,
00000100
00000000
00000001
00000100
00000010
00001000
00000010
00010000
00001000
01000000
00010000
01000000
00100000
10000000
00010000
10000000
,
01000000
00000000
10000000
01000000
00100000
00010000
00100000
00001000
00010000
00000100
00001000
00000100
00000010
00000001
00001000
00000000
,
00000001
00000100
00000010
00001000
00000010
00010000
00001000
00000000
00100000
00010000
00100000
01000000
10000000
00100000
00010000
00100000
,
10000000
00000000
00100000
01000000
00001000
00000000
00010000
00000100
00001000
00000000
00000010
00010000
00001000
00010000
00000100
00001000
,
00000010
00000000
00010000
00001000
00100000
00010000
01000000
00001000
00010000
00200000
00000000
01300000
00100000
10000000
00010000
00000000
,
00100000
00000000
01000000
00010000
00001000
00000000
00000010
00000100
00001000
00000000
00000001
00000100
00000001
00000010
00001000
00000010
,
00000100
00000000
00010000
00001000
01000000
00010000
00100000
00001000
00010000
00100000
10000000
01000000
00010000
00001000
00100000
00010000
,
01000000
00000000
00100000
01000000
00100000
00010000
00001000
00000100
00000010
00000100
00001000
00010000
00001000
00000010
00000100
00000010
,
00000001
00000000
00000010
00000100
00000010
00001000
00010000
01000000
00100000
01000000
00010000
00001000
00010000
00100000
01000000
00100000
,
10000000
00000000
01000000
00010000
00001000
00010000
00001000
00000010
00000001
00000000
00000100
00001000
00010000
00001000
00010000
00100000
,
10000000
00010000
00200000
00000000
01300000
10000000
00200000
00000000
00310000
00001000
00010000
01000000
00100000
00010000
00001000
00000100
,
00000020
00000000
00000000
00000000
,
00000000
00000000
00000000
00000000
,
00000030
00000000
00000000
00000000
;
