#VERSION:0.83;
#TITLE:Immortal;
#SUBTITLE:;
#ARTIST:DJ NAGAI;
#TITLETRANSLIT:;
#SUBTITLETRANSLIT:;
#ARTISTTRANSLIT:;
#GENRE:J-CORE;
#CREDIT:;
#MUSIC:Immortal.ogg;
#BANNER:Immortal.png;
#BACKGROUND:Immortal-bg.png;
#CDTITLE:./CDTitles/bm IIDX 21 SPADA.png;
#SAMPLESTART:40.300;
#SAMPLELENGTH:15.000;
#SELECTABLE:YES;
#OFFSET:1.226;
#BPMS:0.000=104.000
,28.000=208.000
,108.000=104.000
,110.500=208.000
,239.000=104.000
,242.000=208.000
,304.500=52.000
,306.375=416.000
;
#STOPS:108.000=0.577
,110.500=0.144
,239.000=0.577
,254.500=0.144
,256.500=0.144
,306.375=0.198
;
#TIMESIGNATURES:0.000=4=4,
108.000=3=4,
111.000=4=4,
239.000=3=4,
242.000=4=4,
253.000=3=4,
257.000=4=4,
305.000=2=4,
307.000=4=4
;
#DISPLAYBPM:104.000:416.000;
#BGCHANGES:0.000=../BGAs/14tr.mp4=1.000=0=0=0=StretchNoLoop====,
99999.000=-nosongbg-=1.000=0=0=0=StretchNoLoop====
;
#FGCHANGES:;

//--------------- dance-single - forcednature ----------------
#NOTEDATA:;
#STEPSTYPE:dance-single;
#DESCRIPTION:forcednature;
#DIFFICULTY:Beginner;
#METER:5;
#RADARVALUES:0,0,0,0,0;
#CREDIT:forcednature;
#NOTES:
0000
0000
0000
0000
,
0000
0000
0000
0000
,
0000
0000
0000
0000
,
0001
0000
0000
0000
,
1000
0000
0000
0000
,
1001
0000
0000
0000
,
0000
0000
0000
0000
,
0001
0000
0000
0000
,
0010
0000
0000
0000
,
0100
0000
0000
0000
,
1000
0000
0000
0000
,
0001
0000
0000
0000
,
0000
0000
0000
0000
,
0100
0000
0000
0000
,
0000
0000
0000
0000
,
0010
0000
0000
0000
,
0000
0000
0000
0000
,
1000
0000
0000
0000
,
0000
0000
0000
0000
,
0001
0000
0000
0000
,
0010
0000
0000
0000
,
0100
0000
0000
0000
,
1000
0000
0000
0000
,
0010
0000
0010
0000
,
0100
0000
0100
0000
,
0001
0000
1000
0000
,
0001
0000
1000
0000
,
0100
0000
0000
1001
,
0000
0000
0000
1000
,
0000
0000
0000
0010
,
0000
1000
0000
0010
,
0000
0000
0000
0100
,
0000
0000
0000
0001
,
0000
0000
0000
0100
,
0000
0001
0000
0100
,
0000
0001
0000
1000
,
0000
0000
0000
0100
,
0000
0000
0000
1000
,
0000
0100
0000
1000
,
0000
0000
0000
0001
,
0000
0000
0000
0001
,
0000
0001
0000
0001
,
0000
0000
0000
0100
,
0000
0010
0000
1000
,
0000
0000
0000
0001
,
0000
0000
0000
0010
,
0000
0000
0000
0001
,
0000
0000
0000
1000
,
0000
0000
0000
0010
,
0000
0000
0000
1000
,
0000
0000
0000
0001
,
0000
0000
0000
0100
,
0000
0000
0000
0010
,
0000
0000
0000
1000
,
0000
0000
0000
0001
,
0000
0001
0000
0001
,
0000
0000
0000
0010
,
0000
0000
0000
0000
0000
1001
0000
0000
,
0000
0000
0100
0000
,
0000
0000
0000
1001
,
0000
0000
0110
0000
,
0000
0000
1001
0000
,
0000
0000
0110
0000
,
0000
0000
0000
0000
,
0000
1001
0000
0000
,
0000
1000
0000
0001
,
0000
1000
0000
0001
,
0000
1000
0000
0000
,
0000
0110
0000
0000
,
0000
0001
0000
1000
,
0000
0001
0000
1000
,
0000
0001
0000
0000
,
0000
0100
0000
0010
,
0000
0100
0000
0000
,
0000
0010
0000
0000
,
0000
1000
0000
0001
,
0000
0000
0000
1000
,
0000
0000
0000
1000
,
0000
0000
0000
1000
,
0000
0000
0000
0000
,
0000
0000
0000
0001
,
0000
0000
0000
0001
,
0000
0000
0000
0001
,
0000
0000
0000
0000
,
0000
0000
0000
0100
,
0000
0000
0000
0010
,
0000
0000
0000
1000
,
0000
0000
0000
0001
,
0000
0000
0000
1001
,
0000
0000
0000
0000
,
0000
0100
0000
0000
,
0000
0000
0000
0000
,
0000
0010
0000
0000
,
0000
0000
0000
0000
,
0000
1000
0000
0000
;

//--------------- dance-single - forcednature ----------------
#NOTEDATA:;
#STEPSTYPE:dance-single;
#DESCRIPTION:forcednature;
#DIFFICULTY:Easy;
#METER:9;
#RADARVALUES:0,0,0,0,0;
#CREDIT:forcednature;
#NOTES:
0000
0000
0000
0000
,
0000
0000
0000
0000
,
0000
0000
0000
0000
,
0001
1000
0000
1000
,
0010
0000
1000
0000
0000
0100
0000
0100
,
0020
0000
0000
0030
0002
0000
0000
0003
,
2000
0000
0000
3000
0010
0000
0100
0000
,
0001
0000
0000
0001
0000
0000
0001
0000
,
1000
0000
0000
1000
0000
0000
1000
0000
,
0010
0000
0000
0010
0000
0000
0010
0000
,
0200
0000
0000
0300
,
0001
0000
0000
1000
0000
0000
0020
0000
,
0000
0000
0030
1000
,
0001
0000
0000
0010
0000
0000
0200
0000
,
0000
0000
0000
0300
,
1000
0000
0000
0001
0000
0000
0200
0000
,
0000
0000
0300
0010
,
1000
0000
0000
0001
0000
0000
0020
0000
,
0100
0100
0100
0030
,
1001
0000
0000
0001
0000
0000
1000
0000
,
0010
0000
0000
0100
0000
0000
0010
0000
,
1000
0000
0000
0001
0000
0000
1000
0000
,
0100
0000
0000
0010
0000
0000
0001
0000
,
1000
0010
0000
0010
,
1000
0100
1000
0001
,
0100
0100
0001
0001
,
1000
0100
0010
0001
,
0200
0000
0000
0000
0000
0300
1001
0000
,
1000
0000
0010
0100
,
0001
0000
0010
0100
,
1000
0000
0001
0100
,
0100
0010
0010
1000
,
0001
0000
0010
0001
,
0100
0000
0010
1000
,
0001
0100
0001
0010
,
0010
0000
0000
0010
0000
0000
1001
0000
,
0001
0000
0100
0010
,
1000
0000
0001
1000
,
0100
0000
0010
0001
,
0001
1000
0001
0100
,
0000
0010
0000
0010
0000
1000
0000
0000
,
0001
0000
0010
0000
0000
0200
0000
0000
,
1000
1000
1300
0100
,
0010
0100
0000
0010
0000
1002
0000
0000
,
0000
0000
0000
0203
,
0000
0000
0000
0320
,
0000
0000
0000
2030
,
0000
0000
0000
3002
,
0000
0000
0000
0023
,
0000
0000
0000
0230
,
0000
0000
0000
2300
,
0000
0000
0000
3001
,
0000
0001
0000
0100
,
0000
0100
0000
0010
,
0000
0010
0000
1000
,
0001
1000
0001
0020
,
0000
0000
0030
0200
,
0000
0000
2300
0000
0000
3002
0000
0000
,
0000
0000
0003
0000
0001
2000
0000
0000
,
0000
3000
0000
2002
,
0000
0000
3003
0000
1000
0000
0001
1000
,
0000
0000
0000
0000
0001
0000
1000
0001
,
0000
0000
0100
0100
,
0010
0000
0010
0000
0000
1000
0000
0001
,
0000
1001
1000
0100
,
0010
0100
1000
0001
,
0100
0010
0010
1000
,
1000
0000
0001
0000
1000
0001
0000
1000
,
0000
0110
0001
1000
,
0010
0100
0001
1000
,
0100
0010
0001
0100
,
0001
0010
0010
0100
,
1000
0000
1001
0000
0000
0001
0000
0001
,
0000
0001
0000
0000
1000
0000
0100
0000
,
0000
0020
0000
0000
0000
0000
0000
0000
,
0031
0000
1000
0000
0010
1000
0000
1000
,
0000
0000
0000
0000
0220
0000
0000
0000
0000
0000
0000
0000
0000
0000
0000
0000
0000
0000
0000
0330
0000
0000
0000
0000
1001
0000
0000
0000
0000
0000
0000
0000
,
0000
1000
0000
0001
,
0000
0100
0000
0001
,
0000
0001
0000
0010
,
0000
0000
0000
0001
,
0000
1000
0000
0001
,
0000
0100
0000
0010
,
1000
0000
0010
0000
,
1000
0000
0000
0001
,
0000
0010
0000
0100
,
0000
1000
0000
0010
,
0000
0100
0000
0001
,
0000
1000
0000
2002
,
0000
0000
0000
3003
,
0000
1000
0002
0000
,
0000
0000
0003
0000
,
0000
0001
2000
0000
,
0000
0000
3000
0000
,
0000
0010
0200
0000
,
0000
0000
0000
0000
,
0000
0000
0000
0000
,
0300
0000
0000
0000
;

//--------------- dance-single - forcednature ----------------
#NOTEDATA:;
#STEPSTYPE:dance-single;
#DESCRIPTION:forcednature;
#DIFFICULTY:Medium;
#METER:14;
#RADARVALUES:0,0,0,0,0;
#CREDIT:forcednature;
#NOTES:
0000
0000
0000
0000
,
0000
0000
0000
0000
,
0000
0000
0000
0000
,
1000
0000
0101
0000
1000
0001
0010
0000
,
0001
0000
1100
0000
0001
1000
0010
0100
,
0002
0000
0000
0013
0200
0000
0000
1300
,
0002
0000
0000
0103
0010
1000
0001
1000
,
0200
0300
0010
0001
0000
0010
0100
0000
,
1000
0000
0010
0100
0000
0010
1000
0000
,
0001
0010
0100
1000
0100
0010
0001
0000
,
2002
0000
0000
3003
,
1000
0100
0000
0001
0100
0000
1000
0200
,
0000
0000
0300
0020
,
0031
0100
0000
1000
0100
0000
0001
0200
,
0000
0000
0000
0300
,
0001
0010
0000
1000
0010
0000
0001
0020
,
0000
0000
0030
0200
,
1300
0010
0000
0001
0010
0000
1000
0020
,
1000
1000
0100
0130
,
0120
0000
0000
2030
0000
0000
3002
0000
,
0023
0000
0000
0032
0000
0000
2003
0000
,
3200
0000
0000
2300
0000
0000
3002
0000
,
0203
0000
0000
0302
0000
0000
1003
0010
,
1000
0000
0100
0000
1000
0000
0001
0010
,
0001
0000
1000
0100
1000
0000
0001
0100
,
0010
1000
0010
1000
0001
0010
0001
0010
,
0100
1000
0010
1000
0001
0010
0001
0100
,
0020
0000
0000
0000
0000
0030
1001
0000
,
1000
0100
0010
0001
0200
0000
0310
0000
,
1000
0001
0010
0001
0200
0000
0310
0000
,
1000
0100
0001
0100
1000
0000
0010
0010
,
0100
0110
1000
0011
,
0001
0100
1000
0100
0020
0000
1030
0000
,
0001
0010
0100
1000
0020
0000
0130
0000
,
1000
0100
0001
0100
0010
0000
1010
0000
,
0001
0010
0000
1100
0000
0000
0101
0000
,
1000
0010
0100
0001
0020
0000
0130
0000
,
0001
0100
1000
0010
2000
0000
3001
0000
,
0010
0001
0100
1000
0100
0000
0010
1000
,
0100
0000
0110
0000
1000
0001
0010
0000
,
0100
0001
0000
0101
0000
1100
0000
1000
,
0010
0000
0100
1000
0000
1200
0000
0000
,
0010
0301
0101
1010
,
0001
0010
0000
0110
0000
2002
0000
0000
,
0000
0003
0000
0020
,
0000
3000
0000
0200
,
0000
0030
0000
0002
,
0000
0300
0000
2000
,
0000
0003
0000
0200
,
0000
3000
0000
0020
,
0000
0300
0000
0002
,
0000
0030
0000
0103
,
0100
0100
0100
0010
,
0010
0010
0010
1000
,
1000
0000
1000
0000
1000
0001
0010
0000
,
0110
0100
0110
1001
,
1000
0010
0100
0000
0001
0010
0100
0000
,
1000
0001
0100
0000
0010
2002
0000
0000
,
0000
0000
3003
0000
0100
0220
0000
0000
,
0000
0000
0330
2002
,
0000
0000
3003
0000
1100
0000
0010
0001
,
0000
0000
0000
0000
0001
1000
0001
0000
0100
0000
0000
0000
0010
0000
1000
0000
,
0000
0000
0000
0000
1000
0001
1000
0000
0100
0000
0010
0000
0100
0000
0010
0000
,
0001
0000
0000
0000
0100
0000
0000
0000
0010
0000
0000
0000
1000
0000
0000
0000
0000
0000
0000
0000
0220
0330
0000
0000
1000
0000
0000
0000
0001
0000
0000
0000
,
0010
0000
0000
0000
0220
0330
0000
0000
1001
0000
0000
0000
0000
0000
0000
0000
0001
0000
0000
0000
0100
0000
0000
0000
1000
0000
0000
0000
0100
0000
0000
0000
,
0010
1000
0001
0000
0010
0100
0001
0100
,
1000
0010
0100
0001
0100
0001
0100
1000
,
0100
1000
0100
0000
0010
0100
0000
1001
,
0000
0000
0110
0000
0001
0010
0100
1000
,
0010
0100
1000
0000
0100
0001
0010
1000
,
0010
0001
0100
0000
0010
1000
0001
0010
,
0100
1000
0010
0100
1001
0000
0110
0000
,
0001
1000
0001
0000
1000
0000
0000
0000
0010
0000
0100
0000
0000
0000
0101
0000
,
0000
0011
0000
0010
1000
0000
0010
0001
,
0000
0100
0001
0001
0010
0010
0100
0100
,
1000
0000
1001
0000
0100
0010
0000
0110
,
0000
0000
0000
0000
2002
0000
0000
0000
0000
0000
0000
0000
0000
0000
0000
0000
0000
0000
0000
3003
0000
0000
0000
0000
1000
0000
0000
0000
0000
0000
0000
0000
,
0100
1000
0100
0010
,
0001
1000
0001
0100
,
0010
0100
0010
1000
,
0001
0000
0010
0000
0000
0000
0001
1000
,
0001
0000
1000
0000
0001
0000
1000
0001
,
1000
0001
0000
0100
,
0010
0000
0110
0000
,
1001
0000
0000
1000
,
0100
0001
0100
1000
,
0010
0100
0001
0010
,
1000
0010
0001
0100
,
0010
1000
0001
2002
,
0000
0000
0000
3003
,
0000
0100
0220
0000
,
0000
0000
0000
0330
,
0000
0010
2002
0000
,
0000
0000
0000
3003
,
0000
0100
0200
0000
,
0000
0000
0000
0000
,
0000
0000
0000
0000
,
0300
0000
0000
0000
;

//--------------- dance-single - forcednature ----------------
#NOTEDATA:;
#STEPSTYPE:dance-single;
#DESCRIPTION:forcednature;
#DIFFICULTY:Hard;
#METER:17;
#RADARVALUES:0,0,0,0,0;
#CREDIT:forcednature;
#NOTES:
0000
0000
0000
0000
,
0000
0000
0000
0000
,
0000
0000
0000
0000
,
1001
0000
0000
1000
0100
0000
0000
0000
0010
0001
0000
0001
0100
0000
0000
0000
,
0010
1000
0000
1000
0001
0000
0010
0000
1001
0000
0100
0010
0000
0000
0100
0010
,
1002
0000
0000
0103
0020
0000
0000
1030
,
0002
0000
0000
0013
0100
1000
0001
0100
,
0020
1030
1000
0010
1000
1000
0101
0000
,
0010
0001
0001
0010
0001
0001
1100
0000
,
1000
0100
0100
0001
0100
0100
1001
0000
,
0220
0000
0000
0330
,
0001
0100
0000
1000
0100
0000
0010
2001
,
0000
0000
0000
0000
0000
0000
0000
0000
3001
0100
0001
0100
0010
0000
0000
0000
,
1000
0100
0000
0001
0100
0000
0010
1002
,
0000
0000
0000
0000
0000
0000
0000
0000
1003
0100
1000
0100
0010
0000
0000
0000
,
0001
0010
0000
1000
0010
0000
0100
2001
,
0000
0000
0000
0000
0000
0000
0000
0000
3001
0010
0001
0010
0100
0000
0000
0000
,
1000
0010
0100
0010
0001
0000
0001
0010
,
0100
0010
0100
0000
0010
0000
1000
0000
0001
0000
0000
0000
0001
0000
0000
0000
,
0021
0000
0000
0230
0000
0000
2300
0000
,
3020
0000
0000
0230
0000
0000
0302
0000
,
0023
0000
0000
0230
0000
0000
2300
0000
,
3020
0000
0000
0230
0000
0000
0301
0010
,
0021
0000
0100
0000
0001
0000
0130
1000
,
1020
0000
0130
0001
0021
0000
0130
1000
,
0010
0100
0001
1000
0100
0010
0001
1000
,
0001
0100
0001
0000
0100
0010
0100
0000
0010
1000
0010
0000
1000
0001
1000
0000
,
0200
0000
0000
0000
0000
0300
1001
0000
,
0001
0000
0100
0000
0000
0000
0001
0000
1000
0010
0100
0001
1000
0000
0000
0000
,
0001
0000
0010
0000
0000
0000
0001
0000
1000
0100
0010
0001
1000
0000
0000
0000
,
0001
1000
0000
0010
0100
0001
0010
0100
,
0110
0000
0000
0000
1001
0000
0000
0000
0001
0100
0001
0100
0010
0000
0000
0000
,
1000
0000
0100
0000
0000
0000
1000
0000
0001
0010
0100
1000
0001
0000
0000
0000
,
1000
0000
0010
0000
0000
0000
1000
0000
0001
0100
0010
1000
0001
0000
1000
0000
,
0001
0000
1000
0000
0100
0010
0100
0000
1000
0100
1000
0000
1100
0000
0000
0000
,
0010
0101
0000
1001
0000
0000
0110
0000
,
0001
0000
0100
0000
0010
0000
1000
0000
0001
0010
0100
1000
0001
0000
0000
0000
,
1000
0000
0100
0000
0010
0000
0001
0000
1000
0010
0100
0001
1000
0000
0000
0000
,
0001
0100
0001
0010
0100
1000
0010
0100
,
1001
0000
0000
0000
0110
0000
0000
0000
0001
1000
0001
1000
0010
0000
1000
0010
,
0100
0101
0000
0011
0000
1010
0000
0100
,
1001
0000
0000
0000
0001
0000
0010
0000
0000
0000
0100
0000
1000
0001
1000
0001
,
1000
0010
1000
0010
0100
0001
0100
0001
1000
0000
0000
0000
1001
0000
0000
0000
,
0100
0110
0000
0010
0000
2002
0000
0000
,
0000
0003
0000
0200
,
0000
3000
0000
0020
,
0000
0300
0000
0002
,
0000
0030
0000
2000
,
0000
0003
0000
0020
,
0000
3000
0000
0200
,
0000
0030
0000
0002
,
0000
0303
0000
2001
,
0001
0001
0001
3020
,
1000
1000
1000
0230
,
0001
0000
0001
0000
0301
0100
1010
0000
,
1100
0000
0011
0000
0101
0000
1000
0100
,
1000
0000
0100
0000
0010
0000
0001
0000
0010
0000
0001
0000
1000
0010
1000
0000
,
0010
0000
0100
0000
0001
0100
0001
0000
1000
0000
2002
0000
0000
0000
0000
0000
,
0000
0000
3003
0000
0010
0220
0000
0000
,
0000
0000
0000
0000
0330
0000
2002
3003
,
1000
0100
0010
0001
0100
0010
1000
0001
0220
0000
0330
0000
0010
0000
1001
0000
,
0000
0000
0000
0000
1000
0001
1000
0001
0100
0000
0000
0000
0010
0000
1001
0000
,
0000
0000
0000
0000
0001
1000
0001
1000
0100
0000
0010
0000
0100
0000
0010
0000
,
0001
0000
1000
0000
0001
0000
1000
0000
0010
0000
0100
0000
0010
0000
0100
0000
0000
0000
0000
0000
0220
0330
0000
0000
1001
0000
0000
0000
0100
0000
0000
0000
,
0010
0000
0000
0000
2002
3003
0000
0000
0101
0000
0000
0000
0100
0000
0000
0000
0010
0000
0000
0000
1000
0000
0000
0000
0001
0000
0000
0000
0010
0000
0000
0000
,
0100
1000
0100
0010
0001
0000
0010
0000
0001
0000
0100
0000
0010
0000
1000
0000
,
0001
0100
0001
1000
0010
0000
0100
0000
0010
0000
1000
0000
0001
0010
0001
0010
,
0100
1000
0100
1000
0001
0000
0000
0000
0100
0000
1010
0000
0000
0000
0011
0000
,
0000
0000
1001
1000
0001
0010
0100
0010
,
0001
0100
0010
1000
0001
0000
1000
0000
0001
0000
0010
0000
0100
0000
1000
0000
,
0010
0100
0001
1000
0010
0000
0100
0000
0001
0000
0010
0000
0100
0000
1000
0000
,
0010
1000
0100
0010
1001
0000
0110
0000
,
0001
0100
0001
0100
0010
0000
1000
0010
0100
0000
0001
0000
0000
0000
0011
0000
,
0000
0000
1100
0000
0000
0000
1000
0001
0100
0000
0000
0000
0010
0000
0110
0000
,
0000
0000
0001
0100
0001
0100
0001
1000
0001
1000
0100
1000
0100
1000
0001
0010
,
0100
0000
0110
0000
0010
0101
0000
1100
,
0000
0000
0000
0000
2002
0000
0000
0000
0000
0000
0000
0000
0000
0000
0000
0000
0000
0000
0000
3003
0000
0000
0000
0000
1000
0000
0000
0000
0000
0000
0000
0000
,
0100
0000
1000
0000
0010
0000
0100
0001
,
0100
0010
1000
0100
,
0001
0000
0100
0000
1000
0000
0001
0010
,
0001
0000
1000
0000
0110
0000
0001
0010
,
0100
0000
0010
0000
0001
0000
1000
0010
,
0100
0010
1000
1100
,
0101
0000
0110
0000
,
1001
0000
0000
0000
0000
0000
1000
0100
,
1000
0100
0010
0001
0010
0000
0001
0100
,
0001
0100
0010
1000
0010
0000
1000
0001
,
0100
0000
0001
1000
0100
0000
0010
0001
,
1000
0001
0100
0010
1000
0000
2002
0000
,
0000
0000
0000
3003
,
0000
0110
0110
0000
,
0000
0000
1000
0100
1000
0100
0010
0001
,
0010
0001
0100
0000
2002
0000
0000
0000
,
0000
0000
3000
0000
,
0000
0100
0200
0000
,
0000
0000
0000
0000
,
0000
0000
0000
0000
,
0303
0000
0000
0000
;

//--------------- dance-double - forcednature ----------------
#NOTEDATA:;
#STEPSTYPE:dance-double;
#DESCRIPTION:forcednature;
#DIFFICULTY:Easy;
#METER:9;
#RADARVALUES:0,0,0,0,0;
#CREDIT:forcednature;
#NOTES:
00000000
00000000
00000000
00000000
,
00000000
00000000
00000000
00000000
,
00000000
00000000
00000000
00000000
,
00001000
00010000
00000000
00010000
,
00000000
00000000
00000100
00000000
00000000
00001000
00000000
00001000
,
00000002
00000000
00000000
00000003
00000200
00000000
00000000
00000300
,
00000020
00000000
00000000
00000030
00010000
00000000
00001000
00000000
,
00100000
00000000
00000000
00100000
00000000
00000000
00100000
00000000
,
00010000
00000000
00000000
00010000
00000000
00000000
00010000
00000000
,
10000000
00000000
00000000
10000000
00000000
00000000
10000000
00000000
,
00200000
00000000
00000000
00300000
,
01000000
00000000
00000000
00001000
00000000
00000000
00020000
00000000
,
00000000
00000000
00030000
00000000
,
00000100
00000000
00000000
00010000
00000000
00000000
00002000
00000000
,
00000000
00000000
00003000
00000000
,
00100000
00000000
00000000
00001000
00000000
00000000
00020000
00000000
,
00000000
00000000
00030000
00000000
,
00000010
00000000
00000000
00010000
00000000
00000000
00002000
00000000
,
00000000
00000000
00003000
00000000
,
00010000
00000000
00000000
00010000
,
00001000
00000000
00000000
00001000
,
01000000
00000000
00000000
01000000
,
00010000
00000000
00000000
00010000
,
00100000
00000000
01000000
10000000
,
01000000
00000000
00100000
01000000
,
00100000
00100000
00010000
00010000
,
10000000
00010000
01000000
00001000
,
00020000
00000000
00000000
00000000
00000000
00030000
00000100
00000000
,
00001000
00000000
00000001
00000100
,
00000001
00000000
00001000
00000010
,
00001000
00000000
00000100
00010000
,
00010000
00001000
00001000
01000000
,
00010000
00000000
10000000
00100000
,
10000000
00000000
00010000
00100000
,
00010000
00000000
01000000
00001000
,
00001000
00000000
00000000
00001000
00000000
00000000
00010000
00000000
,
00000100
00000000
00001000
00000010
,
00001000
00000000
00000001
00000010
,
00000001
00000000
00000100
00000010
,
00000010
00001000
00000010
00010000
,
00000000
00001000
00000000
00001000
00000000
00001000
00000000
00000000
,
00100000
00000000
00010000
00000000
00000000
20000000
00000000
00000000
,
00000000
00000000
30100000
10000000
,
00000000
01000000
00000000
01000000
00000000
00200000
00000000
00000000
,
00000000
00000000
00300000
00020000
,
00000000
00000000
00030000
02000000
,
00000000
00000000
03000000
00002000
,
00000000
00000000
00003000
00020000
,
00000000
00000000
00030000
00000200
,
00000000
00000000
00000300
00002000
,
00000000
00000000
00003000
00000002
,
00000000
00000000
00000003
00000100
,
00000000
00000100
00000000
00000010
,
00000000
00000010
00000000
00010000
,
00000000
00010000
00000000
00001000
,
00010000
00001000
00010000
00002000
,
00000000
00000000
00003000
00200000
,
00000000
00000000
00000000
00300000
00000000
02000000
00000000
00000000
,
00000000
00000000
00000000
03000000
00000000
20000000
00000000
00000000
,
00000000
30000000
00000000
20020000
,
00000000
00000000
30030000
00000000
00010000
00000000
10000000
00010000
,
00000000
00000000
00000000
00000000
01000000
00000000
00010000
01000000
,
00000000
00000000
00001000
00001000
,
00010000
00000000
00010000
00000000
00000000
00000100
00000000
00000010
,
00000000
00000001
00000100
00000000
,
00000010
00001000
00000010
00000000
,
00010000
00001000
00001000
00100000
,
00100000
00000000
00010000
00000000
00000000
10000000
00000000
10000000
,
00000000
00100000
01000000
00000000
,
00010000
00100000
00001000
00000000
,
00010000
00000010
00001000
00000000
,
00000100
00010000
00010000
00001000
,
00001000
00000000
01000000
00000000
00000000
00010000
00000000
00010000
,
00000000
00010000
00000000
00000000
10000000
00000000
01000000
00000000
,
00000000
00200000
00000000
00000000
00000000
00000000
00000000
00000000
,
00300000
00000000
00001000
00000000
00000000
00010000
00000000
00010000
,
00000000
00000000
00000000
00000000
00022000
00000000
00000000
00000000
00000000
00000000
00000000
00000000
00000000
00000000
00000000
00000000
00000000
00000000
00000000
00033000
00000000
00000000
00000000
00000000
00000100
00000000
00000000
00000000
00000000
00000000
00000000
00000000
,
00000000
00001000
00000000
00000100
,
00000000
00000010
00000000
00000001
,
00000000
00001000
00000000
00000001
,
00000000
00000000
00000000
00000100
,
00000000
00000010
00000000
00001000
,
00000000
00000010
00000000
00010000
,
00001000
00000000
00010000
00000000
,
00001000
00000000
00000000
01000000
,
00000000
00010000
00000000
10000000
,
00000000
00010000
00000000
00100000
,
00000000
01000000
00000000
10000000
,
00000000
01000000
00000000
02200000
,
00000000
00000000
00000000
03300000
,
00000000
00100000
00020000
00000000
,
00000000
00000000
00030000
00000000
,
00000000
00010000
20000000
00000000
,
00000000
00000000
30000000
00000000
,
00000000
10000000
00200000
00000000
,
00000000
00000000
00000000
00000000
,
00000000
00000000
00000000
00000000
,
00300000
00000000
00000000
00000000
;

//--------------- dance-double - forcednature ----------------
#NOTEDATA:;
#STEPSTYPE:dance-double;
#DESCRIPTION:forcednature;
#DIFFICULTY:Medium;
#METER:14;
#RADARVALUES:0,0,0,0,0;
#CREDIT:forcednature;
#NOTES:
00000000
00000000
00000000
00000000
,
00000000
00000000
00000000
00000000
,
00000000
00000000
00000000
00000000
,
00001000
00000000
01001000
00000000
01000000
00001000
00010000
00000000
,
00000100
00000000
00010100
00000000
00010000
00000010
00000000
00000010
,
00000200
00000000
00000000
00000300
00000002
00000000
00000000
00000003
,
00000020
00000000
00000000
00000030
00000100
00010000
00001000
00100000
,
00020000
00030000
01000000
00010000
00000000
01000000
00100000
00000000
,
10000000
00000000
01000000
10000000
00000000
01000000
00100000
00000000
,
00001000
00000000
00010000
00001000
00000000
00000100
00001000
00000000
,
00000200
00000000
00000000
00000300
,
00000001
00000010
00000000
00000100
00000010
00000000
00000100
00020000
,
00000000
00000000
00030000
00000000
,
00001000
01000000
00000000
00100000
10000000
00000000
01000000
00200000
,
00000000
00000000
00300000
00000000
,
00001000
00010000
00000000
00001000
00000010
00000000
00000001
00000200
,
00000000
00000000
00000300
00000000
,
00001000
00010000
00000000
01000000
00100000
00000000
00010000
10000000
,
00200000
00000000
00000000
00300000
,
02000000
00000000
00000000
03002000
00000000
00000000
00013000
00000000
,
00000200
00000000
00000000
00020300
00000000
00000000
00031000
00000000
,
00200000
00000000
00000000
00302000
00000000
00000000
00013000
00000000
,
00000020
00000000
00000000
00020030
00000000
00000000
00031000
00100000
,
00001000
00000000
00010000
00000000
00000010
00000000
00010000
00000100
,
00010000
00000000
00001000
01000000
00001000
00000000
00010000
00000010
,
00010000
00001000
00010000
00001000
00100000
01000000
00100000
01000000
,
10000000
00100000
01000000
00001000
00010000
00000010
00000100
00000001
,
00002000
00000000
00000000
00000000
00000000
00003000
00000011
00000000
,
00000010
00000100
00010000
00001000
00010000
00000000
00000010
00000000
,
00001000
00000100
00010000
00001000
01000000
00000000
00010000
00000000
,
00100000
01000000
10000000
00100000
01000000
00000000
00001000
00010000
,
00000100
00000000
00000110
00000000
00000010
00000001
00000100
00000000
,
00000010
00010000
00000100
00000010
00000001
00000000
00000100
00000000
,
00001000
00010000
00100000
01000000
00010000
00000000
00100000
01000000
,
00100000
01000000
10000000
10000000
10000000
10000000
00100000
00000000
,
00010000
00001000
00000000
00000100
00000000
00000000
00000110
00000000
,
00000010
00001000
00000001
00001000
00000100
00000000
00000010
00000000
,
00001000
00010000
01000000
00100000
01000000
00000000
10000000
00000000
,
00100000
01000000
00100000
00010000
00001000
00000000
00010000
00000100
,
00000010
00000000
00000110
00000000
00000100
00000100
00001000
00000000
,
00000001
00000100
00000000
00001000
00000000
00011000
00000000
00010000
,
01000000
00000000
10000000
00100000
00000000
02100000
00000000
00000000
,
00000000
00000000
03001000
00011000
,
00010000
00000100
00000000
00000010
00000000
00000002
00000000
00000000
,
00000000
00000000
00000000
00000203
,
00000000
00000000
00000000
00002300
,
00000000
00000000
00000000
00023000
,
00000000
00000000
00000000
02030000
,
00000000
00000000
00000000
23000000
,
00000000
00000000
00000000
30200000
,
00000000
00000000
00000000
00320000
,
00000000
00000000
00000000
00031000
,
00100000
00001000
00010000
00000010
,
00010000
00001000
01000000
00001000
,
00010000
00000000
00000100
00000000
00010000
00001000
00010000
00000000
,
00010000
00100000
00100000
10000000
,
01000000
00010000
00001000
00000100
,
00000001
00000000
00000010
00000000
00000100
00020000
00000000
00000000
,
00000000
00000000
00000000
00000000
00100000
00200000
00000000
00000000
,
00000000
00000000
00000000
00000000
00330000
00000000
02200000
03300000
,
00100000
10000000
01000000
00010000
00011000
00000000
00001000
00000010
,
00000000
00000000
00000000
00000000
00011000
00000000
00010000
00100000
,
00000000
00000000
00000000
00000000
00010000
00001000
00010000
00001000
,
00000010
00000000
00000000
00000000
00000100
00000000
00000000
00000000
00001000
00000000
00000000
00000000
00000100
00000000
00000000
00000000
00000000
00000000
00000000
00000000
00000220
00000330
00000000
00000000
00000010
00000000
00000000
00000000
00000001
00000000
00000000
00000000
,
00000100
00000000
00000000
00000000
00002000
00003000
00000000
00000000
00011000
00000000
00000000
00000000
00000000
00000000
00000000
00000000
00010000
00000000
00000000
00000000
00100000
00000000
00000000
00000000
01000000
00000000
00000000
00000000
00100000
00000000
00000000
00000000
,
10000000
00010000
00100000
00000000
01000000
10000000
01000000
00010000
,
00001000
00010000
00000010
00000000
00001000
00000100
00001000
00000001
,
00000100
00000001
00000010
00000000
00000100
00000100
00000000
00011000
,
00000000
00000000
01001000
00000000
01000000
00010000
00100000
01000000
,
00100000
00001000
00010000
00000000
00000010
00000100
00001000
00000100
,
00000001
00001000
00000010
00000000
00010000
00001000
00100000
01000000
,
00100000
00010000
01000000
01000000
10000000
00000000
01010000
00000000
,
00010000
00100000
01000000
00000000
00010000
00001000
00000000
00000100
,
00000000
00000110
00000000
00000010
00010000
00000000
00001000
00000010
,
00000000
00000001
00000100
00000010
00001000
00010000
01000000
00100000
,
10000000
00000000
10010000
00000000
00010000
00100000
00000000
01000000
,
00000000
00000000
00000000
00000000
02200000
00000000
00000000
00000000
00000000
00000000
00000000
00000000
00000000
00000000
00000000
00000000
00000000
00000000
00000000
03300000
00000000
00000000
00000000
00000000
01000000
00000000
00000000
00000000
00000000
00000000
00000000
00000000
,
10000000
01000000
00100000
00001000
,
00010000
00000100
00001000
00000001
,
00000100
00001000
00000100
00000001
,
00000010
00001000
00000000
00000010
,
00000100
00010000
00001000
00100000
,
01000000
00010000
00001000
01000000
,
00010000
00000000
00110000
00000000
,
10100000
00000000
00000000
10000000
,
01000000
10000000
01000000
00010000
,
01000000
00010000
01000000
00100000
,
00001000
00010000
00000010
00001000
,
00000100
00001000
00000010
00000002
,
00000000
00000000
00000000
00000003
,
00000000
00000000
00000110
00000000
00000220
00000000
00000000
00000330
,
00000000
00000100
00001000
00010000
,
01000000
00100000
01200000
00000000
,
00000000
00000000
00000000
00000000
,
00000000
10000000
20000000
00000000
,
00000000
00000000
00000000
00000000
,
00000000
00000000
00000000
00000000
,
30300000
00000000
00000000
00000000
;

//--------------- dance-double - forcednature ----------------
#NOTEDATA:;
#STEPSTYPE:dance-double;
#DESCRIPTION:forcednature;
#DIFFICULTY:Hard;
#METER:17;
#RADARVALUES:0,0,0,0,0;
#CREDIT:forcednature;
#NOTES:
00000000
00000000
00000000
00000000
,
00000000
00000000
00000000
00000000
,
00000000
00000000
00000000
00000000
,
00011000
00000000
00000000
00001000
01000000
00000000
00010000
00000000
00100000
00000000
00000000
00100000
01000000
00000000
10000000
00000000
,
00010000
00000000
00000000
00010000
01000000
00000000
00001000
00000000
00010000
00000000
00000100
00000100
00000000
00000000
00000100
00000100
,
00000020
00000000
00000000
00000000
00000000
00000000
00000031
00001000
00000021
00000000
00000000
00000000
00000000
00000000
00010030
00001000
,
00200000
00000000
00000000
01300000
00010000
00001000
00000010
00000001
,
00002000
00003010
00000100
00001000
00000000
00010000
00100000
01000000
,
00010000
00100000
01000000
00010000
00000000
00001000
00000010
00000100
,
00001000
00000010
00000100
00001000
00000000
00010000
00100000
01000000
,
00020000
00000000
00000000
00000000
10030000
01000000
00010000
00000000
,
00001000
00001010
00000000
00001000
00011000
00000000
00001000
02001000
,
00000000
00000000
03000000
00100000
,
10000000
11000000
00000000
00010000
00110000
00000000
00001000
00010020
,
00000000
00000000
00000030
00000000
,
00001000
00001100
00000000
00010000
00011000
00000000
01000000
20010000
,
00000000
00000000
30000000
00010000
,
01000000
00100000
00010000
00001000
00000100
00000010
00000100
00001000
,
00011000
00000000
00010000
01000000
10000000
00000000
10000000
00000000
,
10200000
00000000
00000000
00320000
00000000
00000000
00032000
00000000
,
00003020
00000000
00000000
00002030
00000000
00000000
00023000
00000000
,
02030000
00000000
00000000
03020000
00000000
00000000
00032000
00000000
,
00003200
00000000
00000000
00002300
00000000
00000000
00013000
01000000
,
01200000
00000000
00302000
00000000
00023000
00000000
00030010
00001000
,
00001010
00000000
00000100
00010000
00010100
00000000
01000000
00010000
,
00100000
01000000
00010000
00001000
01000000
00100000
00010000
00001000
,
00000100
00000010
00001000
00000000
00000100
00000010
00000001
00000000
00001000
00000100
00010000
00000000
00001000
01000000
00010000
00000000
,
00200000
00000000
00000000
00000000
00000000
00300000
10010000
00000000
,
10000000
00000000
01000000
00000000
00010000
00000000
00001000
00000000
00100000
00010000
00100000
01000000
10000000
00000000
00000000
00000000
,
00010000
00000000
01000000
00000000
00001000
00000000
00010000
00000000
00000010
00001000
00000001
00000100
00000010
00000000
00000000
00000000
,
00001000
00000100
00010000
00001000
01000000
00010000
00100000
01000000
,
01100000
00000000
00000000
00000000
10010000
00000000
00000000
00000000
00010000
01000000
00010000
01000000
00001000
00000000
00000000
00000000
,
00010000
00000000
00001000
00000000
00000010
00000000
00000001
00000000
00001000
00000010
00000100
00000001
00001000
00000000
00000000
00000000
,
00000100
00000000
00010000
00000000
00001000
00000000
00100000
00000000
00010000
01000000
00100000
10000000
00010000
00000000
00100000
00000000
,
00010000
00000000
00100000
00000000
01000000
10000000
01000000
00000000
00100000
01000000
00100000
00000000
00001000
00000000
00000000
00000000
,
00010000
00010010
00000000
01001000
00000000
00000000
00010100
00000000
,
00000100
00000000
00000010
00000000
00000001
00000000
00000100
00000000
00000010
00010000
00000100
00001000
00000010
00000000
00000000
00000000
,
00010000
00000000
00001000
00000000
00100000
00000000
00010000
00000000
10000000
00100000
01000000
00010000
10000000
00000000
00000000
00000000
,
01000000
00010000
00001000
00100000
00010000
01000000
00100000
00010000
,
00011000
00000000
00000000
00000000
00010100
00000000
00000000
00000000
00000100
00000010
00000100
00000010
00000001
00000000
00000010
00000001
,
00001000
00000000
00001010
00000000
00000000
00000000
00011000
00000000
00000000
00000000
01010000
00000000
00000000
00000000
10000000
00100000
,
10000000
00000000
00000000
00000000
00010000
00100000
00010000
00000000
00000000
00000000
01000000
00000000
00010000
10000000
00010000
01000000
,
00100000
10000000
00100000
01000000
00010000
00100000
00010000
00100000
00001000
00000000
00000000
00000000
00011000
00000000
00000000
00000000
,
01000000
01001000
00000000
00010100
00000000
00000220
00000000
00000000
,
00000000
00000300
00000000
00000002
,
00000000
00000030
00000000
00000200
,
00000000
00000003
00000000
00002000
,
00000000
00000300
00000000
00020000
,
00000000
00003000
00000000
00200000
,
00000000
00030000
00000000
20000000
,
00000000
00300000
00000000
02000000
,
00000000
33000000
00000000
01200000
,
01000000
01000000
01000000
00302000
,
00100000
00100000
00100000
00003200
,
00001000
00000000
00001000
00000000
00001300
00000100
00000101
00000000
,
00000011
00000000
00001010
00000000
00011000
00000000
00010000
00100000
,
00010000
00000000
00100000
00000000
10000000
00000000
01000000
00000000
10000000
00000000
01000000
00000000
00100000
00010000
00100000
00000000
,
00001000
00000000
00010000
00000000
00000010
00001000
00000010
00000000
00000100
00000000
00000220
00000000
00000000
00000000
00000000
00000000
,
00000000
00000000
00000330
00000000
00001000
00022000
00000000
00000000
,
00000000
00000000
00000000
00000000
00033000
00000000
02200000
03300000
,
10000000
01000000
00100000
00010000
00001000
00000100
00000010
00000001
00002002
00000000
00003003
00000000
00010000
00000000
00011000
00000000
,
00000000
00000000
00000000
00000000
10000000
00010000
10000000
00010000
10000000
00000000
00000000
00000000
00001000
00000000
00011000
00000000
,
00000000
00000000
00000000
00000000
00000001
00001000
00000001
00001000
00000001
00000000
00000100
00000000
00001000
00000000
00010000
00000000
,
00001000
00000000
01000000
00000000
00010000
00000000
01000000
00000000
00001000
00000000
01000000
00000000
00010000
00000000
01000000
00000000
00000000
00000000
00000000
00000000
02200000
03300000
00000000
00000000
10000000
00000000
00000000
00000000
00010000
00000000
00000000
00000000
,
00001000
00000000
00000000
00000000
00000002
00000003
00000000
00000000
00000010
00000000
00000000
00000000
00000100
00000000
00000000
00000000
00010000
00000000
00000000
00000000
00000010
00000000
00000000
00000000
00001000
00000000
00000000
00000000
00000100
00000000
00000000
00000000
,
00010000
00001000
00100000
00010000
01000000
00000000
00100000
00000000
10000000
00000000
01000000
00000000
00100000
00000000
10000000
00000000
,
00100000
00010000
00100000
00001000
00010000
00000000
00000100
00000000
00001000
00000000
00000010
00000000
00001000
00000100
00001000
00000100
,
00010000
00001000
00010000
00001000
01000000
00000000
00000000
00000000
00100000
00000000
10100000
00000000
00000000
00000000
01001000
00000000
,
00000000
00000000
00010100
00000100
00000010
00000001
00000100
00001000
,
00010000
00001000
01000000
00010000
00100000
00000000
01000000
00000000
00010000
00000000
01000000
00000000
10000000
00000000
00100000
00000000
,
01000000
00001000
00100000
00010000
01000000
00000000
00100000
00000000
10000000
00000000
01000000
00000000
00010000
00000000
00001000
00000000
,
00000100
00000001
00000010
00000100
00010100
00000000
01001000
00000000
,
01000000
00100000
01000000
00100000
10000000
00000000
01000000
00100000
00010000
00000000
01000000
00000000
00000000
00000000
00101000
00000000
,
00000000
00000000
00010010
00000000
00000000
00000000
00000010
00001000
00000100
00000000
00000000
00000000
00000010
00000001
00000100
00000000
,
00000000
00000000
00000010
00001000
00000010
00001000
00000010
00010000
00001000
00010000
00001000
00100000
00010000
00100000
01000000
10000000
,
00010000
00000000
01100000
00000000
10000000
10010000
00000000
00011000
,
00000000
00000000
00000000
00000000
00002002
00000000
00000000
00000000
00000000
00000000
00000000
00000000
00000000
00000000
00000000
00000000
00000000
00000000
00000000
00003003
00000000
00000000
00000000
00000000
00000001
00000000
00000000
00000000
00000000
00000000
00000000
00000000
,
00000100
00000000
00001000
00000000
00000100
00000000
00000010
00001000
,
00000010
00010000
00001000
00100000
,
01000000
00000000
00010000
00000000
01000000
00000000
10000000
00100000
,
10000000
00000000
01000000
00000000
10010000
00000000
00010000
00100000
,
01000000
00000000
00100000
00000000
00001000
00000000
00010000
00000010
,
00001000
00000100
00000010
00000011
,
00000101
00000000
00010010
00000000
,
01001000
00000000
00000000
00000000
00000000
00000000
10000000
01000000
,
10000000
01000000
00100000
00010000
00100000
00000000
00001000
00010000
,
00001000
00010000
00000010
00001000
00000010
00000000
00000100
00000001
,
00001000
00000000
00000100
00001000
00000001
00000000
00000100
00000010
,
00001000
00000010
00010000
00001000
00100000
00000000
02200000
00000000
,
00000000
00000000
00000000
03300000
,
00000000
00011000
00011000
00000000
,
00000000
00000000
01000000
00010000
00100000
00001000
00010000
00000010
,
00001000
00000100
00000010
00000000
00000220
00000000
00000000
00000000
,
00000000
00000000
00000030
00000000
,
00000000
00010000
00020000
00000000
,
00000000
00000000
00000000
00000000
,
00000000
00000000
00000000
00000000
,
00030300
00000000
00000000
00000000
;
