#VERSION:0.83;
#TITLE:Ignited Night;
#SUBTITLE:;
#ARTIST:HHH;
#TITLETRANSLIT:;
#SUBTITLETRANSLIT:;
#ARTISTTRANSLIT:;
#GENRE:HEAT UP;
#CREDIT:;
#MUSIC:Ignited Night.ogg;
#BANNER:Ignited Night.png;
#BACKGROUND:Ignited Night-bg.png;
#CDTITLE:./CDTitles/pnm 18 Sengoku Retsuden.png;
#SAMPLESTART:17.993;
#SAMPLELENGTH:15.000;
#SELECTABLE:YES;
#OFFSET:0.925;
#BPMS:0.000=149.000;
#STOPS:44.000=0.403
,163.000=0.403
,234.000=0.403
;
#BGCHANGES:0.000=../BGAs/18eu.mp4=1.000=0=0=0=StretchNoLoop====,
99999.000=-nosongbg-=1.000=0=0=0=StretchNoLoop====
;
#FGCHANGES:;

//--------------- dance-single - forcednature ----------------
#NOTEDATA:;
#STEPSTYPE:dance-single;
#DESCRIPTION:forcednature;
#DIFFICULTY:Beginner;
#METER:2;
#RADARVALUES:0,0,0,0,0;
#CREDIT:forcednature;
#NOTES:
0000
0000
0000
0000
,
0000
0000
0000
0000
,
0000
0000
0000
0000
,
0000
0000
0000
0000
,
1000
0000
0000
0000
,
0001
0000
0000
0000
,
0100
0000
0000
0000
,
0010
0000
0000
0000
,
1000
0000
0000
0000
,
0001
0000
0000
0000
,
0010
0000
0000
0000
,
0000
0000
0000
1001
,
0000
0000
0000
0001
,
0000
0000
0000
0100
,
0000
0000
0000
0001
,
0000
0000
0000
1000
,
0000
0000
0000
0100
,
0000
0000
0000
1000
,
0000
0000
0000
0001
,
0000
0000
0000
0100
,
0000
0000
0000
0001
,
0000
0000
0000
1000
,
0000
0000
0000
0100
,
0000
0000
0000
0010
,
0000
0000
0000
0001
,
0000
0000
0000
1000
,
0000
0000
0000
0010
,
0000
0000
0000
0100
,
0000
0000
0000
0100
,
0000
0001
0000
0100
,
0000
0000
0000
0100
,
0000
0010
0000
1000
,
0000
0000
0000
1000
,
0000
1000
0000
1000
,
0000
0000
0000
0100
,
0000
0100
0000
0010
,
0000
0000
0000
1001
,
0000
0001
0000
1000
,
0000
0001
0000
0100
,
0000
0010
0000
1000
,
1000
0001
0001
0000
,
0000
0000
0000
0000
,
0000
0000
0001
0000
,
0000
0000
0100
0000
,
0000
0000
0010
0000
,
0000
0000
1000
0000
,
0000
0000
0001
0000
,
0000
0000
1000
0000
,
0000
0000
0100
0000
,
0000
0000
0010
0000
,
0010
0000
0010
0000
,
0000
0000
0001
0000
,
0000
0000
1000
0000
,
0000
0000
0010
0000
,
0000
0000
0100
0000
,
0000
0000
0001
0000
,
0000
0000
1000
0000
,
1000
0000
1000
0000
,
1000
0000
0001
0000
;

//--------------- dance-single - forcednature ----------------
#NOTEDATA:;
#STEPSTYPE:dance-single;
#DESCRIPTION:forcednature;
#DIFFICULTY:Easy;
#METER:5;
#RADARVALUES:0,0,0,0,0;
#CREDIT:forcednature;
#NOTES:
0000
0000
0000
0000
,
0000
0000
0000
0000
,
0000
0000
0000
0000
,
0000
0000
0000
0000
,
1000
0000
0001
0000
,
0100
0100
0100
0000
,
1001
0000
0000
0000
,
0001
0000
0001
0000
,
1000
1000
1000
0000
,
0010
0000
0100
0000
,
0001
1000
0001
1000
,
0200
0300
0000
0000
0000
0000
0000
0000
0000
0000
0000
0000
1001
0000
0000
0000
,
0000
1000
0000
0001
,
0100
0010
0000
1000
,
0000
0001
0000
0010
,
0100
1000
0000
1001
,
0000
0001
0000
0100
,
0010
1000
0000
0100
,
0000
0010
0000
0001
,
1000
0010
0000
0110
,
0000
0100
0001
0010
,
0000
0001
0000
0110
,
0000
0100
1000
0010
,
0000
1000
0000
1001
,
0000
0001
0010
0100
,
0000
0010
0000
1001
,
0000
1000
0010
0100
,
0000
0100
0000
0001
,
1000
0001
0000
0010
,
0010
0010
0000
0100
,
1000
0100
0000
0010
,
0000
0100
0000
1000
,
0001
1000
0000
0010
,
0010
0010
0000
0100
,
0001
0100
0000
0001
,
0001
0001
0000
1001
,
0000
0000
0000
0110
,
0000
1000
0000
0001
,
0001
0001
0000
0010
,
0100
1000
0100
0010
,
0001
0000
0000
0000
1000
0000
0000
0000
0001
0000
0000
0000
0200
0300
0000
0000
,
0000
0000
0020
0000
,
0030
0000
1000
0001
,
0010
0100
0010
0001
,
1000
0000
0010
0100
,
0001
0010
0001
1000
,
0010
0000
1000
0100
,
0010
0100
1000
0001
,
0100
0000
0010
1000
,
0001
0000
0010
0100
,
0010
0000
0001
1000
,
0001
0000
0100
0000
,
0110
0000
0001
1000
,
0100
0000
0010
0000
,
0110
0000
1000
0001
,
0010
0000
0110
0000
,
1001
0000
0001
1000
,
0010
0000
0100
0100
,
0100
0000
0000
0000
0000
0000
0000
0000
2002
3003
0000
0000
0000
0000
0000
0000
;

//--------------- dance-single - forcednature ----------------
#NOTEDATA:;
#STEPSTYPE:dance-single;
#DESCRIPTION:forcednature;
#DIFFICULTY:Medium;
#METER:10;
#RADARVALUES:0,0,0,0,0;
#CREDIT:forcednature;
#NOTES:
0000
0000
0000
0000
,
0000
0000
0000
0000
,
0000
0000
0000
0000
,
0000
0000
0000
0000
,
1000
0000
0000
1000
0000
0000
1000
0000
0001
0000
0000
0001
0000
0000
0001
0000
,
0100
0000
0100
0010
0000
0000
1000
0000
1000
0001
0000
0000
,
0220
0000
0330
0001
,
1001
0000
1000
0000
,
1001
0110
1001
0000
,
1100
0001
0101
1000
,
0110
0000
1001
0000
0001
1000
0001
1000
,
0200
0300
0000
0000
0000
0000
0000
0000
0001
0000
1000
0000
0010
0000
0000
0000
,
0100
0001
1000
0100
0010
0000
0100
0000
,
1000
0001
0100
0000
0110
0000
0010
0000
,
1000
0001
0010
0100
0010
0000
0001
0100
,
0010
1000
0000
0000
0001
0000
1001
0000
,
1000
0100
0010
0100
1000
0000
0010
0100
,
0001
0010
0110
0100
,
1000
0001
0100
0010
1000
0000
0001
0010
,
0100
1000
0000
0000
0001
0000
1000
0010
,
0100
0010
1000
0000
0001
0010
0100
0000
,
0110
0000
1001
0000
0000
0000
0001
0100
,
0010
0100
0001
0000
1000
0100
0010
0000
,
0110
0000
1001
0000
0000
0000
0001
1000
,
0100
1000
0001
0000
0100
0010
1000
0000
,
1001
0000
0110
0000
0000
0000
1000
0001
,
0100
0001
1000
0000
0001
0010
0100
0000
,
0110
1001
0000
1000
,
0001
0100
0000
0001
0010
0000
1001
0000
,
0110
1001
0000
0001
,
1000
0100
0000
1000
0010
0000
1000
0001
,
1000
0000
0010
0100
0001
0000
1100
0000
,
0001
0101
1000
1001
,
0110
0000
0000
0000
1001
0000
0000
0000
0000
0000
0000
0000
0001
0000
0000
0001
,
0000
0000
0000
0000
0000
0000
0001
0000
0000
0000
0000
0000
1000
0000
0000
0000
0000
0000
0000
0000
0000
1000
0000
0000
0000
0000
0000
0000
0000
0000
1000
0000
0000
0000
0000
0000
0010
0000
0000
0000
0000
0000
0000
0000
0010
0000
0000
0000
,
0100
0000
0000
0001
0000
0001
1000
0000
0000
0220
0000
0000
,
0000
0330
0100
1001
,
0000
0110
0000
1001
,
0110
1001
0000
1100
,
0001
0101
1000
1010
,
0011
0000
0000
0000
0101
0000
0000
0000
1100
0000
0000
0000
2002
3003
0000
0000
,
0000
0000
0220
0000
,
0330
0000
0000
0000
0001
0100
0010
1000
,
0001
0010
0100
0000
0010
0001
0100
0000
,
0010
0000
0110
0000
0100
0001
0010
0001
,
1000
0010
1000
0000
0100
0010
0001
1000
,
0000
0000
0010
0000
0100
0001
0010
0001
,
1000
0010
1000
0000
0100
0010
0001
0000
,
0100
0000
1001
0000
1000
0001
0010
0001
,
0100
0001
1000
0000
0110
0000
1001
0000
,
0110
0000
0000
0000
1000
0100
0001
0100
,
1000
0000
0001
0010
0100
0000
0110
0000
,
1001
0000
0000
0000
0001
0100
1000
0100
,
0001
0000
1000
0010
0100
0000
0110
0000
,
1001
0000
0000
0000
0001
0010
1000
0010
,
0001
0000
1000
0100
0010
0000
0110
0000
,
1001
0000
0000
0000
1000
0010
0001
0010
,
1000
0000
0001
0100
0010
0000
0110
0000
,
1001
0000
0000
0000
0000
0000
0000
0000
0220
0330
0000
0000
0000
0000
0000
0000
;

//--------------- dance-single - forcednature ----------------
#NOTEDATA:;
#STEPSTYPE:dance-single;
#DESCRIPTION:forcednature;
#DIFFICULTY:Hard;
#METER:15;
#RADARVALUES:0,0,0,0,0;
#CREDIT:forcednature;
#NOTES:
0000
0000
0000
0000
,
0000
0000
0000
0000
,
0000
0000
0000
0000
,
0000
0000
0000
0000
,
1000
0000
0100
1000
0000
0001
0010
0000
0001
0000
0100
0001
0000
1000
0010
0000
,
0100
0010
0100
0010
0000
0000
1000
0001
0010
0001
1000
0010
,
0200
0000
0000
0000
0000
0000
0000
0000
0300
0000
0000
0000
0001
1000
0100
0010
,
0001
0000
1000
0000
,
1001
0110
1001
0000
,
1100
1000
0010
1000
0101
0001
0010
0001
,
1000
0010
1000
0000
0001
0010
0001
0000
0100
0010
0100
0010
1000
0001
1000
0001
,
0020
0030
0000
0000
0000
0000
0000
0000
0001
0100
0010
1000
0001
0000
1000
0100
,
0000
0010
0100
0000
0000
0010
0000
0001
0000
1000
0001
0000
0100
0000
0010
1000
,
0000
0001
1000
0000
0200
0000
0000
0000
0310
0001
1000
0100
0010
0000
0001
1000
,
0000
0001
0100
0000
0000
0010
0000
1000
0002
0000
0000
0000
0013
0100
0010
0000
,
0100
0000
2000
0000
0010
0000
3000
0000
1001
0000
0000
0000
0001
0000
0100
0001
,
0000
1000
0010
0000
0000
1000
0000
0100
0000
0010
0100
0000
0010
0000
0001
1000
,
0000
0001
0100
0000
0020
0000
0000
0000
1030
0100
0010
0001
1000
0000
0100
0000
,
0000
0000
0100
0000
0100
1000
0100
0000
0100
0010
0000
0000
0002
0000
0203
0000
,
0320
0000
2030
0000
0000
0000
3000
0000
0100
1000
0001
1000
0010
0000
0100
0001
,
0000
0010
0001
0000
1000
0010
0000
1000
0000
0100
0010
0000
0001
0000
0100
0001
,
0000
1000
0100
0010
0002
0000
0000
0000
0013
0100
1000
0001
0010
0000
0100
1000
,
0000
0100
0010
0000
0001
1000
0000
0010
0000
0100
0001
0000
1000
0100
1000
0000
,
0001
0000
0200
0000
0000
0000
0300
0000
0010
1000
0001
0100
0010
0000
1000
0001
,
0000
0010
0001
0000
0010
0100
0000
1000
0000
0001
0100
0000
0010
0000
1000
0001
,
0000
1000
0100
0010
0002
0000
0000
0000
0103
0010
1000
0001
0100
0000
0000
0100
,
0000
0000
0010
0000
1000
0100
1000
0000
1000
0010
0000
0000
1100
0000
0000
0000
,
0101
0000
0000
0000
1001
0000
0000
0000
1000
0100
0010
0001
1000
0000
0010
0000
,
0100
0010
0001
0010
0100
0000
1010
0000
,
0011
0000
0000
0000
1001
0000
0000
0000
0001
0100
0010
1000
0001
0000
0010
0000
,
0100
0010
1000
0010
0100
0000
0010
0001
,
0101
0000
0001
0010
1000
0000
0012
0000
,
0100
0010
0103
1001
,
0110
0000
0000
0000
1001
0000
0000
0000
0000
0000
0000
0000
1100
0000
0001
0010
,
0000
0000
0000
0001
0000
0000
1000
0000
0000
0000
0000
0000
0101
0000
0000
0000
0000
0000
1000
0000
0000
0010
0000
0000
0000
0000
0000
1000
0000
0000
0001
0000
0000
0000
0000
0000
0010
0000
0000
0000
0100
0000
0000
0000
0010
0000
0000
0000
,
0100
0000
0000
1000
0001
0100
0001
1000
0100
2002
0000
0000
,
0000
0000
0000
0000
3003
0000
0000
0000
0001
0100
0010
1000
0002
0000
0000
0000
,
0003
2000
3000
1010
,
0011
0000
1001
0000
0100
0000
0011
0001
,
0100
0000
0001
0000
1010
0000
1000
0000
0100
0000
1000
0000
0001
0100
0001
0000
,
1000
0100
1000
0000
0010
0100
0010
0100
0001
1000
0001
1000
0200
0300
0000
0000
,
0010
0000
0100
0000
0110
0000
0000
0000
0001
1000
0001
1000
0001
1000
0001
1000
,
0010
0000
0000
0000
1000
0100
0010
0001
0010
0000
0100
0010
0000
0100
1000
0100
,
0000
0010
0000
0001
0000
1000
0010
0100
0010
0000
0100
0001
0000
1000
0001
0010
,
0002
0000
0000
0000
1003
0010
0100
0001
1000
0000
0010
1000
0000
0010
0100
0010
,
0000
0100
0000
0001
1000
0001
0010
0000
0001
0100
0001
0000
1000
0000
0002
0000
,
0010
0000
0103
0000
1010
0000
0000
0000
0010
0000
1000
0001
0000
0010
0001
0010
,
0000
0100
0000
1000
0000
0001
0100
0001
1000
0000
0100
1000
0000
0100
0010
0001
,
0020
0000
0000
0000
0130
1000
0001
1000
0010
0000
0100
0010
0000
0100
0001
0000
,
0001
0010
0001
0000
0001
0100
0000
0000
1001
0000
0000
0000
0110
0000
0000
0000
,
1001
0000
0000
0000
0001
0100
0010
1000
0001
0000
0010
0001
0000
0010
0100
0010
,
0000
0100
1000
0100
0000
0010
0001
1000
0010
0000
0100
0001
0000
1000
0100
0010
,
0002
0000
0000
0000
1003
0010
0100
0001
1000
0000
0010
0100
0000
0001
0100
0001
,
0000
1000
0100
0010
0000
0001
1000
0010
0100
0001
0100
0000
0010
0000
2000
0000
,
0100
0000
3000
0000
1000
0001
0010
0100
1000
0000
0010
1000
0000
0001
0010
0001
,
0000
0100
0010
1000
0000
0001
0010
0100
1000
0000
0001
0100
0000
0010
1000
0001
,
0020
0000
0000
0000
0130
1000
0100
0010
0001
0000
0000
0100
0000
0000
0010
0000
,
1000
0010
1000
0000
0001
0010
0001
0000
1100
0000
0000
0000
0101
0000
0000
0000
,
1001
0000
0000
0000
0010
0100
0010
0000
0220
0000
0000
0000
0330
0000
0000
0000
;

//--------------- dance-single - forcednature ----------------
#NOTEDATA:;
#STEPSTYPE:dance-single;
#DESCRIPTION:forcednature;
#DIFFICULTY:Challenge;
#METER:13;
#RADARVALUES:0,0,0,0,0;
#CREDIT:forcednature;
#NOTES:
0000
0000
0000
0000
,
0000
0000
0000
0000
,
0000
0000
0000
0000
,
0000
0000
0000
0000
,
0001
0000
0000
0001
0000
0000
0001
0000
1000
0000
0000
1000
0000
0000
1000
0000
,
0010
0100
0010
0100
0000
0000
0001
1000
0001
1000
0001
1000
,
0100
MMMM
MMMM
0100
,
1001
0000
0001
0100
,
0110
1001
0110
MMMM
,
1000
1000
1000
0000
0001
0001
0001
0000
,
0010
0000
0110
0000
1000
0001
1000
0001
,
0200
0300
0000
0000
MMMM
0000
0000
0000
0001
0000
1000
0000
0100
0000
0000
0010
,
0100
0000
0000
0000
1000
0000
0001
0000
0100
0000
0010
0000
1000
0000
0000
1000
,
0100
0000
0010
0000
0001
0000
0000
0000
MMMM
0000
0000
0000
1000
0000
0000
0010
,
0100
0000
0001
1000
0100
0010
0001
0100
,
0010
0000
2000
0000
3100
0000
0000
0000
MMMM
0000
0000
0000
0001
0000
0000
0100
,
0010
0000
0000
0000
1000
0000
0001
0000
0010
0000
0100
0000
1000
0000
0000
1000
,
0010
0000
0100
0000
0001
0000
0000
0000
MMMM
0000
0000
0000
0001
0000
0000
0010
,
0100
1000
0010
0010
0100
0000
0001
0010
,
0100
2000
0000
0000
3010
1000
0100
0010
,
0100
1000
0010
0000
0100
0001
0010
0000
,
0110
0000
1001
0000
MMMM
0000
0001
0100
,
0010
1000
0001
0000
0010
0001
0100
0000
,
1001
0000
0110
0000
MMMM
0000
1000
0100
,
0010
0100
1000
0010
0100
0000
0001
0000
,
0110
0000
1001
0000
MMMM
0000
0001
0100
,
0001
1000
0100
0010
0001
0000
0100
0010
,
1000
0002
0013
0000
MMMM
0000
1100
0000
,
1000
0100
0000
0001
0100
0000
1010
0000
,
0011
1010
MMMM
0101
,
0001
0100
0000
1000
0100
0000
0001
0010
,
0100
0000
1000
0001
0100
0000
0110
0000
,
0010
1000
0100
1000
0010
0000
1100
0000
,
0101
0000
0000
0000
1100
0000
0000
0000
MMMM
0000
0000
0000
0001
0000
0000
0001
,
0000
0000
0000
0000
0000
0000
0001
0000
0000
0000
0000
0000
1000
0000
0000
0000
0000
0000
0000
0000
0000
1000
0000
0000
0000
0000
0000
0000
0000
0000
1000
0000
0000
0000
0000
0000
0100
0000
0000
0000
0010
0000
0000
0000
0100
0000
0000
0000
,
0010
0000
0000
0001
1000
0001
1000
0000
0000
0110
0000
0000
,
MMMM
MMMM
0000
0001
,
MMMM
1000
MMMM
1001
,
MMMM
0110
MMMM
1000
,
MMMM
0000
0001
0000
MMMM
0000
0010
MMMM
,
0100
0000
MMMM
0000
1000
0000
MMMM
0000
0001
0000
MMMM
0000
0200
0300
0000
0000
,
0000
MMMM
0002
0000
,
1003
0000
0000
0000
0001
0000
0010
0000
0100
0000
0000
1000
0001
0000
0100
0000
,
0010
0000
1000
0000
0001
0000
0000
0000
0010
0000
0000
0100
1000
0000
0010
0000
,
0100
0000
0000
0000
MMMM
0000
0000
0000
1000
0000
0000
0100
0010
0000
0001
0000
,
1000
0000
0010
0000
0100
0000
0000
0000
0001
0010
0001
0000
1000
0000
0020
0000
,
0130
0000
0000
0000
MMMM
0000
0000
0000
1000
0000
0000
0100
0010
0000
0100
0000
,
1000
0000
0001
0000
0100
0000
0000
0000
0010
0000
0000
1000
0001
0000
0010
0000
,
0100
0000
0000
0000
MMMM
0000
0000
0000
0001
0000
0000
0100
0010
0000
1000
0000
,
0010
1000
0010
0000
1000
0000
0000
0000
1001
0000
MMMM
0000
0110
0000
MMMM
0000
,
1001
MMMM
0000
0000
1000
0100
0010
0100
,
1000
0100
0000
0010
0000
0100
1000
0000
0001
0000
0000
0000
0110
0000
0000
0000
,
1001
0000
MMMM
0000
0001
0100
0010
0100
,
0001
0100
0000
0010
0000
0100
0001
0000
1000
0000
0000
0000
0110
0000
0000
0000
,
1001
0000
MMMM
0000
1000
0010
0100
0001
,
1000
0010
0000
0100
0000
0001
1000
0000
0001
0000
0000
0000
0110
0000
0000
0000
,
1001
0000
MMMM
0000
0001
0010
0100
1000
,
0001
1000
0001
0000
0100
0000
0000
0000
1001
0000
MMMM
0000
0110
0000
MMMM
0000
,
1001
MMMM
0000
0000
0220
0000
0330
0000
;

//--------------- dance-double - forcednature ----------------
#NOTEDATA:;
#STEPSTYPE:dance-double;
#DESCRIPTION:forcednature;
#DIFFICULTY:Easy;
#METER:6;
#RADARVALUES:0,0,0,0,0;
#CREDIT:forcednature;
#NOTES:
00000000
00000000
00000000
00000000
,
00000000
00000000
00000000
00000000
,
00000000
00000000
00000000
00000000
,
00000000
00000000
00000000
00000000
,
00001000
00000000
00010000
00000000
,
00000100
00000100
00000100
00000000
,
00001001
00000000
00000000
00000000
,
00001000
00000000
00000010
00000000
,
00010000
00010000
00010000
00000000
,
00001000
00000000
01000000
00000000
,
00010000
10000000
00010000
10000000
,
02000000
03000000
00000000
00000000
00000000
00000000
00000000
00000000
00000000
00000000
00000000
00000000
10010000
00000000
00000000
00000000
,
00000000
10000000
00000000
00010000
,
01000000
00001000
00000000
00010000
,
00000000
00000100
00000000
00001000
,
00000001
00001000
00000000
00001001
,
00000000
00000001
00000000
00000010
,
00000100
00000010
00000000
00000100
,
00000000
00010000
00000000
00001000
,
00010000
00001000
00000000
00011000
,
00000000
01000000
00010000
00100000
,
00000000
01000000
00000000
01100000
,
00000000
00100000
00001000
00010000
,
00000000
00001000
00000000
00011000
,
00000000
00010000
00000010
00001000
,
00000000
00000001
00000000
00001001
,
00000000
00001000
00000100
00010000
,
00010000
00010000
00000000
00001000
,
00000000
01000000
00000000
00001000
,
01000000
00001000
00000000
00010000
,
00000000
00000100
00000000
00010000
,
00010000
00000100
00000000
00010000
,
00000000
00001000
00000000
00100000
,
00100000
00100000
00000000
00001000
,
00000000
00010000
00000000
00000010
,
00000010
00000010
00000000
00001001
,
00000000
00000000
00000000
00000001
,
00000000
00000100
00000000
00001000
,
00000000
00010000
00000000
01000000
,
00000000
10000000
00000000
00100000
,
00100000
00000000
00000000
00000000
01000000
00000000
00000000
00000000
01000000
00000000
00000000
00000000
00020000
00030000
00000000
00000000
,
00000000
00000000
00200000
00000000
,
00300000
00000000
01000000
10000000
,
01000000
00010000
00001000
00100000
,
00001000
00000000
00010000
00000100
,
00010000
00001000
00000010
00000001
,
00001000
00000000
00000010
00000100
,
00001000
00010000
00001000
01000000
,
00010000
00000000
00100000
01000000
,
00010000
00000000
01000000
10000000
,
00100000
00000000
01000000
00001000
,
00010000
00000010
00010000
00001000
,
00011000
00000000
00010000
00000100
,
00010000
00001000
00100000
00001000
,
00011000
00000000
00001000
01000000
,
00001000
00100000
00010000
01000000
,
10010000
00000000
00001000
00010000
,
00000100
00000000
00000110
00000110
,
00000110
00000000
00000000
00000000
00000000
00000000
00000000
00000000
00002002
00003003
00000000
00000000
00000000
00000000
00000000
00000000
;

//--------------- dance-double - forcednature ----------------
#NOTEDATA:;
#STEPSTYPE:dance-double;
#DESCRIPTION:forcednature;
#DIFFICULTY:Medium;
#METER:11;
#RADARVALUES:0,0,0,0,0;
#CREDIT:forcednature;
#NOTES:
00000000
00000000
00000000
00000000
,
00000000
00000000
00000000
00000000
,
00000000
00000000
00000000
00000000
,
00000000
00000000
00000000
00000000
,
00001000
00000000
00000000
00001000
00000000
00000000
00001000
00000000
00010000
00000000
00000000
00010000
00000000
00000000
00010000
00000000
,
00000100
00000010
00000001
00001000
,
00002002
00000000
00003003
00001000
,
00001001
00000000
00010000
00000000
,
00011000
01001000
00010100
00000000
,
00011000
00100000
00011000
00000010
,
00010100
00000000
01001000
00000000
00010000
10000000
00010000
10000000
,
02000000
03000000
00000000
00000000
00000000
00000000
00000000
00000000
00100000
00000000
00001000
00000000
00010000
00000000
00000000
00000000
,
00000100
00000010
00000001
00000100
00000010
00000000
00010000
00000000
,
00001000
00100000
01000000
00000000
01100000
00000000
00100000
00000000
,
00001000
01000000
00010000
10000000
00100000
00000000
10000000
01000000
,
00010000
00002000
00000000
00003000
00000010
00000000
00000110
00000000
,
00000100
00010000
00001000
00000010
00000001
00000000
00000100
00001000
,
00010000
00100000
01100000
01000000
,
00001000
00010000
01000000
10000000
00100000
00000000
01000000
00001000
,
00010000
00000020
00000000
00000030
00001000
00000001
00000010
00000100
,
00001000
00000100
00000010
00000000
00000001
00000100
00001000
00000000
,
00010000
00000000
00011000
00000000
00001000
00100000
00010000
01000000
,
00100000
01000000
00010000
00000000
10000000
01000000
00010000
00000000
,
00001000
00000000
00011000
00000000
00010000
00000100
00001000
00000010
,
00001000
00000100
00000001
00000000
00000100
00001000
00000010
00000000
,
00010000
00000000
00011000
00000000
00001000
01000000
00010000
00100000
,
01000000
00100000
00001000
00000000
00010000
00000000
00100000
00000000
,
01100000
10010000
00000000
10000000
,
01000000
00010000
00000000
00001000
00010000
00000000
00011000
00000000
,
00010100
01001000
00000000
00001000
,
00010000
00000100
00000000
00000010
00000100
00000000
00001000
00000010
,
00010000
00000000
00001000
01000000
00010000
00000000
10010000
00000000
,
10000000
00100000
00010000
00011000
,
01001000
00000000
00000000
00000000
00010100
00000000
00000000
00000000
00000000
00000000
00000000
00000000
00010000
00000000
00000000
00010000
,
00000000
00000000
00010000
00000000
00001000
00000000
00000000
00001000
00000000
00000000
00001000
00000000
00100000
00000000
00000000
00000000
,
01000000
10000000
00010000
20020000
,
00000000
30030000
10000000
00010000
,
00000000
00001000
00000000
00011000
,
00010100
01001000
00000000
00011000
,
00000010
00011000
00100000
00011000
,
00000100
00000000
00000000
00000000
00011000
00000000
00000000
00000000
01000000
00000000
00000000
00000000
20020000
30030000
00000000
00000000
,
00000000
00000000
02200000
00000000
,
03300000
00000000
00000000
00000000
10000000
01000000
00100000
00001000
,
00010000
00000100
00000010
00000000
00001000
00010000
00000010
00000000
,
00000100
00000000
00001001
00000000
00000001
00000010
00000100
00010000
,
00001000
00000010
00000001
00000000
00000100
00001000
00010000
00200000
,
00000000
00300000
01000000
00010000
00100000
01000000
00100000
00001000
,
00010000
00000010
00001000
00000000
00000001
00000010
00001000
00000000
,
00010000
00000000
00011000
00000000
00001000
01000000
00010000
01000000
,
00001000
00100000
00010000
00000000
00011000
00000000
00010100
00000000
,
01001000
00000000
00000000
00000000
00001000
00100000
01000000
00100000
,
00001000
00000000
00010000
00000100
00000010
00000000
00000110
00000000
,
00001001
00000000
00001000
00000010
00010000
00001000
01000000
00010000
,
00100000
00000000
01000000
10000000
00100000
00000000
01100000
00000000
,
10010000
00000000
10000000
00010000
01000000
00001000
00010000
00000010
,
00001000
00000000
00000001
00000010
00001000
00000000
00000110
00000000
,
00001001
00000000
00001000
00000010
00010000
00001000
01000000
00010000
,
00100000
00001000
00011000
01001000
,
00010100
00000000
00000000
00000000
00000000
00000000
00000000
00000000
00022000
00033000
00000000
00000000
00000000
00000000
00000000
00000000
;

//--------------- dance-double - forcednature ----------------
#NOTEDATA:;
#STEPSTYPE:dance-double;
#DESCRIPTION:forcednature;
#DIFFICULTY:Hard;
#METER:15;
#RADARVALUES:0,0,0,0,0;
#CREDIT:forcednature;
#NOTES:
00000000
00000000
00000000
00000000
,
00000000
00000000
00000000
00000000
,
00000000
00000000
00000000
00000000
,
00000000
00000000
00000000
00000000
,
00001000
00000000
01000000
00010000
00000000
00100000
00001000
00000000
00010000
00000000
00000100
00001000
00000000
00000010
00010000
00000000
,
00001000
01000000
00001000
00010000
00000000
00000000
00010000
00000100
00010000
00001000
00100000
00010000
,
02000000
00000000
00000000
00000000
00000000
00000000
00000000
00000000
03000000
00000000
00000000
00000000
00010000
10000000
01000000
00100000
,
00010000
01000000
00000100
00001000
,
00001001
00011000
10010000
00000000
,
10000000
01000000
00010000
01000000
00100000
00001000
00000010
00001000
,
00010000
00000100
00010000
00000000
00001000
01000000
00001000
00000000
00010000
00000010
00001000
00000010
00000100
00000001
00001000
00000001
,
00000020
00000030
00000000
00000000
00000000
00000000
00000000
00000000
00000001
00000100
00000010
00001000
00000001
00000000
00000010
00000100
,
00000000
00001000
00000100
00000000
00000000
00010000
00000000
00010000
00000000
00001000
01000000
00000000
00010000
00000000
00100000
01000000
,
00000000
10000000
00100000
00000000
02000000
00000000
00000000
00000000
03100000
10000000
00010000
10000000
01000000
00000000
00100000
00001000
,
00000000
00010000
00000100
00000000
00000000
00001000
00000000
00001000
00000010
00000000
00000100
00000000
00000001
00000010
00000001
00000000
,
00000100
00000000
00002000
00000000
01000000
00000000
00003000
00000000
00011000
00000000
00000000
00000000
01000000
00000000
00010000
10000000
,
00000000
00010000
00100000
00000000
00000000
01000000
00000000
01000000
00000000
10000000
00010000
00000000
01000000
00000000
00001000
00010000
,
00000000
00000010
00001000
00000000
00000200
00000000
00000000
00000000
00001300
00000001
00000010
00000100
00001000
00000000
00000010
00000000
,
00000000
00000000
00000010
00000000
00000010
00010000
00000010
00000000
00000010
00001000
00000000
00000000
00020000
00000000
02030000
00000000
,
03200000
00000000
20300000
00000000
00000000
00000000
30000000
00000000
01000000
00100000
00010000
10000000
01000000
00000000
00010000
00001000
,
00000000
00100000
00001000
00000000
00010000
00000010
00000000
00001000
00000000
00000010
00010000
00000000
00000100
00000000
00001000
00000001
,
00000000
00000100
00000010
00001000
00000002
00000000
00000000
00000000
00000013
00000100
00001000
00000001
00000010
00000000
00000100
00010000
,
00000000
00001000
00100000
00000000
00010000
01000000
00000000
10000000
00000000
01000000
00010000
00000000
10000000
00100000
10000000
00000000
,
00010000
00000000
00200000
00000000
01000000
00000000
00000000
00000000
00301000
00010000
00000100
00001000
00000010
00000000
00000100
00001000
,
00000000
00000100
00000001
00000000
00000010
00000001
00000000
00001000
00000000
00000010
00000100
00000000
00001000
00000000
00010000
00001000
,
00000000
01000000
00010000
10000000
00200000
00000000
00000000
00000000
10300000
01000000
00100000
00010000
01000000
00000000
00000000
01000000
,
00000000
00000000
00001000
00000000
00010000
00000100
00010000
00000000
00010000
00001000
00000000
00000000
01100000
00000000
00000000
00000000
,
00011000
00000000
00000000
00000000
00000110
00000000
00000000
00000000
00001000
00000100
00000010
00000001
00000100
00000000
00001000
00000000
,
00000100
00000001
00000010
00001000
00010000
00000000
00001100
00000000
,
00011000
00000000
00000000
00000000
00110000
00000000
00000000
00000000
10000000
01000000
00100000
00010000
01000000
00000000
00001000
00000000
,
00100000
01000000
00010000
00001000
00000010
00000000
00000001
00000100
,
00001000
00000000
00010000
00100000
10000000
00000000
01020000
00000000
,
10000000
00100000
10030000
10010000
,
00011000
00000000
00000000
00000000
00001001
00000000
00000000
00000000
00000000
00000000
00000000
00000000
00001000
00000000
00000100
00010000
,
00000000
00000000
00000000
00001000
00000000
00000000
00100000
00000000
00000000
00000000
00000000
00000000
00010000
00000000
00000000
00000000
00000000
00000000
01000000
00000000
00000000
00001000
00000000
00000000
00000000
00000000
00000000
00010000
00000000
00000000
00000010
00000000
00000000
00000000
00000000
00000000
00001000
00000000
00000000
00000000
00000100
00000000
00000000
00000000
00010000
00000000
00000000
00000000
,
00001000
00000000
00000000
01000000
00010000
00100000
01000000
00010000
00001000
00000020
00000000
00000000
,
00000000
00000000
00000000
00000000
00000030
00000000
00000000
00000000
00000001
00000100
00000010
00001000
00000002
00000000
00000000
00000000
,
00000003
00002000
00003000
00110000
,
01001000
00000000
00010100
00000000
00000010
00000000
00000001
00000100
,
00001000
00000000
00010000
00000000
00100000
00000000
00010000
00000000
00001000
00000000
00000100
00000000
00000010
00001000
00000010
00000000
,
00010000
00001000
00010000
00000000
00001000
00100000
00010000
00100000
01000000
10000000
00010000
10000000
00200000
00300000
00000000
00000000
,
01000000
00000000
00000000
00000000
10010000
00000000
00000000
00000000
00001000
00010000
00001000
00010000
00001000
00010000
00001000
00010000
,
00000010
00000000
00000000
00000000
00001000
00000100
00000010
00000001
00000100
00000000
00000010
00001000
00000000
00000100
00010000
00000100
,
00000000
00001000
00000000
00000010
00000000
00010000
00001000
01000000
00010000
00000000
00100000
01000000
00000000
10000000
00100000
01000000
,
00020000
00000000
00000000
00000000
00130000
00001000
00010000
00000100
00001000
00000000
00000010
00010000
00000000
00001000
00100000
00001000
,
00000000
00010000
00000000
01000000
10000000
00010000
10000000
00000000
00100000
01000000
00100000
00000000
10000000
00000000
02000000
00000000
,
00010000
00000000
03100000
00000000
01100000
00000000
00000000
00000000
00010000
00000000
01000000
00001000
00000000
00010000
00000010
00010000
,
00000000
00001000
00000000
00000010
00000000
00000100
00001000
00000100
00000010
00000000
00000001
00001000
00000000
00000010
00000100
00001000
,
00020000
00000000
00000000
00000000
01030000
00010000
10000000
00010000
00100000
00000000
01000000
10000000
00000000
01000000
00010000
00000000
,
00010000
00001000
00010000
00000000
00010000
00000010
00000000
00000000
00000110
00000000
00000000
00000000
00011000
00000000
00000000
00000000
,
01100000
00000000
00000000
00000000
10000000
01000000
00100000
00010000
01000000
00000000
00001000
00010000
00000000
00000100
00001000
00000100
,
00000000
00000010
00001000
00000010
00000000
00000001
00001000
00000010
00000100
00000000
00000010
00010000
00000000
00001000
01000000
00010000
,
02000000
00000000
00000000
00000000
03010000
00100000
01000000
10000000
00100000
00000000
01000000
00010000
00000000
00100000
01000000
00100000
,
00000000
00001000
00010000
00000100
00000000
00001000
00000010
00000100
00000001
00000010
00000001
00000000
00000100
00000000
00002000
00000000
,
00100000
00000000
00003000
00000000
00001000
00010000
00000100
00001000
00000010
00000000
00000100
00000001
00000000
00000010
00000100
00000010
,
00000000
00000100
00010000
00001000
00000000
01000000
00010000
00100000
01000000
00000000
10000000
00100000
00000000
10000000
01000000
00010000
,
02000000
00000000
00000000
00000000
03100000
00001000
00010000
00000100
00001000
00000000
00000000
00001000
00000000
00000000
00001000
00000000
,
00000010
00000100
00000010
00000000
00000100
00001000
00000000
00000000
00011000
00000000
00000000
00000000
01100000
00000000
00000000
00000000
,
00011000
00000000
00000000
00000000
00000010
00000100
00000010
00000000
00000220
00000000
00000000
00000000
00000330
00000000
00000000
00000000
;

//--------------- dance-double - forcednature ----------------
#NOTEDATA:;
#STEPSTYPE:dance-double;
#DESCRIPTION:forcednature;
#DIFFICULTY:Challenge;
#METER:14;
#RADARVALUES:0,0,0,0,0;
#CREDIT:forcednature;
#NOTES:
00000000
00000000
00000000
00000000
,
00000000
00000000
00000000
00000000
,
00000000
00000000
00000000
00000000
,
00000000
00000000
00000000
00000000
,
00001000
00000000
00000000
00001000
00000000
00000000
00001000
00000000
00010000
00000000
00000000
00010000
00000000
00000000
00010000
00000000
,
00000100
00010000
00001000
00100000
00000000
00000000
00001000
01000000
00001000
00010000
00000010
00001000
,
00000002
MMMM0000
MMMM0003
0000MMMM
,
00011000
00000000
01000000
00000000
,
0110MMMM
00011000
MMMM0110
MMMMMMMM
,
00000001
00000100
00001000
00000000
00010000
01000000
10000000
00000000
,
00100000
00000000
01100000
00000000
10000000
00010000
01000000
00001000
,
00020000
00030000
00000000
00000000
MMMMMMMM
00000000
00000000
00000000
00001000
00010000
00001000
00010000
00001000
00000000
00000000
01000000
,
00010000
00000000
00000000
00000000
00100000
00000000
01000000
00000000
00010000
00000000
01000000
00000000
10000000
00000000
00000000
00010000
,
00100000
00000000
00001000
00000000
0001MMMM
00000000
00000000
00000000
MMMM1001
00000000
00000000
00000000
00010000
00000000
00000000
00001000
,
00010000
00000010
00001000
00000001
00000100
00001000
01000000
00010000
,
00100000
00000000
02000000
00000000
0001MMMM
00000000
03000000
00000000
MMMM1000
00000000
00000000
00000000
00001001
00000000
00000000
00000001
,
00000100
00000000
00000010
00000000
00010000
00000000
00001000
00000000
01000000
00000000
00100000
00000000
00010000
00000000
00000000
00000100
,
00001000
00000010
MMMM1001
00000000
0001MMMM
00000100
00001000
00000010
,
00000001
00000000
00000010
00000000
00000100
00000010
00000100
00000000
00000001
00001000
00000000
00000000
00000010
00000000
00000100
00000000
,
00001000
00020000
00000000
00000000
00130000
10000000
01000000
00010000
,
01000000
10000000
00100000
00010000
00001000
00000100
00000001
00000000
,
MMMM1001
00000000
0001MMMM
00000000
MMMM1000
00000010
00000001
00000010
,
00001000
00010000
01000000
00100000
00001000
00010000
01000000
00000000
,
1001MMMM
00000000
MMMM1000
00000000
0001MMMM
01000000
00100000
00001000
,
00010000
00100000
10000000
01000000
00010000
00001000
00000010
00000000
,
MMMM1001
00000000
0001MMMM
00000000
MMMM1000
00000010
00001000
01000000
,
00010000
00000000
00100000
00000000
01000000
00000000
00010000
00000000
00001000
00010000
00000000
00000000
00000010
00000000
00000100
00000000
,
00001000
00020000
0010MMMM
00030000
MMMM0100
00000000
00011000
00000000
,
00010000
01000000
10000000
00100000
00010000
00000000
01001000
00000000
,
00010010
01001000
MMMMMMMM
00011000
,
00001000
00000100
00000001
00000010
00001000
00000000
00010000
01000000
,
00100000
00000000
00001000
00000010
00000001
00000000
00000110
00000000
,
00011000
01100000
00100000
1001MMMM
,
00011000
00000000
00000000
00000000
MMMM1001
00000000
00000000
00000000
MMMMMMMM
00000000
00000000
00000000
00000001
00000000
00000000
00000100
,
00000000
00000000
00000000
00000000
00000000
00000000
00001000
00000000
00000000
00000000
00000000
00000000
00010000
00000000
00000000
00000000
00000000
00000000
00000000
00000000
00000000
01000000
00000000
00000000
00000000
00000000
00000000
00000000
00000000
00000000
10000000
00000000
00000000
00000000
00000000
00000000
00100000
00000000
00000000
00000000
01000000
00000000
00000000
00000000
00100000
00000000
00000000
00000000
,
01000000
00000000
00000000
00000000
00000000
00000000
00000000
00000000
00000000
00000000
00000000
00000000
00001000
00000000
00000000
00000000
00010000
00000000
00000000
00000000
00001000
00000000
00000000
00000000
00010000
00000000
00000000
00000000
00000000
00000000
00000000
00000000
00000000
00000000
00000000
00000000
00000000
00000000
00000000
00000000
00000000
00000000
00000000
00000000
00000000
MMMM0010
00000000
00000000
,
00000000
00001000
00000000
00000000
0001MMMM
00000000
01000000
00000000
00000000
00000000
00000000
00000000
00012000
00000000
00000000
00000000
,
MMMM3010
00021000
0013MMMM
0110MMMM
,
00011000
00000000
MMMM0110
00000000
MMMMMMMM
00000000
MMMM0001
00000010
,
MMMM0100
00001000
0001MMMM
00100000
0100MMMM
10000000
1000MMMM
00000000
,
MMMM1000
00000000
00000000
00000000
0001MMMM
00000000
00000000
00000000
MMMM0001
00000000
00000000
00000000
00022000
00033000
00000000
00000000
,
00000000
00000000
MMMMMMMM
00000000
2002MMMM
0000MMMM
3000MMMM
0000MMMM
,
00031000
00000000
MMMM0000
00000000
00000000
00000000
00000000
00000000
10000000
00000000
00000000
00100000
10000000
00000000
01000000
00000000
,
00010000
00000000
00001000
00000000
00000010
00000000
00000100
00000000
00001000
00000000
00000010
00000100
00000000
00000001
00001000
00000010
,
MMMM1000
00000000
00000000
00000000
0001MMMM
00000000
01000000
00000000
00010000
00000000
00000000
10000000
01000000
00000000
00010000
00000000
,
01000000
00000000
00100000
00000000
00001000
00010000
00001000
00000000
00000010
00000000
00000100
00000000
00010000
00000000
00002000
00000000
,
MMMM0010
00000000
00003000
00000000
0100MMMM
00000000
00010000
00000000
00100000
00000000
00000000
01000000
00010000
00000000
00001000
00000000
,
00000010
00000000
00000001
00000000
00000100
00000000
00001000
00000000
00000100
00000000
00000010
00010000
00000000
00001000
01000000
00010000
,
0100MMMM
00000000
00000000
00000000
MMMM1000
00000000
00100000
00000000
01000000
00000000
10000000
00100000
10000000
00000000
00010000
00000000
,
00100000
00010000
00100000
00000000
00001000
00010000
0000MMMM
00000000
MMMM0110
00000000
0000MMMM
00000000
00011000
00000000
MMMM0000
00000000
,
0110MMMM
00000000
MMMM0000
00000000
00000000
00000000
00010000
10000000
00010000
00000000
00100000
01000000
00000000
10000000
01000000
00000000
,
00100000
00001000
00000000
00010000
00000000
00000100
00001000
00000100
MMMM0010
00000000
00000001
00001000
MMMM0000
00000010
00001000
00000010
,
00020000
00000000
00000000
00000000
0013MMMM
00000000
01000000
00100000
01000000
00000000
00010000
00100000
00000000
01000000
00100000
00000000
,
00001000
00010000
00000000
00000100
00000000
00001000
00000001
00000010
MMMM0100
00000000
00010000
00000000
MMMM1000
00000000
01000000
00000000
,
0010MMMM
00000000
00000000
00000000
MMMM1000
00000000
00000010
00001000
00000010
00000000
00000100
00000001
00000000
00000010
00000001
00000000
,
00000100
00000010
00000000
00010000
00000000
00001000
01000000
00010000
0100MMMM
00000000
00100000
10000000
0000MMMM
01000000
10000000
01000000
,
0001MMMM
00000000
00000000
00000000
MMMM1000
00000000
00010000
00001000
00010000
00000000
00100000
00000000
00010000
00000000
00000100
00000000
,
00010000
00001000
01000000
00000000
00001000
00010000
0000MMMM
00000000
MMMM0110
00000000
0000MMMM
00000000
00011000
00000000
MMMM0000
00000000
,
0110MMMM
MMMM0000
00000000
00000000
00022000
00000000
00033000
00000000
;
