#VERSION:0.83;
#TITLE:INF-B《L-aste-R》;
#SUBTITLE:;
#ARTIST:かねこちはる;
#TITLETRANSLIT:INF-B(L-aste-R);
#SUBTITLETRANSLIT:;
#ARTISTTRANSLIT:Chiharu Kaneko;
#GENRE:;
#CREDIT:;
#MUSIC:INF-B(L-aste-R).ogg;
#BANNER:INF-B(L-aste-R).png;
#BACKGROUND:INF-B(L-aste-R)-bg.png;
#CDTITLE:./CDTitles/SDVX III GRAVITY WARS.png;
#SAMPLESTART:76.739;
#SAMPLELENGTH:15.000;
#SELECTABLE:YES;
#OFFSET:0.000;
#BPMS:0.000=197.000
,172.000=98.500
,187.000=197.000
,204.000=394.000
,212.000=197.000
,220.000=98.500
,225.000=197.000
;
#STOPS:45.750=0.305
,77.000=0.305
,108.000=0.305
,170.750=0.305
,187.000=0.076
,187.250=0.076
,187.500=0.152
,204.000=0.114
,204.750=0.114
,205.500=0.228
,207.000=0.114
,207.750=0.114
,208.500=0.228
,210.000=0.114
,210.750=0.114
,211.500=0.076
,225.000=0.305
,296.000=0.305
;
#TIMESIGNATURES:0.000=4=4,
44.000=3=4,
47.000=4=4,
75.000=3=4,
78.000=4=4,
106.000=3=4,
109.000=4=4,
169.000=3=4,
172.000=4=4,
224.000=2=4,
226.000=4=4,
294.000=3=4,
297.000=4=4
;
#DISPLAYBPM:98.000:197.000;
#BGCHANGES:0.000=../BGAs/22bk.mp4=1.000=0=0=0=StretchNoLoop====,
99999.000=-nosongbg-=1.000=0=0=0=StretchNoLoop====
;
#FGCHANGES:;

//--------------- dance-single - forcednature ----------------
#NOTEDATA:;
#STEPSTYPE:dance-single;
#DESCRIPTION:forcednature;
#DIFFICULTY:Beginner;
#METER:6;
#RADARVALUES:0,0,0,0,0;
#CREDIT:forcednature;
#NOTES:
0000
0000
0000
0000
,
0000
0000
0000
0000
,
0000
0000
0000
0000
,
0000
0000
0000
0000
,
0000
0000
0000
0000
,
0000
0000
0000
0000
,
0001
0000
0000
0000
,
1000
0000
0000
0000
,
0010
0000
0100
0000
,
0010
0000
0000
0000
,
1000
1000
1000
0000
,
0001
0010
0000
1001
,
0000
0001
0000
0100
,
0000
0000
0000
0001
,
0000
1000
0000
0010
,
0000
0000
0000
1000
,
0000
0100
0000
0010
,
0000
0000
0000
0100
,
0000
1000
0000
0002
,
0000
0003
0100
0000
,
0010
0000
1000
0000
,
0001
0000
0010
0000
,
0001
0000
1000
0000
,
0000
0000
0010
0000
,
0100
0000
0001
0000
,
0010
0000
0100
0000
,
1000
0000
0002
0000
,
0003
1000
0000
0010
,
0000
1000
0010
1000
,
0000
0001
0000
0100
,
0000
0001
0100
0001
,
0000
1000
0000
0100
,
0000
1000
0100
1000
,
0000
0001
0000
0010
,
0000
0001
0010
0001
,
0000
1000
0000
0010
,
0000
0100
0000
0010
,
0000
1000
0000
0001
,
0000
0200
0000
0000
,
0300
0001
0000
0010
,
0000
0100
0000
1000
,
0000
0001
0001
0001
,
1000
0010
0100
0000
,
2002
0000
0000
0000
,
0000
0000
0000
3003
,
0000
0001
0000
0001
0000
1000
0000
1000
,
0000
0010
0000
0000
0200
0000
0300
0000
,
0001
0000
0010
0000
,
0100
0000
1000
0000
,
0001
0000
0100
0000
,
0010
0000
1000
0000
,
0001
0000
0000
0001
0000
0000
1000
0000
,
0000
1000
0000
0000
0010
0000
0000
0000
,
0100
0100
0001
0001
,
1000
0010
1000
0010
,
2002
0000
0000
0000
,
0000
3003
1000
0000
,
0010
0000
0100
0001
,
0100
0000
0001
0000
,
0010
0000
0100
0000
,
1000
0000
0001
0000
,
0100
0000
0010
1000
,
0010
0000
1000
0000
,
0100
0000
0010
0000
,
0001
0000
1000
0000
,
0010
0000
0100
0010
,
0100
0000
0001
1000
,
0001
0000
0010
0000
,
0100
0000
1000
0000
,
0001
0000
0100
0010
,
0100
0000
0001
0001
,
0010
0000
0100
0100
,
1000
0000
0001
0100
,
0001
0100
0010
1000
,
0010
1000
0000
0100
,
0000
0010
0000
0100
,
0000
1000
0000
0100
,
0000
0010
0100
0010
,
0000
0001
0000
0100
,
0000
0010
0000
0100
,
0000
0001
0000
0100
,
0000
0010
0100
0010
,
0000
0000
1000
0000
0000
1000
0000
0000
,
1000
0000
0001
0000
0000
2002
0000
0000
,
0000
0000
0000
0000
,
0000
0000
0000
3003
;

//--------------- dance-single - forcednature ----------------
#NOTEDATA:;
#STEPSTYPE:dance-single;
#DESCRIPTION:forcednature;
#DIFFICULTY:Easy;
#METER:11;
#RADARVALUES:0,0,0,0,0;
#CREDIT:forcednature;
#NOTES:
0000
0000
0000
0000
,
0000
0000
0000
0000
,
0000
0000
0000
0000
,
0000
0000
0000
0000
,
0000
0000
0000
0000
,
0000
0000
0000
0000
,
1000
0010
1000
0000
,
0001
0010
0001
0000
,
0100
0100
0010
0010
,
1000
0001
0100
0000
,
0010
0000
0000
0010
0000
0000
0010
0000
0000
0010
0000
0000
1000
0000
0000
0000
,
0001
0000
0000
0010
0000
0000
0220
0000
0330
0000
0000
0000
1000
0000
0000
0000
,
0001
0100
0001
1000
,
0010
1000
0000
0001
,
0010
0100
0010
0001
,
1000
0100
0000
1000
,
0001
0100
0001
1000
,
0010
0100
0000
0001
,
1000
0100
1000
0001
,
0010
0000
0000
0000
0200
0300
0000
0000
1001
0000
0000
0000
1000
0000
0000
0000
,
0010
0100
0001
1000
,
0100
0000
1000
0001
,
0010
0001
1000
0010
,
1000
0001
1001
1000
,
0100
1000
0001
0100
,
0010
0000
1000
1000
,
0001
0001
0010
0100
,
0220
0330
0000
0000
0001
0000
0000
0000
0100
0000
0000
0000
0001
0000
0000
0000
,
0010
0001
0100
0001
,
0001
1000
0100
1000
,
0010
1000
0100
1000
,
1000
0010
1000
0001
,
0010
0001
1000
0010
,
0010
0100
0100
0001
,
0001
1000
0010
0200
,
0000
0000
0301
0000
0010
0000
0100
0010
,
0100
0000
1000
0000
0010
0000
0100
0010
,
0100
0000
0001
0000
1000
0000
0100
1000
,
0100
0020
0000
0000
,
0030
0000
0000
0000
0001
0000
0000
0001
0000
0000
0001
0000
0100
0000
0000
0100
,
0000
0000
0100
0000
0010
0000
0000
0010
0000
0000
0010
0000
1000
0000
0000
1000
,
0000
0000
1000
0000
0001
0000
0000
0001
0000
0000
0001
0000
0000
0001
0000
0000
,
0010
0000
0000
0000
0100
0000
0000
1000
0000
0000
2002
0000
3003
0000
0000
0000
,
2000
0010
0010
3010
,
0002
0010
0010
0013
,
1000
0100
0000
0100
0000
1000
0000
1000
,
0001
0001
0100
0100
0001
1000
0020
0030
,
1000
0100
0010
0001
,
1000
0100
0010
0001
,
1000
0010
0100
0001
,
1000
0010
0100
0001
,
0010
0000
0000
0010
0000
0000
0010
0000
0000
0000
0000
0000
0100
0000
0000
0100
,
0000
0000
0100
0000
0000
0000
0000
0000
1000
0000
0000
0001
0000
0000
1000
0000
,
0020
0230
0302
2003
,
3200
0000
0320
0000
0031
1000
0001
1000
,
0020
0000
0000
0030
0200
0000
0000
0000
,
0002
0000
0303
0000
1001
0000
1000
0100
,
1000
0000
0000
0000
0010
0000
0000
0000
0100
0000
0000
0001
0000
0000
0020
0000
,
0000
0000
0000
0000
0030
0000
0000
0000
0100
0000
0000
0100
0000
0000
0100
0000
,
1000
0000
0000
1000
0000
0000
1000
0000
0001
0000
0000
0001
0000
0000
0001
0000
,
0010
0000
0001
0000
1001
0000
1000
0010
,
1000
0000
0000
0000
0001
0000
0000
0000
0010
0000
0000
0100
0000
0000
2000
0000
,
0000
0000
0000
0000
3000
0000
0000
0000
0100
0000
0000
0100
0000
0000
0100
0000
,
1000
0000
0000
1000
0000
0000
1000
0000
0001
0000
0000
0001
0000
0000
0001
0000
,
0100
0000
0010
0000
1001
0000
0001
0100
,
0001
0000
0000
0000
1000
0000
0000
0000
0010
0000
0000
0100
0000
0000
0002
0000
,
0000
0000
0000
0000
0003
0000
0000
0000
1000
0000
0000
1000
0000
0000
1000
0000
,
0100
0000
0000
0100
0000
0000
0100
0000
0010
0000
0000
0010
0000
0000
0010
0000
,
0001
0000
1000
0000
1001
0000
0001
0100
,
0001
0000
0000
0000
1000
0000
0000
0000
0010
0000
0000
1000
0000
0000
0002
0000
,
0000
0000
0000
0000
0003
0000
0000
0000
0010
0000
0000
0010
0000
0000
0100
0000
,
1000
0000
0000
1000
0000
0000
1000
0000
0010
0000
0000
0010
0000
0000
0100
0000
,
0001
0000
0000
0001
0000
0000
0001
0000
0010
0000
0000
0000
0100
0000
0010
0000
,
0100
0000
1000
0001
1000
0000
0010
0100
,
0020
0030
0000
0000
1000
0000
0000
0000
0100
0000
0000
0000
1000
0000
0001
0000
,
1000
0000
0001
0000
0100
0000
0001
1000
,
0001
0000
1000
0000
0010
0000
1000
0001
,
1000
0100
0010
0002
,
0000
0000
0103
0000
0010
0000
1000
0001
,
1000
0000
0100
0000
0010
0000
0001
1000
,
0001
0000
0100
0000
0010
0000
1000
0001
,
1000
0100
0010
0002
,
0000
0000
0000
0000
1003
0000
0000
1000
0000
0000
1000
0000
0000
1000
0000
0000
,
0010
0000
0000
0000
0100
0000
0000
0001
0000
0000
0000
2002
0000
0000
0000
0000
,
0000
0000
0000
0000
,
0000
0000
0000
3003
;

//--------------- dance-single - forcednature ----------------
#NOTEDATA:;
#STEPSTYPE:dance-single;
#DESCRIPTION:forcednature;
#DIFFICULTY:Medium;
#METER:14;
#RADARVALUES:0,0,0,0,0;
#CREDIT:forcednature;
#NOTES:
0000
0000
0000
0000
,
0000
0000
0000
0000
,
0000
0000
0000
0000
,
0000
0000
0000
0000
,
0000
0000
0000
0000
,
0000
0000
0000
0000
,
1000
0000
0100
1000
0001
0000
0010
0000
,
0001
0000
0100
0001
1000
0000
0010
0000
,
0100
0001
0100
0001
1000
0010
1000
0010
,
0100
0001
1000
0010
0200
0000
0000
0300
,
0001
1000
0000
0001
1000
0000
0001
1000
0000
0001
1000
0000
0001
0000
0000
0000
,
0010
0100
0000
0010
0100
0000
0010
0200
0300
0000
0000
0000
1001
0000
0000
0000
,
1000
0000
0000
0000
0010
0000
0000
0000
0100
0000
0000
0000
0001
0000
0000
0010
,
0000
0000
0001
0000
0000
0000
0000
0000
0000
0000
0000
0000
1000
0000
0000
1000
,
0000
0000
0010
0000
0100
0000
0000
0100
0000
0000
0001
0000
1000
0000
0000
1000
,
0000
0010
0100
0000
0001
0000
1000
0000
,
0001
0000
0000
0000
0010
0000
0000
0000
0100
0000
0000
0000
1000
0000
0000
0001
,
0000
0000
1000
0000
0000
0000
0000
0000
0000
0000
0000
0000
0001
0000
0000
0001
,
0000
0000
0100
0000
0010
0000
0000
0010
0000
0000
1000
0000
0001
0000
0000
0010
,
0000
0000
0100
0000
2000
3000
0000
0000
1001
0000
0000
0000
0001
0000
0010
0000
,
0100
0000
0000
0000
0010
0000
0000
0000
0001
0000
0000
1000
0000
0000
0010
0000
,
0000
0000
0000
0000
0000
0000
0000
0000
0100
0000
0000
0001
0000
0000
1000
0000
,
0100
0000
0000
1000
0000
0000
0001
0000
0100
0000
0000
0001
0000
0000
1000
0000
,
0100
0000
0010
0000
0110
0000
1000
0001
,
0010
0000
0000
0000
0001
0000
0000
0000
1000
0000
0000
0010
0000
0000
0100
0000
,
0000
0000
0000
0000
0000
0000
0000
0000
0001
0000
0000
0010
0000
0000
0100
0000
,
1000
0000
0000
0010
0000
0000
0100
0000
0001
0000
1000
0000
0001
0000
1000
0000
,
0020
0030
0000
0000
1000
0000
0100
0000
0010
0000
0000
0000
0001
0000
0100
0000
,
0010
0000
1000
1000
1000
0000
0010
0000
,
0110
0000
0001
0100
0010
0000
1000
0100
,
0010
0000
0001
0001
0001
0000
0100
0000
,
0110
0000
1000
0001
0010
0000
0001
1000
,
0010
0000
0100
0100
0100
0000
0010
0000
,
1001
0000
1000
0100
1000
0100
0010
0001
,
0010
0001
1000
0010
0100
0001
2000
0000
,
0000
3000
0001
0000
0010
0100
0010
0001
,
1000
0001
0100
0000
0010
0100
0010
1000
,
0001
1000
0100
0000
0010
0100
0010
0001
,
0100
0001
2000
0000
0000
0000
0000
0000
,
3000
0000
0010
0000
0100
0000
0000
0100
0000
0000
0001
0000
1000
0000
0000
1000
,
0000
0000
0010
0000
0100
0000
0000
0001
0000
0000
1000
0000
0100
0000
0000
1000
,
0000
0000
0001
0000
0010
0100
0000
0010
0100
0000
0010
0100
0000
0010
0100
0000
,
1000
0000
0001
0000
0100
0010
0000
0100
0010
0000
0100
0020
0030
0000
0000
0000
,
2000
0000
0100
0000
0100
0100
0100
0000
,
3002
0000
0100
0000
0100
0100
0100
0000
,
1003
1010
0000
1010
0000
0011
0000
0011
,
0000
0000
1000
0000
0001
0000
1000
0000
0010
0100
0010
0100
0002
0000
0003
0000
,
1000
0100
0010
0001
1000
0100
0010
0001
,
1000
0010
0100
0001
0100
0010
1000
0000
,
0001
0010
0100
1000
0001
0010
0100
1000
,
0001
0100
0010
1000
0010
0100
0002
0000
,
1003
0000
0000
0100
0000
0000
1100
0000
0000
0000
0000
0000
0001
0000
0000
0010
,
0000
0000
0011
0000
0000
0000
0000
0000
1000
0000
0000
0001
0000
0000
1000
0000
,
0001
0000
0100
0000
0001
0000
1000
0000
0010
0000
1000
0000
,
0100
0000
0000
0000
0010
0000
0000
0000
0100
0000
0000
0000
0010
0000
0000
0001
0000
0000
1000
0000
0000
0100
0000
0000
,
0020
0000
0032
0000
,
2000
0000
3003
0000
0101
0000
1000
0010
,
0100
0000
0010
0000
1000
0000
0001
0000
0010
0000
0000
0100
0000
0000
2000
0000
,
0000
0000
0000
0000
3000
0000
0001
0000
0100
0000
0000
0001
0000
0000
1000
0000
,
0010
0000
0000
1000
0000
0000
0001
0000
0010
0000
0000
0100
0000
0000
1000
0000
,
0010
0100
0001
0100
0010
0000
1000
0100
,
0010
0000
0100
0000
1000
0000
0001
0000
0010
0000
0000
0001
0000
0000
2000
0000
,
0000
0000
0000
0000
3000
0000
0010
0000
0100
0000
0000
0001
0000
0000
0010
0000
,
0100
0000
0000
1000
0000
0000
0010
0000
1000
0000
1000
0000
0001
0000
0001
0000
,
0200
0000
0310
0000
1001
0000
0001
0100
,
0010
0000
0100
0000
0001
0000
1000
0000
0010
0000
0000
0100
0000
0000
0002
0000
,
0000
0000
0000
0000
0003
0000
1000
0000
0100
0000
0000
0010
0000
0000
0001
0000
,
0100
0000
0000
0010
0000
0000
1000
0000
0100
0000
0000
0010
0000
0000
0001
0000
,
2000
0000
3010
0000
1001
0000
0001
0010
,
0001
0000
1000
0000
0100
0000
1000
0000
0010
0000
0000
0100
0000
0000
0002
0000
,
0010
0000
0000
0000
0013
0000
0001
0000
1000
0000
0000
0100
0000
0000
1100
0000
,
0001
0000
0000
0010
0000
0000
0011
0000
1000
0000
0000
0010
0000
0000
1010
0000
,
0001
0000
0000
0100
0000
0000
0101
0000
1000
0000
0100
0000
0010
0000
0001
0000
,
1000
0010
0100
0001
0010
0100
1000
0001
,
0020
0030
0000
0000
0001
0000
0100
0000
1000
0000
0100
0000
0001
0000
0000
0000
,
1010
0000
1000
0100
0001
0100
1000
0000
,
0011
0000
0001
0010
1000
0010
0001
0000
,
1100
0000
1000
0010
0001
0010
2000
0000
,
0000
0000
3001
0010
0100
1000
0100
0001
,
0100
0000
1000
0010
0100
0001
0100
1000
,
0100
0000
0001
0010
0100
1000
0100
0001
,
0100
0000
1000
0010
0100
0001
0100
0010
,
2000
0000
0000
3000
0001
1000
0000
0001
1000
0000
0001
1000
0000
0001
1000
0000
,
0001
0000
0010
0000
0100
0010
0000
0100
0010
0000
0100
2000
0000
0000
0000
0000
,
0000
0000
0000
0000
,
0000
0000
0000
3000
;

//--------------- dance-single - forcednature ----------------
#NOTEDATA:;
#STEPSTYPE:dance-single;
#DESCRIPTION:forcednature;
#DIFFICULTY:Hard;
#METER:17;
#RADARVALUES:0,0,0,0,0;
#CREDIT:forcednature;
#NOTES:
0000
0000
0000
0000
,
0000
0000
0000
0000
,
0000
0000
0000
0000
,
0000
0000
0000
0000
,
0000
0000
0000
0000
,
0000
0000
0000
0000
,
2000
0000
0000
0100
0000
0000
0010
0000
0000
3100
0000
0000
1000
0000
0010
0000
,
1000
0000
0000
0001
0000
0000
0010
0000
0000
0100
0000
0000
1000
0000
0010
0000
,
0100
0001
0010
0001
1000
0100
1000
0010
,
0100
0001
0100
0001
1000
0010
1000
0010
0200
0000
0000
0000
0000
0000
0000
0000
,
0301
1000
0000
0001
1000
0000
0001
1000
0000
0001
1000
0000
0010
0000
0100
0000
,
0001
0010
0000
0100
0010
0100
1000
0002
0003
0000
0000
0000
0110
0000
0000
0000
,
1000
0001
1000
0010
0000
0000
0100
0000
0001
0000
1000
0000
0001
0000
0000
0010
,
0000
0000
0200
0000
0000
0000
0000
0000
0300
0000
1000
0001
0010
0000
0000
0001
,
0000
0000
1000
0000
0010
0000
0000
1000
0000
0000
0001
0000
0100
0000
0000
0001
,
0000
0000
1000
0000
0100
0000
0010
0100
0000
0010
0001
0000
1000
0000
0000
0000
,
0010
0100
0001
0100
0000
0000
0010
0000
1000
0000
0001
0000
0010
0000
0000
0100
,
0000
0000
2000
0000
0000
0000
0000
0000
3000
0000
0001
0100
0001
0000
0000
1000
,
0000
0000
0010
0000
1000
0000
0000
0001
0000
0000
0010
0000
0100
0000
0000
1000
,
0000
0000
0010
0000
0200
0300
0000
0000
1001
0000
0000
0000
1000
0100
0010
0200
,
0000
0000
0310
0000
0001
0000
1000
0000
0010
0000
0000
0010
0100
0000
0002
0000
,
0100
0000
0000
1000
0000
0003
0010
0001
1000
0000
0000
1000
0100
0000
0010
0000
,
0001
0000
0000
0001
0100
0000
0010
0000
1000
0000
0000
1000
0001
0000
0010
0000
,
0100
0000
1000
0100
0000
0010
0100
0010
0001
0000
0000
0000
0001
0010
0100
0020
,
0000
0000
0031
0000
0100
0000
0010
0000
1000
0000
0000
1000
0100
0000
0020
0000
,
0001
0000
0000
0100
0000
0030
0001
0010
0100
0000
0100
0000
1000
0000
1000
0000
,
0001
0000
0001
0000
0100
0000
0100
0000
0010
1000
0010
1000
0001
0100
0010
1000
,
0002
0003
0000
0000
1000
0000
0100
0010
0000
0100
1000
0000
0001
0000
0100
0010
,
0000
0100
0001
0000
1000
0000
0010
0000
0001
0000
0010
0000
1010
0000
0000
1100
,
0000
0000
0001
0000
1000
0000
0010
0100
0000
0010
1000
0000
0001
0000
0010
0100
,
0000
0010
0001
0000
1000
0000
0100
0000
0001
0000
0100
0000
1100
0000
0000
1010
,
0000
0000
0001
0000
0010
0000
0100
1000
0000
0001
0100
0000
0010
0000
0100
0001
,
0000
1000
0100
0000
1000
0000
0010
0000
0001
0000
0010
0000
0110
0000
0000
0101
,
0000
0000
1000
0000
0010
0100
0010
0000
1000
0010
1000
0000
0001
0100
0001
0100
,
0001
1000
0001
1000
0020
0000
1000
0000
1000
0000
1030
0000
0010
0100
0010
0100
,
0002
0000
0000
0000
1003
0000
0100
0010
0000
0100
1000
0000
0001
0010
0100
0010
,
0001
0000
1000
0000
0001
0000
0100
0010
0000
0100
0001
0000
1000
0010
0100
0010
,
1000
0000
0001
0000
0010
0000
0100
1000
0000
0001
0100
0000
0010
1000
0001
1000
,
0010
0000
0100
0000
0001
1000
0002
0000
0000
0010
0000
0000
0010
0000
0000
0100
,
0003
0000
0001
1000
0100
0000
0000
1100
0000
0000
0001
0000
0101
0000
0000
0101
,
0000
0000
1000
0000
1010
0000
0000
0110
0000
0000
1000
0000
0011
0000
0000
0110
,
0000
0000
0001
0000
0100
0010
0000
0100
0010
0000
0100
0010
0000
0100
0010
0000
,
1000
0000
0001
0000
0010
0100
0000
1000
0100
1000
0001
0020
0030
0000
0000
0000
,
0002
0000
0203
0320
2030
3002
0203
0320
,
2030
0000
3200
0320
0032
2003
3200
0320
,
0032
0100
1000
0010
2003
0100
0001
0010
,
3001
0000
0100
0000
0001
0000
0100
0000
0010
0000
1000
0000
0010
0000
1000
0000
0100
0010
0100
0010
0100
0010
0100
0010
0002
0000
2003
0000
3020
0000
0030
0000
,
0100
0001
0010
0001
1000
0010
1000
0100
,
0010
0000
0001
0000
1000
0000
0010
0000
0100
0001
1000
0010
0100
0000
0000
0000
,
0001
0010
0001
0100
0010
1000
0100
1000
,
0010
0000
0010
0000
0100
0000
0100
0000
0001
1000
0001
1000
0020
0000
0000
0000
,
1030
0000
0000
1010
0000
0000
1010
0000
0000
0000
0000
0000
0101
0000
0000
0101
,
0000
0000
0101
0000
0000
0000
0000
0000
0110
0000
0000
0110
0000
0000
0110
0000
,
1000
0001
1000
0001
1000
0001
0010
0100
0010
0100
0010
0100
,
1000
0000
0000
0000
0001
0000
0000
0000
0100
0000
0000
0000
0001
0000
0000
0000
1000
0000
0000
0000
0100
0000
0000
0000
1000
0000
0000
0010
0000
0000
0100
0000
0000
0010
0000
0000
1000
0000
0000
0001
0000
0000
0100
0000
0000
0001
0000
0000
,
2000
0000
0000
0000
0000
0000
0000
0000
0000
0000
0000
0000
0000
0000
0000
0000
3002
0000
0000
0203
0000
0000
0320
0000
0000
0000
0000
0000
0000
0000
0130
0001
,
2000
0000
0000
0000
3000
0000
0000
0000
0001
0000
1000
0000
0001
0010
0100
0010
,
0001
0000
1000
0000
0100
0000
1000
0000
0010
0100
0000
0001
0100
0000
0020
0000
,
1000
0000
0000
0100
0000
0030
1000
0001
0010
0000
0100
0010
0000
0100
1000
0000
,
0010
0000
0100
0010
0000
0100
0001
0000
1000
0000
0001
0010
0000
0100
0010
0000
,
0001
0000
1000
0000
0010
0100
0001
1000
0010
0000
0100
0000
0001
1000
0100
1000
,
0001
0000
0010
0000
0100
0000
0010
0000
0001
1000
0000
0010
1000
0000
0002
0000
,
0100
0000
0000
0010
0003
0000
0001
1000
0100
0000
1000
0100
1000
0000
0100
0010
,
0100
0000
0010
0001
0010
0000
0001
0000
0100
0001
0100
0001
0100
0001
0100
0001
,
2000
0000
0000
0010
0000
0000
3010
0000
1001
0000
0000
0000
0001
0010
0100
0020
,
0000
0000
0130
0000
1000
0000
0001
0000
0200
0000
0000
2300
0000
0000
3200
0000
,
0001
0000
0000
0010
0000
0300
0001
1000
0200
0000
0000
0302
0000
0000
2003
0000
,
3020
0000
0000
0032
0000
0000
2003
0000
3200
0000
0000
0302
0000
0000
2003
0000
,
3020
0000
0000
0000
0001
0000
0030
0000
0110
0000
0000
0000
0100
1000
0001
2000
,
0000
0000
3010
0000
0100
0000
0001
0000
0020
0000
0000
0032
0000
0000
2003
0000
,
0010
0000
0000
0100
0000
3000
0001
1000
0010
0000
0000
0101
0000
0000
0011
0000
,
0010
0000
0000
1100
0000
0000
1010
0000
1000
0000
0000
0101
0000
0000
0011
0000
,
0001
0000
0000
1100
0000
0000
1000
0000
0010
1000
0100
0000
0010
0001
0100
0000
,
0010
1000
0100
0000
0010
0001
0100
0000
0010
0100
0010
0100
0010
0100
0010
0100
,
0002
0003
0000
0000
1000
0000
0100
0000
0001
0000
0100
0000
1000
0000
0001
0000
,
0010
0001
0000
1000
0001
0000
0100
0000
1000
0000
0100
0000
0001
0000
1000
0000
,
0010
1000
0000
0001
1000
0000
0100
0000
0010
0000
1000
0000
0010
0000
0001
0000
,
1000
0100
0000
0010
0100
0000
0100
0000
0010
0000
0010
0000
0001
1000
0001
1000
,
0020
0000
0000
0000
0130
0000
0001
1000
0000
0010
1000
0000
0001
0010
0100
0010
,
0002
0000
0000
0000
1003
0000
0100
0010
0000
0100
1000
0000
0001
1000
0010
1000
,
0002
0000
0000
0000
0103
0000
0001
0010
0000
0001
1000
0000
0010
0100
0001
0100
,
0020
0000
0000
0000
1030
0000
0100
0010
0001
0000
0100
0010
1000
0000
0010
0100
,
0000
0001
0100
0000
0001
0010
0000
0100
1000
0000
0001
0010
0000
0100
1000
0000
,
1001
0000
0110
0000
1000
0010
0000
0100
0010
0100
0001
0020
0000
0000
0000
0000
,
0000
0000
0000
0000
,
0000
0000
0000
0030
;

//--------------- dance-double - forcednature ----------------
#NOTEDATA:;
#STEPSTYPE:dance-double;
#DESCRIPTION:forcednature;
#DIFFICULTY:Easy;
#METER:10;
#RADARVALUES:0,0,0,0,0;
#CREDIT:forcednature;
#NOTES:
00000000
00000000
00000000
00000000
,
00000000
00000000
00000000
00000000
,
00000000
00000000
00000000
00000000
,
00000000
00000000
00000000
00000000
,
00000000
00000000
00000000
00000000
,
00000000
00000000
00000000
00000000
,
00001000
00010000
00000100
00000000
,
00010000
00001000
00100000
00000000
,
00001000
00001000
00010000
00010000
,
00000010
00001000
00000020
00000000
,
00000130
00000000
00000000
00000100
00000000
00000000
00000100
00000000
00000000
00000100
00000000
00000000
00000001
00000000
00000000
00000000
,
00000010
00000000
00000000
00000010
00000000
00000000
00000200
00000000
00000300
00000000
00000000
00000000
00001001
00000000
00000000
00000000
,
00001000
00000100
00010000
00001000
,
00100000
00010000
00000000
01000000
,
00100000
10000000
00000000
01000000
,
00100000
00010000
00000000
10000000
,
00100000
01000000
00010000
00100000
,
00001000
00010000
00000000
00000100
,
00001000
00000100
00000010
00000001
,
00000000
00000000
00000000
00000000
00002000
00003000
00000000
00000000
00001001
00000000
00000000
00000000
00000001
00000000
00000000
00000000
,
00000100
00000010
00001000
00000100
,
00010000
00011000
01000000
00010000
,
00100000
01000000
10000000
00010000
,
01000000
01100000
00010000
00100000
,
00001000
00010000
00000010
00001000
,
00000100
00000110
00000001
00000001
,
00001000
00000000
00001000
00000000
00000001
00001000
00000001
00000000
,
00000020
00000030
00000000
00000000
00000100
00000000
00000000
00000000
00001000
00000000
00000000
00000000
00000100
00000000
00000000
00000000
,
00010000
00000000
00001000
00000000
00100000
00000000
00010000
00010000
,
00010000
01000000
00001000
00010000
,
00000010
00000000
00001000
00000000
00000100
00000000
00001000
00001000
,
00001000
00000010
00000100
00000010
,
00001000
00000000
00000100
00000000
00010000
00000000
00001000
00001000
,
00001000
00100000
00010000
01000000
,
00010000
10000000
01000000
00200000
,
00000000
00000000
00310000
00000000
00100000
00000000
00001000
00010000
,
00001000
00010000
00000100
00001000
,
00000010
00000000
00000100
00000000
00000001
00000000
00000010
00000001
,
00000010
00000200
00000000
00000000
,
00000300
00000000
00000000
00000000
00001000
00000000
00000000
00001000
00000000
00000000
00001000
00000000
00000100
00000000
00000000
00000100
,
00000000
00000000
00000100
00000000
00010000
00000000
00000000
00010000
00000000
00000000
00010000
00000000
00001000
00000000
00000000
00001000
,
00000000
00000000
00001000
00000000
00100000
00000000
00000000
00100000
00000000
00000000
00100000
00000000
00000000
00100000
00000000
00000000
,
00010000
00000000
00000000
00000000
01000000
00000000
00000000
01000000
00000000
00000000
00200000
00000000
00300000
00000000
00000000
00000000
,
20020000
00000000
30030000
00000000
,
00200000
00300000
02000000
03000000
,
00000000
10000000
00000000
10000000
00000000
00010000
00000000
00010000
,
00000000
01000000
00000000
01000000
00002000
00000000
00013000
00000000
,
00011000
00000000
00000100
00001000
,
00000100
00000010
00000001
00000000
,
00001001
00000000
00001000
00000010
,
00010000
00001000
00010000
00000000
,
00000100
00000000
00000000
00000100
00000000
00000000
00000100
00000000
00000000
00000000
00000000
00000000
00001000
00000000
00000000
00001000
,
00000000
00000000
00001000
00000000
00000000
00000000
00000000
00000000
00000010
00000000
00000000
00000010
00000000
00000000
00000010
00000000
,
00000200
00002300
00023000
00230000
,
01300000
00010000
10000000
00000000
,
20020000
00000000
00000000
00000000
,
00000000
30030000
01100000
10000000
,
00010000
00100000
00001000
00010000
,
00000100
00000000
00001000
00001000
,
00000001
00000001
00001000
00000010
,
00000100
00000000
00001001
00000001
,
00000010
00000100
00001000
00000010
,
00010000
00000000
00001000
00001000
,
00100000
00100000
00001000
00010000
,
00000100
00000000
00011000
00001000
,
01000000
00010000
10000000
00100000
,
10000000
00000000
01000000
00100000
,
00010000
01000000
00010000
00100000
,
00001000
00000000
00011000
00010000
,
00000100
00001000
00000010
00000100
,
00000001
00000000
00000000
00000000
00000000
00000000
00000000
00000000
00000010
00000000
00000000
00000010
00000000
00000000
00000010
00000000
,
00000001
00000000
00000000
00000001
00000000
00000000
00000001
00000000
00000100
00000000
00000000
00000100
00000000
00000000
00000100
00000000
,
00000010
00000000
00000000
00000010
00000000
00000000
00000010
00000000
00001000
00000000
00000000
00000000
00000100
00000000
00000000
00000000
,
00010000
00000000
00001000
00000000
00100000
00010000
00100000
00010000
,
20000000
30000000
00000000
00000000
01000000
00000000
00000000
00000000
00010000
00000000
00000000
00000000
00001000
00000000
00000000
00000000
,
00010000
01000000
00010000
00001000
,
00010000
01000000
00010000
00001000
,
00010000
00000100
00001000
00000010
,
00000000
00000100
00001000
00010000
,
00001000
00000100
00001000
00010000
,
00001000
00000100
00001000
00010000
,
00001000
00100000
00010000
02000000
,
00000000
00000000
00000000
00000000
03100000
00000000
00000000
00100000
00000000
00000000
00100000
00000000
00000000
00100000
00000000
00000000
,
10000000
00000000
00000000
00000000
01000000
00000000
00000000
00010000
00000000
00000000
00000000
00022000
00000000
00000000
00000000
00000000
,
00000000
00000000
00000000
00000000
,
00000000
00000000
00000000
00033000
;

//--------------- dance-double - forcednature ----------------
#NOTEDATA:;
#STEPSTYPE:dance-double;
#DESCRIPTION:forcednature;
#DIFFICULTY:Medium;
#METER:14;
#RADARVALUES:0,0,0,0,0;
#CREDIT:forcednature;
#NOTES:
00000000
00000000
00000000
00000000
,
00000000
00000000
00000000
00000000
,
00000000
00000000
00000000
00000000
,
00000000
00000000
00000000
00000000
,
00000000
00000000
00000000
00000000
,
00000000
00000000
00000000
00000000
,
00010000
00000000
00000000
00001000
00000000
00000000
01000000
00000000
00000000
00010000
00000000
00000000
01000000
00000000
00000000
00000000
,
00001000
00000000
00000000
00010000
00000000
00000000
00000100
00000000
00000000
00001000
00000000
00000000
00000010
00000000
00000000
00000000
,
00010000
00001000
00100000
00000000
00010000
00100000
00001000
00000000
,
00010000
00000100
00001000
00000100
00000020
00000000
00000000
00000000
,
00000031
00001000
00000000
00000001
00001000
00000000
00000001
00001000
00000000
00000001
00001000
00000000
00000010
00000000
00000000
00000000
,
00010000
00001000
00000000
00010000
00001000
00000000
00010000
00002000
00003000
00000000
00000000
00000000
00011000
00000000
00000000
00000000
,
01000000
00000000
00010000
00000000
00100000
00000000
00000000
00000000
01000000
00000000
00000000
00000000
00010000
00000000
00000000
00001000
,
00000000
00000000
00200000
00000000
00000000
00000000
00000000
00000000
00300000
00000000
00010000
00000000
01000000
00000000
00000000
00001000
,
00000000
00000000
00010000
00000000
00000100
00000000
00000000
00001000
00000000
00000000
00000100
00000000
00000010
00000000
00000000
00000001
,
00000000
00001000
00000020
00000000
00000130
00000001
00000100
00000000
,
00000010
00000000
00001000
00000000
00000001
00000000
00000000
00000000
00000010
00000000
00000000
00000000
00000100
00000000
00000000
00010000
,
00000000
00000000
00002000
00000000
00000000
00000000
00000000
00000000
00003000
00000000
00000000
00000000
00100000
00000000
00000000
00010000
,
00000000
00000000
00100000
00000000
01000000
00000000
00000000
10000000
00000000
00000000
01000000
00000000
00100000
00000000
00000000
00001000
,
00000000
00000000
00010000
00000000
00000200
00000300
00000000
00000000
00000110
00000000
00000000
00000000
00000010
00000000
00000001
00000000
,
00000100
00000000
00000001
00000000
00001000
00000000
00000000
00000000
00000010
00000000
00000000
00010000
00000000
00000000
00002000
00000000
,
00000000
00000000
00000000
00000000
00003000
00000000
00000000
00000000
01000000
00000000
00000000
00010000
00000000
00000000
00100000
00000000
,
01000000
00000000
00000000
10000000
00000000
00000000
00100000
00000000
01000000
00000000
00000000
00010000
00000000
00000000
00100000
00000000
,
00001000
00000000
00010000
00001000
00010000
00000000
00000100
00001000
,
00000010
00000000
00000100
00000000
00000001
00000000
00000000
00000000
00000010
00000000
00000000
00000100
00000000
00000000
00020000
00000000
,
00000000
00000000
00030000
00000000
00001000
00100000
00010000
00000000
,
00100000
00001000
00010000
00000000
00000100
00001000
00000100
00001000
,
00000020
00000030
00000000
00000000
00000100
00000000
00000001
00000000
00000100
00000000
00000000
00000000
00001000
00000000
00010000
00000000
,
00001000
00000000
00000010
00000001
00000100
00000000
00000010
00000000
,
00001001
00000000
00010000
00001000
00010000
00000000
01000000
10000000
,
01000000
00000000
00010000
00001000
00100000
00000000
01000000
00000000
,
10010000
00000000
10000000
01000000
00010000
00000000
00001000
00100000
,
00010000
00000000
01000000
00001000
00010000
00000000
00000010
00000000
,
00001001
00000000
00000001
00000100
00000001
00000100
00000010
00001000
,
00000010
00001000
00000002
00000000
00000010
00000010
00000020
00000000
,
00000033
00000000
00000000
00000000
00000001
00000000
00000000
00000001
00000000
00000000
00000100
00000000
00000010
00000000
00001000
00000000
,
00000010
00000000
00000000
00000000
00010000
00000000
00000000
00010000
00000000
00000000
00001000
00000000
00100000
00000000
00010000
00000000
,
00100000
00000000
00000000
00000000
01000000
00000000
00000000
01000000
00000000
00000000
10000000
00000000
00010000
00000000
01000000
00000000
,
00010000
00200000
00000000
00000000
,
00300000
00000000
00000000
00000000
01000000
00000000
00000000
01000000
00000000
00000000
10000000
00000000
00010000
00000000
00000000
00010000
,
00000000
00000000
00100000
00000000
00001000
00000000
00000000
00001000
00000000
00000000
00010000
00000000
00000100
00000000
00000000
00000100
,
00000000
00000000
00001000
00000000
00000010
00000100
00000000
00000010
00000100
00000000
00000010
00000100
00000000
00000010
00000100
00000000
,
00000010
00000000
00000000
00000000
00001000
00000001
00000000
00001000
00000001
00000000
00001000
00000002
00000003
00000000
00000000
00000000
,
00000220
00000000
00000000
00000330
,
00022000
00000000
00000000
00033000
,
00000000
01000000
00000000
01000000
00000000
00000100
00000000
00000100
,
00000000
00000000
00100000
00000000
00100000
00000000
00001000
00000000
00001000
00000000
00010000
00000000
00000200
00002300
00003200
00000300
,
00000010
00000001
00000100
00000000
00000010
00001000
00000100
00000000
,
00000010
00001000
00010000
00000000
01000000
00000000
01100000
00000000
,
00100000
00010000
01000000
00000000
00100000
10000000
01000000
00000000
,
00100000
00001000
00010000
00000000
00000100
00000100
00000100
00000000
,
00001000
00000000
00000000
00000001
00000000
00000000
00001001
00000000
00000000
00000000
00000000
00000000
00010000
00000000
00000000
00001000
,
00000000
00000000
00011000
00000000
00000000
00000000
00000000
00000000
10000000
00000000
00000000
00010000
00000000
00000000
10010000
00000000
,
20000000
32000000
03200000
00320000
,
00031000
00000100
00001000
00000100
00000010
00000001
00000010
00000001
,
00002000
00000000
00003020
00000000
,
00020030
00000000
00030000
00000000
00011000
00000000
00001000
00100000
,
00010000
00000000
01000000
00000000
00100000
00000000
00000000
00000000
10000000
00000000
00000000
01000000
00000000
00000000
00200000
00000000
,
00000000
00000000
00000000
00000000
00300000
00000000
00000000
00000000
01000000
00000000
00000000
10000000
00000000
00000000
00010000
00000000
,
00100000
00000000
00000000
00001000
00000000
00000000
00010000
00000000
00000100
00000000
00000000
00001000
00000000
00000000
00000010
00000000
,
00000100
00000001
00000010
00000000
00000110
00000000
00000100
00001000
,
00000001
00000000
00001000
00000000
00000010
00000000
00000000
00000000
00000100
00000000
00000000
00000001
00000000
00000000
00002000
00000000
,
00000000
00000000
00000000
00000000
00003000
00000000
00000000
00000000
00000100
00000000
00000000
00010000
00000000
00000000
00001000
00000000
,
00100000
00000000
00000000
00001000
00000000
00000000
00010000
00000000
00000010
00000000
00001000
00000000
00000010
00000000
00001000
00000000
,
00000002
00000000
00000100
00000100
00000103
00000000
00000001
00000010
,
00000100
00000000
00001000
00000000
00000100
00000000
00000000
00000000
00010000
00000000
00000000
00001000
00000000
00000000
00200000
00000000
,
00010000
00000000
00000000
00010000
00000000
00000000
00310000
00000000
00100000
00000000
00000000
01000000
00000000
00000000
10000000
00000000
,
00100000
00000000
00000000
01000000
00000000
00000000
00010000
00000000
00100000
00000000
00000000
00001000
00000000
00000000
00010000
00000000
,
00000020
00000000
00002030
00000000
00003001
00000000
00000010
00000100
,
00001000
00000000
00000100
00000000
00010000
00000000
00000000
00000000
00001000
00000000
00000000
00100000
00020000
00000000
00000000
00000000
,
01000000
00000000
00000000
01000000
00000000
00000000
01030000
00000000
00010000
00000000
00000000
00100000
00000000
00000000
00001000
00000000
,
00000010
00000000
00000000
00000100
00000000
00000000
00010000
00000000
00001000
00000000
00000000
00000010
00000000
00000000
00000001
00000000
,
00000010
00000000
00000000
00001000
00000000
00000000
00010000
00000000
01000000
00000000
00100000
00000000
01000000
00000000
00100000
00000000
,
00010000
10000000
00010000
10000000
00200000
00000000
00000000
00000000
,
02000000
03300000
00000000
00000000
10010000
00000000
00000000
00000000
11000000
00000000
00000000
00000000
00010000
00000000
00100000
00000000
,
01000000
00000000
00110000
00000000
00101000
00000000
00001000
00010000
,
00000010
00000000
00001010
00000000
00001100
00000000
00000001
00000010
,
00000100
00000000
00000010
00000010
00000010
00000000
00000001
00001000
,
00000010
00000000
00000100
00000001
00000100
00000001
00000100
00001000
,
00020000
00000000
01030000
10000000
01000000
10000000
01000000
00010000
,
00002000
00000000
00003010
00000001
00000010
00000001
00000010
00001000
,
00020000
00000000
01030000
00100000
01000000
00100000
00010000
10000000
,
00100000
00000000
00000000
00000000
01000000
00100000
00000000
01000000
00100000
00000000
01000000
00100000
00000000
01000000
00100000
00000000
,
01000000
00000000
00000000
00000000
00001000
00010000
00000000
00001000
00010000
00000000
00001000
00020000
00000000
00000000
00000000
00000000
,
00000000
00000000
00000000
00000000
,
00000000
00000000
00000000
00030000
;

//--------------- dance-double - forcednature ----------------
#NOTEDATA:;
#STEPSTYPE:dance-double;
#DESCRIPTION:forcednature;
#DIFFICULTY:Hard;
#METER:17;
#RADARVALUES:0,0,0,0,0;
#CREDIT:forcednature;
#NOTES:
00000000
00000000
00000000
00000000
,
00000000
00000000
00000000
00000000
,
00000000
00000000
00000000
00000000
,
00000000
00000000
00000000
00000000
,
00000000
00000000
00000000
00000000
,
00000000
00000000
00000000
00000000
,
00001000
00000000
00000000
00010000
00000000
00000000
00100000
00000000
00000000
00010000
00000000
00000000
00001000
00000000
00000000
00000000
,
00010000
00000000
00000000
00001000
00000000
00000000
00000010
00000000
00000000
00001000
00000000
00000000
00010000
00000000
00000000
00000000
,
01000000
00100000
01000000
00010000
00001000
00000100
00000010
00000100
,
00000001
00001000
00000001
00001000
00000010
00000100
00000010
00000100
00000002
00000000
00000000
00000000
00000000
00000000
00000000
00000000
,
00000013
00000100
00000000
00000010
00000100
00000000
00000010
00000100
00000000
00000010
00000100
00000000
00010000
00000000
00001000
00000000
,
00100000
00010000
00000000
00100000
01000000
10000000
01000000
00020000
00030000
00000000
00000000
00000000
00011000
00000000
00000000
00000000
,
00001000
00010000
00000100
00001000
00000000
00000000
00000001
00000000
00000100
00000000
00001000
00000000
00000100
00000000
00000000
00001000
,
00000000
00000000
00020000
00000000
00000000
00000000
00000000
00000000
00030000
00000000
00001000
00100000
00010000
00000000
00000000
00100000
,
00000000
00000000
00001000
00000000
00010000
00000000
00000000
01000000
00000000
00000000
00010000
00000000
00001000
00000000
00000000
00100000
,
00000000
00000000
00001000
00000000
00010000
00000000
00000100
00001000
00000000
00000100
00000010
00000001
00000000
00000000
00000000
00000000
,
00001000
00000010
00000100
00000001
00000000
00000000
00000100
00000000
00001000
00000000
00010000
00000000
00001000
00000000
00000000
00010000
,
00000000
00000000
00200000
00000000
00000000
00000000
00000000
00000000
00300000
00000000
10000000
00010000
10000000
00000000
00000000
01000000
,
00000000
00000000
00010000
00000000
00001000
00000000
00000000
00000100
00000000
00000000
00000001
00000000
00000010
00000000
00000000
00001000
,
00000000
00000000
00010000
00000000
00022000
00033000
00000000
00000000
00101000
00000000
00000000
00000000
00100000
01000000
10000000
02000000
,
00000000
00000000
03010000
00000000
00001000
00000000
00010000
00000000
00000100
00000000
00000000
00000100
00001000
00000000
00000002
00000000
,
00000010
00000000
00000000
00001000
00000000
00000003
00000100
00000001
00001000
00000000
00000000
00000010
00010000
00000000
00001000
00000000
,
00100000
00000000
00000000
00010000
01000000
00000000
00001000
00000000
00010000
00000000
00000000
00001000
00100000
00000000
00010000
00000000
,
01000000
00000000
00100000
10000000
00000000
00100000
01000000
00010000
01000000
00000000
00000000
00000000
00001000
00010000
00000100
00002000
,
00000000
00000000
00003010
00000000
00000100
00000000
00000001
00000000
00000010
00000000
00000000
00000100
00000010
00000000
00000200
00000000
,
00001000
00000000
00000000
00010000
00000000
00000300
00001000
00000100
00010000
00000000
00010000
00000000
00001000
00000000
00001000
00000000
,
01000000
00000000
01000000
00000000
00010000
00000000
00010000
00000000
10000000
01000000
10000000
01000000
00100000
00010000
10000000
01000000
,
00200000
00300000
00000000
00000000
00001000
00000000
00010000
00001000
00000000
00010000
00000010
00000000
00001000
00000000
00000010
00000100
,
00000000
00000001
00000100
00000000
00001000
00000000
00010000
00000000
00100000
00000000
01000000
00000000
01100000
00000000
00000000
10100000
,
00000000
00000000
00010000
00000000
10000000
00000000
01000000
00100000
00000000
00010000
00100000
00000000
00001000
00000000
00010000
00001000
,
00000000
01000000
00010000
00000000
00100000
00000000
01000000
00000000
00010000
00000000
00001000
00000000
00011000
00000000
00000000
00010100
,
00000000
00000000
00000100
00000000
00001000
00000000
00000010
00000100
00000000
00000001
00000100
00000000
00000010
00000000
00001000
00000100
,
00000000
00010000
00000100
00000000
00001000
00000000
00000010
00000000
00010000
00000000
00001000
00000000
00011000
00000000
00000000
00101000
,
00000000
00000000
00100000
00000000
00010000
01000000
00010000
00000000
10000000
01000000
10000000
00000000
00010000
00100000
00010000
00100000
,
00001000
00010000
00001000
00010000
00000200
00000000
00001000
00000000
00001000
00000000
00001300
00000000
00000100
00000010
00000100
00000010
,
00000002
00000000
00000000
00000000
00001003
00000000
00000010
00000100
00000000
00000001
00000100
00000000
00000010
00001000
00000010
00010000
,
00001000
00000000
00010000
00000000
00001000
00000000
00100000
00010000
00000000
00100000
01000000
00000000
10000000
00010000
00100000
00010000
,
10000000
00000000
01000000
00000000
00010000
00000000
00001000
00010000
00000000
00000100
00001000
00000000
00000010
00000100
00000001
00000100
,
00000010
00000000
00001000
00000000
00000100
00010000
00002000
00000000
00000000
00100000
00000000
00000000
00100000
00000000
00000000
00010000
,
00000000
00003000
01000000
00001000
00010000
00000000
00000000
00011000
00000000
00000000
00000100
00000000
00001100
00000000
00000000
00001100
,
00000000
00000000
00000001
00000000
00000011
00000000
00000000
00000011
00000000
00000000
00001000
00000000
00001010
00000000
00000000
00001010
,
00000000
00000000
00010000
00000000
00001000
00010000
00000000
00001000
00010000
00000000
00001000
00010000
00000000
00001000
00010000
00000000
,
00100000
00000000
01000000
00000000
00010000
01000000
00000000
00010000
10000000
00010000
10000000
00200000
00300000
00000000
00000000
00000000
,
20000000
00000000
32000000
03020000
00032000
00003200
00000302
00000023
,
00000032
00000000
00000203
00002300
00023000
02030000
23000000
00000000
,
30020000
01000000
10000000
00100000
00032000
00000100
00000001
00000010
,
00013000
00000000
01000000
00000000
00010000
00000000
00100000
00000000
00001000
00000000
00010000
00000000
00000100
00000000
00001000
00000000
00000010
00000100
00000010
00000100
00000010
00000100
00000010
00000100
00000002
00000000
00002003
00000000
00003020
00000000
00000030
00000000
,
00000100
00001000
00010000
00001000
00010000
00100000
01000000
00100000
,
10000000
00000000
01000000
00000000
00010000
00000000
00001000
00000000
00100000
00010000
00100000
01000000
10000000
00000000
00000000
00000000
,
01000000
00100000
00010000
00100000
01000000
00010000
00001000
00010000
,
00001000
00000000
00001000
00000000
00000010
00000000
00000010
00000000
00000001
00000010
00000001
00000010
00000002
00000000
00000000
00000000
,
00000103
00000000
00000000
00000110
00000000
00000000
00000110
00000000
00000000
00000000
00000000
00000000
00011000
00000000
00000000
00011000
,
00000000
00000000
00011000
00000000
00000000
00000000
00000000
00000000
01100000
00000000
00000000
01100000
00000000
00000000
01100000
00000000
,
10000000
00100000
01000000
00010000
00100000
00001000
00010000
00000100
00001000
00000010
00000100
00000001
,
00000010
00000000
00000000
00000000
00000100
00000000
00000000
00000000
00001000
00000000
00000000
00000000
00000010
00000000
00000000
00000000
00000100
00000000
00000000
00000000
00000001
00000000
00000000
00000000
00000010
00000000
00000000
00000100
00000000
00000000
00001000
00000000
00000000
00000100
00000000
00000000
00010000
00000000
00000000
00001000
00000000
00000000
00010000
00000000
00000000
00000100
00000000
00000000
,
00002000
00000000
00000000
00000000
00000000
00000000
00000000
00000000
00000000
00000000
00000000
00000000
00000000
00000000
00000000
00000000
00003002
00000000
00000000
00000203
00000000
00000000
00002300
00000000
00000000
00000000
00000000
00000000
00000000
00000000
00013000
00100000
,
02000000
00000000
00000000
00000000
03000000
00000000
00000000
00000000
00010000
00000000
10000000
00000000
00010000
00100000
01000000
00100000
,
00010000
00000000
10000000
00000000
01000000
00000000
00010000
00000000
00001000
00100000
00000000
00010000
00100000
00000000
00002000
00000000
,
00010000
00000000
00000000
01000000
00000000
00003000
00010000
00001000
00010000
00000000
00000100
00001000
00000000
00000100
00000010
00000000
,
00000001
00000000
00000100
00000010
00000000
00001000
00000010
00000000
00010000
00000000
00001000
00100000
00000000
00010000
00100000
00000000
,
01000000
00000000
10000000
00000000
00010000
01000000
00100000
10000000
00010000
00000000
00000000
00000000
00100000
00010000
00100000
00001000
,
00010000
00000000
00000100
00000000
00001000
00000000
00000010
00000000
00010000
00001000
00000000
00010000
00000010
00000000
00002000
00000000
,
00000100
00000000
00000000
00000001
00000000
00003000
00000010
00001000
00000010
00000000
00000100
00000010
00000100
00000000
00000001
00000100
,
00000001
00000000
00000010
00000001
00000010
00000000
00000100
00000000
00010000
00001000
00010000
00001000
00010000
00001000
00010000
00001000
,
00200000
00000000
00000000
00010000
00000000
00000000
01300000
00000000
10010000
00000000
00000000
00000000
10000000
00100000
01000000
00200000
,
00000000
00000000
10300000
00000000
01000000
00000000
00010000
00000000
00002000
00000000
00000000
00023000
00000000
00000000
00030200
00000000
,
00000010
00000000
00000000
00001000
00000000
00000300
00010000
00000100
00002000
00000000
00000000
00003020
00000000
00000000
00000230
00000000
,
00002300
00000000
00000000
00023000
00000000
00000000
00230000
00000000
02300000
00000000
00000000
03020000
00000000
00000000
20030000
00000000
,
32000000
00000000
00000000
00000000
00100000
00000000
03000000
00000000
10010000
00000000
00000000
00000000
00010000
00100000
00001000
00020000
,
00000000
00000000
00030100
00000000
00001000
00000000
00000010
00000000
00002000
00000000
00000000
00003200
00000000
00000000
00000320
00000000
,
00000001
00000000
00000000
00000100
00000000
00000030
00000001
00000010
00000100
00000000
00000000
00010000
00000000
00000000
00000010
00000000
,
00000100
00000000
00000000
00001000
00000000
00000000
01000000
00000000
00010000
00000000
00000000
00100000
00000000
00000000
01000000
00000000
,
00010000
00000000
00000000
00000100
00000000
00000000
00001000
00000000
00000001
00000100
00000010
00000000
00001000
00000100
00000010
00000000
,
00000100
00001000
00000100
00000000
00010000
00001000
00100000
00000000
00001000
00010000
00001000
00010000
00001000
00010000
00001000
00010000
,
00000020
00000030
00000000
00000000
00001000
00000000
00000100
00000000
00000001
00000000
00000100
00000000
00001000
00000000
00000010
00000000
,
00010000
00001000
00000000
00100000
00010000
00000000
01000000
00000000
10000000
00000000
01000000
00000000
00010000
00000000
00100000
00000000
,
00001000
00010000
00000000
00000010
00001000
00000000
00000100
00000000
00000001
00000000
00000100
00000000
00001000
00000000
00000010
00000000
,
00010000
00001000
00000000
00100000
00010000
00000000
00010000
00000000
01000000
00000000
01000000
00000000
00010000
10000000
00010000
10000000
,
00200000
00000000
00000000
00000000
10300000
00000000
01000000
00100000
00000000
00100000
00001000
00000000
00010000
00000100
00001000
00000100
,
00000020
00000000
00000000
00000000
00000031
00000000
00000100
00000010
00000000
00000010
00010000
00000000
00001000
01000000
00010000
01000000
,
00200000
00000000
00000000
00000000
10300000
00000000
01000000
00100000
00000000
00100000
00001000
00000000
00010000
00000100
00001000
00000100
,
00000020
00000000
00000000
00000000
00000031
00000000
00000100
00000010
00001000
00000000
00000100
00000010
00000001
00000000
00000100
00000010
,
00000000
00001000
00000010
00000000
00010000
00001000
00000000
00010000
00001000
00000000
00010000
00001000
00000000
00010000
00001000
00000000
,
00000010
00000000
00000001
00000000
00000100
00000010
00000000
00001000
00000010
00001000
00000100
00020000
00000000
00000000
00000000
00000000
,
00000000
00000000
00000000
00000000
,
00000000
00000000
00000000
00030000
;
