#VERSION:0.83;
#TITLE:INDEPENDENT SKY;
#SUBTITLE:;
#ARTIST:SOUND HOLIC feat. Nana Takahashi;
#TITLETRANSLIT:;
#SUBTITLETRANSLIT:;
#ARTISTTRANSLIT:;
#GENRE:;
#CREDIT:;
#MUSIC:INDEPENDENT SKY.ogg;
#BANNER:INDEPENDENT SKY.png;
#BACKGROUND:INDEPENDENT SKY-bg.png;
#CDTITLE:./CDTitles/SDVX III GRAVITY WARS.png;
#SAMPLESTART:44.757;
#SAMPLELENGTH:15.000;
#SELECTABLE:YES;
#OFFSET:0.000;
#BPMS:0.000=170.000;
#STOPS:;
#TIMESIGNATURES:0.000=4=4,
200.000=5=4,
230.000=4=4
;
#BGCHANGES:0.000=../BGAs/19po.mp4=1.000=0=0=0=StretchNoLoop====,
99999.000=-nosongbg-=1.000=0=0=0=StretchNoLoop====
;
#FGCHANGES:;

//--------------- dance-single - forcednature ----------------
#NOTEDATA:;
#STEPSTYPE:dance-single;
#DESCRIPTION:forcednature;
#DIFFICULTY:Beginner;
#METER:5;
#RADARVALUES:0,0,0,0,0;
#CREDIT:forcednature;
#NOTES:
0000
0000
0000
0000
,
0000
0000
0000
0000
,
0000
0000
0000
0000
,
0000
0000
0000
0000
,
1000
0000
0000
0000
,
2002
0000
0000
3003
,
0001
0000
0100
0000
,
0001
0000
0000
0000
,
1000
0000
0100
0000
,
1000
0000
0000
0000
,
0001
0000
0010
0000
,
0001
0000
0000
0000
,
1000
0000
0010
0000
,
1000
0000
0100
0000
,
1001
0000
0000
0000
,
0001
0000
0000
0000
,
0010
0000
0001
0000
,
0010
0000
0000
0000
,
0100
0000
0000
0000
,
1000
0000
0000
0000
,
0010
0000
1000
0000
,
0010
0000
0000
0000
,
1001
0000
0000
0000
,
1000
0000
0100
0000
,
1000
0000
0000
0000
,
0001
0000
0100
0000
,
0001
0001
0000
1000
,
1000
0000
0000
0000
,
0010
0000
0000
0000
,
0100
0000
0001
0000
,
1000
0000
0100
0000
,
1001
0000
0000
0000
,
0001
0000
0100
0000
,
0010
0000
1000
0000
,
0001
0000
0010
0000
,
0001
0000
1000
0000
,
0010
0000
1000
0000
,
0100
0000
1000
0000
,
0001
0000
0100
0000
,
0010
0000
1000
0000
,
0001
0000
0010
0000
,
0100
0000
0010
0000
,
0001
0000
1000
0000
,
0010
0000
1000
0000
,
0100
0000
1000
0000
,
0001
0000
0100
0000
,
0010
0000
0000
0000
,
1000
0000
0001
0000
,
0010
0000
0000
0010
0000
0000
0100
0000
,
0000
0100
0000
0000
0000
0000
0000
0000
,
1000
0000
0010
0000
,
1000
0000
0001
0000
,
0010
0000
0001
0000
,
0010
0000
0001
0000
,
1000
0000
0010
0000
,
1000
0000
0100
0000
,
1000
0000
0001
0000
,
0100
0000
0001
0000
,
0100
0000
0001
0000
,
1000
0000
2002
0000
,
3003
0000
0001
0000
,
0010
0000
0100
0000
,
1000
0000
0001
0000
,
0100
0000
0010
0000
,
0000
0000
1000
0000
,
0100
0000
1000
0000
,
0001
0002
0000
0000
,
0003
0000
1001
0000
,
0000
0000
1000
0000
,
0000
0000
0001
0000
,
0100
0000
0001
0001
,
0001
0000
1001
0000
,
1000
0000
0100
0000
,
0010
0000
0001
0000
,
0010
0000
0100
0000
,
1000
0000
0001
0000
,
0100
0000
0001
0000
,
1000
0000
0010
0000
,
1000
0000
0001
0000
,
0010
0000
1001
0000
,
0000
0000
1000
0000
,
0001
0000
1001
0000
,
0000
0000
0001
0000
,
0100
0000
0010
0000
,
0010
0000
1000
0000
,
0001
0000
0010
0000
,
0010
0000
0001
0000
,
1000
0000
0100
0000
,
0100
0000
1000
0000
,
0001
0000
0100
0000
,
0100
0000
0001
0000
,
1000
0000
1001
0000
,
0100
0000
0010
0000
,
0100
0000
1000
0000
,
0001
0000
0000
0000
0010
0000
0000
0010
;

//--------------- dance-single - forcednature ----------------
#NOTEDATA:;
#STEPSTYPE:dance-single;
#DESCRIPTION:forcednature;
#DIFFICULTY:Easy;
#METER:9;
#RADARVALUES:0,0,0,0,0;
#CREDIT:forcednature;
#NOTES:
0000
0000
0000
0000
,
0000
0000
0000
0000
,
0000
0000
0000
0000
,
0000
0000
0000
0000
,
1000
0000
0000
0000
0001
0000
0000
2002
,
0000
0000
0000
3003
,
1000
0100
1000
0000
0100
1000
0100
0000
,
0010
0001
1000
0010
,
0100
0001
0100
0000
0001
0100
0001
0000
,
0010
0100
1000
0001
,
0100
0010
0100
0000
0010
0100
0010
0000
,
1000
0001
0010
0001
,
1000
0010
1000
0000
0001
0010
0001
0000
,
0100
0100
0010
1000
,
1001
0001
0010
0001
,
0100
0000
0001
0000
0010
0001
0010
0000
,
0100
1000
0010
1000
,
0100
0000
1000
0000
0010
1000
0010
0000
,
1001
0001
0100
0001
,
0010
0000
0001
0000
0100
0001
0100
0000
,
0010
1000
0100
1000
,
0010
1000
0000
1000
0000
0001
0010
0000
,
0100
1000
0100
0100
,
0010
0001
0010
0010
,
0100
1000
0001
0001
,
0100
0001
1000
1000
,
0001
1000
0000
0000
0000
0000
1000
0001
,
0000
0001
0000
0000
0100
0000
0010
0000
,
1001
0000
1000
0000
,
0100
1000
0001
0000
,
0100
0000
0100
0000
0001
0000
0001
1000
,
0000
1000
0000
0001
0000
0000
0000
0000
,
1001
0000
1000
0000
0010
0000
1000
0100
,
1000
0000
0001
0000
0010
0000
0001
0100
,
0001
0000
0010
0000
0100
0000
1000
0001
,
1000
0000
0010
0000
0100
0000
0001
1000
,
0001
0000
1000
0100
,
0010
0001
0100
0000
,
0110
0000
0010
0000
1000
0000
0001
0010
,
0000
0100
0000
1000
0100
0000
0010
0000
,
1001
0000
1000
0000
0010
0000
0100
0001
,
0100
0000
0010
0000
1000
0000
0100
0010
,
0100
0000
1000
0000
0001
0000
1000
0010
,
1000
0001
0010
0000
,
1001
0001
0100
0010
,
1000
0001
1000
0000
0100
0000
0010
0000
,
0001
0000
0001
0000
0100
0000
0010
1000
,
0000
1000
0010
0000
0100
0000
0001
0000
,
1000
0001
0000
0001
1000
0000
0010
0100
,
0000
0100
0010
0000
0000
0000
0000
0000
,
1001
0001
0100
0001
,
1000
0010
1000
0000
0001
0000
0010
0000
,
0100
1000
0100
0000
0110
0000
0010
0000
,
0001
0010
0001
0000
1000
0000
0010
0000
,
1000
0100
1000
0000
0001
0000
0100
0000
,
0110
0000
0010
0000
1000
0010
1000
0000
,
0001
0000
0010
0000
0001
0010
0001
0000
,
0100
0001
1001
1000
,
0100
0000
0100
0000
0010
0001
0010
0001
,
0010
0001
2000
0000
3002
0000
0000
0000
,
0000
0103
0010
1000
,
0001
0010
0100
1000
,
0001
1000
0010
2000
,
0000
3001
1001
1000
,
0100
1000
0001
0100
,
0001
0010
0100
0100
,
1000
0000
0000
2002
0000
0000
0000
0000
,
0000
0000
3003
0000
2000
0000
0000
0010
,
0000
0010
0000
0020
0000
0000
3030
0000
,
0000
0000
0001
0010
,
0100
0000
1000
0001
0000
0001
0000
0100
,
0000
0010
1001
1000
,
0100
0000
1000
0000
0001
0010
0001
0000
,
1000
0010
0100
0001
,
0010
0000
0100
1000
0000
0100
1000
0000
,
0010
0100
1001
0001
,
0100
0001
0100
0000
0010
0000
1000
0000
,
0010
1000
0010
0000
1000
0000
0100
0000
,
0010
0000
0001
0000
0100
0010
0100
0000
,
0001
1000
1001
0001
,
0010
0100
0010
0000
0001
0000
1000
0000
,
0010
0000
0100
0000
0001
0010
0001
0000
,
1000
0000
1000
0010
0000
1000
0100
0000
,
0010
0001
1001
1000
,
0010
1000
0010
0000
0100
0000
0001
0000
,
0100
0001
0100
0000
0001
0000
0010
0000
,
0001
0010
0001
0000
1000
0000
0100
0000
,
1000
0100
1000
0000
0010
0000
0100
0000
,
0001
0000
1000
0000
0010
0100
0010
0000
,
0110
1001
1000
0001
,
0010
0100
1000
0001
,
0010
0100
0010
0000
1001
0000
0000
1100
,
0000
0000
0000
0101
0000
0000
0000
1001
,
0000
0010
0110
0000
,
1001
0000
0000
0000
1000
0001
0000
0001
,
1000
0000
0000
0000
;

//--------------- dance-single - forcednature ----------------
#NOTEDATA:;
#STEPSTYPE:dance-single;
#DESCRIPTION:forcednature;
#DIFFICULTY:Medium;
#METER:13;
#RADARVALUES:0,0,0,0,0;
#CREDIT:forcednature;
#NOTES:
0000
0000
0000
0000
,
0000
0000
0000
0000
,
0000
0000
0000
0000
,
0000
0000
0000
0000
,
1001
0000
0000
0000
0110
0000
0000
2002
,
0000
0000
0000
3003
,
1000
0100
0010
0100
1000
0001
0010
0001
,
0100
1000
0100
0001
0100
0010
1000
0000
,
0001
0010
0100
0010
0001
1000
0010
1000
,
0100
0001
0100
1000
0010
0010
0010
0000
,
0100
1000
0100
0001
0010
0001
1000
0010
,
1000
0100
0001
0100
0010
0001
1000
0000
,
0010
0100
1000
0100
0001
0010
0001
1000
,
0010
0000
0000
0000
0010
0000
0100
0000
0000
0000
0001
1000
0002
0000
0000
0000
,
0013
0000
0100
1000
0000
0100
0010
0001
,
1000
0000
0010
0100
0000
0001
0100
0010
,
2000
0000
3100
0000
1000
0001
0100
0010
,
1000
0000
1100
0000
0001
0010
0100
0100
,
1000
0000
0010
0100
0001
0100
0010
0000
,
1000
0001
0010
0001
0000
0100
0010
1000
,
0001
0010
0100
1000
0100
0010
0001
2000
,
0010
0010
0000
3001
0000
1000
0100
0000
,
1001
0000
0001
0100
0010
1000
0001
0000
,
1001
0000
1000
0100
0010
0001
1000
0000
,
0001
0100
0010
0100
1000
0100
0001
0000
,
0010
0001
1000
0000
0010
0010
0100
0000
,
0001
1001
0000
0000
0000
0000
1000
1001
,
0000
0000
0011
0000
0000
0000
0000
0000
0010
0000
0000
0100
0000
0000
1000
0000
,
0002
0000
0000
0000
0100
0000
0000
0100
,
0000
0100
0103
0000
1001
0000
0110
0000
,
1000
0100
1000
0010
0100
0001
0010
0001
,
0000
0100
0010
2002
0000
0000
3003
0000
,
0110
0000
1000
0001
0100
0010
1000
0002
,
0010
0000
0103
0000
0001
1000
0010
1000
,
0001
0010
0100
1000
0000
0001
0100
0001
,
1000
0100
1000
0010
0000
0100
0001
0000
,
1001
0000
1000
0100
1000
0010
0100
0001
,
0000
0010
0100
1000
0000
0001
0100
0010
,
1000
0000
0100
1000
0001
0100
0010
1010
,
0000
0000
0001
0000
0001
0000
0010
0000
0100
0000
1000
0000
0001
0000
0100
0001
,
0100
0000
0010
1000
0001
1000
0100
0020
,
0000
0130
1000
0001
0100
0010
1000
0001
,
0000
0010
1000
0010
0000
0010
0001
1000
,
0010
0100
0001
1000
0000
0100
1000
1000
,
0020
0000
0130
0001
0010
0001
1000
0010
,
0100
1000
0100
0001
0000
0010
0001
1000
,
0010
0000
1000
0010
2000
0000
0000
0000
0100
0000
0000
0000
3001
0000
1001
0000
,
0000
0010
0100
0000
0100
0010
0000
0000
,
1000
1100
0000
0001
0101
0000
1000
1010
,
0000
0000
0001
0000
0011
0000
0000
0000
0100
0000
0000
0100
0000
0000
0010
0000
,
1001
0000
0000
0000
1100
0000
0000
0000
0100
0000
0000
0010
0000
0000
0001
0000
,
0000
0100
0001
0000
1010
0000
0101
0000
,
0001
0010
0100
1000
0000
0001
0100
0000
,
0110
0000
0000
0010
0000
0000
1000
0000
0000
0000
0001
0000
0010
0000
0000
0000
,
1100
0000
0101
0000
1000
0010
1000
0001
,
0000
0000
0010
0000
0100
0000
0000
0000
1000
0000
0000
0010
0000
0000
0101
0000
,
0000
0001
1000
0000
1100
0000
0101
0000
,
1000
0010
0100
0001
0000
0010
0100
0010
,
0001
0010
0100
1000
0001
0001
0100
0100
,
0010
1000
0001
1000
0200
0000
0000
0000
,
0000
0000
0000
0000
0300
0000
0000
0010
0000
0000
0001
0000
0100
0000
0001
0000
,
1000
0000
0000
0100
0000
0000
1000
0000
0000
0000
0000
0000
0001
0000
0000
0000
0001
0000
0100
0000
0000
0000
0100
0000
,
0010
0000
0010
1000
0000
1000
0002
0000
0000
0023
0000
0000
,
0100
0000
0001
0031
0010
0100
1000
0001
,
1000
0010
0100
0001
1000
0100
1000
0010
,
0100
0001
0010
0001
0100
0000
0010
0010
,
1000
0000
0000
1000
0001
0000
0020
0000
0000
0000
0000
0000
0000
0000
0000
0000
,
0000
0000
0030
0000
2001
0000
0000
0100
,
0000
0100
0000
0020
0000
0000
3030
0000
,
0001
0100
0001
2000
0000
3200
0000
2300
,
0000
3001
0000
1001
0000
0100
0010
0220
,
0000
0000
0330
0000
1001
0000
1000
0100
,
1000
0001
0100
0002
0000
0013
0100
2000
,
0000
3001
0100
0010
0200
0000
0301
1000
,
0100
1000
0010
0110
0000
0100
0100
0001
,
1000
0000
0100
0000
0010
0000
0001
0010
0001
0000
0000
0000
1000
0000
0010
0000
,
1000
0001
0010
0200
0000
1300
0001
0100
,
0001
1000
0100
0020
0000
0130
1000
0020
,
0000
0130
0001
1000
0100
0001
0100
2000
,
0000
3010
0010
0100
0001
0000
0010
0001
,
0100
0001
1000
0100
1000
0010
0100
0010
,
1000
0001
0010
0100
1000
0001
0200
0000
,
0010
0310
0100
1001
0000
1000
1010
0000
,
0001
0011
0000
0000
1100
0000
0100
0001
,
0100
1000
0001
0010
0001
1000
0010
0100
,
1000
0100
0001
0000
0101
0000
0100
0010
,
1000
0010
0100
0001
0010
0001
1000
0010
,
0001
0010
0100
0000
0010
1000
0100
2000
,
0000
3001
0010
2000
0000
3010
0002
0000
,
0103
0010
1000
0001
0010
0100
0010
1001
,
0000
0010
0000
0110
0000
1000
0001
0100
,
0010
0010
2000
0000
3100
0000
0010
0001
,
0000
0101
0000
1100
0000
0001
0010
1000
,
0000
0010
0001
0100
0001
0000
1000
0010
,
0001
0000
0010
0000
0100
0000
0000
0000
0001
1000
0001
0000
0000
0000
1000
0001
,
1000
0000
0000
0000
;

//--------------- dance-single - forcednature ----------------
#NOTEDATA:;
#STEPSTYPE:dance-single;
#DESCRIPTION:forcednature;
#DIFFICULTY:Hard;
#METER:17;
#RADARVALUES:0,0,0,0,0;
#CREDIT:forcednature;
#NOTES:
0000
0000
0000
0000
,
0000
0000
0000
0000
,
0000
0000
0000
0000
,
0000
0000
0000
0000
,
1100
0000
0000
0000
0001
0000
0100
0010
1000
0000
0000
0000
0100
0000
2002
0000
,
0000
0000
0000
0000
0000
0000
0000
0000
0000
0000
0000
0000
3003
0000
0000
1000
,
0100
1000
0100
0000
0010
0100
0010
0001
0000
0010
0001
0000
1000
0010
1000
0001
,
0000
0001
0100
0000
0100
0010
1000
0010
0000
0100
0000
0001
1000
0001
0010
0000
,
0100
1000
0100
0000
0010
0100
0010
0001
0000
1000
0001
0000
0001
0100
0010
1000
,
0000
1000
0100
0000
0010
0100
0010
0000
0001
0010
0001
0000
1000
0010
1000
0000
,
0001
0100
0001
0000
0100
0010
1000
0010
0000
0100
0001
0000
1000
0001
0010
0001
,
0000
0010
0100
0000
0100
1000
0001
0000
0100
0001
0100
0000
0010
1000
0010
0000
,
1000
0000
0100
1000
0100
0010
0001
0000
0100
0001
0100
0000
0010
1000
0010
0000
,
0110
0000
0100
0000
0010
0000
1001
0000
0000
0001
0100
0010
2000
0000
0000
0000
,
3100
0001
0100
1000
0010
0100
0010
1000
,
0001
0100
1000
0100
0010
1000
0001
0010
,
0002
0000
0103
0000
1010
0000
1000
0100
,
0010
0000
0001
0000
0100
0000
0001
0000
1000
0000
0100
0000
1000
0010
1000
0010
,
0100
0000
0001
0100
0001
0000
0020
0000
0000
0000
0100
0000
0031
0000
0000
0000
,
0010
0100
1000
0001
0000
0101
0000
2010
,
0000
0000
0100
0000
3100
0000
0000
0000
1000
0000
0010
0000
1000
0100
0010
0002
,
0100
0000
0100
0000
0000
0000
1000
0000
0010
0000
0013
0001
0100
0000
0000
0000
,
0010
1000
0100
1000
0010
0001
0010
1000
,
0200
0000
0302
0000
1003
0010
0002
0000
,
1003
0010
0100
1000
0100
0001
0010
0002
,
1000
0000
0000
0000
0103
0000
0000
0000
1000
0000
0010
0100
0010
0100
0001
0100
,
0001
1001
0000
0010
0000
0000
1000
1001
,
0000
0000
0110
0000
0000
0000
0000
0000
0001
0100
0000
0100
0010
0000
0010
1000
,
0002
0000
0000
0000
0010
0000
0000
1000
,
0000
0000
1000
0000
1003
0000
0000
0000
0001
0000
0100
0000
0001
0000
1000
0010
,
1000
0000
0100
0000
1000
0000
0010
0000
0100
0001
0100
0001
1000
0000
1001
0000
,
0000
0010
0110
1001
0000
0000
0001
0100
,
0001
0000
0010
0100
0010
0000
0100
1000
0100
0000
1000
0010
1000
0000
1020
0000
,
0000
0100
0100
1030
0010
0100
0001
1000
,
0100
0000
0010
0100
0010
0000
0001
0010
0001
0000
0100
0001
0100
0000
0010
1000
,
0001
0000
1000
0100
0010
0000
0002
0000
0100
0000
1000
0000
0013
0001
0010
0001
,
0100
0000
0000
0000
0110
0000
0000
0000
0010
1000
0010
0000
0100
0000
0001
0010
,
0001
0000
0010
0100
0010
0000
1200
0000
0000
0000
1000
0000
0310
0000
0000
0000
,
1001
0000
0000
0000
0001
0100
0001
0100
0010
0000
1000
0000
0001
0000
0011
0000
,
0000
0000
1000
0100
1000
0100
0010
0001
1000
0000
1000
0000
0001
0100
0001
0100
,
0010
0000
1000
0000
0100
0000
1000
0010
1000
0000
0010
0100
0010
0000
0102
0000
,
0000
0000
0010
0000
0010
0000
1003
0000
0001
0010
0100
0000
1000
0000
0001
0100
,
0001
0000
1000
0100
1000
0000
0010
0100
0010
0000
1000
0001
0010
0000
0210
0000
,
0000
0000
1000
0000
0310
0000
0100
0000
1000
0000
0010
0000
0100
0001
0100
0001
,
1000
0000
0100
0000
0010
0001
0010
0000
0001
0000
0100
0001
0100
0000
0010
1000
,
0010
0000
1000
0001
0010
0000
0100
0000
1000
0000
0010
0000
0100
0000
0001
0000
,
0010
0001
0010
0001
2000
0000
0000
0000
3100
0000
1000
0100
0010
0001
0100
0000
,
0000
0010
0110
0000
0100
1001
0000
0000
,
1100
1010
0000
0101
0011
0000
1100
0101
,
0000
0000
1010
0000
0011
0000
0000
0000
1000
0100
0000
0100
0010
0000
0010
0001
,
1000
0000
0010
0000
0001
0000
0010
0000
0100
0001
0000
0001
0010
0000
0110
0000
,
0100
0000
0001
0000
0100
0000
1000
0000
0010
1000
0001
0000
0100
0000
1000
0000
,
0100
0001
0010
0110
0100
1000
0010
0001
,
0010
1000
0000
1000
0100
0000
0110
0000
0010
0000
1000
0000
0010
0000
0001
0000
,
0100
0001
0100
0000
0010
0000
0001
0000
0010
0000
1000
0000
0100
0000
0110
0000
,
0010
0000
1000
0000
0010
0000
0100
0000
1000
0001
0000
0001
0100
0000
0110
0000
,
0010
0000
0001
0000
0010
0000
1000
0000
0100
1000
0001
0000
0100
0001
1000
0000
,
0100
0001
0100
0110
0010
0011
0001
0101
,
0010
0000
1010
0000
1000
0000
1100
0000
0010
0001
1000
0000
0010
1000
0001
0000
,
0100
0001
1000
0001
0010
0100
1000
0100
0020
0000
0000
0000
0001
0000
0000
0000
,
0100
0000
0000
0000
0031
0000
0010
0200
0000
0000
2300
0000
3020
0000
0032
0000
,
0023
0000
0000
0230
0000
0000
0302
0000
0000
2003
0000
0000
3100
0000
1000
0000
0100
0000
1000
0000
0010
0000
1000
0000
,
0010
0100
0010
0100
0001
0100
0002
0000
0000
0010
0000
0000
,
0203
0000
0000
0000
0000
0000
0000
0000
0000
0000
0000
0000
0301
0000
0000
0010
0000
0000
0100
0000
0000
1000
0000
0000
0001
0000
0000
0000
0100
0000
0000
0000
0001
0000
0000
0000
1000
0000
0000
0000
0100
0000
0000
0000
1000
0000
0000
0000
,
0001
0010
0001
0000
1000
0010
1000
0000
0100
0010
0001
0010
0100
0000
1000
0001
,
0100
0010
1000
0001
0011
0010
0110
0100
,
1100
0000
1000
0001
0100
0000
2002
0000
0000
0000
0000
0000
0000
0000
0000
0000
,
3003
0000
0100
0010
2001
0000
3001
0200
,
0000
0310
1000
0002
0000
0000
0003
0000
,
0010
0100
1000
0002
0000
0103
0100
1000
,
1000
0001
0010
1010
0000
1100
0110
0011
,
0000
0000
0001
0000
1000
0010
1000
0010
0100
0000
0000
0000
0110
0000
0000
0000
,
0010
1000
0001
0000
0010
0000
0100
1000
0100
0000
0010
0100
0010
0000
0012
0000
,
0000
0000
0100
0000
1003
0000
0001
0000
0101
0000
0000
0000
0100
0010
0100
0010
,
1000
0000
0001
0000
0010
0000
0110
0000
0000
0000
0010
0001
0010
0001
1000
0001
,
0100
0000
0100
0000
0010
1000
0010
1000
0001
0000
0010
0100
1000
0000
0100
1000
,
0001
0000
0100
0001
1000
0000
1020
0000
0000
0000
0100
0000
0100
0000
1030
0000
,
0010
0100
0001
0000
1000
0000
0100
0010
0001
0000
0010
0100
1000
0000
0001
1000
,
0010
0000
1000
0001
0010
0000
0100
0000
0110
0000
1000
0000
0001
0000
2001
0000
,
0000
0000
0001
0000
3100
1000
0001
1000
0010
0000
0100
0000
0010
1000
0001
0000
,
0010
0000
0100
1000
0001
0000
0100
0010
1000
0000
1000
0100
0010
0000
0001
0000
,
0100
0000
1000
0000
0100
0000
0001
0000
0010
0001
0010
0001
2000
0000
0000
0000
,
3010
0000
1000
0001
0010
0100
1000
0000
0000
0000
0100
0000
0110
0000
0000
0000
,
0010
1001
0100
0000
1001
0000
1000
0010
,
0100
0001
1000
0001
0100
0000
0010
0000
1000
0000
0001
0000
0010
0000
0001
0000
,
1000
0100
0010
0100
1000
0000
0001
0000
0100
0000
0010
0000
1000
0000
0010
0000
,
0100
0001
0010
0001
0100
0000
0010
1000
0010
0000
0100
0000
0001
0000
1000
0000
,
0100
0010
0100
1000
0100
0000
0010
0001
1000
0000
0010
0100
0001
0000
0101
0000
,
0000
0000
0100
0001
1000
0000
1100
0000
0000
0000
0010
0000
1001
0000
0000
0000
,
0001
0100
0001
0100
0010
1000
0001
1000
0100
0000
0010
0001
1000
0000
1010
0000
,
0000
0000
0001
0010
0100
0000
0110
0000
0000
0000
0010
0001
1000
0000
1000
0000
,
0001
0100
0001
0100
0010
1000
0100
1000
0002
0000
0000
0000
0013
0000
1020
0000
,
0000
0130
0000
2100
0000
3010
0100
0120
,
0000
0000
1030
0000
0010
0000
0001
0000
0011
0000
0010
1000
0001
1000
0100
0010
,
0002
0000
0100
0000
2003
0000
0000
0000
3010
1000
0100
0000
0000
0000
1000
0010
,
0001
0000
0000
0000
;

//--------------- dance-double - forcednature ----------------
#NOTEDATA:;
#STEPSTYPE:dance-double;
#DESCRIPTION:forcednature;
#DIFFICULTY:Easy;
#METER:9;
#RADARVALUES:0,0,0,0,0;
#CREDIT:forcednature;
#NOTES:
00000000
00000000
00000000
00000000
,
00000000
00000000
00000000
00000000
,
00000000
00000000
00000000
00000000
,
00000000
00000000
00000000
00000000
,
00000000
00000000
00000000
00000000
00000000
00000000
00000000
00022000
,
00000000
00000000
00000000
00033000
,
00001000
01000000
00010000
01000000
,
00100000
00100000
10000000
00010000
,
10000000
01000000
10000000
00010000
,
00100000
00100000
00001000
00010000
,
00000010
00001000
00000010
00000100
,
00000001
00000001
00001000
00000010
,
00010000
00001000
00100000
00010000
,
10010000
00000000
00000000
01100000
00000000
00000000
10000000
00000000
,
01000000
10000000
00010000
00000000
,
00100000
00010000
10000000
00000000
,
00010000
01000000
00001000
00010000
,
00000010
00001000
00000010
00000000
,
00010000
00001000
00011000
00000000
,
00000100
00001000
00001100
00000000
,
00000001
00000010
00000001
00000100
,
00001000
00010000
00011000
00000000
,
00001000
01000000
00010000
01000000
,
00100000
00000000
10000000
00000000
00010000
01000000
00010000
00000000
,
10000000
01000000
00100000
00010000
,
00100000
00001000
00010000
00000000
,
00000010
00000010
00000000
00000000
00000000
00000000
00000100
00000100
,
00000000
00000000
00000001
00001000
,
00002002
00000000
00000000
00000000
,
00003003
00000000
00000001
00000100
,
00001000
00010000
01000000
10000000
,
00000000
00100000
00000000
00100000
00000000
00000000
01000000
00000000
,
10010000
10000000
01000000
00010000
,
00001000
00000000
00100000
00000000
00010000
00000000
00100000
00010000
,
00100000
00001000
00010000
00000010
,
00001000
00000000
00000010
00000000
00000100
00000000
00000001
00001000
,
00000001
00000010
00000100
00001000
,
00000100
00000000
00010000
00000000
00001000
00000000
00100000
00010000
,
00100000
00001000
00010000
00001000
,
00000000
01000000
00000000
01000000
00000000
01000000
00000000
00000000
,
00100000
10000000
00010000
10000000
,
01000000
00000000
00100000
01000000
00100000
00000000
00010000
00000000
,
00100000
00001000
00010000
00000010
,
00001000
00000000
00000001
00000100
00000001
00000000
00000010
00000000
,
00000110
00000100
00010000
00001000
,
00011000
00010000
00001000
01000000
,
00010000
10000000
00010000
00000000
00100000
00000000
01000000
00000000
,
00000000
10000000
00000000
00000000
00010000
00000000
00000000
00000000
,
00010000
01000000
00000000
00010000
01000000
00000000
00001000
00010000
,
00000000
00001000
00010000
00000000
00000000
00000000
00000000
00000000
,
00000100
00001000
00000100
00000010
,
00000001
00001000
00000010
00000100
,
00000001
00001001
00000110
00001000
,
00000100
00010000
00001000
01000000
,
00010000
10000000
01000000
01100000
,
10010000
10000000
00100000
01000000
,
00010000
00100000
00001000
00010000
,
00000010
00000110
00001001
00001000
,
00000100
00000000
00010000
00000000
00001000
00010000
00001000
00000000
,
00010000
00001000
02000000
00000000
,
00000000
03000000
00010000
10000000
,
00100000
01000000
00010000
00100000
,
01000000
00010000
00001000
00000020
,
00000000
00000030
00000100
00001000
,
00000001
00001000
00000010
00000010
,
00000010
00000100
00000001
00000001
,
00001000
00000000
00000001
00002000
00000000
00000000
00000000
00000000
,
00000000
00003000
00000200
00000000
,
00000000
00000300
00020000
00000000
,
00000000
00030000
00002000
00000000
,
00000000
00000000
00003000
00100000
00000000
00100000
00000000
00100000
,
00000000
00000000
00010000
10000000
,
00100000
10000000
00010000
01000000
,
00010000
01000000
00010000
00000000
01000000
00000000
00001000
00000000
,
00010000
00000000
00000000
00001000
00000000
00001000
00000000
00001000
,
00000000
00010000
00000100
00001000
,
00000100
00000000
00000010
00000000
00000001
00000000
00000010
00000001
,
00000010
00000001
00001000
00000010
,
00001000
00000000
00000100
00000000
00010000
00000000
00001000
00010000
,
00001000
01000000
10010000
10000000
,
01000000
00100000
10010000
00010000
,
01000000
00000000
00001000
00000000
00010000
00001000
00010000
00000000
,
00000010
00000000
00001000
00000001
00000000
00000001
00001000
00000000
,
00001000
00000001
00000000
00000000
00000100
00000000
00001000
00000000
,
00010000
00100000
01000000
00010000
,
10000000
00100000
10000000
00000000
01000000
00000000
00010000
00000000
,
00001000
00000010
00000001
00001000
,
00000100
00001000
00000100
00000000
00010000
00000000
00001000
00000000
,
01000000
00010000
00100000
01100000
,
01000000
10010000
00010000
01000000
,
00001000
00010000
00000010
00000110
,
00000100
00000000
00001001
00000000
00001000
00000000
00000000
00000100
,
00000000
00000100
00000000
00010000
00000000
00000000
00001000
00000000
,
01000000
00010000
00000000
10000000
,
01000000
00000000
00100000
00000000
00010000
10000000
00000000
10000000
,
00010000
00000000
00000000
00000000
;

//--------------- dance-double - forcednature ----------------
#NOTEDATA:;
#STEPSTYPE:dance-double;
#DESCRIPTION:forcednature;
#DIFFICULTY:Medium;
#METER:13;
#RADARVALUES:0,0,0,0,0;
#CREDIT:forcednature;
#NOTES:
00000000
00000000
00000000
00000000
,
00000000
00000000
00000000
00000000
,
00000000
00000000
00000000
00000000
,
00000000
00000000
00000000
00000000
,
00011000
00000000
00000000
00000000
01000000
00000000
00000000
20020000
,
00000000
00000000
00000000
30030000
,
10000000
01000000
00010000
01000000
10000000
00010000
00100000
00000000
,
00001000
00010000
00000010
00000000
00010000
00001000
00000010
00000000
,
00000001
00000100
00001000
00000100
00000001
00001000
00000010
00000000
,
00010000
00001000
00000010
00000000
00001000
00010000
00100000
00000000
,
01000000
10000000
01000000
00010000
10000000
00100000
10000000
00000000
,
01000000
00010000
00001000
00000000
00000100
00001000
00010000
00000000
,
00001000
00000010
00000001
00000100
00000001
00000010
00001000
00000000
,
00011000
00000000
00010000
00100000
00000000
00100000
20000000
00000000
,
31000000
00000000
00010000
01000000
00000000
10000000
00010000
00100000
,
00000000
00001000
00010000
00001000
00000000
00010000
00000010
00001000
,
00000020
00000000
00000130
00000000
00000001
00001000
00000010
00001000
,
00000001
00000000
00000011
00000000
00000010
00000100
00010000
00001000
,
00100000
00000000
00010000
01000000
00001000
01000000
00010000
00000000
,
10000000
01000000
00010000
00001000
00000000
00100000
00010000
00100000
,
00000000
00001000
00010000
00000010
00010000
00001000
00000010
00000000
,
00000100
00000100
00000000
00000110
00000000
00000001
00001000
00000000
,
00001001
00000000
00000001
00000100
00000010
00001000
00000010
00010000
,
00001000
00000000
00100000
00010000
00100000
01000000
10000000
00010000
,
10000000
00000000
00100000
10000000
01000000
00010000
00001000
00200000
,
00000000
00010000
00310000
00000000
01100000
00000000
10010000
00000000
,
10000000
00010000
00000000
00000000
00000000
00000000
00001000
00000001
,
00000000
00000000
00000100
00000110
,
00002001
00000000
00000000
00000000
00000100
00000000
00000000
00000100
,
00000000
00000100
00003100
00000000
00000010
00000000
00011000
00000000
,
01000000
00010000
00100000
00001000
00010000
00000010
00001000
00000100
,
00000000
00000010
00000100
00002002
00000000
00000000
00003003
00000000
,
00000001
00000100
00001000
00010000
00000010
00001000
00000010
00010000
,
00000000
00001000
00100000
00010000
00100000
01000000
10000000
00100000
,
00000000
10000000
01000000
00010000
00000000
00001000
00000010
00000001
,
00000000
00001000
00000010
00000100
00000001
00000100
00000010
00000000
,
00001001
00000000
00001000
00000100
00010000
00001000
00010000
00000010
,
00000000
00000100
00001000
00010000
00000000
00001000
00010000
00100000
,
00010000
00000000
00001000
01000000
00010000
01000000
00000000
10010000
,
00000000
10000000
01000000
00010000
00001000
00000100
00000002
00000000
,
00000013
00000100
00001000
00000100
00010000
00001000
00000010
00000001
,
00000000
00000100
00001000
00000100
00000001
00001000
00000010
00010000
,
00000000
00001000
00100000
01000000
00000000
00100000
00001000
00010000
,
00000000
00100000
10000000
01000000
10000000
00100000
00010000
00000000
,
00011000
00000000
00001000
00000010
00000001
00000100
00000001
00000010
,
00000000
00001000
00010000
00011000
00000000
01000000
00010000
10000000
,
00100000
00000000
00000000
00100000
20000000
00000000
00000000
00000000
01000000
00000000
00000000
00000000
30010000
00000000
10000000
00000000
,
00000000
01000000
00010000
00000000
00010000
00001000
00000000
00000000
,
00000010
00000001
00000000
00000100
00001000
00000000
00010000
01000000
,
00000000
00000000
10000000
00000000
00100000
00000000
00000000
00000000
01000000
00000000
00000000
01000000
00000000
00000000
01000000
00000000
,
00000000
10000000
01000000
00010000
00001000
00100000
00010000
00100000
,
00001000
00010000
00000010
00000000
00000110
00000000
00001001
00000000
,
00000001
00000010
00001000
00010000
00000000
00001000
00000010
00000001
,
00000100
00000001
00000010
00001000
00000000
00010000
00001000
00000000
,
00011000
00000000
00010000
00100000
10000000
01000000
10000000
00100000
,
00000000
10000000
01000000
00010000
00001000
00010000
01000000
10000000
,
00000000
00100000
00010000
00000000
00011000
00000000
00001000
00000010
,
00000001
00000100
00000001
00000010
00000000
00000100
00001000
00000100
,
00010000
00001000
01000000
00010000
01000000
01000000
00100000
00100000
,
10000000
01000000
00100000
00001000
00020000
00000000
00000000
00000000
,
00000000
00000000
00030000
00000000
00001000
00000010
00000100
00000010
,
00000001
00000000
00000000
00000010
00000000
00000000
00000100
00000000
00000000
00000000
00000000
00000000
00010000
00000000
00000000
00000000
00010000
00000000
00001000
00000000
00000000
00000000
00001000
00000000
,
01000000
00000000
01000000
00010000
00000000
00010000
20000000
00000000
00000000
30200000
00000000
00000000
,
01000000
00000000
10000000
10300000
00000000
00100000
10000000
01000000
,
00010000
00001000
00000010
00000000
00000100
00001000
00000100
00010000
,
00001000
00010000
00000010
00000000
00000110
00000000
00000100
00000100
,
00000001
00000000
00000000
00000001
00001000
00000000
00000020
00000000
00000000
00000000
00000000
00000000
00000000
00000000
00000000
00000000
,
00000000
00000000
00000030
00000000
00012000
00000000
00000000
01000000
,
00000000
01000000
00000000
02000000
00000000
00000000
03003000
00000000
,
01000000
00010000
01000000
00200000
00000000
20300000
00000000
30200000
,
00300000
01000000
00000000
10010000
00000000
10000000
01000000
00020000
,
00000000
00000000
00030000
00000000
00011000
00000000
00001000
00000010
,
00000001
00000010
00000100
00002000
00000000
00003010
00010000
00002000
,
00000000
01003000
00010000
00100000
02000000
00000000
03010000
01000000
,
10000000
00100000
00000000
10010000
00000000
10000000
01000000
00010000
,
00001000
00000100
00000002
00000000
00000013
00000100
00001000
00000100
,
00010000
00001000
01000000
00010000
00000000
00100000
01000000
00010000
,
01000000
00100000
00001000
00010000
00000000
00000100
00010000
00001000
,
00000000
00000010
00000001
00000100
00001000
00000100
00000001
00000020
,
00000000
00000130
00010000
00001000
00100000
00000000
00001000
00010000
,
00100000
01000000
00100000
10000000
00000000
01000000
00010000
01000000
,
00100000
00001000
00010000
00000100
00001000
00000010
00020000
00000000
,
00001000
00031000
00000000
00011000
00000000
00010000
00100000
00000000
,
00100000
10000000
00000000
00000000
10010000
00000000
10000000
01000000
,
00010000
01000000
00100000
00001000
00010000
00000100
00010000
00001000
,
00000010
00000001
00000100
00000001
00000010
00000000
00000001
00000100
,
00001000
00000100
00000001
00001000
00000010
00000100
00001000
01000000
,
00010000
10000000
00100000
00000000
01100000
00000000
01000000
00020000
,
00000000
10030000
01000000
00020000
00000000
00031000
00002000
00000000
,
00003010
00000100
00001000
00000000
00000001
00000100
00001000
00010000
,
00000000
00000010
00000000
00001001
00000000
00000001
00000010
00001000
,
00010000
01000000
20000000
00000000
30100000
00000000
10000000
01000000
,
00000000
01100000
00000000
10010000
00000000
10000000
01000000
00010000
,
00000000
00001000
00000010
00000001
00000000
00000100
00000001
00001000
,
00000010
00000000
00000000
00000000
00010000
00000000
00000000
00000000
00001000
00010000
00001000
00000000
00000000
00000000
00010000
00001000
,
00010000
00000000
00000000
00000000
;

//--------------- dance-double - forcednature ----------------
#NOTEDATA:;
#STEPSTYPE:dance-double;
#DESCRIPTION:forcednature;
#DIFFICULTY:Hard;
#METER:17;
#RADARVALUES:0,0,0,0,0;
#CREDIT:forcednature;
#NOTES:
00000000
00000000
00000000
00000000
,
00000000
00000000
00000000
00000000
,
00000000
00000000
00000000
00000000
,
00000000
00000000
00000000
00000000
,
00011000
00000000
00010000
00001000
00000010
00000000
00000100
00002002
,
00000000
00000000
00000000
00000000
00000000
00000000
00000000
00000000
00000000
00000000
00000000
00000000
00003003
00000000
00000000
00001000
,
00000001
00001000
00000100
00000000
00001000
00000100
00010000
00001000
00000000
00010000
00001000
00000000
01000000
00010000
01000000
00100000
,
00000000
01000000
00100000
00000000
10000000
00100000
10000000
00100000
00000000
01000000
00000000
00010000
01000000
00010000
00000000
01000000
,
00001000
00010000
00001000
00000000
00010000
00000010
00001000
00000010
00000000
00000100
00000010
00000000
00000100
00000001
00000100
00000010
,
00000000
00001000
00000010
00000000
00001000
00000100
00001000
00000000
00000100
00010000
00000100
00000000
00001000
00000100
00010000
00000000
,
00001000
00010000
00001000
00000000
01000000
00010000
01000000
00100000
00000000
01000000
00100000
00000000
10000000
00100000
10000000
00010000
,
00000000
00100000
00010000
00000000
00100000
00001000
00010000
00000000
00001000
00010000
00000100
00000000
00010000
00001000
00010000
00000000
,
00000010
00000000
00001000
00000010
00000100
00000010
00000100
00000001
00001000
00000010
00001000
00000000
00000001
00000010
00000001
00000000
,
00000100
00000000
00001000
00000000
00010000
00000000
00011000
00000000
00000000
00001000
00010000
00001000
00200000
00000000
00000000
00000000
,
00310000
01000000
10000000
01000000
00100000
10000000
01000000
00010000
,
00001000
00100000
00001000
00000010
00000100
00010000
00001000
00000010
,
00000002
00000000
00000103
00000000
00001010
00000000
00010000
00001000
,
00000010
00000000
00001000
00000000
00010000
00000000
00000100
00000000
00010000
00000000
00001000
00000000
00010000
00001000
00100000
00010000
,
00100000
00000000
00010000
00100000
01000000
00000000
20000000
00000000
00000000
00000000
00100000
00000000
30100000
00000000
00000000
00000000
,
10000000
01000000
00010000
00001000
00000000
00011000
00000000
00010200
,
00000000
00000000
00001000
00000000
00001300
00000000
00000000
00000000
00000100
00000000
00000010
00000000
00000001
00000010
00000001
00002000
,
00000100
00000000
00000100
00000000
00000000
00000000
00000001
00000000
00000010
00000000
00003010
00001000
00000001
00000000
00000000
00000000
,
00001000
00000010
00000100
00001000
01000000
00010000
00100000
02000000
,
00010000
00000000
23000000
00000000
30100000
01000000
10010000
00000000
,
10000000
01000000
00010000
00001000
00000100
00000001
00000010
00000200
,
00001000
00000000
00000000
00000000
00010300
00000000
00000000
00000000
00011000
00000000
00000000
00000000
00001000
00010000
00001000
00010000
,
00001000
01000000
00000000
00002000
00000000
00003000
00010000
00000100
,
00000000
00000000
00020100
00000000
00000000
00000000
00030000
00000000
00001000
01000000
00000000
00010000
01000000
00000000
00100000
10000000
,
00020000
00000000
00000000
00000000
00100000
00000000
00000000
10000000
,
00000000
10000000
10030000
00000000
00010000
00100000
01000000
00010000
,
00001000
00000000
00000000
00000000
00011000
00000000
00000000
00000000
00010000
00000100
00001000
00000100
00000010
00000000
00000110
00000000
,
00000000
00000001
00000100
00002000
00000000
00003000
00010000
00001000
,
00010000
00000000
00001000
01000000
00010000
00000000
01000000
00010000
01000000
00000000
00100000
01000000
00100000
00000000
20000000
00000000
,
00000000
01000000
31000000
10000000
01000000
00010000
00001000
00100000
,
00010000
00000000
00100000
00010000
00100000
00000000
00010000
00100000
00001000
00000000
00010000
00001000
00010000
00000000
00001000
00010000
,
00000010
00000000
00001000
00000010
00001000
00000000
00000002
00000000
00000000
00000000
00000000
00000000
00000013
00000100
00000010
00000100
,
00001000
00000000
00000000
00000000
00000011
00000000
00000000
00000000
00000001
00000000
00000100
00000000
00001000
00000000
00010000
00001000
,
00010000
00000000
00001000
01000000
00010000
00000000
02000000
00000000
00000000
00000000
00100000
00000000
03100000
00000000
00000000
00000000
,
10010000
00000000
00000000
00000000
10000000
01000000
10000000
01000000
00100000
00000000
00010000
00000000
00100000
00000000
00101000
00000000
,
00000000
00000000
00001000
00010000
00001000
00010000
00000100
00001000
00000100
00000000
00000010
00000000
00000001
00001000
00000001
00001000
,
00000010
00000000
00000100
00000000
00000001
00000000
00000100
00000010
00000100
00000000
00000010
00001000
00000010
00000000
00020000
00000000
,
00000000
00000000
00001000
00000000
00001000
00000000
00030000
00000000
00001000
00010000
00001000
00000000
01000000
00000000
00010000
01000000
,
00100000
00000000
01000000
00100000
10000000
00000000
00100000
01000000
00010000
00000000
01000000
00000000
00001000
00000000
00021000
00000000
,
00000000
00000000
00000010
00000000
00030010
00000000
00010000
00000000
00001000
00000000
00010000
00000000
00000100
00001000
00000100
00001000
,
00000100
00000000
00000010
00000000
00000001
00000010
00000001
00000000
00000010
00000000
00000100
00000010
00000100
00000000
00000010
00000100
,
00001000
00000000
00000100
00001000
00000100
00000000
00010000
00000000
00001000
00000000
01000000
00000000
00010000
00000000
01000000
00000000
,
00100000
10000000
00100000
10000000
00020000
00000000
00000000
00000000
01030000
00000000
00010000
01000000
00001000
00010000
00001000
00000000
,
00000000
00000010
00000010
00000000
00000100
00001001
00000000
00000000
,
00000001
00000100
00000000
00001000
00010000
00000000
00100000
01100000
,
00000000
00000000
01000000
00000000
10010000
00000000
00000000
00000000
10000000
01000000
00000000
00100000
01000000
00000000
00100000
00010000
,
10000000
00000000
00100000
00000000
00010000
00000000
00000000
00000000
00011000
00000000
00000000
00010100
00000000
00000000
00001100
00000000
,
00000000
00000000
00001000
00000000
00000010
00000000
00000100
00000000
00000010
00000100
00000001
00000000
00001000
00000000
00000100
00000000
,
00000001
00000100
00001000
00001010
00000000
00010000
00001000
00000000
,
00011000
00000000
00000000
01001000
00000000
00000000
01010000
00000000
00000000
00000000
00010000
00000000
00100000
00000000
01000000
00000000
,
00100000
01000000
10000000
00000000
00010000
00000000
01000000
00000000
10000000
00000000
01000000
00000000
00010000
00000000
00110000
00000000
,
00000000
00000000
01000000
00000000
00001000
00000000
00000000
00000000
00011000
00000000
00000000
00010010
00000000
00000000
00001010
00000000
,
00000000
00000000
00001000
00000000
00000100
00000000
00000010
00000000
00000100
00000010
00000001
00000000
00001000
00000000
00000010
00000000
,
00000001
00000010
00001000
00001100
00000000
00010000
00001000
00010000
,
00100000
00000000
01000000
00000000
00100000
00000000
10000000
00000000
00100000
10000000
00100000
00000000
10000000
00010000
10000000
00000000
,
00010000
01000000
00010000
01000000
00001000
00010000
00001000
00010000
00000020
00000000
00000000
00000000
00001000
00000000
00000000
00000000
,
00000100
00000000
00001030
00000002
00000000
00000023
00000230
00020300
,
00032000
00000000
00000000
00203000
00000000
00000000
02300000
00000000
00000000
23000000
00000000
00000000
31000000
00000000
10000000
00000000
01000000
00000000
10000000
00000000
00100000
00000000
10000000
00000000
,
00100000
01000000
00100000
01000000
00010000
01000000
00020000
00000000
00000000
00100000
00000000
00000000
,
01030000
00000000
00000000
00000000
00000000
00000000
00000000
00000000
00000000
00000000
00000000
00000000
00001000
00000000
00000000
00010000
00000000
00000000
00001000
00000000
00000000
00010000
00000000
00000000
00001000
00000000
00000000
00000000
00010000
00000000
00000000
00000000
00001000
00000000
00000000
00000000
00010000
00000000
00000000
00000000
00000100
00000000
00000000
00000000
00001000
00000000
00000000
00000000
,
00000100
00001000
00000100
00000000
00000010
00000100
00000010
00000000
00000001
00000010
00000100
00000010
00000001
00000000
00000010
00000100
,
00001000
00000100
00010000
00001000
00011000
00000000
00010000
01000000
,
10000000
00000000
00000000
00100000
10000000
00000000
00020000
00000000
00000000
00000000
00000000
00000000
00000000
00000000
00000000
00000000
,
00030000
00000000
00100000
01000000
00020000
00000000
00031000
00000020
,
00000000
00000130
00001000
00000002
00000000
00000000
00000003
00000000
,
00000100
00001000
00010000
00200000
00000000
01300000
00100000
10000000
,
00010000
10000000
01000000
01100000
00000000
01000000
00010000
00000100
,
00000000
00000000
00000000
00000000
00010000
00001000
00010000
00001000
00010000
00000000
00000000
00000000
00001010
00000000
00000000
00000000
,
00000010
00000100
00000010
00000000
00000100
00000000
00000001
00000100
00000001
00000000
00001000
00000001
00001000
00000000
00000200
00000000
,
00000000
00000000
00010000
00000000
00010300
00000000
00000100
00000000
00001000
00000000
00000000
00000000
00000010
00001000
00000010
00001000
,
00000001
00000000
00000100
00000000
00001000
00000000
00010000
00000000
00000000
00000000
00010000
00001000
00010000
00001000
01000000
00010000
,
01000000
00000000
00100000
00000000
01000000
00100000
01000000
00100000
10000000
00000000
00100000
10000000
00100000
00000000
10000000
00010000
,
01000000
00000000
00010000
01000000
00010000
00000000
00200000
00000000
00000000
00000000
01000000
00000000
01000000
00000000
00300000
00000000
,
00100000
01000000
00100000
00000000
01000000
00000000
00100000
00010000
00100000
00000000
00010000
00100000
00001000
00000000
00010000
00001000
,
00010000
00000000
00000010
00000000
00001000
00000000
00000100
00001000
00000100
00000000
00000010
00000000
00000001
00000000
00000200
00000000
,
00000000
00000000
00000310
00000000
00000100
00000010
00000100
00000010
00001000
00000000
00000100
00000000
00001000
00000100
00001000
00000000
,
00000100
00000000
00001000
00000100
00010000
00000000
00001000
00010000
00001000
00000000
00010000
00001000
01000000
00000000
00010000
00000000
,
00100000
00000000
01000000
00000000
00100000
00000000
00010000
00000000
00100000
01000000
10000000
01000000
20000000
00000000
00000000
00000000
,
30100000
00000000
10000000
00010000
10000000
00010000
01000000
00000000
00000000
00000000
00100000
00000000
00010000
00000000
00000000
00000000
,
00010000
00001000
00000000
00000000
00011000
00000000
00010000
00000100
,
00001000
00000100
00010000
00001000
00010000
00000000
00000100
00000000
00001000
00000000
00000010
00000000
00000100
00000000
00000010
00000000
,
00001000
00000001
00000100
00000001
00002000
00000000
00000000
00000000
00003010
00000000
00010000
00000000
00001000
00000000
00010000
00000000
,
00000100
00001000
00000100
00010000
00001000
00000000
00010000
00001000
00010000
00000000
00001000
00000000
01000000
00000000
00010000
00000000
,
01000000
00100000
10000000
00100000
01000000
00000000
00100000
01000000
00010000
00000000
10000000
00000000
01000000
00000000
00010000
00000000
,
00000000
00000000
00001000
00010000
00001000
00000000
00011000
00000000
00000000
00000000
00001000
00000000
00000020
00000000
00000000
00000000
,
00000130
00000010
00000100
00000010
00000001
00000010
00000001
00000010
00000100
00000000
00001000
00000000
00000001
00000000
00000100
00000000
,
00000000
00000000
00001000
00000000
00010000
00000000
00011000
00000000
00000000
00000000
00010000
00001000
00010000
00000000
00001000
00000000
,
01000000
00010000
01000000
00010000
10000000
00100000
10000000
00100000
20000000
00000000
00000000
00000000
31000000
00000000
00020000
00000000
,
00000000
00031000
00000000
00012000
00000000
00003010
00000100
00002000
,
00000000
00000000
00003001
00000000
00000100
00000000
00001000
00000000
00010000
00000000
00000000
00000000
00001000
00010000
00001000
00010000
,
00000020
00000000
00000000
00000000
00002030
00000000
00000000
00000000
00003001
00000010
00000100
00000000
00000000
00000000
00000010
00000100
,
00001000
00000000
00000000
00000000
;
