#VERSION:0.83;
#TITLE:ICARUS;
#SUBTITLE:;
#ARTIST:Eagle;
#TITLETRANSLIT:;
#SUBTITLETRANSLIT:;
#ARTISTTRANSLIT:;
#GENRE:NU-SKOOL BREAKBEATS HARDCORE;
#CREDIT:;
#MUSIC:ICARUS.ogg;
#BANNER:ICARUS.png;
#BACKGROUND:ICARUS-bg.png;
#CDTITLE:./CDTitles/bm IIDX 15 DJ TROOPERS.png;
#SAMPLESTART:33.049;
#SAMPLELENGTH:15.000;
#SELECTABLE:YES;
#OFFSET:1.021;
#BPMS:0.000=176.000
,168.000=126.000
,204.000=131.000
,212.000=136.000
,220.000=141.000
,224.000=146.000
,228.000=151.000
,232.000=156.000
,236.000=161.000
,240.000=166.000
,244.000=171.000
,248.000=176.000
,252.000=181.000
,254.000=186.000
,256.000=191.000
,258.000=196.000
,260.000=201.000
,264.000=211.000
,268.000=221.000
,272.000=231.000
,276.000=241.000
,280.000=251.000
,284.000=176.000
;
#STOPS:;
#TIMESIGNATURES:0.000=4=4;
#DISPLAYBPM:126.000:176.000;
#BGCHANGES:0.000=../BGAs/military.mp4=1.000=0=0=0=StretchNoLoop====,
99999.000=-nosongbg-=1.000=0=0=0=StretchNoLoop====
;
#FGCHANGES:;

//--------------- dance-single - forcednature ----------------
#NOTEDATA:;
#STEPSTYPE:dance-single;
#DESCRIPTION:forcednature;
#DIFFICULTY:Beginner;
#METER:5;
#RADARVALUES:0,0,0,0,0;
#CREDIT:forcednature;
#NOTES:
0000
0000
0000
0000
,
0000
0000
0000
0000
,
0000
0000
0000
0000
,
0000
0000
0000
0000
,
0000
0000
0000
0000
,
0000
0000
0000
0000
,
0000
0000
0000
0000
,
0000
0000
0000
0000
,
0010
0000
0000
0000
,
0100
0000
0000
0000
,
1001
0000
0000
0000
,
1000
0000
0000
0000
,
0100
0000
0000
0000
,
1000
0000
0000
0000
,
0001
0000
0000
0000
,
0100
0000
0000
0000
,
0001
0000
0000
0000
,
0010
0000
0000
0000
,
0110
0000
0000
0000
,
0100
0000
0000
0000
,
1000
0000
0000
0000
,
0001
0000
0000
0000
,
0100
0000
0100
0000
,
0010
0000
0010
0000
,
1000
0000
1000
0000
,
0002
0000
0000
0003
,
1001
0000
0000
0000
,
1000
0000
0100
0000
,
0010
0000
0000
0000
,
0100
0000
1000
0000
,
0001
0000
0000
0000
,
0100
0000
0010
0000
,
1000
0000
0000
0000
,
0001
0001
0001
0000
,
1001
0000
0000
0000
,
1000
0000
0001
0000
,
0100
0000
0000
0000
,
0010
0000
1000
0000
,
0001
0000
0000
0000
,
0010
0000
0100
0000
,
0220
0000
0000
0000
,
0000
0000
0330
0000
,
2002
0000
0000
0000
,
3003
0000
0000
0000
,
0000
0000
0000
0000
,
0000
0000
0000
0000
,
0000
0000
0000
0000
,
2002
0000
0000
0000
,
3003
0000
0000
0000
,
0000
0000
0000
0000
,
0000
0000
0000
0000
,
1001
0000
0000
0000
,
0100
0000
0000
0000
,
1001
0000
0000
0000
,
0010
0000
0000
0000
,
1001
0000
0000
0000
,
1001
0000
0000
0000
,
1001
0000
0000
0000
,
0100
0000
0010
0000
,
1001
0000
0000
0000
,
0110
0000
0000
0000
,
1001
0000
0000
0000
,
0110
0000
0000
0000
,
1000
0000
1000
0000
,
0001
0000
0001
0000
,
1000
0000
1000
0000
,
0001
0000
0001
0000
,
0100
0000
0010
0000
,
0100
0000
0010
0000
,
1000
0000
0001
0000
,
1000
0000
0001
0000
,
2002
0000
0000
0000
,
3003
0000
0000
0000
,
0001
0000
0100
0000
,
0001
0000
0100
0000
,
0010
0000
0000
0000
,
1000
0000
1000
0000
,
1000
0000
0100
0000
,
1000
0000
0100
0000
,
0010
0000
0010
0000
,
0001
0000
0001
0000
,
0100
0000
0001
0000
,
0100
0000
0010
0000
,
1000
0000
0010
0000
,
1000
0000
0001
0000
,
1000
0000
0100
0000
,
0010
0000
0100
0000
,
2002
0000
0000
0000
,
0000
0000
0000
0000
,
3003
0000
0000
0000
;

//--------------- dance-single - forcednature ----------------
#NOTEDATA:;
#STEPSTYPE:dance-single;
#DESCRIPTION:forcednature;
#DIFFICULTY:Easy;
#METER:10;
#RADARVALUES:0,0,0,0,0;
#CREDIT:forcednature;
#NOTES:
0000
0000
0000
0000
,
0000
0000
0000
0000
,
0000
0000
0000
0000
,
0000
0000
0000
0000
,
0000
0000
0000
0000
,
0000
0000
0000
0000
,
0002
0000
0003
0000
,
2000
0000
3000
0000
,
0010
0000
0000
0010
0000
0000
0010
0000
,
0200
0000
0000
0300
,
2002
0000
0000
3003
,
2000
0000
3100
0000
,
0020
0000
0130
0000
,
0020
0000
0031
0000
,
0200
0000
0310
0000
,
2000
0000
3001
0000
,
0020
0000
0130
0000
,
2002
0000
0000
3003
,
1000
0100
1000
0010
,
0100
0001
0010
0001
,
0100
0010
1000
0001
,
0010
0100
1000
0001
,
0100
0100
0010
0010
,
1000
1000
0001
0001
,
0010
0100
0010
0000
0100
0010
0100
0000
,
1000
0000
0000
0001
0000
0000
0200
0000
0000
0000
0000
0000
0310
0000
0000
0000
,
0100
0000
0001
0000
0100
0010
0100
0000
,
0010
0000
1000
0000
0010
0100
0010
0000
,
1000
0000
0001
0000
0010
0001
0010
0000
,
0001
0000
1000
0000
0100
1000
0100
0000
,
1000
0000
0001
0000
0100
0010
0100
0000
,
0001
0000
1000
0000
0100
0010
0100
0000
,
1000
0000
0001
0000
0010
0100
0010
0000
,
0001
0000
0000
0001
0000
0000
0001
0000
1000
0000
0000
1000
0000
0000
1000
0000
,
0010
0000
0100
0000
0001
0100
0010
0000
,
1000
0000
0100
0000
0010
0100
1000
0000
,
0001
0000
0100
0000
0010
1000
0001
0000
,
1000
0000
0100
0000
0010
0001
1000
0000
,
0010
0000
0100
0000
0001
0010
0100
0000
,
0010
0000
0100
0000
1000
0010
0100
0000
,
1002
0000
0000
0100
0000
0000
0010
0000
,
0000
0010
0003
0000
,
2002
0000
0000
0000
,
3003
0000
0000
0000
,
0000
0000
0000
0000
,
0000
0000
0000
0000
,
0000
0000
0000
0000
,
0220
0000
0000
0000
,
0330
0000
0000
0000
,
0000
0000
0000
0000
,
0000
0000
0000
0000
,
1001
0000
0000
1000
0000
1000
0001
0000
,
1001
0000
0000
0000
0000
0000
0001
0000
0000
0000
0001
0000
0000
0001
0000
0000
,
0110
0000
0000
0010
0000
0010
0100
0000
,
0110
0000
0000
0010
0000
0010
0000
0000
,
1001
0000
0001
1000
0000
1000
0001
0000
,
0110
0000
0000
0000
0100
0000
0010
0000
0000
0000
0010
0000
0000
0010
0000
0000
,
1001
0000
1000
0001
0000
0001
1000
0000
,
0010
0000
0000
0010
0000
0000
0100
0000
0010
0000
0000
0010
0000
0000
0100
0000
,
0001
0000
1000
0100
1000
0000
0001
0100
,
0001
0000
1000
0010
1000
0000
0001
0010
,
0001
0000
0100
0010
0100
0000
0100
0000
,
0001
0000
1000
0001
1000
0000
1000
0000
,
1001
0010
1001
0100
,
0110
1000
0110
0001
,
1000
0000
0100
0000
1000
0000
0100
0010
,
0100
0000
0010
0001
0010
0000
0001
1000
,
0001
0000
0100
0001
0100
0000
0001
0010
,
0001
0000
1000
0010
1000
0000
0100
0000
,
1000
0001
1000
0000
0001
1000
0001
0000
,
0100
0010
0100
0000
0010
0100
0010
0000
,
2002
0000
0000
3003
,
2000
3200
0320
0031
,
0100
0000
0001
0100
0010
1000
0001
0000
,
0010
0000
0001
0010
0100
1000
0001
0000
,
0100
0010
1000
0001
,
0010
0100
0010
0000
0100
0000
0010
0100
,
0010
0000
0001
1000
0100
0010
0001
0000
,
0100
0000
0001
1000
0010
0100
0001
0000
,
1000
0100
1000
0100
0010
0000
0001
0000
,
0100
0010
0100
0010
0100
0010
0100
0000
,
0001
0000
0010
0001
1000
0001
0100
0000
,
0010
0000
1000
0100
0010
0100
1000
0000
,
0001
0000
0100
0010
0100
0001
0010
0000
,
0100
0000
1000
0001
0100
0010
1000
0000
,
0100
0000
0010
0100
1000
0001
0100
0000
,
0010
0000
1000
0001
0010
0100
1000
0000
,
2002
0000
0000
0000
,
0000
0000
0000
0000
,
3003
0000
0000
0000
;

//--------------- dance-single - forcednature ----------------
#NOTEDATA:;
#STEPSTYPE:dance-single;
#DESCRIPTION:forcednature;
#DIFFICULTY:Medium;
#METER:14;
#RADARVALUES:0,0,0,0,0;
#CREDIT:forcednature;
#NOTES:
0000
0000
0000
0000
,
0000
0000
0000
0000
,
0000
0000
0000
0000
,
0000
0000
0000
0000
,
0000
0000
0000
0000
,
0000
0000
0000
0000
,
0002
0000
0003
0000
,
0200
0000
0300
0000
,
0110
0000
0000
0110
0000
0000
0110
0000
,
0002
0000
1000
1003
,
0002
0000
0100
0100
,
2003
0000
0100
0100
,
3002
0000
0010
0010
,
2003
0000
0010
0010
,
3002
0100
1000
0100
,
2003
0100
0001
0100
,
3002
0010
1000
0010
,
2003
0010
0001
3010
,
1000
0100
0010
0100
1000
0100
0010
0000
,
0001
0100
0010
0100
0001
0100
0010
0000
,
1000
0001
0010
0001
1000
0001
0010
0000
,
0001
1000
0010
1000
0001
1000
0010
0000
,
1000
0100
0010
0100
1000
0010
0100
0010
,
1000
0001
0010
0001
0100
0010
0100
0001
,
0010
0010
0100
0100
1000
1000
0001
0001
,
0100
0000
0000
0110
0000
0000
0010
0000
1000
0000
0100
0000
0001
0000
0000
0000
,
0100
0000
0000
1000
0100
0000
0010
0000
0000
0001
0010
0000
0001
0000
1000
0000
,
0010
0000
0000
0100
0001
0000
0010
0000
0000
0100
1000
0000
0001
0000
0100
0000
,
0010
0000
0000
1000
0100
0000
1000
0000
0000
0010
0100
0000
0001
0000
1000
0000
,
0100
0000
0000
0010
0001
0000
0100
0000
0000
0010
0100
0000
0001
1000
0000
0000
,
0001
0000
0000
0010
0100
0000
0010
0000
0000
0001
1000
0000
0010
0000
0100
0000
,
0001
0000
0000
1000
0100
0000
1000
0000
0000
0001
0100
0000
0010
0000
1000
0000
,
0001
0000
0000
0010
0100
0000
0010
0000
0000
0001
0100
0000
0010
0000
1000
0000
,
1100
0000
0000
1100
0000
0000
0001
0000
0101
0000
0000
0101
0000
0000
1000
0000
,
0010
0000
0000
0100
0001
0000
0010
0000
0000
0100
1000
0000
0001
0000
0100
0000
,
0010
0000
0000
1000
0001
0000
0010
0000
0000
0001
1000
0000
0010
0000
0100
0000
,
0001
0000
0000
0010
0100
0000
0010
0000
0000
0001
0100
0000
0010
0000
1000
0000
,
0100
0000
0000
0010
0100
0000
1000
0000
0000
0001
0100
0000
0010
1000
0000
0000
,
0001
0000
0000
0010
0100
0000
0010
0000
0000
0001
1000
0000
0010
0000
0100
0000
,
0010
0000
0000
1000
0001
0000
0010
0000
0000
0100
1000
0000
0001
0000
0100
0000
,
0120
0000
0000
1000
0000
0000
0100
0000
,
0000
0100
0030
0000
,
2002
0000
0000
0000
,
3003
0000
0000
0000
,
0000
0000
0000
0000
,
0000
0000
0000
0000
,
0000
0000
0000
0000
,
0220
0000
0000
0000
,
0330
0000
0000
0000
,
0000
0000
0000
0000
,
0000
0000
0000
0000
0010
0100
0010
0100
,
0110
0000
0001
1000
0000
1000
0001
0000
,
0110
0000
0000
0000
1000
0000
0001
0000
0000
0000
0100
0000
0000
0100
0000
0000
,
1001
0000
0001
0010
0000
1000
0010
0000
,
1001
0000
0000
0000
1000
0000
0010
0000
0000
0000
0001
0000
0000
0010
0100
0010
,
0100
0000
0001
0010
0000
0010
0100
0000
,
0110
0000
0000
0000
1000
0000
0010
0000
0000
0000
0100
0000
0000
0100
0000
0000
,
1001
0000
1000
0100
0000
0010
0001
0000
,
0101
0000
0000
0101
0000
0000
1000
0000
1100
0000
0000
1100
0000
0000
0001
0000
,
0010
0000
0001
0100
0101
0000
1000
0100
,
1100
0000
0001
0010
0011
0000
1000
0010
,
1010
0000
0001
1000
1001
0000
1100
0000
,
0101
0000
1000
0001
1001
0000
0011
0000
,
1010
1100
1010
1001
,
0011
0000
0101
0000
0011
0000
0001
0010
,
0100
0000
0110
0000
1001
0000
1000
0010
,
0100
0000
0001
0010
0100
0000
1000
0001
,
0100
0010
0100
0010
1000
0001
1000
0001
,
0010
0100
0010
0100
1000
0001
1000
0001
,
0100
1000
0100
0001
0100
1000
0100
0001
,
0010
1000
0010
0001
0010
1000
0010
0001
,
0200
0000
0000
0300
,
0200
0000
0000
0000
0300
0000
0002
0000
0000
0000
0003
0000
2000
0000
0000
0000
3000
0000
0002
0000
0000
0000
0003
0000
0020
0000
0000
0000
0030
0000
0200
0000
0000
0000
0300
0000
2000
0000
0000
0002
3000
0000
0000
0003
0000
0000
0000
0000
,
0100
0001
0000
0100
0010
0000
1000
0010
0000
1000
0001
0000
0010
0000
0001
0000
,
0010
0100
0000
1000
0100
0000
0010
0001
0000
0010
0100
0000
1000
0000
0001
0000
,
0100
0010
0010
0010
1000
0000
0001
0010
,
0100
0010
0010
0010
0002
0000
1003
0001
,
1000
0010
0000
0100
0010
0000
0100
0001
0000
1000
0001
0000
0010
0000
0100
0000
,
1000
0001
0000
0010
0100
0000
1000
0001
0000
0100
0010
0000
1000
0000
0001
0000
,
0100
0010
0010
0010
1000
0000
0001
0000
,
0010
0010
0100
0100
0010
0010
0100
0100
,
1000
0001
0000
0100
0001
0000
0010
0100
0000
1000
0100
0000
0010
0000
0001
0000
,
1000
0010
0000
0100
0010
0000
1000
0001
0000
0010
0001
0000
0100
0000
0010
0000
,
1000
0100
0000
0100
0010
0000
0010
0001
0000
0001
1000
0000
0010
0000
0100
0000
,
0001
0010
0000
0010
0100
0000
0100
1000
0000
1000
0001
0000
0100
0010
0000
0000
,
1000
0100
0000
0010
0100
0000
0010
0001
0000
1000
0001
0000
0100
0000
0010
0000
,
1000
0001
0000
0010
0001
0000
1000
0010
0000
1000
0001
0000
1000
0000
0100
0000
,
0220
0000
0000
0000
,
0000
0000
0000
0000
,
0330
0000
0000
0000
;

//--------------- dance-single - forcednature ----------------
#NOTEDATA:;
#STEPSTYPE:dance-single;
#DESCRIPTION:forcednature;
#DIFFICULTY:Hard;
#METER:16;
#RADARVALUES:0,0,0,0,0;
#CREDIT:forcednature;
#NOTES:
0000
0000
0000
0000
,
0000
0000
0000
0000
,
0000
0000
0000
0000
,
0000
0000
0000
0000
,
0000
0000
0000
0000
,
0000
0000
0000
0000
,
2000
0000
0010
3000
,
0002
0000
0010
0003
,
1001
0000
0000
0110
0000
0000
1001
0000
,
0100
0000
0000
0000
0100
0000
0100
0010
,
1001
0000
1000
0000
0100
0010
0100
0000
,
1001
0000
0001
0000
0100
0010
0100
0000
,
0110
0000
1000
0000
0100
0001
0100
0000
,
0110
0000
0001
0000
0100
1000
0100
0000
,
0110
0000
0010
1000
1100
0000
0001
0000
,
0110
0000
0010
0001
0101
0000
1000
0000
,
1001
0000
0001
0010
0110
0000
1000
0000
,
0010
0000
0100
0000
0010
0000
0100
0000
0001
0000
1000
0001
1000
0000
0000
0000
,
0100
1000
0000
0100
1000
0000
0100
0010
0000
0001
0010
0000
0001
0000
0000
0000
,
0100
0001
0000
0100
0001
0000
0100
0010
0000
1000
0010
0000
1000
0000
0000
0000
,
0100
0010
0000
0100
1000
0000
0001
0100
0000
0010
0100
0000
0001
0000
0000
0000
,
0010
0100
0000
0010
0001
0000
1000
0010
0000
0100
0010
0000
1000
0000
0000
0000
,
0100
0001
0100
0001
0100
1000
0100
1000
,
0010
0001
0010
0001
0010
1000
0010
1000
,
0100
0010
0100
0010
0001
1000
0001
1000
0010
0100
0010
0100
0001
1000
0001
1000
,
0100
0000
0000
0110
0000
0000
0010
0000
0001
0100
0010
1000
0001
0000
0000
0000
,
1000
0100
1000
0100
0010
0000
0001
0010
0001
0010
0100
0000
1000
0000
0001
0000
,
0100
0010
0100
0010
1000
0000
0100
0010
0100
0010
0001
0000
1000
0000
0010
0000
,
1000
0100
0010
0001
1000
0000
0001
0010
0100
1000
0001
0000
0100
0000
0010
0000
,
1000
0100
0010
0100
1000
0000
0001
0010
0100
0010
0001
0000
1000
0001
0000
0000
,
0100
0001
0100
0001
0010
0000
0100
1000
0100
1000
0010
0000
1000
0000
0001
0000
,
0010
0100
0010
0100
1000
0000
0010
0100
0010
0100
0001
0000
1000
0000
0100
0000
,
0010
0001
1000
0001
0100
0000
0010
1000
0001
1000
0100
0000
0010
0000
0001
0000
,
0101
0000
0000
1001
0000
0000
0010
0000
1100
0000
0000
1001
0000
0000
0010
0000
,
1000
0010
0100
0001
0100
0000
0001
0010
0100
1000
0100
0000
0010
0000
0001
0000
,
1000
0010
0100
0010
1000
0000
0001
0010
0100
0010
0001
0000
1000
0000
0001
0000
,
0100
0010
0100
0010
1000
0000
0100
0010
0100
0010
0001
0000
1000
0000
0001
0000
,
0100
0010
1000
0100
1000
0000
0100
0010
0001
0100
0001
0000
1000
0001
0000
0000
,
0010
0001
0010
0100
1000
0000
0010
1000
0010
0100
0001
0000
1000
0000
0100
0000
,
1000
0001
0100
0010
0100
0000
0001
1000
0100
0010
0100
0000
1000
0001
1000
0001
,
0200
0000
0000
1000
0000
0000
0010
0000
,
0000
0001
0320
0030
,
2002
0000
0000
0000
,
3003
0000
0000
0000
,
0000
0000
0000
0000
,
0000
0000
0000
0000
,
0000
0000
0000
0000
,
0220
0000
0000
0000
,
0330
0000
0000
0000
,
0000
0000
0000
0000
,
0000
0000
0000
0000
0010
0010
0100
0010
,
1002
0000
1003
1100
0000
1100
0010
0000
,
2001
0000
0000
0000
3001
0000
0101
0000
0000
0000
0101
0000
0000
1010
0000
0000
,
1002
0000
0103
0110
0000
0110
0010
0000
,
2001
0000
0000
0000
3010
0000
0110
0000
0000
0000
0100
0000
0000
0001
1000
0001
,
2000
0000
3100
0011
0000
0011
1000
0000
,
1002
0000
0000
0000
0103
0000
1010
0000
0000
0000
1010
0000
0000
0101
0000
0000
,
1002
0000
0013
1100
0000
1100
0001
0000
,
0110
0000
0000
1100
0000
0000
0001
0000
0110
0000
0000
0101
0000
0000
1000
0000
,
2001
0000
3010
0100
1002
0000
0103
0010
,
1002
0000
1003
0100
0021
0000
0031
0100
,
1020
0000
1030
0001
0110
0000
1001
0000
,
0110
0000
0001
1000
0110
0000
1001
0000
,
1100
0000
0100
0010
0011
0000
0100
0010
,
1010
0000
1000
0001
0101
0000
0001
1000
,
1001
0000
0110
0000
1001
0000
0001
0010
,
1000
0000
1000
0010
0001
0000
0001
0100
,
0010
1000
0100
1000
0010
1000
0100
1000
,
0001
0100
0001
0010
0001
0100
0001
0010
,
0001
1000
0001
1000
0001
1000
0001
1000
0001
1000
0001
1000
0001
1000
0001
1000
,
0001
1000
0001
1000
0001
1000
0001
1000
0001
1000
0001
1000
0001
1000
0001
1000
,
0020
0000
0000
0030
,
2000
0000
0000
0000
3000
0000
0200
0000
0000
0000
0300
0000
0020
0000
0000
0000
0030
0000
0002
0000
0000
0000
0003
0000
0200
0000
0000
0000
0300
0000
0020
0000
0000
0000
0030
0000
2000
0000
0000
0002
3000
0000
0000
0003
0000
0000
0000
0000
,
0010
0100
1000
0100
0010
0000
0100
0010
0001
0010
0100
0000
1000
0000
0001
0000
,
0100
0010
1000
0010
0100
0000
0010
0100
0001
0100
0010
0000
1000
0000
0001
0000
,
0010
0000
0100
0000
1000
0010
0100
0001
0010
0000
0001
0000
0100
0010
1000
0001
,
0010
0000
0100
0000
1000
0001
0100
0010
2000
0000
0000
0000
3100
0000
0100
0010
,
0001
1000
0100
1000
0001
0000
1000
0001
0010
0001
1000
0000
0010
0000
0100
0000
,
0001
1000
0010
1000
0001
0000
1000
0001
0100
0001
1000
0000
0100
0000
0010
0000
,
0110
0000
0100
1000
0001
1000
0010
0000
0120
0000
0000
0000
1030
0000
0000
0000
,
0001
0100
0001
0100
0010
0100
0010
0100
0001
0010
0001
0010
0100
0010
0100
0010
,
0001
1000
0100
0010
0001
0000
1000
0100
0010
0001
1000
0000
0010
0000
0100
0000
,
0001
0010
0001
0100
0010
0000
1000
0100
1000
0010
0100
0000
0001
0000
1000
0000
,
0100
0010
0001
0100
0010
0000
0100
0010
1000
0100
0010
0000
0001
0000
1000
0000
,
0010
0100
0001
0010
0100
0000
0010
0100
1000
0010
0100
0000
0001
1000
0001
0000
,
1000
0100
1000
0010
1000
0000
0001
0100
0001
0010
0001
0000
0100
0000
0010
0000
,
1000
0100
0010
0100
1000
0000
0001
0100
0010
0100
0001
0000
0010
0100
0010
0000
,
2002
0000
0000
0000
,
0000
0000
0000
0000
,
3003
0000
0000
0000
;

//--------------- dance-single - forcednature ----------------
#NOTEDATA:;
#STEPSTYPE:dance-single;
#DESCRIPTION:forcednature;
#DIFFICULTY:Challenge;
#METER:18;
#RADARVALUES:0,0,0,0,0;
#CREDIT:forcednature;
#NOTES:
0000
0000
0000
0000
,
0000
0000
0000
0000
,
0000
0000
0000
0000
,
0000
0000
0000
0000
,
0000
0000
0000
0000
,
0000
0000
0000
0000
,
1000
0010
1010
0000
,
0001
0010
0011
0000
,
1100
0000
0000
0101
0000
0000
2001
0000
,
0010
0000
0010
3010
,
0102
0000
0000
0100
0000
0000
1000
0000
0000
1000
0000
0000
0013
0000
0000
0000
,
2100
0000
0000
0100
0000
0000
0001
0000
0000
0001
0000
0000
3010
0000
0000
0000
,
0210
0000
0000
1000
0000
0000
0010
0000
0000
0001
0000
0000
0310
0000
0000
0000
,
0120
0000
0000
1000
0000
0000
0100
0000
0000
0001
0000
0000
0130
0000
0000
0000
,
1010
0000
0000
0010
1000
0000
0010
0000
1000
0100
0000
0000
0010
0000
0000
0000
,
0011
0000
0000
0010
0001
0000
0010
0000
0001
0100
0000
0000
0010
0000
0000
0000
,
1100
0000
0000
0100
1000
0000
0100
0000
1000
0010
0000
0000
0100
0000
0000
0000
,
0101
0000
0000
0100
0001
0000
0100
0000
0001
0010
0000
0000
0100
0000
0000
0000
,
0010
0001
0000
0001
0100
0000
0010
1000
0000
0100
1000
0000
0001
0000
0010
0000
,
0100
1000
0000
1000
0010
0000
0100
0001
0000
0010
0001
0000
1000
0000
0010
0000
,
0100
0001
0000
0001
1000
0000
0100
0010
0000
0001
0010
0000
0100
0000
1000
0000
,
0010
0100
0000
0100
0001
0000
1000
0100
0000
0010
0100
0000
1000
0000
0001
0000
,
0100
0001
0100
0010
0100
0001
0100
0000
0001
0010
0001
0100
0001
0010
0001
0000
,
1000
0010
1000
0100
1000
0010
1000
0000
0100
1000
0100
0010
0100
1000
0100
0000
,
1000
0010
0100
0001
1000
0100
0010
0001
1000
0100
1000
0010
0100
0001
0010
0001
,
0100
0000
0000
0110
0000
0000
0100
0001
1000
0100
0010
0100
0001
0000
0000
0000
,
0100
1000
0010
1000
0001
0000
0100
0001
0010
0001
1000
0000
0100
0000
0010
0000
,
0001
0100
0001
1000
0010
0000
1000
0100
1000
0001
0010
0000
0100
0000
1000
0000
,
0010
0100
0010
1000
0001
0000
0010
0100
0010
0001
1000
0000
0010
0000
0100
0000
,
0001
0010
0100
0010
0001
0000
1000
0010
0100
0010
1000
0000
0001
1000
0100
0000
,
0010
0100
0010
0001
0010
0000
0100
1000
0100
0010
0100
0000
1000
0000
0001
0000
,
0100
0001
0100
0010
0100
0000
0010
1000
0010
0100
0010
0000
1000
0000
0001
0000
,
0010
0100
1000
0001
0100
0000
0010
0100
0001
1000
0100
0000
0010
0000
0001
0000
,
0101
0000
0000
1100
0000
0000
0010
0000
1100
0000
0000
0101
0000
0000
0010
0000
,
0001
0100
0001
0010
0100
0000
1000
0100
1000
0010
0100
0000
0001
0000
1000
0000
,
0100
0010
0001
0100
0001
0000
0100
0010
1000
0100
1000
0000
0010
0000
0100
0000
,
0001
0010
0001
1000
0010
0000
1000
0100
1000
0001
0100
0000
0001
0000
0010
0000
,
0100
1000
0001
1000
0010
0000
0100
0001
1000
0001
0010
0000
0100
1000
0001
0000
,
0100
0010
1000
0010
0100
0000
0010
0100
0001
0100
0010
0000
1000
0000
0001
0000
,
0010
0100
0010
0001
0010
0000
0100
0010
0100
1000
0100
0000
0010
0000
0001
0000
,
2001
0000
0000
3020
0000
0000
0230
0000
,
0300
0002
0013
0000
,
2002
0000
0000
0000
,
3003
0000
0000
0000
0000
0000
0000
0000
0000
0000
0000
0000
0000
0000
0000
0100
,
0000
0000
0000
0000
,
0000
0000
0010
0010
0010
0000
0000
0000
0000
0000
0000
0000
0000
0000
0000
0000
,
1000
0001
0010
0000
0010
0000
0010
0000
,
1001
0000
0000
0001
0000
0000
0100
0000
0000
0000
0100
0000
0010
0000
0000
0000
,
1000
0000
0000
1000
0000
0000
0100
0000
0010
0000
0000
0010
0000
0000
0001
0000
,
0100
0000
0000
0100
0100
0000
0010
0100
0000
0010
0000
0000
1000
0000
0001
0000
,
0010
0000
0000
0000
0001
0000
0000
0000
0010
0000
0100
0000
0010
0000
0000
0000
0001
0000
0000
0000
1000
0000
0001
1000
0001
0000
0000
0000
1000
0001
1000
0001
,
1000
0000
0001
1100
0000
1100
0001
0000
,
0011
0000
0000
0000
1000
0000
0101
0000
0000
0000
0101
0000
0000
1100
0000
0000
,
0101
0000
0001
1010
0000
1010
0001
0000
,
1100
0000
0000
0000
1000
0000
0011
0000
0000
0000
0001
0000
0000
0100
0100
0100
,
1001
0000
0010
0110
0000
1001
0100
0000
,
1001
0000
0000
0000
0010
0000
1001
0000
0000
0000
1100
0000
0000
0101
0000
0000
,
1001
0000
0010
0101
0000
1100
0010
0000
,
1100
0000
0000
1001
0000
0000
1010
0000
0101
0000
0000
1001
0000
0000
0011
0000
,
0110
0000
0000
0000
0001
0000
0010
0100
1001
0000
0000
0000
1000
0000
0010
0100
,
1001
0000
0000
0000
1000
0000
0001
0010
1100
0000
0000
0000
0001
0000
1000
0010
,
0101
0000
0000
0000
1000
0000
0001
0100
1010
0000
0000
0000
0110
0000
0000
0000
,
1001
0000
0000
0000
0010
0000
1000
0001
0110
0000
0000
0000
1001
0000
0000
0000
,
1000
0000
0100
1000
0000
0100
0010
0100
0000
0010
0001
0000
1000
0001
1000
0001
,
0100
0000
0001
0100
0000
0010
0100
0010
1000
0000
0001
0010
0000
0100
1000
0000
,
0001
0000
0100
0001
0000
0100
0010
0100
0000
0010
1000
0000
0001
0010
0001
0010
,
0100
0000
1000
0000
0001
0100
0001
0100
0010
0000
1000
0001
0000
1000
0100
0010
,
0001
0101
0100
0110
0010
1010
1000
1001
,
0001
0011
1000
1010
0001
0101
1000
1100
,
1000
0100
1000
0001
1000
0010
1000
0001
1000
0100
1000
0001
1000
0010
1000
0001
,
0010
0100
1000
0001
0010
0100
1000
0001
0010
0100
1000
0001
0010
0100
1000
0001
,
0220
0000
0000
0330
,
2000
0000
0000
0000
3000
0000
0200
0000
0000
0000
0300
0000
0020
0000
0000
0000
0030
0000
0001
0000
0000
0100
0000
0000
0001
0000
0000
1000
0000
0000
0001
0000
0000
0010
0000
0000
0100
0000
0000
1000
0000
0000
0001
0000
0000
0000
0000
0000
,
0100
0010
0100
0001
1000
0000
0100
0010
0100
1000
0001
0000
0010
0000
0001
0000
,
1000
0010
0100
0001
0010
0000
0001
0010
0100
1000
0010
0000
0100
0000
0001
0000
,
0010
0000
0100
0000
1000
0100
0001
0100
1000
0000
0001
0010
0100
0010
1000
0010
,
0100
0000
0000
0010
0000
0000
0001
0000
0000
0010
0000
0000
0100
0000
0000
0010
0000
0000
1000
0000
0000
0010
0000
0000
0100
0000
0000
0010
0000
0000
0001
0000
0000
0010
0000
0000
0100
0000
0000
0010
0000
0000
1000
0000
0010
0000
0100
0000
,
0010
0001
1000
0001
0100
0000
0010
1000
0001
1000
0100
0000
0010
0000
0001
0000
,
1000
0010
0100
0001
0010
0000
0100
1000
0001
0100
0010
0000
1000
0001
0010
0000
,
0110
0000
0100
0001
0100
1000
0100
0010
0001
0000
0000
0000
1000
0000
0001
0000
,
0100
1000
0100
0001
0100
1000
0100
0001
0100
1000
0100
0001
0100
1000
0100
0001
,
1000
0001
0010
0100
0010
0000
0001
1000
0010
0100
0010
0000
1000
0001
0010
0000
,
0100
1000
0010
1000
0001
0000
0100
0001
0010
0001
1000
0000
0100
0010
0001
0000
,
1000
0010
0100
0010
0001
0000
1000
0100
0010
0100
0001
0000
1000
0001
0100
0000
,
0001
0010
0100
0010
1000
0000
0001
0100
0010
0100
1000
0000
0001
1000
0010
0100
,
0001
0010
0010
0100
1000
0000
0001
0010
1000
0001
0100
0000
1000
0100
0001
0100
,
1000
0010
0010
0100
0001
0000
1000
0010
0001
1000
0100
0000
0010
1000
0100
0010
,
2002
0000
0000
0000
,
0000
0000
0000
0000
,
3003
0000
0000
0000
;

//--------------- dance-double - forcednature ----------------
#NOTEDATA:;
#STEPSTYPE:dance-double;
#DESCRIPTION:forcednature;
#DIFFICULTY:Easy;
#METER:10;
#RADARVALUES:0,0,0,0,0;
#CREDIT:forcednature;
#NOTES:
00000000
00000000
00000000
00000000
,
00000000
00000000
00000000
00000000
,
00000000
00000000
00000000
00000000
,
00000000
00000000
00000000
00000000
,
00000000
00000000
00000000
00000000
,
00000000
00000000
00000000
00000000
,
00020000
00000000
00000000
00030000
,
00002000
00000000
00000000
00003000
,
00011000
00000000
00000000
00011000
00000000
00000000
00022000
00000000
,
00000000
00000000
00000000
00033000
,
00001000
01000000
00010000
00000000
,
01000000
00001000
00010000
00000000
,
00000100
00010000
00001000
00000000
,
00010000
00000100
00001000
00000000
,
00000001
00000100
00001000
00000000
,
00010000
00001000
00000100
00000000
,
00000001
00000010
00001000
00000000
,
00010000
00001000
00000010
00000000
,
00000001
00000001
00000100
00000001
,
00000100
00000100
00001000
00000100
,
00001000
00001000
00010000
00001000
,
00010000
00010000
00100000
00010000
,
00100000
10000000
00100000
10000000
,
01000000
10000000
01000000
10000000
,
01000000
00010000
00001000
00010000
,
00000100
00000000
00000000
00000100
00000000
00000000
00000200
00000000
00000000
00000000
00000000
00000000
00000300
00000000
00000000
00000000
,
00000010
00000001
00000100
00000001
,
00000010
00000000
00000100
00000000
00001000
00000100
00001000
00000000
,
00000100
00010000
00001000
00010000
,
00001000
00000000
01000000
00000000
00010000
01000000
00010000
00000000
,
10000000
00100000
10000000
00010000
,
00100000
00000000
00010000
00000000
00100000
01000000
00100000
00000000
,
01000000
10000000
00010000
01000000
,
00001000
00000000
00000000
00001000
00000000
00000000
00001000
00000000
00010000
00000000
00000000
00010000
00000000
00000000
00010000
00000000
,
00000100
00001000
00000100
00000010
,
00000001
00000000
00001000
00000000
00000010
00001000
00000010
00000000
,
00010000
00001000
01000000
00010000
,
01000000
00000000
00001000
00000000
00010000
00001000
00010000
00000000
,
00000100
00001000
00000100
00000010
,
00000001
00000000
00001000
00000000
00000010
00001000
00000010
00000000
,
00010000
00000000
00000000
00001000
00000000
00000000
01000000
00000000
,
00000000
01000000
00200000
00300000
,
20020000
00000000
00000000
00000000
,
30030000
00000000
00000000
00000000
,
00000000
00000000
00000000
00000000
,
00000000
00000000
00000000
00000000
,
00000000
00000000
00000000
00000000
,
00022000
00000000
00000000
00000000
,
00033000
00000000
00000000
00000000
,
00000000
00000000
00000000
00000000
,
00000000
00000000
00000000
00000000
,
00010000
00000000
00000000
00010000
00000000
00010000
00000000
00000000
,
00001000
00000000
00000000
00000000
00000000
00000000
00001000
00000000
00000000
00000000
00001000
00000000
00000000
00001000
00000000
00000000
,
00010000
00000000
00000000
00010000
00000000
00010000
00000000
00000000
,
00001000
00000000
00000000
00001000
00000000
01000000
00000000
00000000
,
00010000
00000000
00000000
00010000
00000000
00010000
00000000
00000000
,
00100000
00000000
00000000
00000000
00000000
00000000
00100000
00000000
00000000
00000000
00100000
00000000
00000000
00100000
00000000
00000000
,
01000000
00000000
00000000
01000000
00000000
01000000
00000000
00000000
,
10000000
00000000
00000000
10000000
00000000
00000000
10000000
00000000
00010000
00000000
00000000
00010000
00000000
00000000
00010000
00000000
,
01000000
00000000
00011000
00000000
,
00000100
00000000
00011000
00000000
,
00100000
00000000
00001000
00010000
,
00011000
00000000
00010000
00001000
,
00011000
00010000
00000100
00001000
,
00000100
00000010
00000001
00001000
,
00000001
00000100
00000001
00001000
,
00000010
00010000
00001000
00000000
,
01000000
00010000
01000000
00001000
,
00100000
00010000
01000000
00001000
,
00010000
00010000
00010000
00010000
,
00001000
00001000
00001000
00001000
,
00022000
00000000
00000000
00000000
,
00033000
00000000
00000000
00000000
,
00010000
00000000
00000100
00000000
00001000
00000100
00001000
00000000
,
00000001
00000000
00000010
00000000
00000001
00000100
00000001
00000000
,
00000010
00001000
00010000
01000000
,
10000000
01000000
10000000
00000000
00010000
00000000
00100000
00000000
,
00001000
00000000
00010000
00000000
00000010
00001000
00000010
00000000
,
00000100
00000000
00000001
00000000
00000010
00000100
00000010
00000000
,
00000100
00010000
00001000
00100000
,
01000000
00100000
01000000
00000000
00100000
01000000
00100000
00000000
,
10010000
00000000
10000000
00000000
00100000
01000000
00010000
00000000
,
00100000
00000000
00001000
00000000
00010000
00000010
00001000
00000000
,
00000100
00000000
00000010
00000000
00000001
00001000
00000010
00000000
,
00000100
00000000
00000001
00000000
00001000
00000100
00010000
00000000
,
00001000
00000000
01000000
00000000
00010000
10000000
00100000
00000000
,
10000000
00000000
01000000
00000000
00010000
00001000
00100000
00000000
,
00022000
00000000
00000000
00000000
,
00000000
00000000
00000000
00000000
,
00033000
00000000
00000000
00000000
;

//--------------- dance-double - forcednature ----------------
#NOTEDATA:;
#STEPSTYPE:dance-double;
#DESCRIPTION:forcednature;
#DIFFICULTY:Medium;
#METER:14;
#RADARVALUES:0,0,0,0,0;
#CREDIT:forcednature;
#NOTES:
00000000
00000000
00000000
00000000
,
00000000
00000000
00000000
00000000
,
00000000
00000000
00000000
00000000
,
00000000
00000000
00000000
00000000
,
00000000
00000000
00000000
00000000
,
00000000
00000000
00000000
00000000
,
00002000
00000000
00000000
00003000
,
00020000
00000000
00000000
00030000
,
00011000
00000000
00000000
00011000
00000000
00000000
00022000
00000000
,
00000000
00000000
00000000
00033000
,
01002000
00000000
00100000
00003000
,
00020100
00000000
00000010
00030000
,
00102000
00000000
01000000
00003000
,
00020010
00000000
00000100
00030000
,
01002000
00103000
00020100
00030010
,
00102000
01003000
00020010
00030100
,
01002000
00000000
00103000
00000000
00020100
00000000
00030010
00001000
,
00000001
00000100
00000010
00001000
00000001
00000100
00000010
00000000
,
00001000
00000100
00000001
00000100
00001000
00000010
00010000
00000000
,
00001000
01000000
00010000
00100000
01000000
00010000
00001000
00000000
,
00100000
00010000
10000000
00100000
00010000
00001000
01000000
00000000
,
00010000
00100000
01000000
00010000
00001000
00000010
00000100
00000000
,
00001000
00000010
00010000
00001000
00010000
00000010
00001000
00010000
,
01000000
00001000
00010000
00001000
00100000
00010000
00100000
00001000
,
00010000
01000000
00100000
01000000
10000000
01000000
00100000
01000000
,
00010000
00000000
00000000
00001000
00000000
00000000
00022000
00000000
00000000
00000000
00000000
00000000
00033000
00000000
00000000
00000000
,
00010000
00000010
00001000
00000100
00000001
00000100
00001000
00000000
,
00000001
00000100
00001000
00000000
00011000
00000000
00010010
00000000
,
00000010
00001000
00000100
00000010
00001000
00010000
01000000
00000000
,
00100000
00001000
00010000
00000000
00100000
10000000
00010000
00000000
,
00100000
01000000
00010000
00000100
00001000
00000001
00000010
00000000
,
00000100
00001000
00000001
00000000
00000101
00000000
00001010
00000000
,
00000001
00000010
00001000
00000010
00000100
00010000
00001000
00000000
,
01000000
00000000
00000000
01000000
00000000
00000000
01000000
00000000
00010000
00000000
00000000
00010000
00000000
00000000
00010000
00000000
,
10000000
01000000
00010000
00001000
00100000
00010000
01000000
00000000
,
00001000
00010000
00000010
00001000
00000100
00000001
00000100
00000000
,
00001000
00000001
00000100
00001000
00010000
00100000
10000000
00000000
,
00010000
10000000
01000000
00010000
00001000
00000010
00000001
00000000
,
00000100
00001000
00010000
00000010
00010000
00001000
00100000
00000000
,
01000000
00010000
00001000
00100000
00001000
00010000
00000010
00000000
,
00002010
00000000
00000000
00000001
00000000
00000000
00000100
00000000
,
00000000
00000100
00003010
00000000
,
00022000
00000000
00000000
00000000
,
00033000
00000000
00000000
00000000
,
00000000
00000000
00000000
00000000
,
00000000
00000000
00000000
00000000
,
00000000
00000000
00000000
00000000
,
00022000
00000000
00000000
00000000
,
00033000
00000000
00000000
00000000
,
00000000
00000000
00000000
00000000
,
00000000
00000000
00000000
00000000
,
01000000
00000000
00001000
00100000
00000000
00001000
00010000
00000000
,
00000100
00000000
00000000
00000000
00010000
00000000
00000010
00000000
00000000
00000000
00010000
00000000
00000000
00001000
00000000
00000000
,
00100000
00000000
00001000
01000000
00000000
00001000
00010000
00000000
,
00000010
00000000
00000000
00000000
00010000
00000000
00000100
00000000
00000000
00000000
00010000
00000000
00000000
00001000
00010000
00001000
,
00020000
00000000
00030100
00001000
00000000
00000010
00010000
00000000
,
00002000
00000000
00000000
00000000
01003000
00000000
00010000
00000000
00000000
00000000
00100000
00000000
00000000
00001000
00000000
00000000
,
00020000
00000000
00030100
00001000
00000000
00000100
00010000
00000000
,
00001000
00000000
00000000
01000000
00000000
00000000
00001000
00000000
00010000
00000000
00000000
00000100
00000000
00000000
00010000
00000000
,
00002000
00000000
00103000
00010000
02000000
00000000
03100000
10000000
,
02000000
00000000
03010000
00001000
00000020
00000000
00001030
00010000
,
00000020
00000000
00000130
00000001
00000010
00000000
00000110
00000000
,
00001001
00000000
00000001
00000100
00001000
00000000
00011000
00000000
,
01001000
00000000
01000000
00010000
00100000
00000000
01000000
10000000
,
00100000
00000000
10000000
01000000
00010000
00000000
00001000
00010000
,
00001000
00000000
00000010
00000001
00001000
00000000
00000001
00001000
,
00000001
00000000
00000100
00001000
00010000
00000000
00001000
00010000
,
00001000
01000000
00010000
00000000
00010000
01000000
00001000
00000000
,
00010000
00000100
00001000
00000000
00001000
00000100
00010000
00000000
,
00001000
00100000
00010000
00100000
01000000
00100000
00010000
00100000
,
00001000
01000000
00010000
01000000
00100000
01000000
00010000
01000000
,
00002000
00000000
00000000
00003000
,
00020000
00000000
00030000
00002000
00000000
00003000
00020000
00000000
00030000
00000200
00000000
00000300
00002000
00000000
00003000
00000002
00000000
00000003
00000020
00000000
00000030
00000000
00000000
00000000
,
00000001
00000000
00000100
00000000
00001000
00000000
00010000
00000000
00001000
00010000
00001000
00000000
01000000
00000000
00010000
00000000
,
10000000
00000000
01000000
00000000
00010000
00000000
00001000
00000000
00010000
00001000
00010000
00000000
00000100
00000000
00001000
00000000
,
00000000
00000010
00000100
00001000
00010000
01000000
01000000
00100000
,
01000000
00000000
00010000
00000000
00001000
00000000
00000100
00000000
00000020
00000000
00000000
00000000
00000130
00000000
00000010
00000100
,
00000010
00000000
00001000
00000000
00000001
00000000
00000010
00000000
00001000
00000000
00010000
00001000
00010000
00000000
00001000
00000000
,
00100000
00000000
00010000
00000000
10000000
00000000
00100000
00000000
00010000
00000000
00001000
00010000
00001000
00000000
00010000
00000000
,
00000200
00000000
00000310
00000100
00001000
00000001
00000200
00000000
,
00001300
00001000
00010000
00010000
00001000
00001000
00010000
00010000
,
00100000
00000000
01000000
00000000
00010000
00000000
10000000
00000000
00100000
10000000
00100000
00000000
10000000
00000000
01000000
00000000
,
00010000
00000000
00001000
00000000
00100000
00000000
00010000
00000000
00100000
00010000
00100000
00000000
00001000
00000000
00010000
00000000
,
00000010
00000000
00001000
00000000
00000100
00000000
00000010
00000000
00000001
00000010
00000001
00000000
00000100
00000000
00000001
00000000
,
00001000
00000000
00000010
00000000
00010000
00000000
00001000
00000000
00100000
00001000
00100000
00000000
00010000
00000000
00100000
00000000
,
01000000
00000000
10000000
00000000
00010000
00000000
01000000
00000000
00001000
01000000
00001000
00000000
00010000
00000000
00000100
00000000
,
00001000
00000000
00000001
00000000
00000010
00000000
00000100
00000000
00001000
00000100
00001000
00000000
00000010
00000000
00010000
00000000
,
00022000
00000000
00000000
00000000
,
00000000
00000000
00000000
00000000
,
00033000
00000000
00000000
00000000
;

//--------------- dance-double - forcednature ----------------
#NOTEDATA:;
#STEPSTYPE:dance-double;
#DESCRIPTION:forcednature;
#DIFFICULTY:Hard;
#METER:16;
#RADARVALUES:0,0,0,0,0;
#CREDIT:forcednature;
#NOTES:
00000000
00000000
00000000
00000000
,
00000000
00000000
00000000
00000000
,
00000000
00000000
00000000
00000000
,
00000000
00000000
00000000
00000000
,
00000000
00000000
00000000
00000000
,
00000000
00000000
00000000
00000000
,
00002000
00000000
01000000
00003000
,
00020000
00000000
00000100
00030000
,
00000110
00000000
00000000
00011000
00000000
00000000
01100000
00000000
,
10000000
00000000
00000000
00000000
10000000
00000000
10000000
01000000
,
00010000
00000000
00001000
00000000
00000010
00000001
00000100
00000000
,
00001000
00000000
00010000
00000000
00100000
10000000
01000000
00000000
,
00010000
00000000
00001000
00000000
00000100
00000001
00000010
00000000
,
00001000
00000000
00010000
00000000
01000000
10000000
00100000
00000000
,
01100000
00000000
00100000
10000000
01000000
00000000
00010000
00001000
,
00100000
00000000
00001000
00010000
00000010
00000000
00000100
00001000
,
00010000
00000000
00001000
00000010
00000001
00000000
00000100
00000001
,
00000010
00001000
00000010
00000001
00000100
00001000
00020000
00000000
,
00031000
01000000
00010000
00100000
00010000
01000000
00001000
00000000
,
00010000
00000100
00001000
00000010
00001000
00000100
00010000
00000000
,
00001000
00000010
00000001
00000100
00000001
00000010
00001000
00000000
,
00010000
00100000
10000000
01000000
10000000
00100000
00010000
00000000
,
00001000
01000000
00010000
00100000
00010000
01000000
00001000
00010000
,
00000100
00001000
00000010
00001000
00000100
00010000
00001000
00000000
,
00010000
00001000
00010000
00001000
00010000
00001000
00010000
00001000
00010000
00001000
00010000
00001000
00010000
00001000
00010000
00001000
,
01000000
00000000
00000000
01100000
00000000
00000000
20020000
00000000
00000000
00000000
00000000
00000000
30030000
00000000
00000000
00000000
,
10000000
01000000
00000000
00100000
01000000
00000000
00100000
00010000
00000000
00000000
00100000
00000000
00001000
00000000
00010000
00000000
,
00000010
00001000
00000000
00000010
00000100
00000000
00000001
00000100
00000000
00000000
00000010
00000000
00001000
00000000
00000001
00000000
,
00000010
00000100
00000000
00001000
00000100
00000000
00010000
00001000
00000000
00000000
01000000
00000000
00010000
00000000
00100000
00000000
,
01000000
10000000
00000000
00100000
10000000
00000000
00010000
00100000
00000000
01000000
00100000
00000000
00010000
01000000
00000000
00000000
,
00001000
00010000
00000000
00000010
00001000
00000000
00000001
00000100
00000000
00000000
00000001
00000000
00000010
00000000
00001000
00000000
,
00000010
00000100
00000000
00001000
00000100
00000000
00010000
00001000
00000000
00000000
01000000
00000000
00010000
00000000
00100000
00000000
,
01000000
10000000
00000000
00100000
10000000
00000000
00010000
00100000
00000000
00000000
01000000
00000000
00010000
00000000
00001000
00000000
,
00101000
00000000
00000000
00011000
00000000
00000000
01001000
00000000
00010010
00000000
00000000
00011000
00000000
00000000
00010100
00000000
,
00000100
00001000
00000000
00000100
00000010
00000000
00000001
00000010
00000000
00000100
00001000
00000000
00000010
00000000
00010000
00000000
,
00001000
01000000
00000000
00010000
01000000
00000000
00100000
10000000
00000000
00010000
10000000
00000000
01000000
00000000
00010000
00000000
,
00001000
00100000
00000000
00010000
00100000
00000000
00001000
00010000
00000000
00000010
00010000
00000000
00001000
00000000
00000010
00000000
,
00000100
00001000
00000000
00000001
00000100
00000000
00000001
00000010
00000000
00000100
00001000
00000000
00000100
00010000
00000000
00000000
,
00001000
00010000
00000000
00001000
01000000
00000000
00010000
00100000
00000000
01000000
00100000
00000000
01000000
00000000
10000000
00000000
,
00010000
01000000
00000000
00001000
00010000
00000000
00001000
00100000
00000000
00010000
00100000
00000000
00001000
00000000
00010000
00000000
,
00021000
00000000
00000000
00000010
00000000
00000000
00001000
00000000
,
00000000
00030100
00000220
00000330
,
00002002
00000000
00000000
00000000
,
00003003
00000000
00000000
00000000
,
00000000
00000000
00000000
00000000
,
00000000
00000000
00000000
00000000
,
00000000
00000000
00000000
00000000
,
00022000
00000000
00000000
00000000
,
00033000
00000000
00000000
00000000
,
00000000
00000000
00000000
00000000
,
00000000
00000000
00000000
00000000
,
01000000
00010000
00100000
01000000
00000000
01000000
00010000
00000000
,
00000100
00000000
00001000
00000000
00000010
00000000
00000100
00000000
00000000
00000000
00001000
00000000
00000000
00010000
00000000
00000000
,
00100000
01000000
00010000
00100000
00000000
00100000
00001000
00000000
,
00000010
00000000
00000100
00000000
00001000
00000000
00000010
00000000
00000000
00000000
00000100
00000000
00000000
00000001
00001000
00000001
,
00001000
00000100
00000001
00000100
00000000
00001000
00000010
00000000
,
00010000
00000000
00001000
00000000
01000000
00000000
00010000
00000000
00000000
00000000
00100000
00000000
00000000
00100000
00000000
00000000
,
01000000
10000000
00100000
10000000
00000000
01000000
00010000
00000000
,
00011000
00000000
00000000
00011000
00000000
00000000
00100000
00000000
00011000
00000000
00000000
00011000
00000000
00000000
00000010
00000000
,
00001000
00000100
00000001
00000100
00001000
00000001
00000010
00000000
,
00000001
00000100
00001000
00010000
00100000
01000000
00010000
00000000
,
10000000
01000000
00010000
00001000
00100000
00000000
01100000
00000000
,
10010000
00000000
10000000
00100000
00010000
00001000
00000100
00000000
,
00000010
00001000
00000001
00001000
00000100
00000010
00001000
00000000
,
00010000
01000000
00100000
00001000
00010000
00000100
00001000
00000000
,
00000001
00000100
00001000
00000000
00010000
00100000
10000000
00000000
,
00010000
01000000
00100000
01000000
00010000
10000000
00100000
00000000
,
10000000
01000000
10000000
01000000
00100000
00010000
00100000
00001000
,
00010000
00000100
00001000
00000100
00000010
00000001
00000100
00000000
,
00001000
00010000
00001000
00010000
00001000
00010000
00001000
00010000
00001000
00010000
00001000
00010000
00001000
00010000
00001000
00010000
,
00001000
00010000
00001000
00010000
00001000
00010000
00001000
00010000
00001000
00010000
00001000
00010000
00001000
00010000
00001000
00010000
,
00002000
00000000
00000000
00003000
,
20000000
00000000
00000000
00000000
30000000
00000000
02000000
00000000
00000000
00000000
03000000
00000000
00200000
00000000
00000000
00000000
00300000
00000000
00020000
00000000
00000000
00000000
00030000
00000000
00002000
00000000
00000000
00000000
00003000
00000000
00000200
00000000
00000000
00000000
00000300
00000000
00000020
00000000
00000000
00000002
00000030
00000000
00000000
00000003
00000000
00000000
00000000
00000000
,
00000100
00000001
00000000
00000100
00000010
00000000
00001000
00000010
00000000
00010000
00001000
00000000
00100000
00000000
00010000
00000000
,
10000000
00100000
00000000
01000000
00100000
00000000
01000000
00010000
00000000
10000000
01000000
00000000
00100000
00000000
00001000
00000000
,
00000010
00000000
00000100
00000000
00001000
00000100
00000010
00000001
00001000
00000000
00000100
00000000
00010000
00001000
00010000
00001000
,
00010000
00000000
00001000
00000000
01000000
00010000
01000000
00100000
20000000
00000000
00000000
00000000
31000000
00000000
10000000
01000000
,
10000000
00100000
00000000
01000000
00100000
00000000
01000000
00010000
00000000
00100000
00010000
00000000
00100000
00000000
00001000
00000000
,
00010000
00000010
00000000
00001000
00000010
00000000
00001000
00000100
00000000
00000010
00000100
00000000
00001000
00000000
00000001
00000000
,
00000011
00000000
00000010
00000100
00001000
00000001
00001000
00000100
00000020
00000000
00000000
00000000
00000031
00000000
00000100
00000000
,
00001000
00010000
00001000
00010000
00001000
00010000
00001000
00010000
00001000
00010000
00001000
00010000
00001000
00010000
00001000
00010000
,
00001000
01000000
00000000
00010000
01000000
00000000
00100000
10000000
00010000
10000000
00100000
00000000
10000000
00000000
01000000
00000000
,
00100000
00010000
00000000
00100000
00001000
00000000
00010000
00000100
00001000
00000100
00010000
00000000
00001000
00000000
00000010
00000000
,
00000001
00000100
00000000
00000010
00001000
00000000
00000001
00000010
00000100
00000010
00000001
00000000
00001000
00000000
00000010
00000000
,
00010000
00001000
00000000
01000000
00010000
00000000
00100000
01000000
00000000
00010000
01000000
00000000
10000000
01000000
00000000
00000000
,
00100000
00010000
00100000
00001000
00010000
00000000
00000010
00001000
00000010
00000100
00000001
00000000
00001000
00000000
00000100
00000000
,
00010000
00001000
01000000
00010000
01000000
00000000
00001000
00010000
00000100
00001000
00000100
00000000
00000010
00000000
00000000
00000000
,
00002002
00000000
00000000
00000000
,
00000000
00000000
00000000
00000000
,
00003003
00000000
00000000
00000000
;

//--------------- dance-double - forcednature ----------------
#NOTEDATA:;
#STEPSTYPE:dance-double;
#DESCRIPTION:forcednature;
#DIFFICULTY:Challenge;
#METER:18;
#RADARVALUES:0,0,0,0,0;
#CREDIT:forcednature;
#NOTES:
00000000
00000000
00000000
00000000
,
00000000
00000000
00000000
00000000
,
00000000
00000000
00000000
00000000
,
00000000
00000000
00000000
00000000
,
00000000
00000000
00000000
00000000
,
00000000
00000000
00000000
00000000
,
00001000
00100000
00101000
00000000
,
00010000
00000010
00010010
00000000
,
00011000
00000000
00000000
01001000
00000000
00000000
00201000
00000000
,
01010000
00000000
01000000
01300000
,
01100000
00000000
00000000
01000000
00000000
00000000
10000000
00000000
00000000
00100000
00000000
00000000
00010000
00000000
00001000
00000000
,
00011000
00000000
00000000
00010000
00000000
00000000
00001000
00000000
00000000
00000010
00000000
00000000
00000001
00000000
00000100
00000000
,
00000110
00000000
00000000
00000010
00000000
00000000
00010000
00000000
00000000
00001000
00000000
00000000
00100000
00000000
01000000
00000000
,
01100000
00000000
00000000
00100000
00000000
00000000
00001000
00000000
00000000
00010000
00000000
00000000
00100000
00000000
00000000
00000000
,
10100000
00000000
00000000
10000000
01000000
00000000
00100000
00000000
01000000
10000000
00000000
01000000
00010000
00000000
00001000
00000000
,
00011000
00000000
00000000
00010000
00000010
00000000
00001000
00000000
00000010
00000100
00000000
00000001
00000100
00000000
00000010
00000000
,
00001010
00000000
00000000
00001000
00000100
00000000
00000010
00000000
00000100
00001000
00000000
00000001
00000100
00000010
00001000
00000010
,
00010000
00000010
00001000
00000010
00000100
00000010
00001000
00000010
00010000
00000010
00001000
00000010
00000200
00000000
00000000
00000000
,
00000301
00000010
00000000
00000100
00000010
00000000
00000100
00010000
00000000
00001000
00100000
00000000
00010000
00000000
01000000
00000000
,
00100000
10000000
00000000
01000000
10000000
00000000
00010000
01000000
00000000
00010000
00100000
00000000
01000000
00000000
00010000
00000000
,
00001000
00010000
00000000
00001000
00000010
00000000
00000100
00001000
00000000
00000001
00000010
00000000
00000001
00000000
00000100
00000000
,
00001000
00010000
00000000
00001000
01000000
00000000
00010000
01000000
00000000
00010000
00100000
00000000
01000000
00000000
00010000
00000000
,
00001000
00100000
00010000
00100000
00001000
00000000
00010000
00001000
00000000
00010000
00000010
00000000
00001000
00000000
00000100
00000000
,
00000010
00000001
00000100
00000001
00000010
00000000
00000100
00001000
00000000
00000100
00010000
00000000
00001000
00000000
01000000
00000000
,
00010000
10000000
00100000
10000000
00010000
10000000
01000000
10000000
00010000
00100000
00010000
10000000
00010000
01000000
00010000
10000000
,
01000000
00000000
00000000
01100000
00000000
00000000
00100000
00001000
00010000
00000100
00001000
00000100
00000010
00000000
00000000
00000000
,
00000100
00001000
00000100
00010000
00001000
00000000
01000000
00010000
00000000
00100000
00010000
00000000
10000000
00000000
00100000
00000000
,
10000000
01000000
00100000
01000000
10000000
00000000
00010000
00100000
00000000
00001000
00010000
00000000
00000010
00000000
00001000
00000000
,
00000001
00000010
00000100
00001000
00000001
00000000
00000100
00001000
00000000
00000100
00000010
00000000
00001000
00000000
00000010
00000000
,
00010000
00001000
00100000
00001000
00010000
00000000
00100000
01000000
00010000
01000000
00100000
00000000
10000000
00010000
00100000
00000000
,
01000000
10000000
00010000
10000000
01000000
00000000
00100000
00010000
00000000
00100000
00001000
00000000
00010000
00000000
00000010
00000000
,
00001000
00000100
00010000
00001000
00010000
00000000
00000010
00001000
00000000
00000001
00000010
00000000
00000100
00000000
00000001
00000000
,
00000100
00001000
00000100
00010000
00001000
00000000
00100000
00010000
00000000
10000000
00100000
00000000
01000000
00000000
10000000
00000000
,
11000000
00000000
00000000
01010000
00000000
00000000
00110000
00000000
01100000
00000000
00000000
01010000
00000000
00000000
00011000
00000000
,
00001000
00010000
00000100
00001000
00000100
00000000
00000010
00000001
00001000
00000001
00000100
00000000
00001000
00000000
00010000
00000000
,
00001000
01000000
00010000
01000000
00001000
00000000
00100000
00010000
00100000
01000000
10000000
00000000
01000000
00100000
01000000
00000000
,
00100000
00010000
00100000
00001000
00010000
00000000
00000010
00001000
00000010
00010000
00001000
00000000
00000010
00000000
00000100
00000000
,
00001000
00000001
00000010
00000001
00001000
00000000
00000100
00010000
00001000
00010000
00000010
00000000
00010000
00001000
01000000
00000000
,
00010000
10000000
00100000
10000000
00010000
00000000
00100000
01000000
10000000
01000000
00100000
00000000
00001000
00000000
00010000
00000000
,
00000100
00001000
00000010
00001000
00000100
00000000
00000010
00000001
00001000
00000001
00000100
00000000
00001000
00000000
00010000
00000000
,
00012000
00000000
00000000
00203000
00000000
00000000
02300000
00000000
,
03000000
00000000
00020000
00000000
00031000
00000010
00000001
00000000
,
00000220
00000000
00000000
00000000
,
00000330
00000000
00000000
00000000
00000000
00000000
00000000
00000000
00000000
00000000
00000000
00000000
00000000
00000000
00000000
01000000
,
00000000
00000000
00000000
00000000
,
00000000
00000000
00000010
00000010
00000010
00000000
00000000
00000000
00000000
00000000
00000000
00000000
00000000
00000000
00000000
00000000
,
00010000
00001000
00100000
00000000
00100000
00000000
00100000
00000000
,
01100000
00000000
00000000
01000000
00000000
00000000
10000000
00000000
00000000
00000000
10000000
00000000
01000000
00000000
00000000
00000000
,
00010000
00000000
00000000
00001000
00000000
00000000
00000010
00000000
00001000
00000000
00000000
00010000
00000000
00000000
01000000
00000000
,
00100000
00000000
00000000
00100000
00100000
00000000
00001000
00100000
00000000
00100000
00000000
00000000
00010000
00000000
00001000
00000000
,
00000100
00000000
00000000
00000000
00001000
00000000
00000000
00000000
00000010
00000000
00000100
00000000
00000010
00000000
00000000
00000000
00010000
00000000
00000000
00000000
00001000
00000000
00010000
00001000
00010000
00000000
00000000
00000000
00001000
00010000
00001000
00010000
,
00000010
00000000
00000100
00001001
00000000
00001001
00000010
00000000
,
00011000
00000000
00000000
00000000
01000000
00000000
10010000
00000000
00000000
00000000
10010000
00000000
00000000
01001000
00000000
00000000
,
00010100
00000000
00000010
00011000
00000000
00011000
01000000
00000000
,
00010100
00000000
00000000
00000000
00001000
00000000
00000110
00000000
00000000
00000000
00000001
00000000
00000000
00000100
00001000
00010000
,
00110000
00000000
00000000
00100000
10000000
00000000
11000000
00000000
00000000
00000000
00110000
00000000
00001000
00000000
00000000
00000000
,
00010100
00000000
00000000
00000000
00001000
00000000
01010000
00000000
00000000
00000000
01100000
00000000
00000000
00011000
00000000
00000000
,
00000110
00000000
00000000
00000001
00000010
00000000
00001100
00000000
00000000
00000000
00010100
00000000
00100000
00000000
00000000
00000000
,
01001000
00000000
00000000
00110000
00000000
00000000
01001000
00000000
00010100
00000000
00000000
00001010
00000000
00000000
00010100
00000000
,
00011000
00000000
00000000
00000000
00010000
00000000
01000000
10000000
10100000
00000000
00000000
00000000
00010000
00000000
00001000
00010000
,
00011000
00000000
00000000
00000000
00001000
00000000
00000100
00000001
00000011
00000000
00000000
00000000
00001000
00000000
00010000
00001000
,
00011000
00000000
00000000
00000000
00100000
00000000
01000000
10000000
10100000
00000000
00000000
00000000
01001000
00000000
00000000
00000000
,
00010010
00000000
00000000
00000000
00000100
00000000
00000001
00000010
00000011
00000000
00000000
00000000
00001100
00000000
00000000
00000000
,
00010000
00000000
00001000
00100000
00000000
00010000
00100000
00010000
00000000
00100000
01000000
00000000
10000000
00010000
10000000
00100000
,
01000000
00000000
00010000
01000000
00000000
00001000
01000000
00001000
00010000
00000000
00001000
00010000
00000000
00000010
00001000
00000000
,
00000010
00000000
00000100
00000001
00000000
00001000
00000010
00001000
00000000
00000001
00000010
00000000
00000100
00000010
00000100
00000010
,
00000100
00000000
00001000
00000000
00000100
00001000
00000100
00010000
00001000
00000000
00100000
00010000
00000000
00100000
00010000
00100000
,
01000000
10000000
01000000
00001000
00010000
00000010
00000001
00000010
,
00001000
00100000
00010000
01000000
00010000
00000100
00001000
01000000
,
00001000
00100000
00001000
00010000
00001000
01000000
00001000
00010000
00001000
00100000
00001000
00010000
00001000
01000000
00001000
00010000
,
00000100
00001000
00000010
00010000
00001000
00100000
00010000
01000000
00001000
00010000
00000100
00001000
00000010
00010000
00001000
00100000
,
02000000
00000000
00000000
03000000
,
00020000
00000000
00000000
00000000
00030000
00000000
00002000
00000000
00000000
00000000
00003000
00000000
00000020
00000000
00000000
00000000
00000030
00000000
00000100
00000000
00000000
00001000
00000000
00000000
00000100
00000000
00000000
00010000
00000000
00000000
00001000
00000000
00000000
00100000
00000000
00000000
00010000
00000000
00000000
00100000
00000000
00000000
01000000
00000000
00000000
00000000
00000000
00000000
,
10000000
00100000
10000000
01000000
00010000
00000000
00001000
00010000
00000100
00001000
00000010
00000000
00000100
00000000
00001000
00000000
,
00000100
00000001
00001000
00000010
00001000
00000000
00000001
00000010
00001000
00000010
00000100
00000000
00010000
00000000
00001000
00000000
,
00100000
00000000
01000000
00000000
00010000
01000000
10000000
00100000
10000000
00000000
01000000
00010000
00001000
00010000
00000100
00010000
,
00001000
00000000
00000000
00010000
00000000
00000000
00000010
00000000
00000000
00010000
00000000
00000000
00001000
00000000
00000000
00010000
00000000
00000000
00100000
00000000
00000000
00010000
00000000
00000000
00001000
00000000
00000000
00010000
00000000
00000000
00000100
00000000
00000000
00010000
00000000
00000000
00001000
00000000
00000000
00010000
00000000
00000000
00000100
00000000
00001000
00000000
00000100
00000000
,
00000010
00000001
00001000
00000010
00000100
00000000
00001000
00010000
00001000
01000000
00010000
00000000
00100000
00000000
01000000
00000000
,
00001000
00000100
00010000
00001000
00000010
00000000
00000100
00001000
00000001
00000100
00000010
00000000
00000100
00001000
00010000
00000000
,
00011000
00000000
00001000
00100000
00001000
00010000
00100000
10000000
00020000
00000000
00000000
00000000
10030000
00000000
01000000
00010000
,
00001000
00100000
00010000
00100000
01000000
00100000
00010000
00100000
00001000
00100000
00010000
00100000
01000000
00100000
00010000
00100000
,
00001000
00010000
00000100
00001000
00000010
00000000
00010000
00001000
01000000
00010000
00100000
00000000
01000000
10000000
00010000
00000000
,
01000000
00100000
01000000
00001000
00010000
00000000
00000100
00000010
00000100
00010000
00001000
00000000
00100000
00001000
00010000
00000000
,
00000010
00000100
00001000
00010000
01000000
00000000
00100000
01000000
00010000
00001000
00000100
00000000
00000010
00010000
00001000
00000000
,
01000000
00100000
00010000
00001000
00000010
00000000
00000100
00000010
00001000
00010000
00100000
00000000
01000000
00010000
10000000
00010000
,
00100000
01000000
00010000
00000100
00001000
00000000
00000010
00000100
00001000
01000000
00010000
00000000
00100000
00001000
00010000
00000100
,
00001000
00000010
00010000
00100000
01000000
00000000
00010000
00100000
00001000
00000010
00000100
00000000
00001000
00000001
00000100
00001000
,
00020020
00000000
00000000
00000000
,
00000000
00000000
00000000
00000000
,
00030030
00000000
00000000
00000000
;
