#VERSION:0.83;
#TITLE:I;
#SUBTITLE:;
#ARTIST:黒魔;
#TITLETRANSLIT:;
#SUBTITLETRANSLIT:;
#ARTISTTRANSLIT:Chroma;
#GENRE:CHIP ELECTRO;
#CREDIT:;
#MUSIC:I.ogg;
#BANNER:I.png;
#BACKGROUND:I-bg.png;
#CDTITLE:./CDTitles/SDVX IV HEAVENLY HAVEN.png;
#SAMPLESTART:91.722;
#SAMPLELENGTH:15.000;
#SELECTABLE:YES;
#OFFSET:0.000;
#BPMS:0.000=225.000
,70.000=56.250
,70.250=112.500
,70.500=225.000
,74.000=112.500
,75.000=225.000
,78.000=112.500
,79.000=225.000
,82.000=112.500
,83.000=225.000
,311.000=46.880
,313.500=225.000
,406.000=450.000
,432.000=225.000
;
#STOPS:71.000=0.133
,72.000=0.133
,73.000=0.133
,74.000=0.401
,75.000=0.133
,76.000=0.133
,77.000=0.133
,78.000=0.401
,79.000=0.133
,80.000=0.133
,81.000=0.133
,82.000=0.401
,83.000=0.133
,84.000=0.133
,85.000=0.133
,87.500=0.401
,151.500=0.267
,311.000=0.534
,313.500=0.400
,406.000=0.200
,406.500=0.200
,407.000=0.200
,407.500=0.200
;
#TIMESIGNATURES:0.000=4=4,
68.000=3=4,
71.000=2=4,
85.000=3=4,
88.000=4=4,
148.000=7=4,
155.000=4=4,
311.000=3=4,
314.000=4=4,
406.000=2=4,
408.000=4=4
;
#DISPLAYBPM:225.000;
#BGCHANGES:0.000=../BGAs/29cy.mp4=1.000=0=0=0=StretchNoLoop====,
99999.000=-nosongbg-=1.000=0=0=0=StretchNoLoop====
;
#FGCHANGES:;

//--------------- dance-single - forcednature ----------------
#NOTEDATA:;
#STEPSTYPE:dance-single;
#DESCRIPTION:forcednature;
#DIFFICULTY:Beginner;
#METER:8;
#RADARVALUES:0,0,0,0,0;
#CREDIT:forcednature;
#NOTES:
0000
0000
0000
0000
,
0000
0000
0000
0000
,
0000
0000
0000
0000
,
0000
0000
0000
0000
,
0000
0000
0000
0000
,
0000
0000
0000
0000
,
0001
0000
0001
0000
,
0100
0000
0001
0000
,
1000
0000
1000
0000
,
0100
0000
1000
0000
,
2002
0000
0000
0000
,
0000
0000
0000
0000
,
0000
0000
0000
0000
,
0000
0000
3003
0000
,
0001
0000
0001
0000
,
0010
0000
0001
0000
,
1000
1000
0000
1000
,
1000
0000
0010
0100
,
0100
0100
0100
0001
,
0001
0001
0001
0110
,
0110
0110
0110
1001
,
1001
0000
1001
0020
0000
0000
0000
0130
,
0001
0100
0001
0000
,
0100
0010
0100
0000
,
0010
1000
0010
0000
,
1000
0001
1000
0000
,
1000
0100
1000
0000
,
0100
0010
0100
0000
,
0010
0001
0010
0000
,
0001
0000
1000
0000
,
0010
0100
0001
0000
,
0010
0100
1000
0000
,
0010
1000
0001
0000
,
0010
0001
1000
0000
,
0010
0100
0001
0000
,
0010
0100
1000
0000
,
0010
0100
0001
0000
,
1000
0000
0000
1000
0000
0000
1000
0001
,
0000
0010
1001
0000
,
0001
0100
0001
0000
,
0001
0010
0001
0000
,
1000
0010
1000
0000
,
1000
0100
1000
0000
,
0010
0100
0001
0000
,
0010
0100
1000
0000
,
0001
0001
1001
0000
,
1000
0100
1000
0000
,
1000
0010
1000
0000
,
0001
0100
0001
0000
,
0001
0010
0000
0110
,
0000
0100
0000
0000
0110
0000
0000
0010
,
0000
1001
0000
2000
,
3200
0320
0032
0203
,
0000
0000
0300
0000
,
0000
0002
0000
0023
,
0000
0032
0000
2003
,
0000
0000
0000
0000
,
0000
0000
0000
3200
,
0000
0000
0000
0000
,
0000
0000
0000
0320
,
0000
0000
0000
0000
,
0000
0032
0000
2003
,
0000
0000
0000
3020
,
0000
0000
0000
0000
,
0000
0000
0230
0000
,
0000
0302
0000
0000
2003
0000
0000
3200
,
0000
0000
0320
0000
0000
0032
0000
0000
,
2003
0000
0000
3020
0000
0000
0230
0000
,
0000
0001
0000
0000
0001
0000
0002
0000
,
0000
0000
0303
1001
,
0000
1001
0000
0110
,
0000
0110
0000
1001
,
0000
1001
0000
0110
,
0000
0110
0000
1000
,
0001
1000
0001
0100
,
0010
0100
0010
0220
,
0000
0330
0000
2002
,
0000
0000
0000
3003
,
0000
0000
1000
0100
,
0010
0001
0100
0010
,
1000
0001
0010
0100
,
1000
0001
0100
0010
,
1000
0001
0010
0100
,
1000
0001
0100
0010
,
1000
0001
0020
0230
,
0320
0230
2300
3002
,
0103
0100
0001
0010
,
0100
1000
0010
0100
,
0001
1000
0100
0010
,
0001
1000
0010
0100
,
0001
1000
0100
0010
,
0001
1000
0010
0100
,
0001
1000
0200
0320
,
0230
0320
0032
2003
,
3020
0030
0220
0330
,
2002
3003
0220
0330
,
2002
3003
2002
3003
,
0220
0330
2002
3003
,
0220
0330
1002
0000
,
0103
0010
2001
0000
,
3100
0010
0002
0023
,
0230
0000
2300
0000
3010
0100
0010
0100
,
2002
0000
0000
0000
,
0000
0000
0000
0000
,
0000
0000
0000
0000
,
0000
0000
0000
0000
,
0000
0000
0000
0000
,
0000
0000
0000
0000
,
3003
0000
0000
0000
;

//--------------- dance-single - forcednature ----------------
#NOTEDATA:;
#STEPSTYPE:dance-single;
#DESCRIPTION:forcednature;
#DIFFICULTY:Easy;
#METER:11;
#RADARVALUES:0,0,0,0,0;
#CREDIT:forcednature;
#NOTES:
0000
0000
0000
0000
,
0000
0000
0000
0000
,
0000
0000
0000
0000
,
0000
0000
0000
0000
,
0000
0000
0000
0000
,
0000
0000
0000
0000
,
0001
0000
0000
0001
0000
0000
0100
0000
,
0000
0001
0000
0000
1000
0000
0000
0000
,
0010
0000
0000
0010
0000
0000
0100
0000
,
0000
0001
0000
0000
1000
0000
0000
0000
,
2001
0000
0010
0000
,
0000
0000
0010
0000
,
0001
0000
0010
0000
,
0000
0000
3010
0000
,
1000
0000
0000
1000
0000
0000
0100
0000
,
1000
0000
0000
1000
0000
0000
0010
0000
,
0100
0000
0000
0100
0000
0000
0001
0000
,
0000
0001
0000
0000
0010
0000
0110
0000
,
0110
0110
0110
1001
,
1001
1001
1001
1010
,
1010
1010
1010
0101
,
0101
0000
0101
0001
0000
0001
0000
1000
,
0001
0001
0010
0001
,
1000
0100
0010
0001
,
1000
1000
0010
1000
,
0001
0010
0100
1000
,
0010
0010
0100
0010
,
1000
0001
0010
0100
,
1000
1000
0001
0100
,
0001
1000
0100
0000
,
0010
0010
0001
1000
,
0010
0100
0001
0010
,
0100
0100
1000
0001
,
1000
0010
0100
0001
,
0010
0010
0001
1000
,
0010
0100
0001
0010
,
0100
0100
1000
0001
,
0100
0000
0000
0110
0000
0000
0001
1000
,
0010
0100
0110
1000
,
0001
0010
0001
1000
,
0010
0100
0010
1000
,
0001
0100
0001
1000
,
0100
0010
0100
1000
,
0001
0010
0001
1000
,
0010
0100
0001
0010
,
0100
0000
0100
0000
0100
0000
0000
0000
0000
1001
0000
0000
,
0001
0100
0001
1000
,
0010
1000
0001
0010
,
0100
1000
0010
0100
,
0001
0010
0001
1001
,
0000
0110
0000
0000
1001
0000
0000
0110
,
0000
1001
0000
2000
,
3200
0320
0032
0203
,
0000
0000
0300
1001
,
0000
0002
0000
0203
,
0000
0320
0000
2030
,
0000
0000
0000
0000
,
0000
0000
3002
0023
,
0000
0000
0000
0000
,
0000
0000
0000
0230
,
0000
0000
0000
0000
,
2300
3002
0203
0320
,
0000
0000
0000
2030
,
0001
0001
0000
0000
0000
0001
0000
0001
,
0000
0000
3200
0320
,
0000
0032
0000
0000
2003
0000
0000
3020
,
0000
0000
0230
0000
0000
0302
0000
0000
,
0013
0000
0000
0100
0000
0000
0110
0000
,
0000
1001
0000
0000
0200
0000
0010
0000
,
0000
0010
0300
2002
,
3003
0202
0303
2002
,
3003
2200
3300
2002
,
3003
0022
0033
2002
,
3003
2020
3030
0110
,
1000
0110
0001
1001
,
0100
1001
0010
0210
,
0001
0010
1000
0020
,
0000
0000
0000
0330
,
0000
0000
1000
0100
,
0110
1100
0001
0100
,
0110
0101
1000
0100
,
0110
0011
0001
0100
,
0110
1010
0001
0010
,
0110
1100
1000
0010
,
0110
0000
0000
0101
0000
0000
1000
0000
0100
2000
0000
0000
,
3001
0000
0010
0002
0000
0000
1003
0000
0010
2000
0000
0000
,
3010
0110
0001
0100
,
0101
1010
1000
0100
,
1100
0011
0001
1000
,
1010
0101
1000
0001
,
0011
1100
0010
0100
,
1001
0110
0100
0010
,
0110
0000
0000
1001
0000
0000
0001
0000
0100
0002
0000
0000
,
1003
0000
0010
2000
0000
0000
3100
0000
0010
0100
0000
0000
,
0220
0330
2002
3003
,
0202
0303
2002
3003
,
2200
3300
2002
3003
,
0022
0033
2002
3003
,
2020
3030
0220
0030
,
0301
0000
0001
0000
0001
0000
0220
0000
0000
0300
0000
0000
,
1030
0000
1000
0000
1000
0000
0002
0000
0000
0023
0000
0000
,
0230
0000
2300
0000
3010
1001
0100
0110
,
2002
0000
0000
0000
,
0000
0000
0000
0000
,
0000
0000
0000
0000
,
0000
0000
0000
0000
,
0000
0000
0000
0000
,
0000
0000
0000
0000
,
3003
0000
0000
0000
;

//--------------- dance-single - forcednature ----------------
#NOTEDATA:;
#STEPSTYPE:dance-single;
#DESCRIPTION:forcednature;
#DIFFICULTY:Medium;
#METER:14;
#RADARVALUES:0,0,0,0,0;
#CREDIT:forcednature;
#NOTES:
0000
0000
0000
0000
,
0000
0000
0000
0000
,
0000
0000
0000
0000
,
0000
0000
0000
0000
,
0000
0000
0000
0000
,
0000
0000
0000
0000
,
2000
0000
3000
0020
0000
0030
0200
0000
,
0300
0002
0000
0003
2000
0000
0000
3000
,
0002
0000
0003
0020
0000
0030
0200
0000
,
0300
2000
0000
3000
0002
0000
0000
0003
,
0220
0000
0000
0000
,
0000
0000
0000
0000
,
0000
0000
0000
0000
,
0000
0000
0000
0330
,
2000
0000
3000
0002
0000
0003
0200
0000
,
0302
0000
0003
2000
0000
3000
0020
0000
,
1030
1000
0001
0001
,
0010
0100
0110
0011
,
1100
0000
0011
0000
2200
3300
1010
0000
,
0101
0000
1010
0000
0202
0303
1001
0000
,
1100
0000
1001
0000
0022
0033
1001
0000
,
0101
0000
1001
1000
0010
1000
0010
0100
,
0001
0001
0010
0010
,
0001
1000
0100
1000
,
0010
0010
1000
1000
,
0001
0100
0001
1000
,
0100
0100
0010
0010
,
0001
1000
0010
1000
,
0001
0001
0010
0010
,
0100
1000
0002
0000
,
0103
0010
1000
0010
,
0100
0001
1000
0001
,
0010
0100
1000
0100
,
0010
0001
1000
0001
,
0100
0100
0010
0010
,
1000
0001
0100
0001
,
1000
1000
0100
0100
,
0110
0000
0000
0000
0000
0000
1001
0000
0000
0000
0000
0000
0010
0000
0200
0300
,
1000
0001
1000
0010
0200
0000
0301
0010
,
0100
0000
1000
0010
0100
0000
0001
1000
,
0100
0000
1000
0001
0010
0000
0001
1000
,
0010
0000
1000
0001
0010
0000
0100
1000
,
0010
0000
0100
0001
0010
0000
0001
1000
,
0100
0000
1000
0001
0100
0000
0010
0010
,
1000
0000
0001
0001
0100
0000
0010
0010
,
1000
0000
0000
0000
0001
0000
0000
0000
1000
0000
0000
0000
0001
0000
0000
0000
0000
0000
0010
0000
0000
0001
0000
0000
,
0100
0000
0010
1000
0100
0000
0010
0001
,
0100
0000
0010
1000
0100
0000
1000
0001
,
0100
0000
0001
1000
0100
0000
0010
0001
,
1000
0000
0010
1000
0001
0000
0011
0000
,
1000
0100
0000
1000
0010
0000
0001
0010
,
0000
1000
0001
0000
0101
0000
1000
0100
,
1000
0100
0010
0001
0010
0000
2002
0000
,
0000
0000
3003
0110
,
0000
0002
0000
0203
,
0000
0320
0000
2030
,
0000
0000
0000
0000
,
0000
0000
3002
0023
,
0000
0000
0000
0000
,
0000
0000
0000
0200
,
0000
0000
0030
0000
,
2300
0000
0000
0000
3001
0000
0000
0100
0000
0000
0010
0000
2000
0000
0000
0000
,
0000
0100
0000
3001
,
0020
1000
0000
0030
0000
0101
0000
0101
,
0000
0000
1000
0000
0001
0010
0100
0000
,
0000
0110
0000
0000
1001
0000
0000
1100
,
0000
0000
1010
0000
0000
0101
0000
0000
,
0011
0000
0000
1001
0000
0000
1010
0000
,
0000
1100
0000
0000
0011
0000
0100
0000
,
0001
0200
0300
0220
,
0330
2002
3003
0220
,
0330
2002
3003
2200
,
3300
0022
0033
0202
,
0303
2020
3030
2100
,
3010
0102
0013
2100
,
3010
0102
0013
0220
,
0000
0000
0330
2002
,
0000
0000
0000
3003
,
0000
0000
0000
0000
0000
0000
1000
0000
0100
0010
0000
0100
,
1000
0000
0000
0011
0000
0000
0001
0000
0100
0010
0000
0100
,
0001
0000
0000
1010
0000
0000
0001
0000
0010
0100
0000
0010
,
0001
0000
0000
1100
0000
0000
1000
0000
0010
0100
0000
0010
,
1000
0000
0000
0101
0000
0000
1000
0000
0100
1000
0000
0001
,
0010
0000
0000
0110
0000
0000
0001
0000
0100
0001
0000
1000
,
0010
0000
0000
0110
0000
0000
1000
0000
0100
1000
0000
0100
,
0010
0000
0001
0010
0000
0001
1000
0000
0010
1000
0000
0001
,
0100
0000
0000
0110
0000
0000
0001
0000
1000
0100
0000
1000
,
0001
0000
0000
0011
0000
0000
1000
0000
0001
0100
0000
0001
,
1000
0000
0000
1010
0000
0000
0001
0000
0010
0100
0000
1000
,
0010
0000
0000
0101
0000
0000
1000
0000
0010
0100
0000
0001
,
0010
0000
0000
1100
0000
0000
0001
0000
1000
0100
0000
1000
,
0010
0000
0000
0101
0000
0000
1000
0000
0001
0100
0000
0001
,
0010
0000
0000
1100
0000
0000
0001
0000
0010
0001
0000
0010
,
0100
0000
1000
0100
0000
1000
0001
0000
0100
0010
0000
1000
,
0002
0003
0022
0033
,
2200
3300
2020
3030
,
0202
0303
2002
3003
,
0220
0330
2002
3003
,
0220
0000
0330
0000
2002
0000
0000
3003
,
1100
0000
0000
0000
0110
0000
0000
0000
0011
0000
0000
0000
2002
0000
0000
0000
0000
0000
0000
0000
0000
3003
0000
0000
,
0101
0000
0000
0000
0110
0000
0000
0000
1010
0000
0000
0000
1000
0000
0000
0100
0000
0000
1000
0000
0000
0010
0000
0000
,
0100
0001
0010
0001
0100
0110
1010
0101
,
2002
0000
0000
0000
,
0000
0000
0000
0000
,
0000
0000
0000
0000
,
0000
0000
0000
0000
,
0000
0000
0000
0000
,
0000
0000
0000
0000
,
3003
0000
0000
0000
;

//--------------- dance-single - forcednature ----------------
#NOTEDATA:;
#STEPSTYPE:dance-single;
#DESCRIPTION:forcednature;
#DIFFICULTY:Hard;
#METER:17;
#RADARVALUES:0,0,0,0,0;
#CREDIT:forcednature;
#NOTES:
0000
0000
0000
0000
,
0000
0000
0000
0000
,
0000
0000
0000
0000
,
0000
0000
0000
0000
,
0000
0000
0000
0000
,
0000
0000
0000
0000
,
0002
0000
0000
0203
0000
0000
0320
0000
,
0000
2030
0000
0000
3002
0000
0023
0000
,
0230
0000
0000
2300
0000
0000
3002
0000
,
0000
0203
0000
0000
0320
0000
0030
0000
,
2001
0000
0100
0000
,
0001
0000
0010
0000
,
0001
0000
0100
0000
,
0001
0000
0010
3000
,
2000
0000
3100
0020
0000
0130
2000
0000
,
3002
0000
0103
0020
0000
0130
0002
0000
,
2003
0000
3100
2000
0000
3100
0020
0000
,
0031
0020
0000
0031
1000
0000
0101
0000
,
1010
0000
0101
0000
2020
3030
1100
0000
,
0011
0000
1100
0000
0022
0033
0101
0000
,
1100
0000
1010
0000
0022
0033
1100
0000
,
0101
0000
0000
0000
0011
0000
0001
1000
0001
1000
0001
1000
0001
1000
0010
0000
,
0110
0110
0101
0101
,
1000
0010
1000
0100
,
0110
0110
1100
1100
,
0001
0010
0001
0100
,
0110
0110
1001
1001
,
1000
0100
0010
0100
,
0110
0110
1001
1001
,
0001
0000
0100
0010
1000
0001
0100
0000
,
0010
1000
0100
1000
0010
1000
0001
0000
,
0011
0011
1100
1100
,
0010
0001
0100
0001
1000
0001
0010
0000
,
0101
0101
1010
1010
,
1000
0001
0010
0001
1000
0100
1000
0000
,
1010
1010
1100
1100
,
0001
0010
0001
1000
0010
1000
0100
0000
,
0110
0000
0000
0000
0000
0000
1001
0000
0000
0000
0000
0000
0010
0000
0020
0030
,
0001
1000
0001
1000
0010
0000
0100
0000
0001
0000
0000
0000
1000
0000
0100
0000
,
0001
0000
0100
1000
0001
0000
0010
0100
,
1000
0000
0010
0100
0001
0000
1000
0010
,
0001
0000
0010
1000
0001
0000
1000
0100
,
0010
0001
0100
0010
1000
0000
0001
0010
,
0100
1000
0010
0100
0002
0000
1003
0100
,
0001
0000
0100
0000
1000
0000
0001
0000
0010
0000
0000
0000
0100
0010
0100
0010
,
0100
0000
0000
0000
0010
0000
0000
0000
0100
0000
0000
0000
0110
0000
0000
0000
0000
0000
1000
0000
0000
0100
0000
0000
,
0001
0000
1000
0010
0001
0000
1000
0100
,
0001
0100
1000
0001
0010
0000
0001
0100
,
1000
0000
0001
0010
1000
0000
0001
0100
,
1000
0001
0010
1000
0001
0000
1001
0000
,
0100
0110
0000
0010
1001
0000
1000
1100
,
0000
0001
0101
0000
0020
0000
0031
0100
,
0001
0000
0010
0000
0100
0000
1000
0000
0010
0000
1000
0000
0001
1000
0001
1000
,
0001
1000
0001
1000
0001
1000
0001
1000
0010
0000
0000
0000
0110
0000
0000
0000
,
0000
0002
0000
2003
,
0000
3200
0000
0320
,
0000
0000
0000
0000
,
0000
0000
0000
0000
0032
2003
3020
0000
,
0000
0000
0000
0000
,
0000
0000
0000
0200
,
0000
0000
0000
0030
,
0302
0000
2003
0000
3200
0000
0000
0320
0000
0000
0032
0000
2003
0000
0000
0000
,
0000
0000
3010
0000
1000
0001
0010
0000
,
0100
0220
0000
0330
0000
1001
0000
1100
,
0000
0001
0010
0010
0001
1000
0020
0000
,
0030
0220
0000
0330
0101
0000
0001
0011
,
0000
0100
0110
0000
1000
1100
0000
0001
,
0011
0000
1000
1010
0000
0001
0101
0000
,
1000
1010
0000
0001
0021
0000
0130
0010
,
0100
0010
0100
1000
0001
0010
0022
0000
,
0033
0202
0303
2020
,
3030
2200
3300
2002
,
3003
0220
0330
0202
,
0303
2020
3030
1100
,
0001
0010
0100
1000
0000
0000
0001
0100
0010
1000
0000
0000
,
1000
0100
0010
0001
0000
0000
1000
0010
0100
0001
0010
0001
,
0010
0100
0010
0100
1000
0100
1000
0001
0100
0020
0000
0000
,
0000
0000
0000
0030
,
0000
0000
0000
0000
0000
0000
1000
0100
1000
0001
0010
0001
,
1000
0010
0100
0001
0000
0000
0001
0100
0001
1000
0010
1000
,
0001
0010
0100
1000
0000
0000
1000
0010
1000
0100
0010
0001
,
0100
0010
1000
0001
0000
0000
0001
0010
0001
0100
0010
1000
,
0100
0010
0001
1000
0000
0000
1000
0100
1000
0010
0100
0001
,
0010
0100
1000
0001
0000
0000
0001
0100
0001
0010
0100
1000
,
0001
0100
0010
1000
0000
0000
1000
0100
1000
0100
0010
0100
,
0010
0001
0010
0001
1000
0001
1000
0010
0100
0001
0100
0010
,
1000
0000
0000
0110
0000
0000
0001
0010
0100
1000
0100
0010
,
0001
1000
0010
0100
0000
0001
1000
0100
1000
0001
0100
0001
,
1000
0010
0100
0001
0000
1000
0010
0100
0001
0010
0100
1000
,
0010
0100
0001
1000
0000
0100
0010
0001
0100
0010
1000
0100
,
0010
0001
1000
0010
0000
0100
0001
1000
0100
1000
0001
0010
,
0001
1000
0010
0100
0000
0001
1000
0100
1000
0001
0100
0010
,
1000
0100
1000
0010
0000
0000
0100
0001
0100
0001
0010
0001
,
1000
0010
1000
0100
1000
0100
0010
0001
0100
0010
1000
0100
,
0020
0000
0000
0030
0000
0000
0110
0000
0000
0100
1000
0010
,
0100
0000
0000
0010
0100
0001
0010
0000
0000
0001
1000
0010
,
0100
0000
0000
0001
1000
0100
0010
0000
0000
0100
1000
0010
,
0100
0000
0000
0010
0100
0001
0010
0000
0000
0100
1000
0001
,
0100
0000
0000
0000
0110
0000
0000
0000
1010
0000
0000
0000
2002
0000
0000
0000
0000
0000
0000
0000
0000
3003
0000
0000
,
1100
0000
0000
0000
0110
0000
0000
0000
0011
0000
0000
0000
2002
0000
0000
0000
0000
0000
0000
0000
0000
3003
0000
0000
,
0101
0000
0000
0000
0000
0000
0000
0000
0110
0000
0000
0000
0000
0000
0000
0000
1010
0000
0000
0000
0000
0000
0000
0000
1000
0000
0000
0000
0000
0000
0100
0000
0000
1000
0000
0000
0100
0000
0000
0000
0000
0000
0010
0000
0000
0100
0000
0000
,
0010
0000
0001
0010
0001
0000
1000
0001
1000
0000
1010
0000
0110
0000
0101
0000
,
2002
0000
0000
0000
,
0000
0000
0000
0000
,
0000
0000
0000
0000
,
0000
0000
0000
0000
,
0000
0000
0000
0000
,
0000
0000
0000
0000
,
3003
0000
0000
0000
;

//--------------- dance-single - forcednature ----------------
#NOTEDATA:;
#STEPSTYPE:dance-single;
#DESCRIPTION:forcednature;
#DIFFICULTY:Challenge;
#METER:18;
#RADARVALUES:0,0,0,0,0;
#CREDIT:forcednature;
#NOTES:
0000
0000
0000
0000
,
0000
0000
0000
0000
,
0000
0000
0000
0000
,
0000
0000
0000
0000
,
0000
0000
0000
0000
,
0000
0000
0000
0000
,
1000
0200
0000
0310
0200
0000
0310
0002
,
0000
1003
0002
0000
0103
0001
1000
0010
,
0100
0002
0000
0103
0020
0000
1030
0020
,
0000
1030
0002
0000
0013
0100
1000
0001
,
0200
0000
0010
0000
,
0001
0010
0001
0000
,
0010
0000
1000
0000
,
0010
0001
0010
0000
,
0301
0000
0000
0010
0100
0000
1000
0000
0000
0010
0100
0000
0002
0000
0000
0000
,
1003
0000
0000
0100
0010
0000
0001
0000
0000
0100
0010
0000
2000
0000
0000
0000
,
3001
0000
0010
0001
1000
0000
0010
0000
1000
0001
0010
0000
0100
0000
1000
0001
,
0100
0000
0010
0100
0010
0100
0010
0100
0001
0000
0000
0000
1100
0000
0000
0000
,
0011
0000
1100
0000
0022
0033
0101
0000
,
1010
0000
0101
0000
2020
3030
1100
0001
,
0011
1000
1100
0001
0022
0033
0101
1000
,
1010
0000
0001
0000
0101
0000
0010
0100
0010
0100
0010
0100
0010
0100
0010
0000
,
1001
1001
1100
1100
,
1001
0011
1001
0011
,
1001
1001
0101
0101
,
1001
1010
1001
1010
,
1001
1001
0110
0110
,
1001
1100
1001
0101
,
0001
0010
0100
0001
0200
0000
1300
1000
,
0001
0000
0100
0001
0100
0000
0010
0000
1000
0001
0100
0010
1000
0000
0000
1000
,
0100
0000
0011
0000
0001
0100
1000
0000
,
0101
0000
0000
0000
1000
0000
0010
1000
0010
0000
0000
0100
0001
0000
1000
0000
,
0001
0000
0011
0000
1000
0100
0001
0000
,
1100
0000
0000
0000
0000
0000
0000
0000
0000
0000
0000
0000
0001
0000
0000
0000
0000
0000
0010
0000
0000
0000
0000
0000
0110
0000
0000
0000
0000
0000
0000
0000
0000
1000
0000
0000
0100
0000
0000
0000
0010
0000
0000
0000
0001
0000
0000
0000
,
1000
0000
0101
0000
1000
0010
0001
0000
,
1010
0000
0000
0000
0001
0000
0010
0000
0100
0000
0000
0010
0001
0010
0001
0000
,
1000
0010
0100
0010
1000
0001
0100
0001
,
1000
0000
0100
0010
0001
0000
1000
0000
0010
0100
0001
0000
1001
0000
2002
3003
,
1000
0100
0010
0001
0100
0000
0010
0000
1001
0000
0000
0000
0001
0100
0001
0000
,
0200
0000
0310
0000
1000
0100
1000
0000
0200
0000
0310
0000
0001
1000
0001
0000
,
0200
0000
0310
0000
1000
0001
1000
0000
0200
0000
0310
0000
0001
0100
0001
0000
,
2000
0000
3010
0000
1000
0100
1000
0000
0002
0000
0013
0001
0010
0100
0010
0000
,
0002
0000
1003
0000
0010
0100
0010
0000
2000
0000
3001
0000
0100
0010
0100
0000
,
0002
0000
1003
0000
0100
0010
0100
0000
0020
0000
0000
0000
0031
1000
0010
1000
,
0001
0000
0100
0000
0001
1000
0100
1000
0001
0000
0010
0000
0100
0010
0100
0000
,
0110
0000
0000
0000
0000
0000
0000
0000
0110
0000
0000
0000
0000
0000
0000
0000
0110
0000
0000
0000
0000
0000
0000
0000
1001
0000
0000
0000
0000
0000
0000
0000
0000
0000
0000
0000
1000
0000
0000
0100
0000
0000
0010
0000
0000
0000
0000
0000
,
0200
0000
1300
0000
0001
0100
0010
0000
0200
0000
0301
0000
1000
0010
0100
0000
,
0020
0000
1030
0000
0001
0010
0100
0000
0020
0000
0031
0000
0100
0010
1000
0000
,
0002
0000
0013
0000
0100
0010
0001
0000
2000
0000
3010
0000
1000
0100
0010
0000
,
0002
0000
1003
0000
0001
0100
0010
0000
1000
0001
0010
0100
2000
0000
0000
0000
,
3001
0011
0000
1000
1010
0000
0001
0101
,
0000
0000
0010
0000
0110
0000
0000
0000
1001
0000
0000
0000
1000
0100
1000
0100
,
0010
0001
0010
0001
1000
0010
0100
0010
1000
0001
0100
0001
0010
0100
1000
0100
,
0010
0100
1000
0100
0010
0001
1000
0001
0100
0000
0000
0000
1001
0000
0000
0000
,
0000
2000
0000
3200
,
0000
0320
0000
0032
,
0000
1000
0000
0100
,
0000
0000
2003
0000
3020
0230
0302
0000
,
0000
0010
0000
1000
,
0000
0100
0000
2003
,
0000
0010
0000
0001
,
0000
0000
3200
0000
0320
0000
0000
0032
0000
0000
2003
0000
3020
0000
0000
0000
,
0100
0000
1000
0000
0230
0302
2003
0000
,
3001
0021
0000
1000
0030
0210
0300
1002
,
0000
0010
0010
0010
2003
3020
0230
0000
,
0001
0320
0000
1000
0230
0000
0010
0302
,
0000
0000
1000
0000
0023
0000
0000
0000
0130
1000
0001
0010
0200
0000
0000
0000
,
1000
0000
1000
0000
0000
0000
0010
0000
0310
0100
1000
0001
0020
0000
0000
0000
,
0100
1000
0000
0100
0001
0000
0100
0100
,
0100
0000
0000
0130
0000
0000
0010
0000
0000
0001
0000
0000
1000
0000
0000
0010
0000
0000
1000
0000
0100
0000
1000
0000
,
0001
0010
0001
1000
0010
1000
0001
0100
0001
0010
0100
1000
,
0100
0010
0001
0100
0010
1000
0010
0100
0001
1000
0100
0010
,
0001
0100
0001
0010
0100
1000
0001
0100
0010
1000
0100
0010
,
0001
1000
0010
0100
0001
0010
0100
1000
0010
0110
0000
0000
,
0100
0001
0010
0011
0000
0000
0100
1000
0010
1010
0000
0000
,
0001
1000
0100
0110
0000
0000
1000
0001
0100
0020
2030
3200
,
0320
0000
0032
0000
0203
0000
0320
0000
2030
0000
3200
0000
2300
0000
3002
0000
0203
0300
0220
0000
0000
0000
0000
0000
,
0000
0000
0000
0330
,
0000
0000
0000
0000
0000
0000
2000
3100
0010
0001
0100
0010
,
2000
3100
0001
0200
1300
0001
0020
0130
1000
0010
0100
0001
,
2000
3010
0001
0020
1030
0001
0200
0301
0010
0100
1000
0010
,
2000
3100
0001
0200
1300
0001
0020
0031
1000
0010
1000
0001
,
0200
1300
0100
0002
1003
0010
2000
3100
0010
0001
0100
0010
,
2000
3100
0001
0200
1300
0001
0020
0130
1000
0010
0100
0001
,
2000
3010
0001
2000
3100
0001
2000
3200
2300
3200
0320
0230
,
0320
0032
2003
3020
2030
3002
0023
0230
2300
3020
0230
0302
,
0013
0000
0000
0110
0000
0000
0002
0103
0010
1000
0100
0010
,
0002
0103
1000
0200
0301
1000
0020
0130
0001
0010
0100
1000
,
0002
0013
1000
0020
0031
1000
0200
1300
0010
0100
0001
0010
,
0002
0103
1000
0200
0301
1000
0020
1030
0001
0010
0001
1000
,
0200
0301
0100
2000
3001
0010
0002
0103
0010
1000
0100
0010
,
0002
0103
1000
0200
0301
1000
0020
0130
0001
0010
0100
1000
,
0002
0013
1000
0002
0103
1000
0002
0203
0302
0203
0320
0230
,
0320
2030
3002
0023
0032
2003
3020
0230
0302
0023
0230
2300
,
3020
0000
0000
0030
0000
0000
1001
0000
0000
1000
0100
0010
,
0110
0000
0010
0001
0100
0010
0110
0000
0010
1000
0001
0010
,
0011
0000
0010
0001
1000
0010
1010
0000
1000
0100
0010
0100
,
1100
0000
0001
0100
0010
0100
0101
0000
1000
0001
0010
0001
,
0101
0000
0000
0000
0000
0000
0000
0000
0000
0000
0000
0000
0000
0000
0000
0000
0000
0000
0000
0000
0000
0000
0000
0000
0000
0000
0000
0000
0000
0000
0000
0000
0110
0000
0000
0000
0000
0000
0000
0000
0000
0000
0000
0000
0000
0000
0000
0000
0000
0000
0000
0000
0000
0000
0000
0000
0000
0000
0000
0000
0000
0000
0000
0000
1010
0000
0000
0000
0000
0000
0000
0000
0000
0000
0000
0000
0000
0000
0000
0000
0000
0000
0000
0000
0000
0000
0000
0000
0000
0000
0000
0000
0000
0000
0000
0000
1000
0000
0000
0000
0000
0000
0000
0000
0000
0000
0001
0000
0000
0000
0000
0000
0000
0000
0000
1000
0000
0000
0000
0000
0000
0000
0000
0000
0000
0001
0000
0000
0000
0000
0000
0000
0000
0000
1000
0000
0000
0000
0000
0000
0000
0000
0000
0000
0001
0000
0000
0000
0000
0000
0000
0000
0000
0000
1000
0000
0000
0000
0000
0000
0000
0000
0000
0001
0000
0000
0000
0000
0000
0000
0000
0000
0000
1000
0000
0000
0000
0000
0000
0000
0000
0000
0001
0000
0000
0000
0000
0000
0000
0000
0000
0000
,
1000
0000
0000
0000
0000
0000
0000
0000
0000
0000
0000
0000
0000
0000
0000
0000
0000
0000
0000
0000
0000
0000
0000
0000
0000
0000
0000
0000
0000
0000
0000
0000
1100
0000
0000
0000
0000
0000
0000
0000
0000
0000
0000
0000
0000
0000
0000
0000
0000
0000
0000
0000
0000
0000
0000
0000
0000
0000
0000
0000
0000
0000
0000
0000
0011
0000
0000
0000
0000
0000
0000
0000
0000
0000
0000
0000
0000
0000
0000
0000
0000
0000
0000
0000
0000
0000
0000
0000
0000
0000
0000
0000
0000
0000
0000
0000
0001
0000
0000
0000
0000
0000
0000
0000
0000
0000
1000
0000
0000
0000
0000
0000
0000
0000
0000
0001
0000
0000
0000
0000
0000
0000
0000
0000
0000
1000
0000
0000
0000
0000
0000
0000
0000
0000
0001
0000
0000
0000
0000
0000
0000
0000
0000
0000
1000
0000
0000
0000
0000
0000
0000
0000
0000
0000
0001
0000
0000
0000
0000
0000
0000
0000
0000
1000
0000
0000
0000
0000
0000
0000
0000
0000
0000
0001
0000
0000
0000
0000
0000
0000
0000
0000
1000
0000
0000
0000
0000
0000
0000
0000
0000
0000
,
0001
0000
0000
0000
0000
0000
0000
0000
0101
0000
0000
0000
0000
0000
0000
0000
1010
0000
0000
0000
0000
0000
0000
0000
1000
0000
0000
0010
0000
0000
0100
0000
0000
0010
0000
0000
1000
0000
0000
0001
0000
0000
0100
0000
0000
0001
0000
0000
,
1000
0100
0010
0001
1000
0010
0100
0001
0022
0033
2200
3300
2020
3030
0202
0303
,
2002
0000
0000
0000
,
0000
0000
0000
0000
,
0000
0000
0000
0000
,
0000
0000
0000
0000
,
0000
0000
0000
0000
,
0000
0000
0000
0000
,
3003
0000
0000
0000
;

//--------------- dance-double - forcednature ----------------
#NOTEDATA:;
#STEPSTYPE:dance-double;
#DESCRIPTION:forcednature;
#DIFFICULTY:Easy;
#METER:11;
#RADARVALUES:0,0,0,0,0;
#CREDIT:forcednature;
#NOTES:
00000000
00000000
00000000
00000000
,
00000000
00000000
00000000
00000000
,
00000000
00000000
00000000
00000000
,
00000000
00000000
00000000
00000000
,
00000000
00000000
00000000
00000000
,
00000000
00000000
00000000
00000000
,
00001000
00000000
00000000
00001000
00000000
00000000
00010000
00000000
,
00000000
00000100
00000000
00000000
00010000
00000000
00000000
00000000
,
00001000
00000000
00000000
00001000
00000000
00000000
01000000
00000000
,
00000000
00010000
00000000
00000000
00100000
00000000
00000000
00000000
,
20010000
00000000
00100000
00000000
,
00000000
00000000
00100000
00000000
,
00010000
00000000
00100000
00000000
,
00000000
00000000
30100000
00000000
,
10000000
00000000
00000000
01000000
00000000
00000000
00100000
00000000
,
01000000
00000000
00000000
00100000
00000000
00000000
00010000
00000000
,
00100000
00000000
00000000
00001000
00000000
00000000
00010000
00000000
,
00000000
00000100
00000000
00000000
00001000
00000000
00001001
00000000
,
00001001
00001001
00001001
00010100
,
00010100
00010100
00010100
01001000
,
01001000
01001000
01001000
10010000
,
10010000
00000000
10010000
00100000
00000000
00100000
00000000
01000000
,
00010000
00010000
10000000
00010000
,
00100000
00001000
00010000
00000000
,
00000100
00000100
00001000
00000100
,
00000010
00000001
00001000
00000000
,
00000010
00000010
00001000
00000010
,
00010000
00001000
00100000
00000000
,
00010000
00010000
10000000
00010000
,
01000000
00100000
10000000
00000000
,
01000000
01000000
00100000
00010000
,
00100000
00001000
00010000
00000100
,
00001000
00001000
00000001
00000100
,
00000001
00001000
00000010
00000100
,
00000001
00000001
00000010
00000100
,
00001000
00000100
00010000
00001000
,
01000000
01000000
00010000
10000000
,
00100000
00000000
00000000
01100000
00000000
00000000
10000000
00010000
,
00100000
01000000
01100000
00000000
,
00010000
00100000
00001000
00010000
,
00000100
00001000
00000010
00000100
,
00000001
00000010
00000001
00000100
,
00000010
00001000
00000100
00000010
,
00001000
00010000
01000000
00100000
,
00010000
01000000
00100000
10000000
,
01000000
00000000
01000000
00000000
01000000
00000000
00000000
00000000
00000000
10010000
00000000
00000000
,
00010000
01000000
00001000
00010000
,
00000100
00001000
00000010
00000100
,
00000001
00000010
00000100
00001000
,
00000010
00010000
00001000
00011000
,
00000000
00101000
00000000
00000000
00110000
00000000
00000000
00101000
,
00000000
00011000
00000000
02000000
,
03002000
00023000
00030020
00002030
,
00000000
00000000
00003000
00001001
,
00000000
00000002
00000000
00000023
,
00000000
00000230
00000000
00002300
,
00000000
00000000
00000000
00000000
,
00000000
00000000
00003020
00020030
,
00000000
00000000
00000000
00000000
,
00000000
00000000
00000000
00032000
,
00000000
00000000
00000000
00000000
,
02003000
03020000
20030000
30200000
,
00000000
00000000
00000000
20300000
,
00010000
00010000
00000000
00000000
00000000
00010000
00000000
00010000
,
00000000
00000000
32000000
03200000
,
00000000
00302000
00000000
00000000
00023000
00000000
00000000
00030200
,
00000000
00000000
00002300
00000000
00000000
00003002
00000000
00000000
,
00000013
00000000
00000000
00000100
00000000
00000000
00000110
00000000
,
00000000
00001001
00000000
00000000
00000002
00000000
00000100
00000000
,
00000000
00000100
00000003
00002002
,
00003003
00002020
00003030
00020200
,
00030300
00022000
00033000
02002000
,
03003000
00220000
00330000
20020000
,
30030000
02200000
03300000
10000000
,
01000000
00100000
00010000
00001000
,
00000100
00000010
00000001
00002000
,
00000100
00000001
00000010
00000002
,
00000000
00000000
00000000
00003003
,
00000000
00000000
00000001
00000100
,
00000010
00001010
00010000
00001000
,
00011000
00101000
00100000
00010000
,
01000000
01100000
00100000
10000000
,
11000000
00110000
00010000
00100000
,
00001000
00011000
00000100
00001000
,
00001010
00000101
00000002
00000023
,
00002030
00023000
02030000
23000000
,
30100000
01100000
00010000
10000000
,
01000000
01100000
00010000
00100000
,
00101000
00010100
00000100
00001000
,
00000010
00000110
00000001
00000010
,
00000011
00001100
00001000
00000010
,
00010000
00011000
01000000
00010000
,
00110000
11000000
20000000
32000000
,
03020000
00032000
00003200
00000302
,
00000023
00000030
00000022
00000033
,
00000202
00000303
00002020
00003030
,
00022000
00033000
00220000
00330000
,
02020000
03030000
20200000
30300000
,
22000000
33000000
00220000
00330000
,
00001000
00000000
00010000
00000000
00001000
00000000
00022000
00000000
00000000
00033000
00000000
00000000
,
00010000
00000000
00000100
00000000
00010000
00000000
00000200
00000000
00000000
00002300
00000000
00000000
,
00003002
00000000
00000023
00000000
00001030
00001000
00010000
00010000
,
00022000
00000000
00000000
00000000
,
00000000
00000000
00000000
00000000
,
00000000
00000000
00000000
00000000
,
00000000
00000000
00000000
00000000
,
00000000
00000000
00000000
00000000
,
00000000
00000000
00000000
00000000
,
00033000
00000000
00000000
00000000
;

//--------------- dance-double - forcednature ----------------
#NOTEDATA:;
#STEPSTYPE:dance-double;
#DESCRIPTION:forcednature;
#DIFFICULTY:Medium;
#METER:14;
#RADARVALUES:0,0,0,0,0;
#CREDIT:forcednature;
#NOTES:
00000000
00000000
00000000
00000000
,
00000000
00000000
00000000
00000000
,
00000000
00000000
00000000
00000000
,
00000000
00000000
00000000
00000000
,
00000000
00000000
00000000
00000000
,
00000000
00000000
00000000
00000000
,
00002000
00000000
00003000
00020000
00000000
00030000
00000200
00000000
,
00000300
00002000
00000000
00003000
00000020
00000000
00000030
00000000
,
00020000
00000000
00030000
00002000
00000000
00003000
02000000
00000000
,
03000000
00020000
00000000
00030000
00200000
00000000
00300000
00000000
,
00022000
00000000
00000000
00000000
,
00000000
00000000
00000000
00000000
,
00000000
00000000
00000000
00000000
,
00000000
00000000
00000000
00033000
,
02000000
00000000
03000000
00002000
00000000
00003000
00020000
00000000
,
00030200
00000000
00000300
00020000
00000000
00030000
00002000
00000000
,
00103000
00100000
00010000
00010000
,
00001000
00000100
00001001
00001100
,
00010100
00000000
00101000
00000000
00220000
00330000
01010000
00000000
,
01001000
00000000
00010010
00000000
00002020
00003030
00001100
00000000
,
00011000
00000000
01010000
00000000
00220000
00330000
01010000
00000000
,
00011000
00000000
00001010
00000010
00000100
00000010
00000100
00000001
,
00000010
00000010
00000100
00000100
,
00000010
00000100
00010000
00001000
,
00100000
00100000
01000000
01000000
,
00100000
00010000
10000000
00100000
,
10000000
10000000
01000000
01000000
,
00100000
00001000
00010000
00000100
,
00001000
00001000
00000001
00000001
,
00000100
00001000
00020000
00000000
,
00130000
01000000
00100000
10000000
,
00010000
00100000
01000000
10000000
,
01000000
00010000
00001000
00000010
,
00000100
00001000
00000001
00000010
,
00000001
00000001
00000100
00000100
,
00001000
00010000
00100000
01000000
,
00010000
00010000
10000000
10000000
,
10010000
00000000
00000000
00000000
00000000
00000000
01100000
00000000
00000000
00000000
00000000
00000000
10000000
00000000
00020000
00030000
,
00100000
00010000
00100000
00001000
00020000
00000000
00030100
00000000
,
00001100
00000000
00000001
00000000
00000011
00000000
00001000
00000100
,
00010000
00000000
00001000
00100000
00010000
00000000
01000000
00100000
,
10000000
00000000
01000000
00100000
00010000
00000000
01000000
00001000
,
00010000
00000000
00000010
00010000
00001000
00000000
00100000
00010000
,
01000000
00000000
00100000
10000000
01000000
00000000
00100000
00100000
,
00001000
00000000
00010000
00010000
00000100
00000000
00001000
00001000
,
00000001
00000000
00000000
00000000
00000001
00000000
00000000
00000000
00000001
00000000
00000000
00000000
00000010
00000000
00000000
00000000
00000000
00000000
00000100
00000000
00000000
00001000
00000000
00000000
,
00000010
00000000
00001000
00000100
00010000
00000000
00001000
00100000
,
00010000
00000000
01000000
00100000
10000000
00000000
01000000
00100000
,
00010000
00000000
00100000
00001000
00010000
00000000
00000100
00001000
,
00000010
00000000
00000100
00000001
00001000
00000000
00001001
00000000
,
00000001
00000010
00000000
00000100
00000010
00000000
00001000
00010000
,
00000000
01000000
00100000
00000000
01100000
00000000
10000000
00010000
,
10000000
01000000
00100000
00001000
00010000
00000000
00022000
00000000
,
00000000
00000000
00033000
00011000
,
00000000
00000200
00000000
00002300
,
00000000
00003020
00000000
00020030
,
00000000
00000000
00000000
00000000
,
00000000
00000000
00032000
00203000
,
00000000
00000000
00000000
00000000
,
00000000
00000000
00000000
02000000
,
00000000
00000000
00300000
00000000
,
23000000
00000000
00000000
00000000
30010000
00000000
00000000
00100000
00000000
00000000
00001000
00000000
00020000
00000000
00000000
00000000
,
00000000
00000000
00000000
00030020
,
00001000
00001000
00000000
00000030
00000000
00000101
00000000
00000101
,
00000000
00000000
00000001
00000000
00000010
00000100
00001000
00000000
,
00000000
00001100
00000000
00000000
00011000
00000000
00000000
00110000
,
00000000
00000000
00011000
00000000
00000000
00001010
00000000
00000000
,
00011000
00000000
00000000
01010000
00000000
00000000
01100000
00000000
,
00000000
10010000
00000000
00000000
01100000
00000000
10000000
00000000
,
01000000
00020000
00030000
00022000
,
00033000
00202000
00303000
00022000
,
00033000
00020020
00030030
00002200
,
00003300
00022000
00033000
02020000
,
03030000
00022000
00033000
00021000
,
00030010
00012000
00103000
00021000
,
00030100
00012000
01003000
02200000
,
00000000
00000000
03300000
20020000
,
00000000
00000000
00000000
30030000
,
00000000
00000000
00000000
00000000
00000000
00000000
10000000
00000000
01000000
00100000
00000000
00010000
,
00100000
00000000
00000000
00001000
00000000
00000000
00010000
00000000
00000010
00001000
00000000
00000010
,
00000100
00000000
00000000
00000101
00000000
00000000
00000001
00000000
00000010
00000100
00000000
00001000
,
00000100
00000000
00000000
00010000
00000000
00000000
00001000
00000000
01000000
00010000
00000000
10000000
,
00100000
00000000
00000000
01100000
00000000
00000000
10000000
00000000
00010000
00100000
00000000
00001000
,
00010000
00000000
00000000
00000100
00000000
00000000
00010000
00000000
00001000
00010000
00000000
00000010
,
00001000
00000000
00000000
00000110
00000000
00000000
00000001
00000000
00000010
00000001
00000000
00000010
,
00000100
00000000
00001000
00000100
00000000
00010000
00001000
00000000
00100000
00010000
00000000
00000000
,
01000000
00000000
00000000
01100000
00000000
00000000
00010000
00000000
10000000
00100000
00000000
10000000
,
01000000
00000000
00000000
00010000
00000000
00000000
00001000
00000000
00010000
00001000
00000000
00010000
,
00000100
00000000
00000000
00001100
00000000
00000000
00000001
00000000
00000010
00000100
00000000
00001000
,
00000010
00000000
00000000
00000100
00000000
00000000
00000001
00000000
00001000
00000100
00000000
00010000
,
00001000
00000000
00000000
00011000
00000000
00000000
00100000
00000000
00010000
01000000
00000000
00010000
,
10000000
00000000
00000000
00100000
00000000
00000000
10000000
00000000
01000000
00100000
00000000
00010000
,
00100000
00000000
00000000
00011000
00000000
00000000
00000010
00000000
00001000
00000010
00000000
00010000
,
00001000
00000000
00100000
00010000
00000000
00100000
01000000
00000000
10000000
00010000
00000000
01000000
,
00200000
00300000
02200000
03300000
,
02002000
03003000
00022000
00033000
,
00020200
00030300
00000220
00000330
,
00000022
00000033
00000202
00000303
,
00000220
00000000
00000330
00000000
00002002
00000000
00000000
00003003
,
00000001
00000000
00000000
00000000
00000100
00000000
00000000
00000000
00001000
00000000
00000000
00000000
00022000
00000000
00000000
00000000
00000000
00000000
00000000
00000000
00000000
00033000
00000000
00000000
,
00010000
00000000
00000000
00000000
00100000
00000000
00000000
00000000
10000000
00000000
00000000
00000000
00010000
00000000
00000000
00100000
00000000
00000000
01000000
00000000
00000000
00100000
00000000
00000000
,
00001000
00000000
00010000
00000000
00000100
00000000
00010000
00000000
00002000
00003000
00000020
00000030
00000002
00000003
00000200
00000300
,
00002002
00000000
00000000
00000000
,
00000000
00000000
00000000
00000000
,
00000000
00000000
00000000
00000000
,
00000000
00000000
00000000
00000000
,
00000000
00000000
00000000
00000000
,
00000000
00000000
00000000
00000000
,
00003003
00000000
00000000
00000000
;

//--------------- dance-double - forcednature ----------------
#NOTEDATA:;
#STEPSTYPE:dance-double;
#DESCRIPTION:forcednature;
#DIFFICULTY:Hard;
#METER:17;
#RADARVALUES:0,0,0,0,0;
#CREDIT:forcednature;
#NOTES:
00000000
00000000
00000000
00000000
,
00000000
00000000
00000000
00000000
,
00000000
00000000
00000000
00000000
,
00000000
00000000
00000000
00000000
,
00000000
00000000
00000000
00000000
,
00000000
00000000
00000000
00000000
,
00020000
00000000
00000000
00030200
00000000
00000000
00002300
00000000
,
00000000
00003020
00000000
00000000
00020030
00000000
00030000
00000000
,
00002000
00000000
00000000
02003000
00000000
00000000
03020000
00000000
,
00000000
00230000
00000000
00000000
00302000
00000000
00003000
00000000
,
00020000
00000000
00000100
00000000
,
00001000
00000000
00000010
00000000
,
00001000
00000000
00000100
00000000
,
00000000
00000000
00000010
00030000
,
00002000
00000000
00013000
00000200
00000000
00010300
00002000
00000000
,
00203000
00000000
00310000
02000000
00000000
03010000
00200000
00000000
,
00302000
00000000
00013000
00000020
00000000
00010030
00002000
00000000
,
00013000
00000200
00000000
00010300
00001000
00000000
00011000
00000000
,
00101000
00000000
00011000
00000000
02002000
03003000
00011000
00000000
,
00010010
00000000
00011000
00000000
00020200
00030300
00011000
00000000
,
01100000
00000000
10010000
00000000
02200000
03300000
00011000
00000000
,
00000110
00000000
00000000
00000000
00001001
00000000
00000001
00001000
00000001
00001000
00000001
00001000
00000001
00001000
00000010
00000000
,
00000110
00000110
00000101
00000101
,
00000001
00000010
00001000
00010000
,
00011000
00011000
00101000
00101000
,
00100000
00010000
01000000
00100000
,
01100000
01100000
10010000
10010000
,
10000000
01000000
00010000
00001000
,
00101000
00101000
00010100
00010100
,
00000100
00000000
00001000
00000010
00000100
00000001
00000010
00000000
,
00000100
00001000
00000100
00010000
00001000
00100000
00010000
00000000
,
00110000
00110000
11000000
11000000
,
10000000
00100000
01000000
00010000
01000000
00001000
00010000
00000000
,
00011000
00011000
00010100
00010100
,
00000100
00001000
00000010
00000100
00000001
00000010
00000100
00000000
,
00001100
00001100
00001010
00001010
,
00010000
00001000
00100000
00010000
00100000
00001000
00010000
00000000
,
00011000
00000000
00000000
00000000
00000000
00000000
01100000
00000000
00000000
00000000
00000000
00000000
10000000
00000000
00020000
00030000
,
10000000
00010000
10000000
00010000
00100000
00000000
01000000
00000000
10000000
00000000
00000000
00000000
01000000
00000000
00010000
00000000
,
00001000
00000000
00000010
00001000
00010000
00000000
00001000
00000010
,
00000001
00000000
00000100
00000001
00000010
00000000
00000100
00001000
,
00000010
00000000
00000100
00001000
00010000
00000000
00100000
00010000
,
00001000
01000000
00010000
10000000
00100000
00000000
10000000
01000000
,
00010000
00001000
00100000
00010000
00200000
00000000
00301000
00000010
,
00000100
00000000
00010000
00000000
00001000
00000000
00000010
00000000
00000001
00000000
00000000
00000000
00001000
00000001
00001000
00000001
,
00001000
00000000
00000000
00000000
00001000
00000000
00000000
00000000
00001000
00000000
00000000
00000000
00001001
00000000
00000000
00000000
00000000
00000000
00000001
00000000
00000000
00000100
00000000
00000000
,
00001000
00000000
00010000
00001000
00000100
00000000
00001000
00010000
,
00100000
10000000
00010000
01000000
00100000
00000000
10000000
01000000
,
00010000
00000000
00001000
00010000
01000000
00000000
00010000
00001000
,
00000010
00000001
00001000
00000100
00000010
00000000
00000110
00000000
,
00000100
00010000
00000000
00001000
00100000
00000000
00010000
01000000
,
00000000
10000000
01000000
00000000
01100000
00000000
10000000
01000000
,
00100000
00000000
00010000
00000000
00001000
00000000
00000100
00000000
00000010
00000000
00000001
00000000
00001000
00000001
00001000
00000001
,
00001000
00000001
00001000
00000001
00001000
00000001
00001000
00000001
00000100
00000000
00000000
00000000
00000110
00000000
00000000
00000000
,
00000000
00000002
00000000
00002003
,
00000000
00003200
00000000
00020300
,
00000000
00000000
00000000
00000000
,
00000000
00000000
00000000
00000000
00032000
02003000
03020000
00000000
,
00000000
00000000
00000000
00000000
,
00000000
00000000
00000000
20000000
,
00000000
00000000
00000000
00030000
,
30200000
00000000
02300000
00000000
03020000
00000000
00000000
00230000
00000000
00000000
00302000
00000000
00023000
00000000
00000000
00000000
,
00000000
00000000
00030100
00000000
00010000
00001000
00000010
00000000
,
00000100
00000220
00000000
00000330
00000000
00001001
00000000
00001100
,
00000000
00000001
00000100
00000100
00000001
00001000
00000020
00000000
,
00000030
00002002
00000000
00003003
00000110
00000000
00000001
00000100
,
00000000
00001000
00010000
00000000
01000000
10000000
00000000
00100000
,
01100000
00000000
00010000
00011000
00000000
00000010
00000110
00000000
,
00001000
00011000
00000000
01000000
01100000
00000000
10000000
00010000
,
10000000
00010000
00100000
01000000
00010000
00000000
00022000
00000000
,
00033000
00000220
00000330
00002002
,
00003003
00000220
00000330
00022000
,
00033000
02200000
03300000
20020000
,
30030000
02200000
03300000
10010000
,
10000000
01000000
00100000
00010000
00000000
00000000
00001000
00000100
00000010
00000001
00000000
00000000
,
00000001
00000100
00000010
00001000
00000000
00000000
00010000
01000000
00100000
10000000
00100000
10000000
,
01000000
10000000
01000000
00010000
01000000
00010000
00001000
00010000
00001000
00200000
00000000
00000000
,
00000000
00000000
00000000
00300000
,
00000000
00000000
00000000
00000000
00000000
00000000
00001000
00010000
00001000
00010000
00000100
00001000
,
00000100
00000000
00000000
00000110
00000000
00000000
00000010
00000001
00001000
00000100
00001000
00000001
,
00000010
00000000
00000000
00001001
00000000
00000000
00001000
00000010
00010000
00001000
00010000
00000100
,
00001000
00000000
00000000
00010100
00000000
00000000
00010000
00001000
00100000
00010000
00100000
00001000
,
00010000
00000000
00000000
00011000
00000000
00000000
01000000
00010000
01000000
00100000
10000000
00100000
,
01000000
00000000
00000000
10010000
00000000
00000000
00010000
00100000
00001000
00010000
00000100
00001000
,
00000100
00000000
00000000
00000110
00000000
00000000
00000001
00000100
00000001
00000100
00000010
00000100
,
00000010
00001000
00000010
00010000
00001000
00010000
00000100
00001000
00000100
00010000
00001000
00100000
,
00010000
00000000
00000000
01100000
00000000
00000000
10000000
00100000
10000000
00100000
01000000
00010000
,
01000000
00000000
00010000
00100000
00000000
00000000
00001000
00010000
00000100
00001000
00000100
00010000
,
00001000
00000000
00010000
00000010
00000000
00000000
00001000
00000100
00000010
00000001
00000010
00000100
,
00001000
00000000
00000010
00010000
00000000
00000000
00001000
00100000
00010000
01000000
00010000
00100000
,
00001000
00000000
00010000
00000100
00000000
00000000
00001000
00000010
00000100
00000001
00000010
00000100
,
00001000
00000000
00000001
00000100
00000000
00000000
00000010
00001000
00000010
00010000
00001000
01000000
,
00010000
00000000
00100000
01000000
00000000
00000000
10000000
00100000
10000000
01000000
10000000
01000000
,
00100000
00010000
00100000
00001000
00010000
00000100
00001000
00000010
00000100
00000001
00000010
00000100
,
00002000
00000000
00000000
00003000
00000000
00000000
00000011
00000000
00000000
00000001
00000100
00000010
,
00001000
00000000
00000000
00010000
01000000
00100000
10000000
00000000
00000000
10000000
01000000
00100000
,
00010000
00000000
00000000
00001000
00000100
00000010
00000001
00000000
00000000
00000001
00000100
00001000
,
00010000
00000000
00000000
00001000
00010000
00100000
10000000
00000000
00000000
10000000
01000000
00010000
,
00001000
00000000
00000000
00000000
00011000
00000000
00000000
00000000
00010100
00000000
00000000
00000000
00002200
00000000
00000000
00000000
00000000
00000000
00000000
00000000
00000000
00003300
00000000
00000000
,
00001010
00000000
00000000
00000000
00001100
00000000
00000000
00000000
00011000
00000000
00000000
00000000
02020000
00000000
00000000
00000000
00000000
00000000
00000000
00000000
00000000
03030000
00000000
00000000
,
00110000
00000000
00000000
00000000
00000000
00000000
00000000
00000000
01010000
00000000
00000000
00000000
00000000
00000000
00000000
00000000
00011000
00000000
00000000
00000000
00000000
00000000
00000000
00000000
00001000
00000000
00000000
00000000
00000000
00000000
00010000
00000000
00000000
00001000
00000000
00000000
00010000
00000000
00000000
00000000
00000000
00000000
00000100
00000000
00000000
00001000
00000000
00000000
,
00000100
00000000
00000010
00000001
00000010
00000000
00000100
00001000
00000001
00000000
00000101
00000000
00001100
00000000
00011000
00000000
,
00202000
00000000
00000000
00000000
,
00000000
00000000
00000000
00000000
,
00000000
00000000
00000000
00000000
,
00000000
00000000
00000000
00000000
,
00000000
00000000
00000000
00000000
,
00000000
00000000
00000000
00000000
,
00303000
00000000
00000000
00000000
;

//--------------- dance-double - forcednature ----------------
#NOTEDATA:;
#STEPSTYPE:dance-double;
#DESCRIPTION:forcednature;
#DIFFICULTY:Challenge;
#METER:18;
#RADARVALUES:0,0,0,0,0;
#CREDIT:forcednature;
#NOTES:
00000000
00000000
00000000
00000000
,
00000000
00000000
00000000
00000000
,
00000000
00000000
00000000
00000000
,
00000000
00000000
00000000
00000000
,
00000000
00000000
00000000
00000000
,
00000000
00000000
00000000
00000000
,
00001000
00020000
00000000
00030100
00002000
00000000
00003010
00000200
,
00000000
00000301
00000020
00000000
00000130
00010000
00001000
00100000
,
00010000
02000000
00000000
03100000
20000000
00000000
31000000
00200000
,
00000000
00310000
02000000
00000000
03001000
00010000
00000010
00001000
,
00000200
00000000
00000010
00000000
,
00000001
00000010
00000001
00000000
,
00000010
00000000
00001000
00000000
,
00010000
00001000
00010000
00000300
,
00000100
00000000
00000000
00010000
00001000
00000000
00100000
00000000
00000000
00001000
00010000
00000000
00000200
00000000
00000000
00000000
,
00001300
00000000
00000000
00000010
00000100
00000000
00000001
00000000
00000000
00000010
00000100
00000000
00002000
00000000
00000000
00000000
,
00003010
00000000
00001000
00000010
00010000
00000000
00001000
00000000
00010000
00001000
00100000
00000000
00010000
00000000
00100000
00010000
,
01000000
00000000
00100000
01000000
00100000
10000000
00100000
01000000
00010000
00000000
00000000
00000000
11000000
00000000
00000000
00000000
,
00110000
00000000
00001100
00000000
00000022
00000033
00000101
00000000
,
00001010
00000000
01010000
00000000
20200000
30300000
11000000
00010000
,
00110000
00000100
00001100
00000001
00000022
00000033
00000101
00001000
,
00001010
00000000
01000000
00000000
01010000
00000000
00100000
01000000
00100000
01000000
00100000
01000000
00100000
01000000
00100000
00000000
,
10010000
10010000
11000000
11000000
,
10010000
00101000
00010100
00000110
,
00001001
00001001
00000101
00000101
,
00001001
00010010
01001000
01100000
,
10010000
11000000
10100000
11000000
,
00110000
00011000
00001100
00011000
,
00000010
00001000
00000100
00010000
00002000
00000000
01003000
01000000
,
00010000
00000000
01000000
00100000
10000000
00000000
00010000
00000000
00100000
00010000
00100000
00001000
00010000
00000000
00000000
00010000
,
00000100
00000000
00001100
00000000
00001000
00000010
00000001
00000000
,
00001010
00000000
00000000
00000000
00000001
00000000
00000100
00000001
00000100
00000000
00000000
00000010
00001000
00000000
00000001
00000000
,
00000010
00000000
00001100
00000000
00000100
00010000
00001000
00000000
,
00110000
00000000
00000000
00000000
00000000
00000000
00000000
00000000
00000000
00000000
00000000
00000000
10000000
00000000
00000000
00000000
00000000
00000000
00100000
00000000
00000000
00000000
00000000
00000000
01100000
00000000
00000000
00000000
00000000
00000000
00000000
00000000
00000000
10000000
00000000
00000000
00010000
00000000
00000000
00000000
00100000
00000000
00000000
00000000
01000000
00000000
00000000
00000000
,
10000000
00000000
00110000
00000000
00100000
00001000
00000010
00000000
,
00000110
00000000
00000000
00000000
00000100
00000000
00001000
00000000
00000001
00000000
00000000
00000100
00000001
00000100
00000001
00000000
,
00000100
00001000
00010000
00001000
00010000
00100000
10000000
00100000
,
01000000
00000000
00010000
10000000
00100000
00000000
01000000
00000000
00010000
01000000
00001000
00000000
00011000
00000000
00022000
00033000
,
00001000
01000000
00010000
01000000
00100000
00000000
01100000
00000000
10010000
00000000
00000000
00000000
10000000
01000000
10000000
00000000
,
00020000
00000000
00130000
00000000
00001000
00010000
00001000
00000000
00200000
00000000
00310000
00000000
00100000
00001000
00010000
00000000
,
00000200
00000000
00001300
00000000
00000100
00000010
00000001
00000000
00000200
00000000
00000301
00000000
00000100
00000010
00001000
00000000
,
00000002
00000000
00000013
00000000
00000100
00001000
00000001
00000000
00000200
00000000
00000310
00001000
00000010
00000100
00000001
00000000
,
00002000
00000000
00003100
00000000
00010000
00001000
00100000
00000000
00020000
00000000
01030000
00000000
00001000
00010000
00001000
00000000
,
00200000
00000000
00310000
00000000
10000000
01000000
00100000
00000000
00020000
00000000
00000000
00030000
01000000
00010000
01000000
00001000
,
00010000
00000000
00000100
00000000
00001000
00000100
00000010
00000100
00001000
00000000
00000001
00000000
00000100
00000010
00000100
00000000
,
00000110
00000000
00000000
00000000
00000000
00000000
00000000
00000000
00000110
00000000
00000000
00000000
00000000
00000000
00000000
00000000
00000110
00000000
00000000
00000000
00000000
00000000
00000000
00000000
00011000
00000000
00000000
00000000
00000000
00000000
00000000
00000000
00000000
00000000
00000000
00000000
01000000
00000000
00000000
00010000
00000000
00000000
00100000
00000000
00000000
00000000
00000000
00000000
,
02000000
00000000
13000000
00000000
01000000
00100000
00010000
00000000
02000000
00000000
03001000
00000000
00010000
00000010
00001000
00000000
,
00000200
00000000
00000310
00000000
00000100
00001000
00000001
00000000
00000200
00000000
00000310
00000000
00001000
00000100
00010000
00000000
,
00002000
00000000
00103000
00000000
00010000
01000000
00100000
00000000
20000000
00000000
30010000
00000000
00100000
01000000
10000000
00000000
,
02000000
00000000
03010000
00000000
00001000
00100000
00010000
00000000
00100000
00001000
00010000
00000100
00002000
00000000
00000000
00000000
,
00003010
00001010
00000000
00010000
00011000
00000000
00000100
00001100
,
00000000
00000000
00010000
00000000
00011000
00000000
00000000
00000000
01100000
00000000
00000000
00000000
10000000
01000000
10000000
01000000
,
00100000
00010000
00100000
00001000
00010000
00000100
00001000
00000100
00000010
00000001
00000010
00000001
00000100
00000010
00001000
00000010
,
00010000
00000010
00001000
00000010
00000100
00000010
00001000
00000010
00010000
00000000
00000000
00000000
00011000
00000000
00000000
00000000
,
00000000
00200000
00000000
00320000
,
00000000
00032000
00000000
00003200
,
00000000
00000010
00000000
00000001
,
00000000
00000000
00000320
00000000
00000032
00002003
00003020
00000000
,
00000000
00000001
00000000
00000100
,
00000000
00001000
00000000
00020030
,
00000000
00000100
00000000
00001000
,
00000000
00000000
00230000
00000000
02300000
00000000
00000000
03020000
00000000
00000000
20030000
00000000
30200000
00000000
00000000
00000000
,
00010000
00000000
01000000
00000000
20300000
32000000
03020000
00000000
,
00031000
00201000
00000000
01000000
00300000
00012000
00003000
00000210
,
00000000
00001000
00001000
00001000
00000320
00000032
00000203
00000000
,
00001000
00000320
00000000
00001000
00020030
00000000
01000000
00032000
,
00000000
00000000
00103000
00000000
00020000
00000000
00000000
00030000
00001000
00010000
00000100
00001000
00000020
00000000
00000000
00000000
,
00000001
00000000
00000001
00000000
00000000
00000000
00000100
00000030
00000100
00000010
00001000
00000001
00000200
00000000
00000000
00000000
,
00001000
00000010
00000000
00000001
00000010
00000000
00001000
00001000
,
00001000
00000000
00000000
00001300
00000000
00000000
00000100
00000000
00000000
00001000
00000000
00000000
00010000
00000000
00000000
00100000
00000000
00000000
01000000
00000000
00010000
00000000
01000000
00000000
,
00001000
00010000
00001000
00100000
00010000
00100000
00001000
00010000
00001000
00000010
00000100
00001000
,
00000100
00010000
00001000
00100000
00010000
00100000
00001000
00010000
00001000
01000000
00010000
00100000
,
01000000
10000000
00100000
10000000
00010000
00100000
00010000
01000000
00001000
00010000
00000010
00001000
,
00000010
00000100
00000001
00001000
00000010
00001000
00000100
00000010
00000001
00000011
00000000
00000000
,
00001000
00000100
00010000
00011000
00000000
00000000
01000000
00010000
00100000
00110000
00000000
00000000
,
00010000
10000000
01000000
01100000
00000000
00000000
00010000
10000000
00100000
20000000
32000000
03020000
,
00032000
00203000
00320000
00032000
00003200
00020300
00032000
00003020
00000032
00000203
00000000
00000000
,
00000000
00000000
00000000
00000300
,
00000000
00000000
00000000
00000000
00000000
00000000
00000002
00000013
00000100
00001000
00000010
00000100
,
00000002
00000013
00000100
00002000
00003100
00010000
00002000
00103000
00010000
01000000
00100000
10000000
,
02000000
03010000
00001000
00200000
00310000
10000000
02000000
03010000
00001000
00100000
00010000
00100000
,
00002000
00013000
00000010
00000200
00000301
00000010
00000200
00010300
00001000
00000010
00000100
00001000
,
00000002
00000103
00001000
00020000
00031000
00000100
00000020
00001030
00000001
00000010
00000100
00000010
,
00002000
00013000
01000000
00200000
00310000
10000000
00200000
10300000
01000000
00010000
00001000
00100000
,
00020000
01030000
00100000
20000000
31000000
00100000
02000000
23000000
32000000
03020000
02030000
03020000
,
00032000
00023000
00032000
00003020
00002030
00003020
00000032
00000203
00000320
00002030
00023000
02030000
,
03100000
00000000
00000000
01100000
00000000
00000000
20000000
30100000
01000000
00010000
00100000
01000000
,
20000000
30100000
01000000
00020000
01030000
00001000
00020000
00030010
00001000
00000100
00000010
00000001
,
00000200
00001300
00010000
00000020
00001030
00000001
00000200
00001300
00010000
00000010
00001000
00000010
,
00020000
00031000
00100000
02000000
13000000
00100000
02000000
03001000
00010000
00100000
01000000
00010000
,
20000000
31000000
00010000
00002000
00013000
01000000
00200000
00310000
10000000
00100000
01000000
00100000
,
00020000
00031000
00000100
00000020
00001030
00000001
00000020
00000031
00000100
00001000
00010000
00000010
,
00002000
00003100
00000010
00000002
00000103
00000010
00000200
00000302
00000203
00002300
00003200
00002300
,
00023000
00032000
00023000
00230000
00320000
00230000
20300000
32000000
03020000
00032000
00003200
00000302
,
00000023
00000000
00000000
00000030
00000000
00000000
00001001
00000000
00000000
00000001
00000100
00001000
,
00010000
00000000
00000000
00001000
00000100
00000001
00001000
00000000
00000000
00000001
00000010
00001000
,
00010000
00000000
00000000
00001000
00000010
00000001
00001000
00000000
00000000
00000010
00000100
00001000
,
00010000
00000000
00000000
01000000
00100000
01000000
00010000
00000000
00000000
00001000
00000010
00000100
,
00000010
00000000
00000000
00000000
00000000
00000000
00000000
00000000
00000000
00000000
00000000
00000000
00000000
00000000
00000000
00000000
00000000
00000000
00000000
00000000
00000000
00000000
00000000
00000000
00000000
00000000
00000000
00000000
00000000
00000000
00000000
00000000
00000110
00000000
00000000
00000000
00000000
00000000
00000000
00000000
00000000
00000000
00000000
00000000
00000000
00000000
00000000
00000000
00000000
00000000
00000000
00000000
00000000
00000000
00000000
00000000
00000000
00000000
00000000
00000000
00000000
00000000
00000000
00000000
00001001
00000000
00000000
00000000
00000000
00000000
00000000
00000000
00000000
00000000
00000000
00000000
00000000
00000000
00000000
00000000
00000000
00000000
00000000
00000000
00000000
00000000
00000000
00000000
00000000
00000000
00000000
00000000
00000000
00000000
00000000
00000000
00000001
00000000
00000000
00000000
00000000
00000000
00000000
00000000
00000000
00000000
00001000
00000000
00000000
00000000
00000000
00000000
00000000
00000000
00000000
00000001
00000000
00000000
00000000
00000000
00000000
00000000
00000000
00000000
00000000
00001000
00000000
00000000
00000000
00000000
00000000
00000000
00000000
00000000
00000001
00000000
00000000
00000000
00000000
00000000
00000000
00000000
00000000
00000000
00001000
00000000
00000000
00000000
00000000
00000000
00000000
00000000
00000000
00000000
00000001
00000000
00000000
00000000
00000000
00000000
00000000
00000000
00000000
00001000
00000000
00000000
00000000
00000000
00000000
00000000
00000000
00000000
00000000
00000001
00000000
00000000
00000000
00000000
00000000
00000000
00000000
00000000
00001000
00000000
00000000
00000000
00000000
00000000
00000000
00000000
00000000
00000000
,
00000010
00000000
00000000
00000000
00000000
00000000
00000000
00000000
00000000
00000000
00000000
00000000
00000000
00000000
00000000
00000000
00000000
00000000
00000000
00000000
00000000
00000000
00000000
00000000
00000000
00000000
00000000
00000000
00000000
00000000
00000000
00000000
00010000
00000000
00000000
00000000
00000000
00000000
00000000
00000000
00000000
00000000
00000000
00000000
00000000
00000000
00000000
00000000
00000000
00000000
00000000
00000000
00000000
00000000
00000000
00000000
00000000
00000000
00000000
00000000
00000000
00000000
00000000
00000000
00100000
00000000
00000000
00000000
00000000
00000000
00000000
00000000
00000000
00000000
00000000
00000000
00000000
00000000
00000000
00000000
00000000
00000000
00000000
00000000
00000000
00000000
00000000
00000000
00000000
00000000
00000000
00000000
00000000
00000000
00000000
00000000
10000000
00000000
00000000
00000000
00000000
00000000
00000000
00000000
00000000
00000000
00010000
00000000
00000000
00000000
00000000
00000000
00000000
00000000
00000000
10000000
00000000
00000000
00000000
00000000
00000000
00000000
00000000
00000000
00000000
00010000
00000000
00000000
00000000
00000000
00000000
00000000
00000000
00000000
10000000
00000000
00000000
00000000
00000000
00000000
00000000
00000000
00000000
00000000
00010000
00000000
00000000
00000000
00000000
00000000
00000000
00000000
00000000
00000000
10000000
00000000
00000000
00000000
00000000
00000000
00000000
00000000
00000000
00010000
00000000
00000000
00000000
00000000
00000000
00000000
00000000
00000000
00000000
10000000
00000000
00000000
00000000
00000000
00000000
00000000
00000000
00000000
00010000
00000000
00000000
00000000
00000000
00000000
00000000
00000000
00000000
00000000
,
00100000
00000000
00000000
00000000
00000000
00000000
00000000
00000000
00001000
00000000
00000000
00000000
00000000
00000000
00000000
00000000
00000010
00000000
00000000
00000000
00000000
00000000
00000000
00000000
00000001
00000000
00000000
00000100
00000000
00000000
00000010
00000000
00000000
00001000
00000000
00000000
00000010
00000000
00000000
00010000
00000000
00000000
00001000
00000000
00000000
01000000
00000000
00000000
,
00010000
01000000
00100000
10000000
00010000
00100000
01000000
10000000
20020000
30030000
02200000
03300000
00022000
00033000
00000220
00000330
,
00002002
00000000
00000000
00000000
,
00000000
00000000
00000000
00000000
,
00000000
00000000
00000000
00000000
,
00000000
00000000
00000000
00000000
,
00000000
00000000
00000000
00000000
,
00000000
00000000
00000000
00000000
,
00003003
00000000
00000000
00000000
;
