#VERSION:0.83;
#TITLE:I FIGHT ME;
#SUBTITLE:;
#ARTIST:kobo feat. Marsha;
#TITLETRANSLIT:;
#SUBTITLETRANSLIT:;
#ARTISTTRANSLIT:;
#GENRE:DRUM & BASS;
#CREDIT:;
#MUSIC:I FIGHT ME.ogg;
#BANNER:I FIGHT ME.png;
#BACKGROUND:I FIGHT ME-bg.png;
#CDTITLE:./CDTitles/bm IIDX 18 Resort Anthem.png;
#SAMPLESTART:55.820;
#SAMPLELENGTH:15.000;
#SELECTABLE:YES;
#OFFSET:1.087;
#BPMS:0.000=175.000;
#STOPS:;
#TIMESIGNATURES:0.000=4=4;
#BGCHANGES:0.000=I FIGHT ME.mp4=1.000=0=0=0=StretchNoLoop====,
99999.000=-nosongbg-=1.000=0=0=0=StretchNoLoop====
;
#FGCHANGES:;

//--------------- dance-single - forcednature ----------------
#NOTEDATA:;
#STEPSTYPE:dance-single;
#DESCRIPTION:forcednature;
#DIFFICULTY:Beginner;
#METER:1;
#RADARVALUES:0,0,0,0,0;
#CREDIT:forcednature;
#NOTES:
0000
0000
0000
0000
,
0000
0000
0000
0000
,
0000
0000
0000
0000
,
0000
0000
0000
0000
,
0000
0000
0000
0000
,
0000
0000
0000
0000
,
0000
0000
0000
0000
,
0000
0000
0000
0000
,
0000
0000
0000
0000
,
0000
0000
0000
0000
,
0001
0000
0000
0000
,
0000
0000
0000
0000
,
0000
0000
0000
0000
,
0000
0000
0000
0000
,
1000
0000
0000
0000
,
0000
0000
0000
0000
,
0010
0000
0000
0000
,
0000
0000
0000
0000
,
0100
0000
0000
0000
,
0000
0000
0000
0000
,
0001
0000
0000
0000
,
0000
0000
0000
0000
,
1000
0000
0000
0000
,
0000
0000
0000
0000
,
0100
0000
0000
0000
,
0000
0000
0000
0000
,
0010
0000
0000
0000
,
0000
0000
0000
0000
,
0001
0000
0000
0000
,
0000
0000
0000
0000
,
1000
0000
0000
0000
,
0000
0000
0000
0000
,
0010
0000
0000
0000
,
0000
0000
0000
0000
,
1000
0000
0000
0000
,
0000
0000
0000
0000
,
0100
0000
0000
0000
,
0000
0000
0000
0000
,
0010
0000
0000
0000
,
0000
0000
0000
0000
,
0001
0000
0000
0000
,
0000
0000
0000
0000
,
1000
0000
0000
0000
,
0000
0000
0000
0000
,
0010
0000
0000
0000
,
0000
0000
0000
0000
,
0100
0000
0000
0000
,
0000
0000
0000
0000
,
0001
0000
0000
0000
,
0000
0000
0000
0000
,
0010
0000
0000
0000
,
0000
0000
0000
0000
,
0100
0000
0000
0000
,
0000
0000
0000
0000
,
1000
0000
0000
0000
,
0000
0000
0000
0000
,
0001
0000
0000
0000
,
0000
0000
0000
0000
,
1001
0000
0000
0000
,
0000
0000
0000
0000
,
0000
0000
0000
0000
,
0000
0000
0000
0000
,
1000
0000
0000
0000
,
0000
0000
0000
0000
,
0001
0000
0000
0000
,
0000
0000
0000
0000
,
1000
0000
0000
0000
,
0000
0000
0000
0000
,
0010
0000
0000
0000
,
0000
0000
0000
0000
,
0100
0000
0000
0000
,
0000
0000
0000
0000
,
0001
0000
0000
0000
,
0000
0000
0000
0000
,
0010
0000
0000
0000
,
0000
0000
0000
0000
,
0100
0000
0000
0000
,
0000
0000
0000
0000
,
1000
0000
0000
0000
,
0000
0000
0000
0000
,
0000
0000
0000
0000
,
0000
0000
0000
0000
,
0001
0000
0000
0000
,
0000
0000
0000
0000
,
0000
0000
0000
0000
,
0000
0000
0000
0000
,
0100
0000
0000
0000
;

//--------------- dance-single - forcednature ----------------
#NOTEDATA:;
#STEPSTYPE:dance-single;
#DESCRIPTION:forcednature;
#DIFFICULTY:Easy;
#METER:4;
#RADARVALUES:0,0,0,0,0;
#CREDIT:forcednature;
#NOTES:
0000
0000
0000
0000
,
0000
0000
0000
0000
,
0000
0000
0000
0000
,
0000
0000
0000
0000
,
0000
0000
0000
0000
,
0000
0000
0000
0000
,
0000
0000
0000
0000
,
0000
0000
0000
0000
,
0000
0000
0000
0000
,
0000
0000
0000
0000
,
2000
0000
0000
0000
,
3000
0000
0000
0000
,
0100
0000
0000
0000
,
0010
0000
0000
0000
,
0001
0000
0000
0000
,
0100
0000
0000
0000
,
0010
0000
1000
0000
,
0001
0000
0010
0000
,
0100
0000
0000
0000
,
1000
0000
0001
0000
,
0100
0000
0000
0000
,
0010
0000
1000
0000
,
0001
0000
0000
0000
,
1000
0000
0100
0000
,
0010
0000
0000
0000
,
0001
0001
0100
0000
,
1001
0000
0000
0000
,
1000
0000
0010
0000
,
1000
0000
0000
0000
,
0001
0000
0010
0000
,
0001
0000
0000
0000
,
1000
0000
0100
0000
,
1000
0000
0000
0000
,
0001
0000
0100
0000
,
1001
0000
0000
0000
,
1000
0100
1000
0000
,
0010
0000
0000
0000
,
0001
0100
0001
0000
,
0010
0000
0000
0000
,
1000
0010
1000
0000
,
0100
0000
0000
0000
,
0001
0001
0001
0000
,
1001
0000
1000
0000
,
0010
0000
0100
0000
,
0001
0000
0010
0000
,
0100
1000
0100
0000
,
0010
0000
0001
0000
,
1000
0000
0010
0000
,
0100
0000
0001
0000
,
0010
0000
0100
0010
,
0100
0000
1000
0000
,
0001
0000
0100
0000
,
0010
0000
1000
0000
,
0001
0010
0001
0000
,
1000
0000
0010
0000
,
0100
0000
0001
0000
,
1000
0000
0100
0000
,
1000
0001
1000
2002
,
0000
0000
0000
0000
,
0000
0000
3003
0000
,
1000
0000
0000
0000
,
0001
0000
0000
0000
,
0100
0000
0000
0000
,
0010
0000
0000
0000
,
1000
0000
0000
0000
,
0001
0001
0001
0000
,
1001
0000
0000
0000
,
1000
0000
0100
0000
,
1000
0000
0000
0000
,
0001
0000
0100
0000
,
0001
0000
0000
0000
,
1000
0000
0010
0000
,
1000
0000
0000
0000
,
0001
0000
0010
0000
,
0001
0000
0000
0000
,
0100
0000
0001
0000
,
0010
0000
0000
0000
,
0100
0100
0100
0000
,
1000
0000
0000
0000
,
0010
0000
0000
0000
,
0100
0000
0000
0000
,
0001
0000
0000
0000
,
0010
0000
0000
0000
,
0100
0000
0000
0000
,
1000
0000
0000
0000
,
0002
0000
0000
0000
,
0003
0000
0000
0000
;

//--------------- dance-single - forcednature ----------------
#NOTEDATA:;
#STEPSTYPE:dance-single;
#DESCRIPTION:forcednature;
#DIFFICULTY:Medium;
#METER:9;
#RADARVALUES:0,0,0,0,0;
#CREDIT:forcednature;
#NOTES:
0000
0000
0000
0000
,
0000
0000
0000
0000
,
0000
0000
0000
0000
,
0000
0000
0000
0000
,
0000
0000
0000
0000
,
0000
0000
0000
0000
,
0000
0000
0000
0000
,
0000
0000
0000
0000
,
0000
0000
0000
0000
,
0000
0000
1000
0001
,
0200
0000
0300
0020
0000
0000
0000
0000
,
0000
0030
0000
0000
1000
0000
0100
1000
,
0200
0000
0300
0020
0000
0030
0001
0000
,
1000
0010
0000
0100
0002
0000
0000
0000
,
0000
0000
0000
0023
,
0230
0000
0300
1000
,
0001
0100
0001
0000
1000
0100
1000
0000
,
0010
0100
0010
0000
0100
0000
1001
0000
,
1000
0000
0100
0000
0010
0001
0000
0100
,
0001
0000
0010
0000
0100
1000
0100
0000
,
1000
0000
0010
0000
0100
0001
0000
1000
,
0100
0000
0100
0000
0010
0001
0010
0000
,
0100
0000
1000
0000
0001
0100
0000
0010
,
1000
0000
0001
0000
0010
0100
0010
0000
,
0001
0000
1000
0000
0010
0100
0000
0001
,
1000
1000
0100
0000
0010
0001
0000
0000
,
1001
1000
0010
0100
,
0010
0000
1000
0000
0001
0010
0001
0000
,
0100
0010
1000
0001
,
0010
0000
0100
0000
1000
0010
1000
0000
,
0001
0010
0001
0100
,
0001
0000
1000
0000
0100
0010
0100
0000
,
1000
0001
0100
0010
,
1001
0000
1001
0000
0100
0010
0100
0000
,
1001
0001
0010
0100
,
1000
0010
1000
0000
0001
0100
0001
0000
,
1000
0100
0010
0001
,
0100
0010
0100
0000
0001
1000
0001
0000
,
0010
0100
1000
0010
,
0100
0001
0100
0000
0001
0010
0001
0000
,
1000
0010
1000
0100
,
0010
0100
0010
0000
0110
0000
1001
0000
,
1010
0000
0000
0202
0000
0000
0000
0000
,
0000
0303
1000
0001
,
0011
0000
0000
0110
0000
0000
2200
0000
,
0000
0000
3300
1000
,
1001
0000
0000
0220
0000
0000
0000
0000
,
0000
0000
0330
0100
,
0110
0000
0000
2002
0000
0000
0000
0000
,
0000
3003
1010
0110
,
0101
0000
0000
0022
0000
0000
0000
0000
,
0000
0000
0033
0000
1000
0000
0001
0100
,
0001
0000
0000
0011
0000
0000
0110
0000
,
0100
1000
0000
0010
2000
0000
0002
0000
,
0000
0000
3003
0001
,
0022
0000
0033
1000
,
0200
0000
0000
0320
0000
0000
0032
0000
,
0103
0011
1010
0110
,
1001
0000
1000
0000
0010
0100
0010
0000
,
1000
0001
0010
0200
,
2300
0000
0000
3020
0000
0000
0230
0000
,
0302
0000
0000
0023
0000
0000
0230
0000
,
2300
0000
0000
3002
0000
0000
0023
0000
,
0032
0000
0000
2003
0000
0000
3020
0000
,
0230
0000
0000
0302
0000
0000
0023
0000
,
0130
1000
0100
1000
0100
1000
0010
0000
,
1001
0001
0100
0010
,
1000
0100
1000
0000
0001
0000
0010
0000
,
0001
1000
0010
0100
,
0001
0010
0001
0000
1000
0000
0010
0000
,
0100
0001
1000
0100
,
0010
0100
0010
0000
0001
0000
1000
0000
,
0010
0100
0001
1000
,
0010
0100
0010
0000
1000
0000
0001
0000
,
0010
0100
1000
0010
,
0100
0001
0100
0000
0001
0010
0001
0000
,
1000
0010
1000
0100
,
0010
0001
0010
0001
0010
0001
0100
0000
,
0020
0000
0000
0000
0000
2030
0000
3002
,
0000
0000
0000
0000
0000
0023
0000
0000
,
0230
0000
0000
0000
0000
2300
0000
3002
,
0000
0000
0000
0000
0000
0203
0000
0000
,
0320
0000
0000
0000
0000
2030
0000
3200
,
0000
0000
0000
0000
0000
0320
0000
0000
,
0032
0000
0000
0000
0000
2003
0000
3020
,
0000
0000
0000
0000
0000
0230
0000
0000
,
0300
0000
0000
0000
;

//--------------- dance-single - forcednature ----------------
#NOTEDATA:;
#STEPSTYPE:dance-single;
#DESCRIPTION:forcednature;
#DIFFICULTY:Hard;
#METER:12;
#RADARVALUES:0,0,0,0,0;
#CREDIT:forcednature;
#NOTES:
0000
0000
0000
0000
,
0000
0000
0000
0000
,
0000
0000
0000
0000
,
0000
0000
0000
0000
,
0000
0000
0000
0000
,
0000
0000
0000
0000
,
0000
0000
0000
0000
,
0000
0000
0000
0000
,
0000
0000
0000
0000
,
0000
0000
0000
0000
0001
0000
1000
0010
,
0200
0000
0300
0002
0000
0000
0000
0000
,
0000
0003
0000
0000
0010
0000
0100
1000
,
0200
0000
0300
0020
0000
0030
0001
0000
,
1000
0010
0000
0100
0002
0000
0000
0010
,
0010
0000
0000
2003
,
3020
0000
0030
1000
,
0100
1000
0100
1000
0001
0100
0001
0100
,
0010
1000
1000
0100
0100
0010
0001
0000
,
1001
0000
1000
0010
0100
0010
1000
0000
,
0001
0010
0100
0010
0001
0001
1000
0000
,
0010
0000
0100
0001
0010
0001
1000
0000
,
0010
0000
0100
0000
0001
0000
0100
0010
0000
0000
1000
0000
0001
0000
0000
0000
,
0010
0100
1000
0100
0010
0001
0100
0000
,
0010
1000
0100
1000
0000
0001
0010
0000
,
0001
0000
0100
0010
1000
0001
0000
1000
,
0100
0000
0010
0000
1001
0000
0000
1000
0010
0000
0200
0000
0000
0000
0000
0000
,
0301
0010
0001
0100
0010
1000
0001
0000
,
0010
0100
1000
0100
0010
0010
0001
0000
,
1000
0010
1000
0000
0110
0000
0001
0010
,
0001
0000
0100
0000
0010
0000
0000
0010
1000
0000
0001
0000
0010
0000
0000
0000
,
0110
0000
0100
1000
0001
1000
0010
0000
,
0100
0001
0010
0001
0000
1000
0010
1000
,
0000
0001
0010
0001
0100
0000
0010
1000
,
0001
0010
1000
0010
0100
0100
1000
0000
,
1001
0000
0001
0100
0001
0010
0001
0000
,
1000
0010
0100
0001
0100
0100
0010
0000
,
1000
0100
1000
0001
0010
0000
0100
1000
,
0000
0000
1000
0000
0010
0000
0000
0010
0100
0000
0001
0000
1000
0000
0100
1000
,
0100
0000
0010
0001
0100
0001
0010
0000
,
0100
1000
0001
0100
0010
0000
1000
0001
,
0010
0000
0110
0000
1001
0000
0001
0100
,
0010
0000
0010
0000
1000
0000
0000
1000
0100
0000
0010
0000
0001
0000
0010
0000
,
1001
0000
1000
0010
0100
0001
0100
0010
,
1000
0100
0010
0100
1000
1000
0010
0000
,
0110
0000
0100
0001
0010
0001
1000
0010
,
1000
0100
0001
0100
0010
0001
0001
0000
,
0110
0000
0001
1000
0010
1000
0100
0001
,
0100
0000
0010
0000
0001
0000
0000
0001
1000
0000
1000
0000
0010
0000
0000
0000
,
0100
1000
0100
0001
0010
0001
1000
0010
,
0000
1000
0100
0010
0001
0001
0100
0100
,
1001
0000
1000
0010
1000
0100
0001
0100
,
0010
0001
1000
0001
0100
0100
0010
1000
,
0100
0000
1000
0001
0100
0001
0010
0000
,
0100
2000
0000
3001
0200
0000
0320
0000
,
1000
0000
0100
0000
1030
0010
0100
0000
,
0001
0000
0010
0000
0001
0000
0000
0001
0100
0000
0100
0000
0010
0000
0000
0000
,
1000
0100
1000
0010
0000
0100
0001
0010
,
0100
0000
0010
0000
1001
0000
0000
0001
0100
0000
0010
0000
1000
0000
1000
0000
,
0001
0000
0010
0100
0001
0100
1000
0001
,
0000
0000
0010
0000
0001
0000
0000
0000
0100
0000
0100
0000
0010
0000
0000
0010
,
1000
0000
0100
1000
0000
0001
0010
0001
,
0000
0100
0010
0000
1000
0100
0100
0000
,
0110
0000
0010
0001
1000
0001
0100
0010
,
0000
0000
1000
0000
0100
0000
0000
0100
1000
0000
1000
0000
0010
0000
0000
0000
,
0100
0000
0001
0010
0000
0001
0100
0010
,
1000
0000
0100
0010
0100
0000
0010
0100
0010
0000
0001
0000
0001
0000
0000
0000
,
1001
0000
1000
0010
0100
0010
1000
0001
,
0010
0100
1000
0001
0100
0100
0010
0000
,
1001
0000
0001
0010
0001
0100
0010
1000
,
0000
0100
0001
0000
0100
1000
1000
0000
,
0010
0000
0100
0001
0010
0001
1000
0010
,
0100
1000
0100
0000
0001
0001
0010
0000
,
1001
0000
1000
0010
0000
0100
0001
1000
,
0000
0100
0010
0000
0001
0100
0100
0000
,
0010
1000
0001
0010
0000
0100
0000
0010
,
0000
0001
0100
0000
0010
0010
1000
0000
,
0001
0000
1000
0100
0000
0010
0000
0001
,
1000
0000
0010
0100
0010
0000
0100
0010
0100
0000
0001
0000
0001
0000
0000
0000
,
2000
0000
0000
0000
0000
3200
0000
0320
,
0000
0000
0000
0000
0031
1000
0000
0000
,
0020
0000
0000
0000
0000
0230
0000
0302
,
0000
0000
0000
0000
1003
0100
0000
0000
,
0020
0000
0000
0000
0000
0032
0000
2003
,
0000
0000
0000
0000
3010
0100
0000
0000
,
0002
0000
0000
0000
0000
2003
0000
3200
,
0000
0000
0000
0000
0310
0001
0000
0000
,
0100
0000
0000
0000
;

//--------------- dance-double - forcednature ----------------
#NOTEDATA:;
#STEPSTYPE:dance-double;
#DESCRIPTION:forcednature;
#DIFFICULTY:Easy;
#METER:4;
#RADARVALUES:0,0,0,0,0;
#CREDIT:forcednature;
#NOTES:
00000000
00000000
00000000
00000000
,
00000000
00000000
00000000
00000000
,
00000000
00000000
00000000
00000000
,
00000000
00000000
00000000
00000000
,
00000000
00000000
00000000
00000000
,
00000000
00000000
00000000
00000000
,
00000000
00000000
00000000
00000000
,
00000000
00000000
00000000
00000000
,
00000000
00000000
00000000
00000000
,
00000000
00000000
00000000
00000000
,
00002000
00000000
00000000
00000000
,
00003000
00000000
00000000
00000000
,
01000000
00000000
00000000
00000000
,
00010000
00000000
00000000
00000000
,
01000000
00000000
00000000
00000000
,
00100000
00000000
00000000
00000000
,
10000000
00000000
10000000
00000000
,
10000000
00000000
01000000
00000000
,
00100000
00000000
00000000
00000000
,
00001000
00000000
00000000
00000000
,
00010000
00000000
00000000
00000000
,
00000100
00000000
00001000
00000000
,
00000100
00000000
00000000
00000000
,
00000010
00000000
00000000
00000000
,
00000001
00000000
00000000
00000000
,
00000100
00000000
00000001
00000000
,
00001001
00000000
00000000
00000000
,
00001000
00000000
00000100
00000000
,
00001000
00000000
00000000
00000000
,
00000100
00000000
00010000
00000000
,
00000100
00000000
00000000
00000000
,
00010000
00000000
00001000
00000000
,
00010000
00000000
00000000
00000000
,
00001000
00000000
01000000
00000000
,
00001000
00000000
00000000
00000000
,
01000000
00000000
00010000
00000000
,
01000000
00000000
00000000
00000000
,
00100000
00000000
10000000
00000000
,
00100000
00000000
00000000
00000000
,
10000000
00000000
01000000
00000000
,
10000000
00000000
00000000
00000000
,
00010000
00000000
00010000
00000000
,
10010000
00000000
10000000
00000000
,
00010000
00000000
01000000
00000000
,
00010000
00000000
00100000
00000000
,
00001000
00000000
00010000
00000000
,
00000010
00000000
00001000
00000000
,
00000010
00000000
00000100
00000000
,
00000001
00000000
00001000
00000000
,
00000001
00000000
00000010
00000000
,
00000100
00000000
00000010
00000000
,
00000100
00000000
00001000
00000000
,
00000100
00000000
00010000
00000000
,
00001000
00000000
00010000
00000000
,
00001000
00000000
01000000
00000000
,
00010000
00000000
01000000
00000000
,
00100000
00000000
10000000
00000000
,
00010000
00010000
00010000
20000000
,
00000000
00000000
00000000
00000000
,
00000000
00000000
30000000
00000000
,
10000000
00000000
00000000
00000000
,
00010000
00000000
00000000
00000000
,
01000000
00000000
00000000
00000000
,
00001000
00000000
00000000
00000000
,
00010000
00000000
00000000
00000000
,
00000100
00000000
00000100
00000000
,
00001001
00000000
00000000
00000000
,
00001000
00000000
00000100
00000000
,
00001000
00000000
00000000
00000000
,
00000100
00000000
00010000
00000000
,
00000100
00000000
00000000
00000000
,
00010000
00000000
00001000
00000000
,
00010000
00000000
00000000
00000000
,
00001000
00000000
01000000
00000000
,
00001000
00000000
00000000
00000000
,
01000000
00000000
00010000
00000000
,
01000000
00000000
00000000
00000000
,
00010000
00010000
00010000
00000000
,
10000000
00000000
00000000
00000000
,
01000000
00000000
00000000
00000000
,
00100000
00000000
00000000
00000000
,
00001000
00000000
00000000
00000000
,
00010000
00000000
00000000
00000000
,
00000100
00000000
00000000
00000000
,
00000010
00000000
00000000
00000000
,
00000002
00000000
00000000
00000000
,
00000003
00000000
00000000
00000000
;

//--------------- dance-double - forcednature ----------------
#NOTEDATA:;
#STEPSTYPE:dance-double;
#DESCRIPTION:forcednature;
#DIFFICULTY:Medium;
#METER:10;
#RADARVALUES:0,0,0,0,0;
#CREDIT:forcednature;
#NOTES:
00000000
00000000
00000000
00000000
,
00000000
00000000
00000000
00000000
,
00000000
00000000
00000000
00000000
,
00000000
00000000
00000000
00000000
,
00000000
00000000
00000000
00000000
,
00000000
00000000
00000000
00000000
,
00000000
00000000
00000000
00000000
,
00000000
00000000
00000000
00000000
,
00000000
00000000
00000000
00000000
,
00000000
00000000
00010000
00001000
,
00000020
00000000
00000030
00000200
00000000
00000000
00000000
00000000
,
00000000
00000300
00000000
00000000
00001000
00000000
00000001
00001000
,
00000002
00000000
00000003
00000200
00000000
00000300
00000010
00000000
,
00001000
00000010
00000000
00010000
00002000
00000000
00000000
00000000
,
00000000
00000000
00000000
00203000
,
00320000
00000000
00030000
01000000
,
00100000
10000000
00100000
00000000
10000000
01000000
10000000
00000000
,
01000000
00010000
01000000
00000000
00010000
00000000
00011000
00000000
,
00001000
00000000
00000010
00000000
00000001
00000010
00000000
00000100
,
00000010
00000000
00000100
00000000
00010000
00001000
00010000
00000000
,
00100000
00000000
01000000
00000000
00010000
01000000
00000000
00100000
,
10000000
00000000
10000000
00000000
01000000
00010000
01000000
00000000
,
00100000
00000000
00001000
00000000
00010000
00000100
00000000
00010000
,
00001000
00000000
00000100
00000000
00000001
00000010
00000001
00000000
,
00000100
00000000
00001000
00000000
00010000
01000000
00000000
10000000
,
01000000
01000000
00100000
00000000
00001000
00010000
00000000
00000000
,
00011000
00001000
00000010
00000001
,
00000010
00000000
00000100
00000000
00010000
00001000
00010000
00000000
,
00100000
10000000
00100000
00010000
,
00001000
00000000
00010000
00000000
01000000
10000000
01000000
00000000
,
00010000
00001000
00000100
00000001
,
00000010
00000000
00000001
00000000
00000100
00000010
00000100
00000000
,
00001000
00010000
01000000
00100000
,
00011000
00000000
00011000
00000000
01000000
00010000
01000000
00000000
,
00011000
00001000
00000010
00000100
,
00000010
00000001
00000010
00000000
00000001
00000100
00000001
00000000
,
00000100
00001000
00010000
00100000
,
01000000
00010000
01000000
00000000
00010000
00100000
00010000
00000000
,
10000000
00100000
10000000
01000000
,
00010000
00001000
00010000
00000000
00001000
00000010
00001000
00000000
,
00000010
00000001
00000100
00000001
,
00000010
00000100
00000010
00000000
00000110
00000000
00010100
00000000
,
01001000
00000000
00000000
02200000
00000000
00000000
00000000
00000000
,
00000000
03300000
00100000
10000000
,
11000000
00000000
00000000
01100000
00000000
00000000
00202000
00000000
,
00000000
00000000
00303000
00001000
,
00010010
00000000
00000000
00002020
00000000
00000000
00000000
00000000
,
00000000
00000000
00003030
00000100
,
00000110
00000000
00000000
00002002
00000000
00000000
00000000
00000000
,
00000000
00003003
00000101
00010010
,
00101000
00000000
00000000
22000000
00000000
00000000
00000000
00000000
,
00000000
00000000
33000000
00000000
10000000
00000000
00010000
01000000
,
00010000
00000000
00000000
00101000
00000000
00000000
00010010
00000000
,
00000010
00001000
00000000
00000100
00002000
00000000
00000002
00000000
,
00000000
00000000
00003003
00001000
,
00020200
00000000
00030300
00010000
,
00002000
00000000
00000000
02003000
00000000
00000000
03020000
00000000
,
00130000
00110000
01100000
11000000
,
10010000
00000000
00010000
00000000
01000000
00010000
01000000
00000000
,
00001000
00010000
00000100
00020000
,
00032000
00000000
00000000
00003020
00000000
00000000
00000230
00000000
,
00020300
00000000
00000000
00032000
00000000
00000000
02003000
00000000
,
03020000
00000000
00000000
20030000
00000000
00000000
30200000
00000000
,
00320000
00000000
00000000
00032000
00000000
00000000
00003200
00000000
,
00000302
00000000
00000000
00000023
00000000
00000000
00000230
00000000
,
00001300
00000010
00001000
00000010
00001000
00000010
00010000
00000000
,
00011000
00001000
00100000
00010000
,
10000000
00100000
10000000
00000000
01000000
00000000
00010000
00000000
,
00001000
00010000
00000100
00010000
,
00001000
00000010
00001000
00000000
00000010
00000000
00000001
00000000
,
00000100
00000001
00000010
00001000
,
00010000
00001000
00010000
00000000
00001000
00000000
01000000
00000000
,
00010000
01000000
00100000
10000000
,
01000000
10000000
01000000
00000000
00010000
00000000
00001000
00000000
,
00010000
00000010
00001000
00000010
,
00000100
00001000
00000100
00000000
00000001
00000100
00000001
00000000
,
00000010
00000001
00000010
00001000
,
00010000
00001000
00010000
00001000
00010000
00001000
00100000
00000000
,
02000000
00000000
00000000
00000000
00000000
23000000
00000000
30020000
,
00000000
00000000
00000000
00000000
00000000
02030000
00000000
00000000
,
03002000
00000000
00000000
00000000
00000000
00023000
00000000
00030020
,
00000000
00000000
00000000
00000000
00000000
00000230
00000000
00000000
,
00002300
00000000
00000000
00000000
00000000
00003200
00000000
00000302
,
00000000
00000000
00000000
00000000
00000000
00000023
00000000
00000000
,
00000230
00000000
00000000
00000000
00000000
00020300
00000000
00032000
,
00000000
00000000
00000000
00000000
00000000
02003000
00000000
00000000
,
03000000
00000000
00000000
00000000
;

//--------------- dance-double - forcednature ----------------
#NOTEDATA:;
#STEPSTYPE:dance-double;
#DESCRIPTION:forcednature;
#DIFFICULTY:Hard;
#METER:14;
#RADARVALUES:0,0,0,0,0;
#CREDIT:forcednature;
#NOTES:
00000000
00000000
00000000
00000000
,
00000000
00000000
00000000
00000000
,
00000000
00000000
00000000
00000000
,
00000000
00000000
00000000
00000000
,
00000000
00000000
00000000
00000000
,
00000000
00000000
00000000
00000000
,
00000000
00000000
00000000
00000000
,
00000000
00000000
00000000
00000000
,
00000000
00000000
00000000
00000000
,
00000000
00000000
00001000
00010000
,
00200000
00000000
00300000
02000000
00000000
00000000
00000000
00000000
,
00000000
03000000
00000000
00000000
00010000
00000000
10000000
00010000
,
20000000
00000000
30000000
02000000
00000000
03000000
00100000
00000000
,
00001000
00010000
00000000
00000010
00020000
00000000
00000000
00000100
,
00000100
00000000
00000000
00032000
,
00003020
00000000
00000030
00000100
,
00001000
00000010
00001000
00000010
00000100
00000001
00000100
00000001
,
00000010
00000100
00000100
00010000
00010000
00001000
00100000
00000000
,
01100000
00000000
01000000
10000000
00100000
10000000
01000000
00000000
,
00100000
00010000
00100000
00001000
00010000
00010000
00000010
00000000
,
00000100
00000000
00001000
00000100
00000010
00000100
00000001
00000000
,
00000010
00000000
00000100
00000000
00010000
00000000
00001000
00010000
00000000
00000000
00000010
00000000
00001000
00000000
00000000
00000000
,
00010000
01000000
00100000
01000000
00010000
10000000
00100000
00000000
,
10000000
01000000
00010000
01000000
00000000
00100000
00001000
00000000
,
00010000
00000000
00000100
00010000
00000010
00001000
00000000
00000100
,
00000010
00000000
00000010
00000000
00001001
00000000
00000000
00001000
00000010
00000000
00020000
00000000
00000000
00000000
00000000
00000000
,
00031000
00100000
00010000
00100000
01000000
10000000
00100000
10000000
,
01000000
00010000
01000000
00100000
00001000
00010000
00000010
00000000
,
00000100
00001000
00000100
00000001
00000010
00000001
00000100
00000010
,
00001000
00000010
00000100
00001000
00010000
00100000
00010000
00000000
,
00001000
00010000
01000000
10000000
00010000
10000000
00100000
01000000
,
00100000
00010000
00001000
00010000
00000100
00001000
00000010
00000000
,
00000100
00000001
00000010
00000001
00001000
00000010
00001000
00010000
,
01000000
00010000
00100000
01000000
00010000
01000000
10000000
00000000
,
00100000
10000000
01000000
00010000
00001000
00000010
00000001
00000010
,
00000100
00010000
00001000
00010000
00000010
00001000
00000001
00000000
,
00000010
00000100
00010000
00000010
00001000
00000010
00000100
00001000
,
00010000
00001000
00100000
00010000
01000000
00010000
10000000
00000000
,
01000000
00010000
01000000
00100000
00001000
00010000
00000100
00000010
,
00000001
00000100
00001000
00000100
00000010
00001000
00000001
00000000
,
00000010
00001000
00010000
01000000
10000000
00010000
10000000
00100000
,
01000000
01000000
10010000
00000000
20000000
00000000
32000000
00000000
,
03100000
00000000
00001000
00010000
00100000
00010000
00001000
01000000
,
00010000
01000000
00001000
00010000
00000100
00000100
00000010
00000000
,
00001001
00000000
00000001
00000100
00000010
00010000
00000100
00000010
,
00001000
00000010
00000001
00001000
00000001
00000100
00000100
00000000
,
00000110
00000000
00000010
00001000
00010000
01000000
00001000
00010000
,
01000000
00000000
00100000
00000000
00010000
00000000
00000000
00010000
01000000
00000000
01000000
00000000
00100000
00000000
00000000
00000000
,
10000000
01000000
00010000
01000000
00100000
00001000
00100000
00010000
,
00000000
01000000
00100000
00010000
00001000
00000100
00000010
00000000
,
00001001
00000000
00001000
00000010
00001000
00100000
00010000
00001000
,
00100000
00010000
10000000
00010000
01000000
01000000
00010000
10000000
,
00100000
00000000
00010000
00001000
00010000
00000100
00000010
00000000
,
00001000
00000020
00000000
00000031
00000020
00000000
00000230
00000000
,
00000010
00000000
00001000
00000000
00010300
00000100
00001000
00010000
,
00100000
00000000
00000000
00000000
00001000
00000000
00000000
00001000
01000000
00000000
01000000
00000000
00100000
00000000
00000000
00000000
,
10000000
01000000
00010000
00001000
00000000
00000100
00000001
00000010
,
00000100
00000000
00010000
00000000
00011000
00000000
00000000
00001000
01000000
00000000
00010000
00000000
10000000
00000000
10000000
00000000
,
00100000
00000000
01000000
10000000
01000000
00010000
00100000
00010000
,
00000000
00000000
00001000
00000000
00000100
00000000
00000000
00000000
00010000
00000000
00010000
00000000
00000010
00000000
00000000
00000010
,
00001000
00000000
00000100
00000001
00000000
00000100
00001000
00000100
,
00000000
00000010
00001000
00000000
00010000
00100000
00100000
00000000
,
01100000
00000000
01000000
00010000
00100000
00010000
10000000
00100000
,
00000000
00000000
10000000
00000000
01000000
00000000
00000000
01000000
00010000
00000000
00010000
00000000
00001000
00000000
00000000
00000000
,
00000010
00000000
00000100
00010000
00000000
00010000
00001000
00000100
,
00000001
00000000
00000010
00000001
00000010
00000001
00000010
00000001
00000100
00000000
00000010
00000000
00000010
00000000
00000000
00000000
,
00001001
00000000
00000001
00000100
00000010
00010000
00001000
00000010
,
00000100
00001000
00000001
00000100
00001000
00010000
00100000
01000000
,
00100000
00000000
10000000
01000000
00010000
01000000
00100000
00001000
,
00010000
00100000
00010000
00001000
00000010
00000100
00001000
00000010
,
00000100
00000000
00001000
00000100
00000001
00000010
00000100
00001000
,
00010000
00100000
01000000
00010000
01000000
00100000
00001000
00010000
,
00100000
00000000
10000000
01000000
00010000
00001000
01000000
00010000
,
00100000
00001000
00010000
00100000
01000000
00001000
00000100
00001000
,
00010000
00000000
00000100
00001000
00000010
00010000
00001000
00000010
,
00000001
00000100
00000001
00000010
00000100
00010000
00001000
00100000
,
00010000
00000000
01000000
10000000
01000000
00010000
00100000
00010000
,
00001000
00000000
00000100
00000010
00000100
00000010
00000100
00000010
00000001
00000000
00000100
00000000
00000100
00000000
00000000
00000000
,
00000020
00000000
00000000
00000000
00000000
00020030
00000000
00032000
,
00000000
00000000
00000000
00000000
01003000
00010000
00000000
00000000
,
00200000
00000000
00000000
00000000
00000000
02300000
00000000
23000000
,
00000000
00000000
00000000
00000000
31000000
00010000
00000000
00000000
,
00002000
00000000
00000000
00000000
00000000
00003020
00000000
00000032
,
00000000
00000000
00000000
00000000
00000103
00000010
00000000
00000000
,
00020000
00000000
00000000
00000000
00000000
00032000
00000000
00203000
,
00000000
00000000
00000000
00000000
01300000
10000000
00000000
00000000
,
00100000
00000000
00000000
00000000
;
