#VERSION:0.83;
#TITLE:I Am No One;
#SUBTITLE:;
#ARTIST:DJ Myosuke;
#TITLETRANSLIT:;
#SUBTITLETRANSLIT:;
#ARTISTTRANSLIT:;
#GENRE:;
#CREDIT:;
#MUSIC:I Am No One.ogg;
#BANNER:I Am No One.png;
#BACKGROUND:I Am No One-bg.png;
#CDTITLE:./CDTitles/REFLEC BEAT VOLZZA.png;
#SAMPLESTART:68.579;
#SAMPLELENGTH:15.000;
#SELECTABLE:YES;
#OFFSET:0.740;
#BPMS:0.000=180.000;
#STOPS:;
#TIMESIGNATURES:0.000=4=4;
#BGCHANGES:0.000=../BGAs/20dr.mp4=1.000=0=0=0=StretchNoLoop====,
99999.000=-nosongbg-=1.000=0=0=0=StretchNoLoop====
;
#FGCHANGES:;

//--------------- dance-single - forcednature ----------------
#NOTEDATA:;
#STEPSTYPE:dance-single;
#DESCRIPTION:forcednature;
#CREDIT:forcednature;
#DIFFICULTY:Beginner;
#METER:3;
#RADARVALUES:0,0,0,0,0;
#NOTES:
0000
0000
0000
0000
,
0000
0000
0000
0000
,
0000
0000
0000
0000
,
0000
0000
0000
0000
,
0000
0000
0000
0000
,
0000
0000
0000
0000
,
1000
0000
0000
0000
,
0001
0000
0000
0000
,
0100
0000
0000
0000
,
0010
0000
0000
0000
,
1001
0000
0000
0000
,
0001
0000
0000
0000
,
0010
0000
0000
0000
,
0100
0000
1000
0000
,
0100
0000
0000
0000
,
0010
0000
0000
0000
,
0001
0000
0000
0000
,
0100
0000
0000
0000
,
1001
0000
0000
0000
,
1000
0000
0000
0000
,
0010
0000
0000
0000
,
0100
0000
0001
0000
,
1000
0000
0000
0000
,
0100
0000
0000
0000
,
0010
0000
0001
0000
,
0010
0000
0000
0000
,
2002
0000
0000
0000
,
0000
0000
0000
0000
,
0000
0000
0000
0000
,
0000
0000
0000
0000
,
0000
0000
0000
0000
,
0000
0000
0000
0000
,
0000
0000
0000
0000
,
3003
0000
0000
0000
,
0010
0000
0000
0000
,
0000
0000
0000
0000
,
1000
0000
0000
0000
,
0000
0000
0000
0000
,
0001
0000
0000
0000
,
0000
0000
0000
0000
,
0010
0000
0000
0000
,
0000
0000
0000
0000
,
0001
0000
0000
0000
,
0100
0000
0000
0000
,
0010
0000
0000
0000
,
1000
0000
1000
0000
,
1000
0000
0000
0000
,
0100
0000
0000
0000
,
0010
0000
0001
0000
,
0100
0000
0001
0000
,
1000
0000
0000
0000
,
0000
0000
0000
0000
,
1001
0000
0001
0000
,
0100
0000
0010
0000
,
1000
0000
0100
0000
,
0000
0010
0000
0000
,
0001
0000
0100
0000
,
0001
0000
1000
0000
,
0010
0000
0000
0000
,
0100
0000
0000
0000
,
1001
0000
0001
0000
,
0010
0000
0001
0000
,
1000
0000
0010
0000
,
0000
0100
0000
0000
,
2002
0000
0000
0000
,
3003
0000
0000
0000
,
0220
0000
0000
0000
,
0330
0000
0000
0000
,
1000
0000
0000
0000
,
0001
0000
0100
0000
,
0001
0000
0000
0000
,
0010
0000
0010
0000
,
0010
0000
0000
0000
,
0100
0000
0000
0000
,
1000
0000
0001
0000
,
1001
0000
0000
0000
;

//--------------- dance-single - forcednature ----------------
#NOTEDATA:;
#STEPSTYPE:dance-single;
#DESCRIPTION:forcednature;
#CREDIT:forcednature;
#DIFFICULTY:Easy;
#METER:6;
#RADARVALUES:0,0,0,0,0;
#NOTES:
0000
0000
0000
0000
,
0000
0000
0000
0000
,
0000
0000
0000
0000
,
0000
0000
0000
0000
,
0000
0000
0000
0000
,
0000
0000
0000
0000
,
1001
0000
0001
0100
,
1001
0000
1000
0100
,
0010
0010
0001
0001
,
0200
0000
0300
0000
,
1001
0000
1000
0010
,
0100
0001
1000
0100
,
1000
0000
0001
0100
,
0010
0001
0010
1000
,
1001
0000
0001
0010
,
0100
1000
0100
0010
,
0001
0000
0000
0100
0000
0000
0001
0000
,
2000
0000
0000
3010
,
1000
0100
1000
0100
,
0010
0001
0010
0001
,
1000
0010
1000
0010
,
0200
0000
0302
0000
,
0013
0100
0010
0100
,
1000
0001
1000
0001
,
0100
0010
1000
0001
,
0010
0000
0000
0010
0000
0000
0100
0000
,
2002
0000
0000
0000
,
0000
0000
0000
0000
,
0000
0000
0000
0000
,
0000
0000
0000
0000
,
0000
0000
0000
0000
,
0000
0000
0000
0000
,
0000
0000
0000
0000
,
0000
0000
3003
0000
,
0101
0000
0000
0000
,
0000
0000
0000
0000
,
1010
0000
0000
0000
,
0000
0000
0000
0000
,
1100
0000
0000
0000
,
0000
0000
0000
0000
,
0022
0000
0000
0000
,
0033
0000
0000
0000
,
1000
1000
1000
0000
,
0001
0001
0100
0000
,
0001
0001
0001
0000
,
1000
1000
0010
0000
,
1000
0100
0010
0001
,
1000
0010
0100
0001
,
0010
0010
0100
0100
,
1000
0001
0200
0000
,
0310
0000
0000
0000
,
0000
0000
0000
0000
,
1000
0100
1000
0001
,
0100
0010
1000
0001
,
0010
0100
1000
0001
,
0000
0100
0000
0000
0100
0000
0010
0000
,
1000
0001
0010
0001
,
0100
0010
1000
1000
,
0002
0000
0023
0000
,
0130
1000
0100
0000
,
0010
0001
1000
0010
,
0100
0001
1000
0000
,
0100
1000
0001
0100
,
0000
0010
0000
0000
1000
0000
0001
0000
,
2002
0000
0000
0000
,
3003
0000
0100
0010
,
0220
0000
0000
0000
,
0330
0000
0000
0000
,
1001
0000
1000
0010
,
0100
0001
0010
0100
,
1000
0000
0001
0100
,
0010
0010
1000
0001
,
1001
0000
1000
0100
,
0110
0000
0001
0100
,
0010
0010
1000
1000
,
1001
0000
0000
0000
0000
0002
0003
2000
,
3000
0000
0000
0000
;

//--------------- dance-single - forcednature ----------------
#NOTEDATA:;
#STEPSTYPE:dance-single;
#DESCRIPTION:forcednature;
#CREDIT:forcednature;
#DIFFICULTY:Medium;
#METER:10;
#RADARVALUES:0,0,0,0,0;
#NOTES:
0000
0000
0000
0000
,
0000
0000
0000
0000
,
0000
0000
0000
0000
,
0000
0000
0000
0000
,
0000
0000
0000
0000
,
0000
0000
0220
0330
,
1000
0100
1000
0000
1000
0100
0010
0000
,
0001
0100
0001
0000
0001
0100
0010
0000
,
1000
0100
1000
0000
0001
0100
0001
0000
,
0020
0100
0200
0330
,
1001
0000
1000
0000
0001
0100
0010
0000
,
1000
0010
0100
0001
0100
0010
1000
0000
,
0001
0000
0010
0000
0100
1000
0001
0000
,
0102
1003
2100
3001
,
0110
0000
1000
0000
0001
0010
0001
0000
,
1000
1000
1000
0000
0001
0100
0001
0000
,
0010
0000
0000
0100
0000
0000
0010
0000
0000
0001
0000
0000
1000
0000
0001
0000
,
0100
0100
0100
0000
0100
0010
1000
0000
,
1001
0000
0001
0000
0010
0100
1000
0000
,
0001
0100
0001
0000
1000
0010
1000
0000
,
0001
0000
0010
0000
0100
1000
0001
0000
,
0100
0001
0100
0001
0020
0000
0030
0000
,
0110
0000
0100
0000
1000
0001
0100
0000
,
0110
0000
0000
0000
0100
0000
0000
0000
0001
0000
0000
1000
0000
0000
0100
0000
,
0010
0000
0001
0000
1000
0001
0200
0000
,
0301
0000
0000
0010
0000
0000
1000
0000
0000
0010
0000
0000
0100
0000
0000
0000
,
2002
0000
0000
0000
,
0000
0000
0000
0000
,
0000
0000
0000
0000
,
0000
0000
0000
0000
,
0000
0000
0000
0000
,
0000
0000
0000
0000
,
0000
0000
0000
0000
,
0000
0000
3003
0000
,
0110
0000
0001
1000
,
0000
0000
0000
0000
,
0100
0010
0001
0010
,
0000
0000
0000
0000
,
1001
0000
0001
0100
,
0000
0000
0000
0010
,
1000
0002
0000
0000
,
0003
0010
0100
0000
,
1000
0000
0000
0100
0000
0000
1000
0000
0000
0010
0000
0000
0100
0000
0000
0000
,
0001
0000
0000
0010
0000
0000
0001
0000
0000
1000
0000
0000
0010
0000
0000
0000
,
0100
0000
0000
0001
0000
0000
1000
0000
0000
0100
0000
0000
1000
0000
0000
0000
,
0010
0000
0000
0100
0000
0000
0001
0000
1000
0000
0100
0000
1000
0000
0000
0000
,
0001
0000
0000
0100
0000
0000
0001
0000
1000
0000
0000
0100
0000
0000
1000
0000
,
0001
0000
0000
0010
0000
0000
0001
0000
1000
0000
0000
0010
0000
0000
1000
0000
,
0100
0010
0001
0000
0100
0010
1000
0000
,
0001
0010
0001
0100
0020
0000
1000
0000
,
0130
0000
0000
0000
,
0000
0001
0000
0001
0000
1000
0100
0000
,
0010
0000
0000
0001
0000
0000
0100
0000
0000
0001
0000
0000
0010
0000
0100
0000
,
1000
0000
0000
0001
0000
0000
0100
0000
0000
0001
0000
0000
1000
0000
0000
0000
,
0010
0000
0000
0100
0000
0000
1000
0000
0000
0100
0000
0000
0001
0000
0010
0000
,
0000
0000
0100
0000
0000
1100
0000
0000
0010
0000
0000
0011
0000
0000
0001
0000
,
1000
0000
0000
0010
0000
0000
0100
0000
0000
0001
0000
0000
1000
0000
0100
0000
,
1000
0000
0000
0010
0000
0000
0100
0000
0000
0001
0000
0000
0010
0000
0100
0000
,
1000
0000
0001
0000
,
0100
0000
1000
0000
0000
0100
0000
0000
0001
0000
0000
0010
0000
0000
0100
0000
,
1000
0000
0000
0010
0000
0000
0100
0000
0000
0001
0000
0000
1000
0000
1000
0000
,
0001
0000
0000
0010
0000
0000
0100
0000
0000
1000
0000
0000
0001
0000
0100
0000
,
0001
0000
0000
0010
0000
0000
0001
0000
0000
0100
0000
0000
0010
0000
1000
0000
,
0000
0000
0100
0000
0000
0001
0000
0000
0100
0000
0000
1000
0000
0000
0010
0000
,
0220
0000
0000
0000
,
0330
0000
0000
0000
0100
1000
0100
0001
,
2002
0000
0000
0000
,
3003
0000
0000
0000
0000
0000
0000
0001
,
0100
0000
0010
1000
0010
1000
0001
0000
,
0010
0100
1000
0000
0100
0010
0001
0000
,
1000
0000
0001
0100
0001
1000
0010
0000
,
2100
3001
0102
1003
,
0110
0000
0001
0000
0010
0100
1000
0000
,
0110
0000
1000
0000
0010
0100
0001
0000
,
1000
1000
1000
0000
0001
0001
0001
0000
,
0110
0000
0000
0000
0000
0002
0003
2000
,
3000
0000
0000
0000
;

//--------------- dance-single - forcednature ----------------
#NOTEDATA:;
#STEPSTYPE:dance-single;
#DESCRIPTION:forcednature;
#CREDIT:forcednature;
#DIFFICULTY:Hard;
#METER:15;
#RADARVALUES:0,0,0,0,0;
#NOTES:
0000
0000
0000
0000
,
0000
0000
0000
0000
,
0000
0000
0000
0000
,
0000
0000
0000
0000
,
0000
0000
0000
0000
,
0000
0000
2002
3003
,
1000
0100
1000
0010
0100
0001
0010
0001
,
0100
0010
1000
0001
0010
0100
1000
0001
,
0100
0001
0100
0000
0010
1000
0010
0000
1000
0100
1000
0000
0001
0010
0001
0000
,
0200
1000
0301
0110
,
0010
0000
0000
0010
1000
0000
0001
0000
0010
0100
0010
0000
0001
0000
0000
0000
,
1000
0000
0001
0100
0001
0000
1000
0100
1000
0000
0010
0100
0010
0000
1000
0000
,
0001
0000
0000
0001
0010
0000
0100
0000
1000
0010
1000
0000
0001
0000
0010
0000
,
0012
0103
2010
3100
,
0110
0000
0000
0010
0001
0000
1000
0000
0010
0100
0010
0000
1000
0000
0000
0000
,
0001
0010
0100
0000
0001
0000
0100
0000
1000
0010
0100
0001
1000
0000
0100
0000
,
1100
0000
0000
0101
0000
0000
0011
0000
0000
1010
0000
0000
1000
0000
0001
0000
,
1000
0100
1000
0100
1000
0100
1000
0100
0010
0000
0001
0000
0100
0000
0000
0000
,
0010
0000
0000
0010
1000
0000
0001
0000
0010
0100
0010
0000
0001
0000
1000
0000
,
0010
0000
0100
0001
0100
0000
0001
0010
0001
0000
0010
0100
0010
0100
1000
0000
,
0001
0000
0000
0001
0100
0000
0010
0000
1000
0000
0001
0000
0010
0000
0100
0000
,
1000
0010
1000
0010
0100
0001
0100
0001
0020
0000
0000
0000
0130
0000
0000
0000
,
0110
0000
0000
0100
1000
0000
0001
0000
0010
0100
0010
0000
0001
0000
1000
0000
,
0010
0000
0100
0001
0100
0000
0010
0100
0010
0000
1000
0001
0010
0000
0010
0000
,
0110
0000
0000
0100
1000
0000
0001
0000
0100
0000
1000
0000
0100
0001
0100
0001
,
0010
0000
0000
1100
0000
0000
0011
0000
0000
0101
0000
0000
1010
0000
0000
0000
,
1002
0000
0000
0023
0000
0000
0230
0000
,
0000
0320
0000
0000
0032
0000
0000
2003
,
0000
0000
3020
0000
0000
2030
0000
0000
,
3200
0000
0000
0320
0000
0000
0032
0000
,
0000
2003
0000
0000
3002
0000
0000
0203
,
0000
0000
0320
0000
0000
2030
0000
0000
,
3002
0000
0000
2003
0000
0000
3200
0000
,
0000
0320
0000
0000
0032
0000
0003
0000
,
0110
0000
0001
1000
,
0000
0000
0000
0000
,
1100
0010
0001
0010
,
0000
0000
0000
0000
,
0101
0000
1000
0010
,
0000
0000
0000
0100
,
0110
2000
0000
0000
,
3000
1000
0002
0003
,
0001
0000
0100
0001
0000
0100
0001
0000
1000
0010
0000
1000
0010
0000
0100
0000
,
0001
0000
0010
0100
0000
0100
1000
0000
1000
0010
0000
0010
0100
0000
0001
0000
,
1000
0000
0001
0010
0000
0001
0010
0000
0100
1000
0000
0100
1000
0000
0010
0000
,
0100
0000
0100
0001
0000
1000
0010
0000
1000
0000
1000
0000
0001
0010
0001
0010
,
0100
0000
1000
0001
0000
0100
0001
0000
0010
0000
0001
1000
0000
0100
1000
0000
,
0010
0000
1000
0001
0000
0010
0001
0000
0100
0000
0001
1000
0000
0010
1000
0000
,
0001
0010
0001
0000
0010
0100
0010
0000
0100
1000
0100
0000
1000
0001
1000
0000
,
0010
0000
0010
0000
0100
0000
0100
0000
0001
0010
0100
1000
0100
0010
0001
1000
,
0010
0000
0000
0000
,
0000
0010
0000
0010
0010
1000
0100
0010
,
0001
0000
0100
0001
0000
1000
0010
0000
1000
0100
0000
0010
0001
0000
0100
0000
,
0010
0000
0001
0010
0000
0010
1000
0000
0001
0000
0001
0000
1000
0100
1000
0000
,
0010
0000
0100
0001
0000
0010
0001
0000
1000
0010
1000
0000
0001
0010
0001
0010
,
0000
0000
1100
0000
0000
1010
0000
0000
0011
0000
0000
0101
0000
0000
1000
0000
,
0001
0000
0100
0010
0000
1000
0100
0000
0010
0001
0000
1000
0010
0000
0100
0001
,
0100
0000
0001
0010
0000
0001
0100
0000
0010
0000
0010
0000
1000
0100
1000
0001
,
0200
0000
0302
0000
,
1003
0000
0010
0000
1000
0100
0000
0100
0010
0000
0010
0001
0000
0001
1000
0000
,
0010
0000
0100
1000
0000
0100
0001
0000
1000
0010
0000
1000
0100
0000
0010
0001
,
0010
0000
0100
1000
0000
0001
0100
0000
0010
0000
0010
0000
1000
0100
0010
0001
,
0100
0000
0010
1000
0000
0001
0010
0000
0100
0000
0001
0000
0100
1000
0010
1000
,
0000
0000
0101
0000
0000
0011
0000
0000
1010
0000
0000
1100
0000
0000
0010
0000
,
1002
0000
0000
0000
,
0103
0000
0000
0000
0000
0000
0000
0000
0001
0010
0001
0100
0010
1000
0100
1000
,
0020
0000
0000
0000
,
0130
0000
0000
0000
0000
0000
0000
0110
,
1001
0000
0000
1000
0100
0000
0010
0000
0001
0100
0001
0000
1000
0000
0010
0000
,
0001
0000
0010
0100
0010
0000
1000
0010
1000
0000
0001
1000
0001
0010
0100
0000
,
1000
0000
0000
1000
0010
0000
0100
0000
0101
0000
0001
0000
0011
0000
0000
0000
,
0001
0010
0000
0000
1000
0010
0000
0000
0001
0100
0000
0000
1000
0100
0000
0000
,
0010
0010
1000
1000
0001
0010
0110
0000
,
0010
0010
0001
0001
1000
0010
0110
0000
,
0100
0001
1000
0000
0010
1000
0001
0000
1000
0100
0010
0000
0001
0010
0100
0000
,
0110
0000
0000
0000
0000
0002
0003
2000
,
3000
0000
0000
0000
;

//--------------- dance-double - forcednature ----------------
#NOTEDATA:;
#STEPSTYPE:dance-double;
#DESCRIPTION:forcednature;
#CREDIT:forcednature;
#DIFFICULTY:Easy;
#METER:8;
#RADARVALUES:0,0,0,0,0;
#NOTES:
00000000
00000000
00000000
00000000
,
00000000
00000000
00000000
00000000
,
00000000
00000000
00000000
00000000
,
00000000
00000000
00000000
00000000
,
00000000
00000000
00000000
00000000
,
00000000
00000000
00000000
00000000
,
00010000
00001000
01000000
01000000
,
00001000
00010000
00000100
00000100
,
00010000
00001000
00100000
00010000
,
20000000
00100000
30100000
00000000
,
10000000
01000000
00010000
00001000
,
00100000
00010000
00100000
00001000
,
00010000
00000010
00001000
00000010
,
00000110
00001000
00000110
00000001
,
00001000
00000100
00010000
00001000
,
01000000
00010000
01000000
00001000
,
00010000
00000000
00000000
00011000
00000000
00000000
00001000
00000000
,
02000000
00000000
00000000
00000000
03000000
00010000
00010000
00000000
,
10000000
00100000
10000000
01000000
,
00100000
00010000
00100000
00001000
,
00010000
00000010
00001000
00000001
,
00001001
00000110
00002002
00003003
,
00000001
00000010
00000100
00001000
,
00000100
00010000
00001000
01000000
,
00010000
00010000
10000000
10000000
,
00100000
00000000
00000000
01100000
00000000
00000000
01000000
00000000
,
20020000
00000000
00000000
00000000
,
00000000
00000000
00000000
00000000
,
00000000
00000000
00000000
00000000
,
00000000
00000000
00000000
00000000
,
00000000
00000000
00000000
00000000
,
00000000
00000000
00000000
00000000
,
00000000
00000000
00000000
00000000
,
00000000
00000000
00000000
00000000
00000000
30030000
00000000
00000000
,
01100000
00000000
10000000
00010000
,
00000000
00000000
00000000
00000000
,
01000000
01000000
00001000
00010000
,
00000000
00000000
00000000
00000000
,
00000100
00000000
00001000
00000001
,
00000000
00000000
00000000
00000010
,
00000001
00002000
00000000
00000000
,
00003000
00000000
00000000
00000000
,
00000001
00000100
00000010
00000100
,
00000001
00001000
00000010
00000000
,
00010000
00001000
00100000
00010000
,
00100000
00001000
00010000
00000000
,
01000000
10000000
00010000
00010000
,
01000000
00001000
00010000
00010000
,
00000010
00001000
00000001
00001000
,
00000100
00000100
00000010
00000010
,
00002002
00000000
00000000
00000000
,
00000000
00003003
00000000
00000000
00000000
00000000
00000000
00000000
,
00000001
00001000
00000001
00000000
00001000
00000000
00000010
00000000
,
00010000
00001000
00100000
00010000
,
10000000
00010000
10000000
00000000
00100000
00000000
01000000
00000000
,
00000000
00010000
00000000
00000000
10010000
00000000
00000000
00000000
,
10000000
00010000
10000000
00000000
00010000
00000000
01000000
00000000
,
00001000
00000000
00010000
00000000
00000100
00000000
00001000
00000001
,
00002000
00003000
00000020
00000030
,
00000100
00000100
00000100
00000000
,
00000001
00001000
00000001
00000000
00001000
00000000
00000100
00000000
,
00010000
00001000
01000000
00010000
,
10000000
00010000
10000000
00000000
01000000
00000000
00010000
00000000
,
00000000
00011000
00000000
00000000
00011000
00000000
00000000
00001000
,
00020000
00000000
00000000
00000000
,
00030000
00000000
00000000
00000000
00000100
00001000
00000100
00000000
,
00002000
00000000
00000000
00000000
,
00003000
00000000
00000000
00000000
,
00000001
00000100
00000010
00000100
,
00000001
00000000
00001000
00000000
00000010
00001000
00000010
00000000
,
00010000
00001000
00100000
00010000
,
10010000
01100000
10010000
01100000
,
10000000
00000000
01000000
00000000
00100000
01000000
00100000
00000000
,
00010000
00000000
00100000
00000000
00001000
00010000
00001000
00000000
,
00010000
00000000
00000010
00000000
00001000
00000010
00001000
00000000
,
00002002
00000000
00000000
00000000
,
00003003
00000000
00000000
00000000
;

//--------------- dance-double - forcednature ----------------
#NOTEDATA:;
#STEPSTYPE:dance-double;
#DESCRIPTION:forcednature;
#CREDIT:forcednature;
#DIFFICULTY:Medium;
#METER:12;
#RADARVALUES:0,0,0,0,0;
#NOTES:
00000000
00000000
00000000
00000000
,
00000000
00000000
00000000
00000000
,
00000000
00000000
00000000
00000000
,
00000000
00000000
00000000
00000000
,
00000000
00000000
00000000
00000000
,
00000000
00000000
00000000
00000000
,
00010000
00001000
00010000
00001000
01000000
00010000
01000000
00000000
,
00001000
00010000
00001000
00010000
00000100
00001000
00000100
00000000
,
00010000
00001000
00100000
00010000
00100000
00001000
00010000
00000000
,
00000020
00001000
00000130
00000110
,
00001001
00000000
00000001
00000010
00001000
00010000
00000100
00000000
,
00010000
00001000
01000000
00010000
01000000
00001000
00010000
00000000
,
00011000
00000000
00001000
00100000
00010000
00100000
01000000
00000000
,
21000000
30100000
01020000
00130000
,
01100000
00000000
01000000
10000000
01000000
00010000
00001000
00000000
,
00010000
00010000
00010000
00000000
00000100
00001000
00000100
00000010
,
00000001
00000000
00000000
00000001
00000000
00000000
00000100
00000000
00000000
00000100
00000000
00000000
00000010
00000000
00000000
00000000
,
00001000
00001000
00001000
00001000
00001000
00000000
00000110
00000000
,
00000001
00000100
00001000
00000000
00010000
00100000
10000000
00000000
,
00010000
01000000
00010000
10000000
01000000
10000000
00100000
00000000
,
10000000
01000000
00010000
00000000
00001000
00000010
00000001
00000000
,
00000100
00000100
00000100
00000100
00000020
00000000
00000030
00000000
,
00001000
00000001
00000100
00000001
00001000
00000100
00000010
00000000
,
00000100
00010000
00001000
00100000
00010000
00100000
00001000
00000000
,
00011000
00000000
00010000
00100000
01000000
00100000
20000000
00000000
,
31000000
00000000
00000000
00010000
00000000
00000000
00001000
00000000
00000000
00010000
00000000
00000000
00000010
00000000
00000000
00000000
,
00001002
00000000
00000000
00000203
00000000
00000000
00000320
00000000
,
00000000
00002030
00000000
00000000
00003020
00000000
00000000
00020030
,
00000000
00000000
00032000
00000000
00000000
00203000
00000000
00000000
,
00320000
00000000
00000000
00230000
00000000
00000000
02300000
00000000
,
00000000
23000000
00000000
00000000
32000000
00000000
00000000
03200000
,
00000000
00000000
00320000
00000000
00000000
00230000
00000000
00000000
,
00302000
00000000
00000000
00023000
00000000
00000000
00030020
00000000
,
00000000
00002030
00000000
00000000
00003020
00000000
00000030
00000000
,
00000110
00000000
00000100
00001000
,
00010000
00100000
01000000
00000000
,
00010000
00010000
10000000
00010000
,
00000000
00100000
01000000
00000000
,
01100000
00100000
00001000
00010000
,
00000000
00000100
00001000
00000001
,
00000200
00000000
00000000
00000000
,
00000000
00000010
00000310
00000000
,
00000001
00000000
00000100
00001000
00010000
00000000
00100000
00000000
,
00010000
00001000
01000000
00000000
00001000
00010000
00100000
00000000
,
01100000
00000000
01000000
00010000
10000000
00000000
00100000
00000000
,
10000000
01000000
00010000
00000000
00001000
00010000
01000000
00000000
,
00100000
00001000
00010000
00001000
01000000
00001000
00010000
00000000
,
00000010
00010000
00001000
00010000
00000100
00010000
00001000
00000000
,
00100000
00010000
00100000
00001000
00010000
00000010
00001000
00000010
,
00000100
00000001
00001000
00000001
00000010
00001000
00010000
00000000
,
00011000
00000000
00000000
00000000
,
00000000
01000000
00000000
01000000
01000000
00010000
10000000
00000000
,
01000000
00010000
00001000
00000000
00110000
00000000
00101000
00000000
,
00001000
00010000
00000010
00001000
00000010
00010000
00001000
00000000
,
00000010
00000100
00001000
00000000
00001010
00000000
00000001
00000001
,
00000000
00000000
00000100
00000000
00000000
00001000
00000000
00000000
00010000
00000000
00000000
00100000
00000000
00000000
01000000
00000000
,
00100000
10000000
00010000
00000000
00110000
00000000
01100000
00000000
,
01000000
10000000
01000000
00000000
00010000
00001000
00100000
00001000
,
00020000
00000000
00030020
00000000
,
00000030
00000000
00000100
00000000
00000000
00000001
00000000
00000000
00001000
00000000
00000000
00001000
00000000
00000000
00001000
00000000
,
00000100
00010000
00001000
00010000
00000010
00001000
00000010
00000000
,
00000100
00000001
00001000
00000010
00010000
00001000
00010000
00000000
,
00001000
00100000
00010000
00100000
00001000
00010000
00001000
01000000
,
00000000
00000000
00100000
00000000
00000000
10000000
00000000
00000000
01000000
00000000
00000000
00010000
00000000
00000000
00001000
00000000
,
00200000
00000000
00000000
00000000
,
01300000
00000000
00000000
00000000
00010000
00001000
00000010
00000100
,
00002000
00000000
00000000
00000000
,
00003001
00000000
00000000
00000000
00000000
00000000
00000000
00000001
,
00000100
00000000
00001000
00000100
00000001
00001000
00000010
00000000
,
00010000
00001000
00100000
00010000
00100000
00001000
00010000
00000000
,
00100000
00000000
01000000
00010000
10000000
00100000
10000000
00000000
,
11000000
00110000
01001000
00110000
,
00001000
00010000
00000010
00001000
00000010
00010000
00000100
00000000
,
00001000
00000001
00000100
00001000
00010000
00000010
00001000
00000000
,
00000001
00000010
00001000
00010000
00000100
00001000
00000010
00000000
,
00011000
00000000
00000000
00000000
00000000
02000000
03000000
00020000
,
00030000
00000000
00000000
00000000
;

//--------------- dance-double - forcednature ----------------
#NOTEDATA:;
#STEPSTYPE:dance-double;
#DESCRIPTION:forcednature;
#CREDIT:forcednature;
#DIFFICULTY:Hard;
#METER:16;
#RADARVALUES:0,0,0,0,0;
#NOTES:
00000000
00000000
00000000
00000000
,
00000000
00000000
00000000
00000000
,
00000000
00000000
00000000
00000000
,
00000000
00000000
00000000
00000000
,
00000000
00000000
00000000
00000000
,
00000000
00000000
00022000
00033000
,
00001000
00010000
00000100
00001000
00000010
00010000
00001000
00100000
,
00010000
01000000
00001000
00010000
00000100
00001000
00000010
00010000
,
00001000
00010000
00001000
00000000
00100000
00010000
00100000
00000000
00001000
00010000
00001000
00010000
00000010
00001000
00000010
00001000
,
00000002
00000010
00000103
00001010
,
00000001
00000000
00000000
00000001
00000010
00000000
00001000
00000000
00010000
00001000
00010000
00000000
00000100
00000000
00000000
00000000
,
00010000
00000000
00001000
00010000
00001000
00000000
01000000
00010000
01000000
00000000
00010000
00100000
00010000
00000000
00100000
00000000
,
01000000
00000000
00000000
01000000
10000000
00000000
00100000
00000000
01000000
00010000
01000000
00000000
00001000
00000000
00010000
00000000
,
00012000
00103000
00021000
00030010
,
00001010
00000000
00000000
00001000
00000100
00000000
00000010
00000000
00000100
00000010
00000001
00000000
00001000
00000000
00000000
00000000
,
00000010
00001000
00000010
00000000
00010000
00000000
00001000
00000000
00100000
00010000
00100000
01000000
10000000
00000000
00100000
00000000
,
10100000
00000000
00000000
01100000
00000000
00000000
01001000
00000000
00000000
00011000
00000000
00000000
00010000
00000000
00000100
00000000
,
00000010
00000100
00000010
00000100
00000010
00000100
00000010
00000100
00000010
00000000
00000001
00000000
00000100
00000000
00000000
00000000
,
00000110
00000000
00000000
00000010
00001000
00000000
00000010
00000000
00010000
00001000
00010000
00000000
00001000
00000000
00100000
00000000
,
01000000
00000000
00100000
00010000
00100000
00000000
00001000
00010000
00001000
00000000
01000000
00010000
01000000
00010000
10000000
00000000
,
00100000
00000000
00000000
00100000
10000000
00000000
01000000
00000000
00010000
00000000
00001000
00000000
00100000
00000000
00010000
00000000
,
00100000
00010000
00100000
00001000
00010000
00001000
00010000
00000010
00002000
00000000
00000000
00000000
00003000
00000000
00000000
00000000
,
00000101
00000000
00000000
00000001
00000010
00000000
00000100
00000000
00000010
00000100
00001000
00000000
00000100
00000000
00010000
00000000
,
00001000
00000000
00010000
00001000
00100000
00000000
00010000
00100000
00010000
00000000
00100000
01000000
10000000
00000000
10000000
00000000
,
10100000
00000000
00000000
00100000
01000000
00000000
10000000
00000000
01000000
00000000
00010000
00000000
01000000
00010000
01000000
00001000
,
00010000
00000000
00000000
00010100
00000000
00000000
00001100
00000000
00000000
00001010
00000000
00000000
00000110
00000000
00000000
00000000
,
00001002
00000000
00000000
00000203
00000000
00000000
00002300
00000000
,
00000000
00023000
00000000
00000000
00230000
00000000
00000000
20300000
,
00000000
00000000
32000000
00000000
00000000
03020000
00000000
00000000
,
00032000
00000000
00000000
00003020
00000000
00000000
00000032
00000000
,
00000000
00000203
00000000
00000000
00002300
00000000
00000000
00023000
,
00000000
00000000
00230000
00000000
00000000
20300000
00000000
00000000
,
32000000
00000000
00000000
03020000
00000000
00000000
00032000
00000000
,
00000000
00003020
00000000
00000000
00000032
00000000
00000003
00000000
,
00001001
00000000
00010000
00001000
,
00000000
00000000
00000000
00000000
,
10010000
00010000
01000000
00001000
,
00000000
00000000
00000000
00000000
,
00011000
00000000
00000010
00001000
,
00000000
00000000
00000000
00000001
,
00000011
00002000
00000000
00000000
,
00003000
00000100
00020000
00030000
,
00011000
00000000
01000000
00001000
00010000
00100000
01000000
00100000
,
00010000
00000000
00001000
00000010
00000100
00010000
00001000
00000010
,
00000001
00000000
00000100
00001000
00010000
01000000
00100000
00001000
,
00010000
00000000
00010000
00000000
00010000
00000000
00000000
00000000
01000000
00000000
10000000
00000000
00010000
00100000
00010000
00100000
,
00010000
00000000
00100000
00001000
00000000
00010000
00001000
00000000
00010000
00000000
00000010
00001000
00000000
00000010
00000100
00000000
,
00000001
00000000
00001000
00000100
00000000
00010000
00001000
00000000
01000000
00000000
00010000
10000000
00000000
00100000
10000000
00000000
,
00010000
00100000
00010000
00000000
00100000
01000000
00100000
00000000
01000000
10000000
01000000
00000000
10000000
00010000
10000000
00000000
,
01000000
00000000
00010000
00000000
00001000
00000000
00000010
00000000
00000001
00001000
00000100
00001000
00000001
00000010
00000001
00001000
,
00000010
00000000
00000000
00000000
,
00000000
00000100
00000000
00000100
00000100
00001000
00010000
00100000
,
10000000
00010000
10000000
00010000
10000000
00000000
01000000
10000000
00000000
01000000
00100000
00000000
00010000
00000000
01000000
00000000
,
00001000
00000000
00010000
00000100
00000000
00001000
00000100
00000000
00000010
00000000
00000010
00000000
00000001
00000010
00000100
00000000
,
00001000
00000000
00000100
00010000
00000000
00001000
00010000
00000000
00001000
00010000
00001000
00000000
00010000
00001000
01000000
00010000
,
00000000
00000000
01010000
00000000
00000000
10100000
00000000
00000000
11000000
00000000
00000000
01010000
00000000
00000000
00010000
00000000
,
00001000
00000000
00100000
00010000
00000000
00100000
00001000
00000000
00010000
00000010
00000000
00001000
00000010
00000000
00000100
00000001
,
00001000
00000000
00000100
00001000
00000000
00000100
00010000
00000000
00001000
00000000
00001000
00000000
00100000
00010000
00100000
00001000
,
00020000
00000000
00030020
00000000
,
00000130
00000000
00001000
00000000
00010000
00001000
00000000
01000000
00001000
00000000
00010000
00001000
00000000
00100000
00001000
00000000
,
00010000
00000000
00000010
00001000
00000000
00000001
00000100
00000000
00000010
00001000
00000000
00000001
00000010
00000000
00000100
00001000
,
00000100
00000000
00010000
00001000
00000000
00100000
00010000
00000000
01000000
00000000
01000000
00000000
00010000
10000000
00100000
01000000
,
00010000
00000000
10000000
01000000
00000000
00100000
01000000
00000000
00010000
00000000
00001000
00000000
00010000
00000100
00001000
00000100
,
00000000
00000000
00001100
00000000
00000000
00000011
00000000
00000000
00000101
00000000
00000000
00001100
00000000
00000000
00001000
00000000
,
00020000
00000000
00000000
00000000
,
00130000
00000000
00000000
00000000
00000000
00000000
00000000
00000000
00010000
00001000
00010000
00000100
00001000
00000100
00010000
00001000
,
00020000
00000000
00000000
00000000
,
01030000
00000000
00000000
00000000
00000000
00000000
00000000
01100000
,
10010000
00000000
00000000
10000000
01000000
00000000
00010000
00000000
00001000
00010000
00001000
00000000
00010000
00000000
00000100
00000000
,
00001000
00000000
00000010
00001000
00000010
00000000
00000100
00000010
00000100
00000000
00000001
00000100
00000001
00001000
00000010
00000000
,
00001000
00000000
00000000
00001000
00000100
00000000
00010000
00000000
00011000
00000000
00011000
00000000
00011000
00000000
00000000
00000000
,
00001000
01000000
00000000
00000000
00001000
00100000
00000000
00000000
00010000
00000100
00000000
00000000
00010000
00000010
00000000
00000000
,
00001000
01000000
00010000
00100000
01000000
00010000
00011000
00000000
,
00010000
00000100
00001000
00000010
00000100
00001000
00011000
00000000
,
00010000
00001000
01000000
00010000
01000000
00001000
00010000
00001000
00100000
00010000
00100000
01000000
10000000
01000000
00100000
00000000
,
00001000
00000000
00000000
00000000
00000000
00000020
00000030
00000200
,
00000300
00000000
00000000
00000000
;
