#VERSION:0.83;
#TITLE:Hypersonik;
#SUBTITLE:;
#ARTIST:Eagle;
#TITLETRANSLIT:;
#SUBTITLETRANSLIT:;
#ARTISTTRANSLIT:;
#GENRE:DRUM&BASS;
#CREDIT:;
#MUSIC:Hypersonik.ogg;
#BANNER:Hypersonik.png;
#BACKGROUND:Hypersonik-bg.png;
#CDTITLE:./CDTitles/bm IIDX 21 SPADA.png;
#SAMPLESTART:93.249;
#SAMPLELENGTH:15.000;
#SELECTABLE:YES;
#OFFSET:1.365;
#BPMS:0.000=175.000;
#STOPS:;
#TIMESIGNATURES:0.000=4=4;
#BGCHANGES:0.000=Hypersonik.mp4=1.000=0=0=0=StretchNoLoop====,
999.000=Hypersonik-bg.png=1.000=0=0=1,
99999.000=-nosongbg-=1.000=0=0=0=StretchNoLoop====
;
#FGCHANGES:;

//--------------- dance-single - forcednature ----------------
#NOTEDATA:;
#STEPSTYPE:dance-single;
#DESCRIPTION:forcednature;
#DIFFICULTY:Beginner;
#METER:4;
#RADARVALUES:0,0,0,0,0;
#CREDIT:forcednature;
#NOTES:
0000
0000
0000
0000
,
0000
0000
0000
0000
,
0000
0000
0000
0000
,
0000
0000
0000
0000
,
0000
0000
0000
0000
,
0000
0000
0000
0000
,
0000
0000
0000
0000
,
0000
0000
0000
0000
,
0000
0000
0000
0000
,
1000
0000
0001
0000
,
0000
0000
0001
0000
,
0000
0000
1000
0000
,
0000
0000
1000
0000
,
0000
0000
0010
0000
,
0000
0000
0010
0000
,
0000
0000
0100
0100
,
0000
0100
0000
0000
,
2002
0000
0000
0000
,
0000
0000
0000
0000
,
0000
0000
0000
0000
,
3003
0000
0000
0000
,
1000
0000
1000
0000
,
0001
0000
0001
0000
,
0100
0100
0100
0000
,
0110
0000
1001
0000
,
0001
0000
0000
0000
,
0100
0000
0000
0000
,
0010
0000
1000
0000
,
0001
0000
1000
0000
,
0100
0000
0000
0000
,
0010
0000
0000
0000
,
0001
0000
0100
0000
,
0001
0000
0010
0000
,
0100
0000
0000
0000
,
1000
0000
0000
0000
,
0001
0000
0100
0000
,
0001
0000
0010
0000
,
0001
0000
0000
0000
,
1000
0000
0000
0000
,
0010
0000
0100
0000
,
0001
0000
0010
0000
,
0110
0000
0100
0000
,
1000
0000
0000
0000
,
0001
0000
0100
0000
,
0010
0000
1000
0000
,
1001
0000
0001
0000
,
0010
0000
0000
0000
,
0100
0000
1000
0000
,
0010
0000
0100
0000
,
0000
1001
0000
0000
,
0001
0000
1000
0000
,
0100
0000
0010
0000
,
0001
0000
0000
0000
,
1001
0000
1000
0000
,
0001
0000
0100
0000
,
0010
0000
1001
0000
,
0000
0000
0110
0000
,
2002
0000
0000
0000
,
0000
0000
0000
0000
,
0000
0000
0000
0000
,
3003
0000
0000
0000
,
1000
0000
0000
0000
,
0001
0000
0000
0000
,
0100
0000
0000
0000
,
0010
0000
0000
0000
,
2002
0000
0000
0000
,
0000
0000
0000
0000
,
0000
0000
0000
0000
,
3003
0000
0000
0000
,
0001
0001
0001
0000
,
1000
1000
1000
0000
,
0010
0010
0010
0000
,
0110
0000
1001
0000
,
1000
0000
0100
0000
,
1000
0000
0001
0000
,
0100
0000
0010
0000
,
0100
0000
0001
0000
,
1000
0000
0001
0000
,
0010
0000
0100
0000
,
0010
0010
0010
0000
,
0100
0100
0100
0000
,
0000
1001
0000
0000
,
1000
0000
0001
0000
,
0100
0000
0010
0000
,
1000
0000
0001
0000
,
0010
0000
0100
0000
,
1000
0000
0001
0000
,
0100
0010
0100
0000
,
0001
1000
0001
0000
,
2002
0000
0000
0000
,
0000
0000
0000
0000
,
3003
0000
0000
0000
;

//--------------- dance-single - forcednature ----------------
#NOTEDATA:;
#STEPSTYPE:dance-single;
#DESCRIPTION:forcednature;
#DIFFICULTY:Easy;
#METER:8;
#RADARVALUES:0,0,0,0,0;
#CREDIT:forcednature;
#NOTES:
0000
0000
0000
0000
,
0000
0000
0000
0000
,
0000
0000
0000
0000
,
0000
0000
0000
0000
,
0000
0000
0000
0000
,
0000
0000
0000
0000
,
0000
0000
0000
0000
,
0000
0000
0000
0000
,
0000
0000
0000
0000
,
1000
0000
0001
0000
0100
0000
0000
0100
,
0000
0010
0100
0001
,
1000
0000
0001
0000
0010
0000
0000
0010
,
0000
0100
0010
0010
,
0001
0000
0100
0000
0010
0000
0000
0010
,
0000
0100
0010
1000
,
0001
0001
0010
0010
,
0000
0010
0100
1000
,
2002
0000
0000
0000
,
0000
0000
0000
0000
,
0000
0000
0000
0000
,
0000
0000
3003
0000
,
1000
0100
1000
0010
,
0100
0001
0010
0001
,
0100
0010
1000
0000
,
0220
0330
2002
3003
,
1000
0100
0010
0000
,
0001
1000
0010
0000
,
0100
0001
0010
0001
,
0100
0010
1000
0000
,
0001
0010
0100
0000
,
1000
0100
0010
0000
,
0001
1000
0010
0100
,
0001
1000
0100
0000
,
0110
0010
0001
0000
,
1000
0001
0100
0000
,
0010
1000
0100
1000
,
0010
0100
0001
0000
,
1000
0001
0010
0000
,
0100
1000
0010
0000
,
0100
0001
1000
0001
,
0020
0000
0130
0100
,
0110
0000
1000
0001
,
0100
0010
1000
0000
,
0001
0010
0200
0000
,
1300
0100
0020
0030
,
0110
0000
0100
1000
,
0001
0100
0010
0000
,
0100
0001
2000
0000
,
3010
1000
0002
0010
,
0003
0110
0000
1000
,
0001
0100
0010
0000
,
1000
0001
0020
0000
,
0130
1000
0002
0003
,
1001
0000
1000
0010
,
0100
0001
0010
0000
,
0100
1000
0100
0010
,
0001
0000
0220
0330
,
2002
0000
0000
0000
,
0000
0000
0000
0000
,
0000
0000
0000
0000
,
3003
0000
0000
0000
,
1000
0001
0000
0001
,
0100
0001
0000
0001
,
0010
0100
0000
0100
,
1000
0010
0100
0000
,
1001
0000
1000
0100
,
1000
0000
0001
0100
,
0001
0000
0010
0100
,
0010
0000
0001
1000
,
0010
1000
0100
1000
,
0001
0010
0001
0100
,
0010
1000
0001
0010
,
0220
0330
2002
3003
,
1000
0100
0010
0001
,
0100
0000
0010
0000
1000
0001
1000
0000
,
0010
0100
0001
0010
,
0100
0000
1000
0000
0001
0100
0001
0000
,
0010
0100
0010
0001
,
1000
0000
0010
0000
1000
0100
1000
0000
,
1001
0001
0100
0010
,
1000
0000
0001
0010
0000
0010
0100
0000
,
1000
0101
2000
3002
,
0013
0100
1000
0001
,
0100
1010
0002
2003
,
3100
0010
0001
1000
,
0010
1100
0002
2003
,
3010
0100
0001
1000
,
0100
0010
0100
0000
1000
0000
0001
0000
,
0100
0010
0100
0000
0100
0000
0100
0000
,
2002
0000
0000
0000
,
0000
0000
0000
0000
,
3003
0000
0000
0000
;

//--------------- dance-single - forcednature ----------------
#NOTEDATA:;
#STEPSTYPE:dance-single;
#DESCRIPTION:forcednature;
#DIFFICULTY:Medium;
#METER:13;
#RADARVALUES:0,0,0,0,0;
#CREDIT:forcednature;
#NOTES:
0000
0000
0000
0000
,
0000
0000
0000
0000
,
0000
0000
0000
0000
,
0000
0000
0000
0000
,
0000
0000
0000
0000
,
0000
0000
0000
0000
,
0000
0000
0000
0000
,
0000
0000
0000
0000
,
0000
0000
0000
0000
,
1001
0000
0001
0000
0100
0000
0010
1000
,
0000
0010
1000
0000
0100
0000
0010
0000
,
0001
0000
1000
0000
0010
0000
0100
0001
,
0000
0000
0100
0000
0001
0000
0000
0000
1000
0000
0000
1000
0000
0000
0100
0000
,
0010
0000
0001
0000
1000
0000
0001
0010
,
0000
0001
0010
0000
0100
0000
1000
0001
,
1000
0000
0010
0000
0100
0001
0100
0000
,
0010
1000
0000
1000
0100
0010
0001
0000
,
2002
0000
0000
0000
,
0000
0000
0000
3003
,
1000
0001
0100
0010
,
1000
0001
0010
0100
,
1000
0010
1000
0010
0100
0001
0100
0001
,
1000
0100
1000
0100
0010
0001
0010
0001
,
0100
0010
1000
0001
0010
0100
1000
0000
,
0102
0013
2100
3010
,
1001
0000
0000
0000
0001
0000
0000
0100
0000
0000
1000
0000
0100
0000
0000
0000
,
0110
0000
0000
0000
1000
0000
0000
0100
0000
0000
0001
0000
0100
0000
0000
0000
,
0010
0001
1000
0010
0100
0001
2000
0000
,
3100
0010
0001
0100
0010
0100
0001
0000
,
1001
0000
0000
0000
0001
0000
0000
0010
0000
0000
1000
0000
0010
0000
0000
0000
,
0110
0000
0000
0000
1000
0000
0000
0010
0000
0000
0001
0000
0010
0000
0000
0000
,
0100
0001
1000
0010
1000
0100
0001
0100
,
0010
0000
0000
0010
0001
0000
1000
0000
0001
0000
0100
0000
0010
0000
0000
0000
,
1010
0000
0000
0000
0001
0000
0000
0010
0000
0000
1000
0000
0100
0000
0000
0000
,
0011
0000
0000
0000
1000
0000
0000
0010
0000
0000
0001
0000
0100
0000
0000
0000
,
0010
1000
0100
0010
0001
0100
2000
0000
,
3100
0001
1000
0100
0001
0100
0010
0000
,
0011
0000
0000
0000
0100
0000
0000
1000
0000
0000
0001
0000
0010
0000
0000
0000
,
1010
0000
0000
0000
0100
0000
0000
0001
0000
0000
1000
0000
0010
0000
0000
0000
,
0100
1000
0100
0001
1000
0001
0001
0001
,
0020
0000
0230
0000
1300
0001
0001
1000
,
2000
0000
0000
0000
3010
0000
0100
0000
0001
0000
0000
0010
0000
0000
1000
0000
,
0010
0000
0100
0000
1000
0000
0000
0001
0000
0000
0100
0000
0010
0000
0100
0000
,
0002
0000
0000
2003
0000
0000
3100
0010
0100
0020
0000
0000
,
0032
2003
3020
0130
,
1001
0000
0000
0000
0001
0000
1000
0000
0010
0000
0000
0001
0000
0000
0010
0000
,
1000
0000
0001
0000
0010
0000
0000
0100
0000
0000
1000
0000
0001
0000
0100
0000
,
0020
0000
0000
2030
0000
0000
3100
0010
0100
0020
0000
0000
,
0032
0000
2003
0000
3020
0000
0031
0110
,
1000
0000
0000
0000
1001
0000
0000
0000
0001
0000
0000
1000
0000
0000
0100
0000
,
0010
0000
1000
0000
0010
0000
0000
0001
0000
0000
1000
0000
0001
0000
0100
0000
,
0020
0000
0000
2030
0000
0000
3001
0010
0001
0020
0000
0000
,
0230
0000
0000
2300
0000
0000
3001
0100
0010
1000
0000
0000
,
1001
0000
0000
0000
0001
0000
0010
0000
0100
0000
0000
1000
0000
0000
0001
0000
,
0100
0000
1000
0000
0100
0000
0000
0010
0000
0000
1000
0000
0001
0000
0010
0000
,
0100
0000
0000
0100
0000
0000
1000
0000
0001
0100
0000
0000
0010
0000
1000
0000
,
0001
0000
0000
0001
0000
0000
0001
0000
0021
0000
0000
0000
0000
0130
0000
0000
,
2002
0000
0000
0000
,
0000
0000
0000
3003
,
1000
0000
0000
0000
0001
0000
0000
0100
0000
0000
0010
0000
1000
0000
0000
0000
,
0001
0000
0000
0000
1000
0000
0000
0100
0000
0000
0010
0000
0001
0000
0000
0000
,
0100
0000
0000
0000
0010
0000
0000
1000
0000
0000
0001
0000
0010
0000
0000
0000
,
0100
0000
0000
0000
0010
0000
0000
0001
0000
0000
1000
0000
0010
0000
0000
0000
,
0100
0000
0000
0000
1000
0000
0000
0100
0000
0000
0001
0000
0100
0000
0000
0000
,
0010
0000
1000
0001
0010
0100
1000
0000
,
1001
0000
0000
0000
0101
0000
0000
1000
0000
0000
0010
0000
0100
0000
0000
0000
,
0001
0000
0000
0000
0011
0000
0000
1000
0000
0000
0001
0000
0010
0000
0000
0000
,
0100
0000
0000
0000
1000
0000
0000
0001
0000
0000
0100
0000
1000
0000
0000
0000
,
0100
0000
0000
0000
0001
0000
0000
1000
0000
0000
0100
0000
0010
0000
0000
0000
,
0001
0100
0001
0010
0001
0100
0001
0010
,
0100
1000
0010
1000
0100
1000
0010
1000
,
0100
0010
0001
1000
0010
0100
0001
0000
,
1100
0100
0010
0000
0101
0100
0010
0000
,
1001
0000
0000
1000
0000
0100
0000
0010
0000
0001
0000
0100
0010
0000
1000
0000
,
0001
0000
0000
0010
0000
0100
1000
0100
0000
0010
0000
0001
0000
1000
0010
0000
,
0100
0000
0000
0001
0000
1000
0000
0001
0000
0010
0000
0100
1000
0000
0010
0000
,
0100
0000
0000
0001
0000
1000
0001
1000
0000
0100
0000
0010
0000
0001
1000
0000
,
1001
0000
0000
0001
0000
0100
0000
0010
0000
1000
0000
0001
0010
0000
0100
0000
,
0010
0000
0000
0001
0000
1000
0010
1000
0000
0001
0000
0010
0000
0100
1000
0000
,
1001
0001
0100
1000
0100
0001
0010
1000
,
0010
0000
0100
0000
1000
0000
0001
0100
0000
0100
0010
0000
1000
0000
0001
0000
,
0010
0100
0110
0000
1000
0001
0200
0000
,
0310
0000
0000
1000
0000
0001
0010
0001
0000
0100
0000
0010
0000
1000
0001
0000
,
0010
0000
0100
0000
1100
0000
0000
0000
0001
0000
1000
0010
2000
0000
0000
0000
,
3001
0000
0000
0010
0000
0100
1000
0100
0000
0010
0000
0001
0000
1000
0010
0000
,
0110
0100
0001
0000
1000
0100
0020
0000
,
0130
0000
0000
1000
0000
0001
0100
0001
0000
0010
0000
0100
0000
1000
0001
0000
,
1001
1000
0010
0001
0010
0100
0001
1000
,
0100
0000
0010
0000
0001
0100
0001
0000
1000
0100
1000
0000
0010
0100
0010
0000
,
2002
0000
0000
0000
,
0000
0000
0000
0000
,
3003
0000
0000
0000
;

//--------------- dance-single - forcednature ----------------
#NOTEDATA:;
#STEPSTYPE:dance-single;
#DESCRIPTION:forcednature;
#DIFFICULTY:Hard;
#METER:16;
#RADARVALUES:0,0,0,0,0;
#CREDIT:forcednature;
#NOTES:
0000
0000
0000
0000
,
0000
0000
0000
0000
,
0000
0000
0000
0000
,
0000
0000
0000
0000
,
0000
0000
0000
0000
,
0000
0000
0000
0000
,
0000
0000
0000
0000
,
0000
0000
0000
0000
,
0000
0000
0000
0000
,
1000
0000
0100
0010
0001
0000
0100
0001
,
0000
0001
0010
0000
0110
0000
0100
1000
,
0001
0000
0001
0100
0010
0000
1000
0001
,
0000
0000
0010
0000
0100
1000
0100
0000
0010
0000
0000
0010
0000
0000
0001
1000
,
0001
0000
0100
0000
0101
0000
1000
0010
,
0000
0010
0100
0000
0101
0000
0001
1000
,
0100
0000
0000
0000
0100
0000
0000
0000
0010
0000
0001
0000
0010
0001
1000
0000
,
0000
0000
0010
0000
1000
0000
0001
0100
0001
0100
0010
0000
2000
0000
0000
0000
,
3001
0000
0000
0001
1000
0100
0010
0001
,
1000
0010
0100
0001
1000
0100
0010
0001
,
0100
0010
1000
0001
0010
0100
1000
0001
,
0100
0010
1000
0001
0010
0100
1000
0001
,
1000
0100
1000
0010
1000
0100
1000
0010
,
0100
0001
0010
0001
0100
0001
0010
0001
,
0100
0000
0010
0000
1000
0000
0001
0000
0010
0000
0100
0000
1000
0001
0000
0000
,
2100
0001
3010
0000
0102
1000
0013
0000
,
1002
0000
0000
0000
0103
0000
0000
1010
0000
0000
0001
0000
0010
0000
0000
0000
,
1200
0000
0000
0000
0310
0000
0000
1001
0000
0000
0001
0000
0100
0000
0000
0000
,
0020
0000
0000
0000
1030
0001
1000
0000
0100
0000
0010
0001
2000
0000
0000
0000
,
3020
0000
0000
0000
0130
0000
0001
1000
0100
0010
0001
0000
0001
0000
0100
0000
,
2010
0000
0000
0000
3100
0000
0000
0011
0000
0000
1000
0000
0001
0000
0000
0000
,
0102
0000
0000
0000
0013
0000
0000
1100
0000
0000
0001
0000
0010
0000
0000
0000
,
0100
0000
1000
0001
0200
0000
0000
0000
0310
0000
1000
0000
1000
0000
1000
0000
,
0100
0000
0010
0001
1000
0000
0001
0100
0010
0000
0010
1000
0002
0000
1000
0000
,
0103
0000
0000
0000
0011
0000
0000
1100
0000
0000
0001
0000
0100
0000
0000
0000
,
1010
0000
0000
0000
0101
0000
0000
0011
0000
0000
1000
0000
0001
0000
0000
0000
,
2100
0000
0000
0000
3010
0000
0200
0000
0000
0000
0301
1000
0200
0000
0000
0000
,
0320
0000
0000
0000
0031
0000
0100
0001
1000
0010
0100
0000
0001
0000
0001
0000
,
1001
0000
0000
0000
1100
0000
0000
0011
0000
0000
1000
0000
0010
0000
0000
0000
,
0110
0000
0000
0000
0101
0000
0000
1010
0000
0000
0001
0000
0010
0000
0000
0000
,
0100
0000
1000
0100
0010
0001
1000
0001
0100
0000
0010
0000
0010
0000
0010
0000
,
0210
0000
0000
0000
0302
0000
0000
0000
1003
0000
1000
0100
0010
0000
0010
0001
,
2000
0000
0000
0000
3010
0000
0100
0000
0101
0000
0000
1000
0010
0000
0100
0000
,
0001
1000
0001
0000
0010
0100
0000
1100
0000
0000
1000
0001
1000
0000
0100
0000
,
0020
0000
0000
0032
0000
0000
1003
0100
0010
0002
0000
0000
,
2003
0000
0000
0000
3020
0000
0000
0000
0130
0001
0100
0000
0010
0000
0000
0000
,
1001
0000
0000
0000
0001
0000
0010
0000
1100
0000
0000
0001
1000
0000
0010
0000
,
1000
0100
1000
0000
0001
0100
0000
0110
0000
0000
0001
1000
0001
0000
0100
0000
,
0020
0000
0000
2030
0000
0000
3001
0100
0010
2000
0000
0000
,
3001
0000
0010
0000
0012
0000
0000
1000
0000
0000
0103
0001
1000
0000
0100
0000
,
0010
0000
0000
0000
0011
0000
1000
0000
0001
0000
0000
0001
0100
0000
0010
0000
,
1000
0001
1000
0000
0100
0010
0000
0011
0000
0000
1000
0010
0100
0000
0001
0000
,
2000
0000
0000
3002
0000
0000
0103
0010
1000
0002
0000
0000
,
0023
0000
0000
0230
0000
0000
1300
0100
0001
0200
0000
0000
,
0310
0000
0010
0001
1000
0000
0010
0000
1010
0000
0000
0001
0100
0000
0010
0000
,
1000
0100
1000
0000
0001
0010
0000
0110
0000
0000
0100
1000
0001
0000
1000
0000
,
0020
0000
0000
0000
0000
0000
0000
0000
0000
0001
0000
0000
0000
0000
0000
0000
0000
0000
0100
0000
0000
0000
0000
0000
1030
0000
0000
0000
0010
0000
0000
0000
0100
0000
0000
0000
0002
0000
0000
0000
0000
0000
0000
0000
0000
0000
0000
0000
,
0013
0000
0100
1000
0000
1000
0001
0000
0201
0000
0000
0000
0000
0310
0000
0000
,
2002
0000
0000
0000
,
0000
0000
0000
3003
,
1000
0000
0000
0000
0100
0000
0000
0010
0000
0000
0010
0000
0001
0000
0000
0000
,
0001
0000
0000
0000
0100
0000
0010
1000
0000
0000
1000
0000
0002
0000
0000
0000
,
0013
0000
0000
0000
0100
0000
0000
1000
0000
0000
1000
0000
0010
0000
0000
0000
,
0100
0000
0000
0000
0001
0000
0000
0001
0000
0000
0010
0000
0110
0000
0000
0000
,
1000
0000
0000
0000
0001
0000
0000
0100
0000
0000
0100
0000
0010
0000
0000
0000
,
1000
0000
1000
0000
0100
0010
0001
0010
0000
0000
0100
1000
0001
0000
0100
0000
,
0110
0000
0000
0000
1000
0000
0000
0001
0000
0000
0100
0000
0101
0000
0000
0000
,
1010
0000
0000
0000
0001
0000
0000
1000
0000
0000
0100
0000
1100
0000
0000
0000
,
1000
0010
0100
0001
1000
0100
0010
0001
,
1000
0010
0100
0001
1000
0100
0010
0001
,
1000
0000
0100
1000
0100
0000
0010
0001
0010
0000
0001
0100
0001
0000
1000
0010
,
1000
0000
0001
1000
0010
0000
1000
0001
0010
0000
0100
1000
0001
0000
0100
0001
,
1000
0000
0100
0000
0010
0000
0001
0000
0100
0000
0010
0000
1000
0001
0000
0000
,
2100
0010
3001
0000
0102
0010
1003
0000
,
1001
0000
1000
0100
0000
0010
0001
0010
0000
0100
0000
1000
0001
0000
0100
0001
,
1000
0000
0010
1000
0000
0001
1000
0100
0000
0010
0000
0001
0000
1000
0010
0000
,
0100
0000
0001
1000
0000
0001
0010
0100
0000
1000
0000
0010
0100
0000
0001
1000
,
0100
0000
0010
0001
1000
0010
0100
0001
0000
1000
0000
0100
0000
0010
0001
0000
,
1001
0000
1000
0010
0000
0100
0001
1000
0000
0100
0000
0010
0001
0000
1000
0010
,
0100
0000
0001
1000
0000
0001
0010
0100
0000
1000
0000
0010
0000
0100
0001
0000
,
1001
0000
1000
0001
0100
0000
0001
1000
0100
0000
1000
0001
0010
0100
0000
1000
,
0100
0010
0001
0000
1000
0000
0001
0100
0000
0001
0010
0000
0100
1000
0001
1000
,
0020
0000
0100
0000
1030
0000
0000
0001
0100
0000
0002
0000
0010
0000
0000
0000
,
1003
0000
0001
0010
0000
0100
1000
0010
0000
0100
0000
0001
1000
0100
0010
0001
,
2000
0000
0010
0000
3001
0000
0000
1000
0100
0000
0010
0001
0020
0000
0000
0000
,
0130
0000
1000
0100
0010
0001
1000
0001
0000
0100
0000
0010
0000
1000
0001
0000
,
0012
0000
1000
0000
0103
0000
0000
0001
0010
0000
0200
0000
1000
0000
0000
0000
,
0310
0100
1000
0001
0100
0010
1000
0001
0000
0010
0000
0100
1000
0001
0100
0000
,
1001
0000
1000
0001
0100
0000
0001
1000
0100
0010
0000
0001
1000
0000
0010
0000
,
0100
0000
0001
0000
1000
0100
0010
0001
1000
0010
0100
0001
1000
0100
0010
0001
,
0200
0000
0000
0000
,
0000
0000
0000
0000
,
0300
0000
0000
0000
;

//--------------- dance-double - forcednature ----------------
#NOTEDATA:;
#STEPSTYPE:dance-double;
#DESCRIPTION:forcednature;
#DIFFICULTY:Easy;
#METER:9;
#RADARVALUES:0,0,0,0,0;
#CREDIT:forcednature;
#NOTES:
00000000
00000000
00000000
00000000
,
00000000
00000000
00000000
00000000
,
00000000
00000000
00000000
00000000
,
00000000
00000000
00000000
00000000
,
00000000
00000000
00000000
00000000
,
00000000
00000000
00000000
00000000
,
00000000
00000000
00000000
00000000
,
00000000
00000000
00000000
00000000
,
00000000
00000000
00000000
00000000
,
00010000
00001000
00011000
00000000
,
01000000
00010000
00100000
01000000
,
10000000
00100000
01100000
00000000
,
01000000
00010000
01000000
00001000
,
00010000
00000100
00000110
00000000
,
00000010
00000001
00001000
00000001
,
00000100
00000010
00001000
00001000
,
00000000
00000100
00010000
00001000
,
00022000
00000000
00000000
00000000
,
00000000
00000000
00000000
00000000
,
00000000
00000000
00000000
00000000
,
00000000
00000000
00033000
00000000
,
01000000
00010000
00100000
00001000
,
00010000
00000010
00001000
00000100
,
00000010
00000010
00000001
00000100
,
00000110
00000000
00011000
00000000
,
01000000
00010000
00100000
00000000
,
01000000
10000000
00100000
00000000
,
01000000
00010000
01000000
00001000
,
00010000
00000100
00001000
00000001
,
00000100
00000010
00001000
00000000
,
00000100
00010000
00001000
00000000
,
00100000
00010000
01000000
00001000
,
00010000
01000000
00100000
01000000
,
11000000
10000000
00010000
00000000
,
01000000
00001000
00010000
00000000
,
00000100
00001000
00000010
00000100
,
00000001
00001000
00000100
00000010
,
00001001
00001000
00000010
00000000
,
00000100
00000001
00000010
00000000
,
00000100
00010000
00001000
00100000
,
00010000
01000000
00100000
00100000
,
20020000
30030000
10000000
01000000
,
00010000
00001000
00100000
00010000
,
01000000
00001000
00020000
00000000
,
00030010
00001000
00000200
00000300
,
00022000
00033000
00100000
00010000
,
01000000
00001000
00010000
00100000
,
01000000
00010000
20000000
00000000
,
31000000
00010000
00002000
00000000
,
00003000
00000110
00000001
00001000
,
00000010
00000100
00000001
00000000
,
00000010
00000100
00020000
00000000
,
00031000
00100000
02000000
03000000
,
20020000
30030000
00010000
01000000
,
00001000
00010000
00000100
00001000
,
00000010
00000100
00000002
00000000
,
00000013
00000100
00000110
00000000
,
00022000
00000000
00000000
00000000
,
00000000
00000000
00000000
00000000
,
00000000
00000000
00000000
00000000
,
00000000
00000000
00033000
00000000
,
00001000
01000000
00001000
00000000
,
00010000
00000100
00010000
00000000
,
00001000
00100000
00001000
00000000
,
00010000
00000010
00010000
00000000
,
00011000
00000000
00010000
00100000
,
01000000
00000000
00100000
10000000
,
01000000
00000000
10000000
01000000
,
00010000
00000000
01000000
00010000
,
00001000
00010000
00001000
00010000
,
00000100
00000010
00000100
00000010
,
00000001
00000100
00000010
00001000
,
00002200
00003300
00022000
00033000
,
01000000
00010000
00100000
01000000
,
10000000
00000000
00010000
00000000
01000000
00100000
01000000
00000000
,
00010000
00100000
00001000
00010000
,
00000010
00000000
00001000
00000000
00000100
00000010
00000100
00000000
,
00001000
00000001
00000100
00000010
,
00001000
00000000
00000100
00000000
00010000
00001000
00010000
00000000
,
00011000
01000000
00010000
00100000
,
01000000
10000000
01000000
00000000
00100000
00010000
00100000
00000000
,
00001000
00011000
00000000
00010000
,
00000010
00001000
00000010
00000000
00000100
00000001
00000100
00000000
,
00000010
00000110
00000000
00000100
,
00001000
00010000
00001000
00000000
01000000
00010000
01000000
00000000
,
00100000
01100000
00000000
10000000
,
00010000
00100000
00010000
00000000
01000000
00010000
01000000
00000000
,
00011000
00000000
00000100
00000000
00001000
00000010
00001000
00000000
,
00000100
00000011
00000011
00000011
,
00000202
00000000
00000000
00000000
,
00000000
00000000
00000000
00000000
,
00000303
00000000
00000000
00000000
;

//--------------- dance-double - forcednature ----------------
#NOTEDATA:;
#STEPSTYPE:dance-double;
#DESCRIPTION:forcednature;
#DIFFICULTY:Medium;
#METER:14;
#RADARVALUES:0,0,0,0,0;
#CREDIT:forcednature;
#NOTES:
00000000
00000000
00000000
00000000
,
00000000
00000000
00000000
00000000
,
00000000
00000000
00000000
00000000
,
00000000
00000000
00000000
00000000
,
00000000
00000000
00000000
00000000
,
00000000
00000000
00000000
00000000
,
00000000
00000000
00000000
00000000
,
00000000
00000000
00000000
00000000
,
00000000
00000000
00000000
00000000
,
00011000
00000000
00010000
00100000
01000000
00000000
00010000
10000000
,
00000000
10000000
01000000
00000000
01100000
00000000
00100000
00001000
,
00010000
00000000
00000010
00001000
00000100
00000000
00000010
00000001
,
00000000
00000000
00000001
00000000
00000100
00000000
00000000
00000000
00001000
00000000
00000000
00010000
00000000
00000000
00001000
00000000
,
00010000
00000000
00100000
01000000
00100000
00000000
10000000
00010000
,
00000000
00010000
00100000
00000000
01100000
00000000
01000000
10000000
,
00010000
00000000
01000000
00000000
00001000
00010000
00001000
00000000
,
00000010
00000000
00000100
00000000
00001000
00000001
00000100
00000000
,
00000220
00000000
00000000
00000000
,
00000000
00000000
00000000
00000000
,
00000000
00000000
00000000
00000000
,
00000000
00000000
00000000
00000330
,
00000010
00001000
00000010
00000000
00000100
00000001
00000100
00000000
,
00001000
00010000
00001000
00000000
00100000
01000000
00100000
00000000
,
00010000
01000000
00100000
10000000
01000000
00100000
00010000
00000000
,
02002000
03003000
00020200
00030300
,
00011000
00000000
00000000
00000000
00100000
00000000
00000000
00010000
00000000
00000000
01000000
00000000
00100000
00000000
00000000
00000000
,
10100000
00000000
00000000
00000000
00010000
00000000
00000000
00100000
00000000
00000000
01000000
00000000
10000000
00000000
00000000
00000000
,
01000000
00010000
00001000
00010000
00000010
00001000
00000200
00000000
,
00000310
00000001
00000100
00000001
00000010
00001000
00010000
00000000
,
00011000
00000000
00000000
00000000
00000100
00000000
00000000
00001000
00000000
00000000
00000010
00000000
00000100
00000000
00000000
00000000
,
00001000
00000000
00000000
00000000
00010000
00000000
00000000
01000000
00000000
00000000
00100000
00000000
00010000
00000000
00000000
00000000
,
01000000
00100000
10000000
00010000
00100000
01000000
00020000
00000000
,
00031000
00000010
00000100
00001000
00000001
00000100
00000010
00000000
,
00000110
00000000
00000000
00000000
00000100
00000000
00000000
00000001
00000000
00000000
00001000
00000000
00000010
00000000
00000000
00000000
,
00010000
00000000
00000000
00000000
00000100
00000000
00000000
00000010
00000000
00000000
00001000
00000000
00010000
00000000
00000000
00000000
,
00100000
01000000
00100000
10000000
00010000
00100000
02000000
00000000
,
13000000
01000000
00010000
00001000
00100000
00010000
01000000
00000000
,
00011000
00000000
00000000
00000000
00000100
00000000
00000000
00001000
00000000
00000000
00000010
00000000
00000100
00000000
00000000
00000000
,
00000001
00000000
00000000
00000000
00000010
00000000
00000000
00000100
00000000
00000000
00001000
00000000
00000010
00000000
00000000
00000000
,
00010000
00001000
00100000
00010000
01000000
00001000
00010000
00001000
,
00200000
00000000
02300000
00000000
13000000
10000000
00010000
00010000
,
01000000
00000000
00000000
00000000
00100000
00000000
10000000
00000000
00010000
00000000
00000000
10000000
00000000
00000000
01000000
00000000
,
00010000
00000000
00001000
00000000
00010000
00000000
00000000
00000010
00000000
00000000
00001000
00000000
00000001
00000000
00000010
00000000
,
00000200
00000000
00000000
00002300
00000000
00000000
00003010
00010000
00000010
00020000
00000000
00000000
,
00032000
00203000
00320000
10030000
,
10010000
00000000
00000000
00000000
00010000
00000000
00100000
00000000
00010000
00000000
00000000
01000000
00000000
00000000
00001000
00000000
,
00010000
00000000
00000100
00000000
00001000
00000000
00000000
00000010
00000000
00000000
00010000
00000000
00001000
00000000
00000010
00000000
,
00000200
00000000
00000000
00002300
00000000
00000000
00003001
00000100
00000001
00000200
00000000
00000000
,
00000320
00000000
00000000
00000000
00001030
00000000
00000000
00000100
00000000
00000000
00010000
00000000
00001000
00000000
00000000
00000000
,
00000000
00000000
00000000
00000000
01100000
00000000
00000000
00000000
10000000
00000000
00000000
00010000
00000000
00000000
01000000
00000000
,
00100000
00000000
10000000
00000000
00010000
00000000
00000000
00100000
00000000
00000000
00001000
00000000
00010000
00000000
00000010
00000000
,
00002000
00000000
00000000
00003200
00000000
00000000
00000310
00000001
00000010
00000002
00000000
00000000
,
00000203
00000000
00000000
00000320
00000000
00000000
00001030
00000100
00010000
00001000
00000000
00000000
,
00011000
00000000
00000000
00000000
01000000
00000000
00010000
00000000
00100000
00000000
00000000
01000000
00000000
00000000
10000000
00000000
,
01000000
00000000
00100000
00000000
00010000
00000000
00000000
01000000
00000000
00000000
00001000
00000000
00010000
00000000
00000100
00000000
,
00001000
00000000
00000000
00000010
00000000
00000000
00000100
00000000
00000002
00000010
00000000
00000000
00000100
00000000
00000000
00000000
,
00001003
00000000
00000000
00000001
00000000
00000000
00000001
00000000
00000101
00000000
00000000
00000000
00000000
00001000
00000000
00000000
,
00022000
00000000
00000000
00000000
,
00000000
00000000
00000000
00000000
,
00000000
00000000
00000000
00000000
,
00000000
00000000
00000000
00033000
,
00001000
00000000
00000000
00000000
01000000
00000000
00000000
00010000
00000000
00000000
00100000
00000000
00001000
00000000
00000000
00000000
,
00010000
00000000
00000000
00000000
00000100
00000000
00000000
00001000
00000000
00000000
00000010
00000000
00010000
00000000
00000000
00000000
,
00001000
00000000
00000000
00000000
00100000
00000000
00000000
00010000
00000000
00000000
01000000
00000000
00001000
00000000
00000000
00000000
,
00010000
00000000
00000010
00001000
00000000
00000100
00000010
00000000
,
00000110
00000000
00000000
00000000
00000100
00000000
00000000
00001000
00000000
00000000
00000001
00000000
00000100
00000000
00000000
00000000
,
00000010
00000000
00000000
00000000
00010000
00000000
00000000
00001000
00000000
00000000
00100000
00000000
00010000
00000000
00000000
00000000
,
01000000
00000000
00000000
00000000
00001000
00000000
00000000
00010000
00000000
00000000
01000000
00000000
00100000
00000000
00000000
00000000
,
00010000
00000000
00000000
00000000
10000000
00000000
00000000
00100000
00000000
00000000
10000000
00000000
01000000
00000000
00000000
00000000
,
00100000
00010000
00100000
01000000
00100000
00010000
00100000
00001000
,
00010000
00000010
00001000
00000010
00000100
00000010
00001000
00000010
,
00010000
00000100
00010000
00001000
01000000
00001000
00010000
00000010
,
00001010
00000000
00110000
00000000
,
10010000
00000000
00000000
00010000
00000000
01000000
00000000
00001000
00000000
00010000
00000000
00000100
00001000
00000000
00000010
00000000
,
00000100
00000000
00000000
00000001
00000000
00000010
00000000
00000100
00000000
00001000
00000000
00000001
00000000
00000100
00000010
00000000
,
00001000
00000000
00000000
00000100
00000000
00010000
00000000
00001000
00000000
01000000
00000000
00010000
00100000
00000000
01000000
00000000
,
10000000
00000000
00000000
00010000
00000000
01000000
00000000
00001000
00000000
00010000
00000000
00000100
00000000
00001000
00000010
00000000
,
00000110
00000000
00000000
00000100
00000000
00000001
00000000
00000010
00000000
00000100
00000000
00001000
00000010
00000000
00010000
00000000
,
00001000
00000000
00000000
00100000
00000000
00010000
00000000
01000000
00000000
00100000
00000000
10000000
00000000
00010000
00100000
00000000
,
01100000
00000000
01000000
10000000
01000000
00010000
00001000
00000100
,
00000001
00000010
00000100
00010000
00001000
00100000
01000000
10000000
,
00100000
01000000
01100000
00000000
10000000
00010000
00200000
00000000
,
01300000
10000000
01000000
00010000
00001000
00000010
00000100
00001000
,
00000001
00000000
00000100
00000000
00000010
00000000
00000000
00000000
00001000
00000000
00000100
00000010
00000200
00000000
00000000
00000000
,
00001300
00000010
00010000
00001000
00100000
00010000
01000000
00001000
,
00010000
00100000
01000000
00000000
00010000
10000000
02000000
00000000
,
03100000
00010000
01000000
00001000
00010000
00000100
00001000
00000010
,
00000110
00000000
00000100
00000001
00000010
00000100
00001000
00000010
,
00000100
00001000
01000000
00010000
00100000
00010000
00001000
00000100
,
00000020
00000000
00000000
00000000
,
00000000
00000000
00000000
00000000
,
00000030
00000000
00000000
00000000
;

//--------------- dance-double - forcednature ----------------
#NOTEDATA:;
#STEPSTYPE:dance-double;
#DESCRIPTION:forcednature;
#DIFFICULTY:Hard;
#METER:17;
#RADARVALUES:0,0,0,0,0;
#CREDIT:forcednature;
#NOTES:
00000000
00000000
00000000
00000000
,
00000000
00000000
00000000
00000000
,
00000000
00000000
00000000
00000000
,
00000000
00000000
00000000
00000000
,
00000000
00000000
00000000
00000000
,
00000000
00000000
00000000
00000000
,
00000000
00000000
00000000
00000000
,
00000000
00000000
00000000
00000000
,
00000000
00000000
00000000
00000000
,
00001000
00000000
00010000
00000100
00001000
00000000
00000010
00010000
,
00000000
00010000
00001000
00000000
00000110
00000000
00000001
00000100
,
00001000
00000000
00001000
00010000
00100000
00000000
01000000
00010000
,
00000000
00000000
00100000
00000000
01000000
10000000
01000000
00000000
00100000
00000000
00000000
00100000
00000000
00000000
00001000
00010000
,
00001000
00000000
00000100
00000000
00000110
00000000
00000010
00010000
,
00000000
00010000
00001000
00000000
01100000
00000000
10000000
00010000
,
00100000
00000000
00000000
00000000
00100000
00000000
00000000
00000000
01000000
00000000
00010000
00000000
01000000
00010000
00001000
00000000
,
00000000
00000000
00001000
00000000
00000010
00000000
00000001
00001000
00000001
00001000
00000010
00000000
00000200
00000000
00000000
00000000
,
00001300
00000000
00000000
00001000
00010000
00100000
01000000
00001000
,
00010000
00100000
01000000
00001000
00010000
00100000
01000000
00001000
,
00010000
01000000
00100000
00001000
00010000
01000000
00100000
00001000
,
00010000
01000000
00100000
00001000
00010000
01000000
00100000
00010000
,
10000000
01000000
00100000
00010000
00001000
00000100
00000010
00000001
,
00000001
00000100
00000010
00001000
00010000
01000000
00100000
10000000
,
10000000
00000000
01000000
00000000
00010000
00000000
00001000
00000000
00000100
00000000
00000001
00000000
00000010
00000100
00000000
00000000
,
00020100
00001000
00030010
00000000
01002000
00010000
00103000
00000000
,
00021000
00000000
00000000
00000000
00030100
00000000
00000000
00001010
00000000
00000000
00010000
00000000
00001000
00000000
00000000
00000000
,
00210000
00000000
00000000
00000000
01300000
00000000
00000000
00011000
00000000
00000000
00000100
00000000
00001000
00000000
00000000
00000000
,
00000002
00000000
00000000
00000000
00000103
00000010
00000100
00000000
00001000
00000000
00010000
00000100
00002000
00000000
00000000
00000000
,
00003020
00000000
00000000
00000000
00010030
00000000
00001000
00100000
00010000
00100000
01000000
00000000
01000000
00000000
10000000
00000000
,
10200000
00000000
00000000
00000000
01300000
00000000
00000000
10010000
00000000
00000000
00100000
00000000
00010000
00000000
00000000
00000000
,
01002000
00000000
00000000
00000000
00013000
00000000
00000000
00001100
00000000
00000000
00000001
00000000
00000010
00000000
00000000
00000000
,
00000100
00000000
00010000
00001000
02000000
00000000
00000000
00000000
03010000
00000000
00100000
00000000
00100000
00000000
00100000
00000000
,
01000000
00000000
10000000
00010000
01000000
00000000
00001000
00010000
00000100
00000000
00000100
00001000
00000020
00000000
00000100
00000000
,
00000031
00000000
00000000
00000000
00000110
00000000
00000000
00001001
00000000
00000000
00000100
00000000
00010000
00000000
00000000
00000000
,
00101000
00000000
00000000
00000000
01010000
00000000
00000000
11000000
00000000
00000000
00010000
00000000
00100000
00000000
00000000
00000000
,
01002000
00000000
00000000
00000000
00013000
00000000
00000200
00000000
00000000
00000000
00000310
00000001
00000200
00000000
00000000
00000000
,
00002300
00000000
00000000
00000000
00013000
00000000
00001000
01000000
00010000
01000000
00100000
00000000
10000000
00000000
10000000
00000000
,
10010000
00000000
00000000
00000000
11000000
00000000
00000000
00110000
00000000
00000000
00001000
00000000
00010000
00000000
00000000
00000000
,
00001010
00000000
00000000
00000000
00000101
00000000
00000000
00000011
00000000
00000000
00001000
00000000
00000100
00000000
00000000
00000000
,
00010000
00000000
00001000
01000000
00010000
01000000
00100000
10000000
00010000
00000000
00100000
00000000
00100000
00000000
00100000
00000000
,
02100000
00000000
00000000
00000000
03020000
00000000
00000000
00000000
00031000
00000000
00001000
00000100
00000010
00000000
00000010
00001000
,
00000002
00000000
00000000
00000000
00000013
00000000
00000100
00000000
00010100
00000000
00000000
00010000
00001000
00000000
01000000
00000000
,
00010000
10000000
00010000
00000000
00100000
01000000
00000000
11000000
00000000
00000000
10000000
00100000
10000000
00000000
00010000
00000000
,
00200000
00000000
00000000
02300000
00000000
00000000
03010000
00001000
00100000
00020000
00000000
00000000
,
00032000
00000000
00000000
00000000
00003200
00000000
00000000
00000000
00000310
00000001
00001000
00000000
00000010
00000000
00000000
00000000
,
00000101
00000000
00000000
00000000
00001000
00000000
00000010
00000000
00010010
00000000
00000000
00010000
00001000
00000000
00000010
00000000
,
00000100
00001000
00000100
00000000
00000010
00000001
00000000
00001001
00000000
00000000
00001000
00000010
00001000
00000000
00010000
00000000
,
02000000
00000000
00000000
03200000
00000000
00000000
10300000
01000000
00010000
00002000
00000000
00000000
,
00103000
00000000
00010000
00000000
01020000
00000000
00000000
00001000
00000000
00000000
00130000
00010000
01000000
00000000
00001000
00000000
,
00010000
00000000
00000000
00000000
00001001
00000000
00001000
00000000
00000010
00000000
00000000
00000010
00010000
00000000
00001000
00000000
,
00100000
00010000
00100000
00000000
01000000
00010000
00000000
00011000
00000000
00000000
00001000
00000010
00000100
00000000
00001000
00000000
,
00000020
00000000
00000000
00000230
00000000
00000000
00001300
00010000
00100000
02000000
00000000
00000000
,
03002000
00000000
00000000
00023000
00000000
00000000
01030000
00010000
00001000
00000020
00000000
00000000
,
00000031
00000000
00000001
00000100
00000010
00000000
00001000
00000000
00001100
00000000
00000000
00000100
00010000
00000000
00001000
00000000
,
01000000
00010000
00100000
00000000
01000000
10000000
00000000
10100000
00000000
00000000
00100000
01000000
00001000
00000000
00010000
00000000
,
00000200
00000000
00000000
00000000
00000000
00000000
00000000
00000000
00000000
00001000
00000000
00000000
00000000
00000000
00000000
00000000
00000000
00000000
00000010
00000000
00000000
00000000
00000000
00000000
00000301
00000000
00000000
00000000
00000100
00000000
00000000
00000000
00001000
00000000
00000000
00000000
00000020
00000000
00000000
00000000
00000000
00000000
00000000
00000000
00000000
00000000
00000000
00000000
,
00010030
00000000
00001000
00100000
00000000
00100000
01000000
00000000
21000000
00000000
00000000
00000000
00000000
30100000
00000000
00000000
,
20020000
00000000
00000000
00000000
,
00000000
00000000
00000000
30030000
,
00010000
00000000
00000000
00000000
01000000
00000000
00000000
00001000
00000000
00000000
00001000
00000000
00010000
00000000
00000000
00000000
,
00000100
00000000
00000000
00000000
00001000
00000000
00000010
00000100
00000000
00000000
00000100
00000000
00000002
00000000
00000000
00000000
,
00000013
00000000
00000000
00000000
00000100
00000000
00000000
00010000
00000000
00000000
00010000
00000000
00001000
00000000
00000000
00000000
,
01000000
00000000
00000000
00000000
00010000
00000000
00000000
00010000
00000000
00000000
00100000
00000000
01100000
00000000
00000000
00000000
,
10000000
00000000
00000000
00000000
00010000
00000000
00000000
01000000
00000000
00000000
01000000
00000000
00001000
00000000
00000000
00000000
,
00010000
00000000
00010000
00000000
00000100
00001000
00000010
00001000
00000000
00000000
00000100
00000010
00000001
00000000
00000100
00000000
,
00000110
00000000
00000000
00000000
00000010
00000000
00000000
00010000
00000000
00000000
00001000
00000000
01001000
00000000
00000000
00000000
,
10100000
00000000
00000000
00000000
10000000
00000000
00000000
01000000
00000000
00000000
00010000
00000000
00011000
00000000
00000000
00000000
,
00010000
00001000
00000010
00000100
00010000
00001000
00000100
00000010
,
00010000
00001000
00000010
00000100
00010000
00001000
00000100
00000010
,
00001000
00000000
00000100
00010000
00001000
00000000
00100000
00001000
00010000
00000000
00000100
00010000
00001000
00000000
00100000
00001000
,
00010000
00000000
00000010
00010000
00001000
00000000
01000000
00001000
00010000
00000000
00000010
00010000
00001000
00000000
01000000
00001000
,
00010000
00000000
00100000
00000000
10000000
00000000
01000000
00000000
00010000
00000000
00001000
00000000
00010000
00000010
00000000
00000000
,
00020100
00001000
00130000
00000000
01002000
00010000
00003010
00000000
,
00011000
00000000
00001000
01000000
00000000
00010000
00100000
00010000
00000000
01000000
00000000
00100000
10000000
00000000
01000000
00100000
,
00010000
00000000
01000000
00001000
00000000
00010000
00000100
00001000
00000000
00000010
00000000
00000100
00000000
00000001
00001000
00000000
,
00000100
00000000
00000010
00000001
00000000
00000100
00000010
00001000
00000000
00000100
00000000
00010000
00001000
00000000
01000000
00010000
,
00100000
00000000
01000000
10000000
00010000
10000000
00100000
01000000
00000000
00010000
00000000
00100000
00000000
01000000
00010000
00000000
,
00011000
00000000
00001000
00000100
00000000
00000010
00010000
00001000
00000000
00100000
00000000
00010000
01000000
00000000
00010000
10000000
,
01000000
00000000
00100000
00001000
00000000
00010000
00000100
00001000
00000000
00000010
00000000
00000100
00000000
00000001
00000010
00000000
,
00000110
00000000
00000100
00001000
00000010
00000000
00010000
00001000
00100000
00000000
00010000
01000000
00100000
01000000
00000000
00010000
,
10000000
01000000
10000000
00000000
00100000
00000000
00010000
00001000
00000000
00010000
00000100
00000000
00000010
00000001
00001000
00000001
,
00000200
00000000
00000010
00000000
00001300
00000000
00000000
00001000
00010000
00000000
00200000
00000000
01000000
00000000
00000000
00000000
,
10300000
00000000
00100000
01000000
00000000
00010000
10000000
01000000
00000000
00100000
00000000
00010000
01000000
00001000
00010000
00000100
,
00020000
00000000
00001000
00000000
00030010
00000000
00000000
00010000
00001000
00000000
00100000
00010000
00200000
00000000
00000000
00000000
,
01300000
00000000
10000000
01000000
00100000
00010000
01000000
00001000
00000000
00010000
00000000
00000100
00000000
00001000
00000010
00000000
,
00000102
00000000
00001000
00000000
00000013
00000000
00000000
00000010
00000100
00000000
00020000
00000000
00001000
00000000
00000000
00000000
,
00030010
00010000
00001000
01000000
00010000
01000000
00100000
10000000
00000000
00010000
00000000
10000000
01000000
00100000
00001000
00000000
,
00011000
00000000
00001000
01000000
00010000
00000000
00100000
00001000
00010000
00000010
00000000
00001000
00000100
00000000
00000010
00000000
,
00000001
00000000
00000100
00000000
00000010
00001000
00000100
00010000
00001000
01000000
00010000
00100000
01000000
10000000
01000000
00010000
,
00002000
00000000
00000000
00000000
,
00000000
00000000
00000000
00000000
,
00003000
00000000
00000000
00000000
;
