#VERSION:0.83;
#TITLE:表裏一体!?怪盗いいんちょの悩み♥;
#SUBTITLE:;
#ARTIST:◇◆噂の怪盗少女ぷらずま☆彡Prim◇◆;
#TITLETRANSLIT:Hyouri ittai!? Kaitou iincho no nayami;
#SUBTITLETRANSLIT:;
#ARTISTTRANSLIT:Prim;
#GENRE:Hi-FUNK BREAKS;
#CREDIT:;
#MUSIC:Hyouri ittai! Kaitou iincho no nayami.ogg;
#BANNER:Hyouri ittai! Kaitou iincho no nayami.png;
#BACKGROUND:Hyouri ittai! Kaitou iincho no nayami-bg.png;
#CDTITLE:./CDTitles/bm IIDX 22 PENDUAL.png;
#SAMPLESTART:51.585;
#SAMPLELENGTH:15.000;
#SELECTABLE:YES;
#OFFSET:1.666;
#BPMS:0.000=165.000;
#STOPS:;
#TIMESIGNATURES:0.000=4=4;
#BGCHANGES:5.000=Hyouri ittai! Kaitou iincho no nayami.mp4=1.000=0=0=0=StretchNoLoop====,
99999.000=-nosongbg-=1.000=0=0=0=StretchNoLoop====
;
#FGCHANGES:;

//--------------- dance-single - forcednature ----------------
#NOTEDATA:;
#STEPSTYPE:dance-single;
#DESCRIPTION:forcednature;
#DIFFICULTY:Beginner;
#METER:4;
#RADARVALUES:0,0,0,0,0;
#CREDIT:forcednature;
#NOTES:
0000
0000
0000
0000
,
0000
0000
0000
0000
,
0000
0000
0000
0000
,
0000
0000
0000
0000
,
2002
0000
3003
0000
,
1000
0000
0100
0000
,
1000
0000
0000
0000
,
0001
0000
0100
0000
,
0001
0000
0000
0000
,
1000
0000
0010
0000
,
1000
0000
0000
0000
,
0001
0000
0001
0000
,
0001
0000
0000
0000
,
0100
0000
0010
0000
,
1000
0000
0000
0000
,
0001
0000
1000
0000
,
0100
0000
0000
0000
,
0010
0000
0001
0000
,
1000
0000
0000
0000
,
0001
0000
0100
0000
,
0010
0000
0000
0000
,
1001
0000
0000
0000
,
1000
0000
0100
0000
,
1000
0000
0000
0000
,
0001
0000
0100
0000
,
0001
0000
0000
0000
,
1000
0000
0010
0000
,
1000
0000
0000
0000
,
0001
0000
0010
0000
,
0001
0000
0000
0000
,
0100
0000
0100
0000
,
0100
0000
0000
0000
,
0010
0000
0010
0000
,
1000
0000
0001
0000
,
1000
0000
0001
0000
,
0010
0000
0100
0000
,
1000
0000
0000
0000
,
0001
0000
0001
0000
,
0100
0000
0000
0000
,
0010
0000
0010
0000
,
1000
0000
0000
0000
,
1000
0000
1000
0000
,
0100
0000
0000
0000
,
0010
0000
0010
0000
,
0001
0000
0100
0000
,
0010
0000
0010
0000
,
1000
0000
0000
0000
,
0001
0000
0001
0000
,
0010
0000
0000
0000
,
0100
0000
0100
0000
,
1000
0000
0000
0000
,
0001
0000
0001
1000
,
0000
0010
0000
0010
,
0000
0000
0000
0000
,
0100
0000
0001
0000
,
1000
0000
0000
0000
,
0100
0000
0010
0000
,
0001
0000
0000
0000
,
1000
0000
0010
0000
,
1000
0000
0000
0000
,
0001
0000
0010
0000
,
0100
0000
0000
0000
,
1000
0000
1000
0000
,
1000
0000
0000
0000
,
0001
0000
0001
0000
,
0001
0000
0100
0000
,
0010
0000
0100
0000
,
0010
0000
1000
0000
,
0001
0000
0000
0000
,
1000
0000
0100
0000
,
1000
0000
0000
0000
,
0001
0000
0100
0000
,
0001
0000
0000
0000
,
0010
0000
0100
0000
,
0010
0000
0000
0000
,
0001
0000
1000
0000
,
0001
0001
0001
0000
,
0100
0000
0010
0000
,
1000
0000
0000
0000
,
0001
0000
0010
0000
,
0100
0000
0000
0000
,
1000
1000
1000
0000
,
0100
0000
0010
0000
,
0001
0001
0001
0000
,
0100
0000
0010
0000
,
1000
0000
0000
0000
;

//--------------- dance-single - forcednature ----------------
#NOTEDATA:;
#STEPSTYPE:dance-single;
#DESCRIPTION:forcednature;
#DIFFICULTY:Easy;
#METER:9;
#RADARVALUES:0,0,0,0,0;
#CREDIT:forcednature;
#NOTES:
0000
0000
0000
0000
,
0000
0000
0000
0000
,
0000
0000
0000
0000
,
0000
0000
0000
0000
,
2002
0000
0000
3003
,
1000
0100
0010
0001
,
0100
0001
1000
0000
,
0010
0100
0010
1000
,
0001
1000
0100
0000
,
0010
0001
0100
0001
,
1000
0100
1000
0000
,
0010
0100
0001
1000
,
0100
0100
0010
0001
,
0000
0000
0100
0000
0001
0000
0000
1000
,
0000
1000
0000
1000
0000
0000
0010
0000
,
0000
0000
0100
0000
0001
0000
0000
0010
,
0000
0010
0000
0010
0000
0000
0100
0000
,
0000
0000
1000
0000
0001
0000
0000
0100
,
0000
0100
0000
0100
0000
0000
0010
0000
,
0000
0000
1000
0000
0001
0000
0000
0010
,
0000
0010
0000
0010
0000
0000
0100
0000
,
0000
0000
1000
0000
0010
0000
0000
0100
,
0000
0100
0000
0100
0000
0000
0001
0000
,
0000
0000
1000
0000
0100
0000
0000
0010
,
0000
0010
0000
0010
0000
0000
0001
0000
,
0000
0000
0100
0000
0001
0000
0000
1000
,
0000
1000
0000
1000
0000
0000
0100
0000
,
0000
0000
0010
0000
0001
0000
0000
1001
,
0000
1001
0000
1001
0000
0000
0100
0000
,
0110
0000
0010
1000
,
0001
1000
0001
0000
0010
0000
0000
0000
,
0110
0000
0100
0010
,
0001
1000
0001
0000
0100
0000
0010
0000
,
1000
0100
0022
0033
,
0001
0100
2020
3030
,
1001
0000
1000
0001
,
0100
0010
0100
0000
0001
0000
1000
0000
,
0100
0010
0100
0000
0010
0100
0010
0000
,
0001
1000
0010
0100
,
0001
0010
0001
0000
1000
0000
0100
0000
,
1000
0010
1000
0000
0001
0000
0100
0000
,
0001
1000
0001
0000
1000
0001
1000
0000
,
0100
0010
0100
0000
1000
0000
0001
0000
,
1000
0010
1000
0000
0010
1000
0010
0000
,
0100
0001
0010
0010
,
0100
1000
0100
0000
1000
0100
1000
0000
,
0001
0100
0010
1000
,
0001
0010
0001
0000
1000
0000
0010
0000
,
0100
0001
0100
0000
0010
0000
1000
0000
,
0100
0010
0100
0000
0010
0100
0010
0000
,
0001
1000
0001
0000
0100
0000
0010
0000
,
1000
0100
1000
0000
0100
1000
0100
0000
,
0000
0010
0000
0010
0001
0000
0001
0000
,
1001
0000
0000
0000
1000
0000
0010
0100
,
0000
0100
0000
0100
0000
0000
0001
0000
,
1001
0000
0000
0000
1000
0000
0100
0010
,
0000
0010
0000
0010
0000
0000
0001
0000
,
0001
0000
0001
0100
0000
0000
0010
1000
,
0000
1000
0000
1000
0000
0000
0100
0000
,
0110
0000
0000
0000
0010
0000
0010
0001
,
0000
0001
0000
0001
0000
0000
0100
0000
,
0110
0000
0010
1000
,
0001
1000
0001
0000
0010
0000
0100
0000
,
1001
0000
1000
0010
,
0100
0001
0100
0000
0010
0000
1000
0000
,
0001
0010
1100
0000
,
1000
0010
0101
0000
,
1000
0001
1000
0000
0001
1000
0001
0000
,
0010
0100
0010
0000
0100
0000
1000
0000
,
0001
0100
0001
0000
0100
0001
0100
0000
,
0010
1000
0001
0010
,
0100
1000
0100
0000
0010
0000
0001
0000
,
1000
0010
1000
0000
0001
0000
0010
0000
,
0001
0100
0001
0000
0100
0000
0001
0000
,
1000
0010
1000
0000
0001
0000
0010
0000
,
0100
1000
0100
0000
0010
0100
0010
0000
,
0001
0010
0001
0000
0110
0000
1001
0000
,
1000
0010
1000
0000
0001
0000
0010
0000
,
0100
1000
0100
0000
0010
0001
0010
0000
,
0001
1000
0001
0000
0100
0000
0010
0000
,
1000
0100
1000
0000
0010
0000
0100
0000
,
0001
1000
0001
0000
1000
0001
1000
0000
,
0100
0010
0100
0000
0010
0000
0001
0000
,
1000
0010
1000
0000
0001
0010
0001
0000
,
0100
0010
1000
0001
,
2002
0000
3003
0000
;

//--------------- dance-single - forcednature ----------------
#NOTEDATA:;
#STEPSTYPE:dance-single;
#DESCRIPTION:forcednature;
#DIFFICULTY:Medium;
#METER:13;
#RADARVALUES:0,0,0,0,0;
#CREDIT:forcednature;
#NOTES:
0000
0000
0000
0000
,
0000
0000
0000
0000
,
0000
0000
0000
0000
,
0000
0000
0000
0000
,
2002
0000
0000
3003
,
0001
0200
0002
0303
1000
0010
1000
0001
,
0000
1000
0100
0010
0001
0020
0230
2300
,
3002
0003
0100
1000
0100
0010
0100
0001
,
0000
1000
0010
0001
0010
2000
3002
2003
,
3200
0300
0010
1000
0010
0001
1000
0001
,
0000
0100
0010
1000
0001
0020
0230
2300
,
3020
0030
0000
0220
0330
1000
0001
0100
,
0000
0101
0000
1100
0000
0001
0010
1000
,
0000
0010
0100
1000
0001
0100
0000
2020
,
3030
0202
0303
2010
0000
3001
0010
0100
,
0000
1000
0001
0100
0010
1000
0000
0022
,
0033
2200
3300
0021
0000
0031
0100
0010
,
0000
0100
1000
0100
0001
0100
0010
0220
,
0330
2002
3003
2010
0000
3001
1000
0100
,
0000
0010
0001
0010
1000
0010
0100
2200
,
3300
2002
3003
0201
0000
0301
1000
0020
,
0030
0100
1000
0100
0001
0010
0000
0220
,
0330
2200
3300
0021
0000
0031
1000
0010
,
0000
0100
1000
0100
0001
0100
0000
2020
,
3030
0022
0033
1002
0000
1003
0100
0010
,
0000
0100
1000
1000
0010
0100
0001
0022
,
0033
2200
3300
2001
0000
3001
0100
1000
,
0000
0100
0010
1000
0001
0010
0000
2200
,
3300
2020
3030
0201
0000
0301
0010
0100
,
2000
0000
0000
3100
0010
0100
1000
0000
,
0001
0000
0100
0000
0100
0010
0000
0000
0100
0000
0100
0010
0000
0000
0000
0000
,
2001
0000
3001
0010
0100
1000
0010
0000
,
0100
0000
0000
0100
0001
0000
0000
0001
1000
0000
0000
1000
0010
0000
0000
0000
,
1001
1200
0002
0303
,
1001
0201
2000
3300
,
2002
0000
3003
0001
0010
0100
1000
0001
,
0100
0000
0100
0000
0100
0000
0000
0010
0000
0000
1001
0000
0000
0110
0000
0000
,
1001
0000
0001
0000
0001
0100
0000
0000
0001
0000
0001
0100
0000
0000
0000
0000
,
0010
1000
0001
1000
0100
0010
0001
0000
,
0000
0000
1000
0000
1000
0100
0000
0000
0010
0000
0001
0000
1000
0000
0000
0001
,
0000
0000
0100
0000
0100
0010
0000
0000
1000
0000
0001
0000
0010
0000
0010
0000
,
0000
0000
0100
0000
0100
1000
0000
0000
0100
0000
0100
1000
0000
0000
0000
0000
,
0010
0100
0001
1000
0100
0010
0001
0000
,
0000
0000
0100
0000
0100
0001
0000
0000
0100
0000
0100
0001
0000
0000
0000
0000
,
0010
0000
0100
0000
1000
0000
0010
0000
0100
0000
0000
0110
0000
0000
1001
0000
,
0000
0000
0001
0000
0001
0010
0000
0000
0001
0000
0001
0010
0000
0000
0000
0000
,
0100
1000
0001
0100
0001
1000
0010
0000
,
0000
0000
1000
0000
1000
0100
0000
0000
1000
0000
0010
0000
0100
0000
0000
0100
,
0000
0000
0001
0000
0001
0010
0000
0000
0100
0000
1000
0000
0001
0000
0100
0000
,
0000
0000
0010
0000
0010
1000
0000
0000
0010
0000
0010
1000
0000
0000
0100
0000
,
0000
0000
0100
0000
0100
0010
0000
0000
0001
0000
0100
0000
0001
0000
1000
0000
,
0000
0010
1000
0100
1000
0010
0001
0010
,
0000
0000
0101
0000
0000
1010
0000
0000
1100
0000
0000
0011
0000
0000
1001
0000
,
0000
0000
0010
0000
0020
0000
0000
0130
0000
0000
0010
0000
0000
0000
2200
0000
,
3300
0202
0303
1002
0000
1003
0100
0010
,
0110
0000
0100
1000
0010
0100
0000
0202
,
0303
2020
3030
0012
0000
0103
0100
0100
,
0100
0100
0100
0001
0000
1000
0010
2020
,
3030
0022
0033
1200
0000
0301
0100
1000
,
0010
0100
0100
1000
0100
0100
0001
0022
,
0033
2200
3300
1002
0000
1003
0010
0100
,
0102
0000
0013
0001
0100
0010
0100
0000
,
0010
0000
1000
0000
1000
0001
0000
0000
1000
0000
1000
0001
0000
0000
0010
0000
,
0100
0000
1000
0010
1000
0100
0010
0000
,
0001
0000
0000
0001
0100
0000
0000
0100
0010
0000
0000
0010
1000
0000
0000
0000
,
1001
0000
1200
0000
0302
0000
0103
1000
,
1001
0000
0201
0000
2300
0000
3100
0001
,
1000
0100
0001
0100
0010
0100
1000
0001
,
0100
0000
0100
0000
0100
0000
0000
0010
0000
0000
1001
0000
0000
0110
0000
0000
,
1001
0000
0001
0000
0001
0100
0000
0000
0001
0000
0001
0100
0000
0000
0000
0000
,
0010
1000
0001
1000
0100
0010
0001
0000
,
0000
0000
1000
0000
1000
0100
0000
0000
0010
0000
0001
0000
1000
0000
0000
0010
,
0000
0000
0100
0000
0100
0001
0000
0000
0010
0000
0100
0000
1000
0000
0010
0000
,
0000
0000
0100
0000
0100
0001
0000
0000
0100
0000
0100
0001
0000
0000
0010
0000
,
0000
0000
0100
0000
0100
1000
0000
0000
0010
0000
1000
0000
0100
0000
0010
0000
,
0000
0000
0001
0000
0001
1000
0000
0000
0001
0000
0100
0000
1000
0000
0100
0000
,
0001
0000
0010
0000
1000
0000
0010
0000
0100
0000
0000
0110
0000
0000
1001
0000
,
0000
0000
1000
0000
1000
0100
0000
0000
0010
0000
0010
0001
0000
0000
0000
0000
,
1000
0010
0100
0001
0010
0100
1000
0000
,
0000
0000
0001
0000
0001
0100
0000
0000
0010
0000
1000
0000
0001
0000
0000
1000
,
0000
0000
0100
0000
0100
0010
0000
0000
0001
0000
1000
0000
0010
0000
0100
0000
,
0000
0000
0001
1000
0001
1000
0000
0000
0001
1000
0001
1000
0000
0000
0100
0000
,
0000
0000
1000
0001
1000
0001
0000
0000
1000
0000
0100
0000
1000
0000
0010
0000
,
0000
0000
1000
0100
0010
0001
0000
0000
1000
0010
0100
0001
0000
0000
0010
0000
,
0010
0000
0100
0000
0000
1001
0000
0000
0010
0000
0000
1001
0000
0000
1000
0000
,
0002
0000
0100
0200
0000
0000
0300
0000
,
0000
0000
0003
0000
;

//--------------- dance-single - forcednature ----------------
#NOTEDATA:;
#STEPSTYPE:dance-single;
#DESCRIPTION:forcednature;
#DIFFICULTY:Hard;
#METER:16;
#RADARVALUES:0,0,0,0,0;
#CREDIT:forcednature;
#NOTES:
0000
0000
0000
0000
,
0000
0000
0000
0000
,
0000
0000
0000
0000
,
0000
0000
0000
0000
,
2002
0000
0000
0000
0000
0000
3003
0000
1000
0100
1000
0100
0010
0000
0001
0100
,
0001
1000
0020
0000
1030
0100
1000
0001
,
0000
0011
0000
1100
0000
0002
0203
0320
,
2030
3000
0100
1000
0010
0100
0010
1000
,
0000
1001
0000
0110
0000
0002
0203
2300
,
3200
0300
0010
1000
0001
0010
0100
0010
,
0000
0011
0000
1100
0000
2000
3020
0032
,
0023
0030
0100
2002
3003
0010
0000
0220
,
0330
0000
2002
0000
3003
0000
1000
0000
0001
0100
0001
0100
0010
0000
1000
0000
,
0000
0100
0010
0100
1000
0010
0000
0101
,
0000
0101
0000
2010
0000
3010
1000
0001
,
0000
1000
0100
0010
0001
0100
0000
1010
,
0000
1010
0000
0201
0001
0301
0002
0010
,
0000
1003
0001
0100
0010
1000
0100
1100
,
0000
1100
0000
0021
0000
0031
1000
0010
,
0000
0100
0001
0100
1000
0100
0001
0011
,
0000
0011
0000
2100
0001
3001
1000
0010
,
0000
0100
0001
0100
1000
0100
0010
1001
,
0000
0110
0000
1002
0000
1003
0100
0001
,
0000
0100
0010
1000
0010
0001
0010
1001
,
0000
0000
0110
0000
0000
0000
1002
0000
0000
0000
1003
0100
1000
0000
0001
0100
,
0001
0010
0100
0010
1000
0010
0001
1001
,
0000
0110
0000
2001
0000
3001
0100
1000
,
0100
0100
0010
1000
0001
0010
0000
1100
,
0000
0011
0000
0201
0000
0301
0100
0010
,
2020
0000
3030
0001
1000
0010
1000
0100
,
0010
0000
0100
0000
1000
0001
0000
0000
0100
0000
0001
1000
0000
0000
0000
0000
,
1020
0000
0000
0000
0130
0000
0001
0000
1000
0010
1000
0010
1000
0000
0000
0001
,
0010
0000
0000
0010
0100
0000
0000
0100
1000
0000
0000
1000
0001
1000
0001
0000
,
0101
0110
2020
3030
,
1100
0110
0022
0033
,
2001
0000
3001
0100
1000
0100
0010
1000
,
0001
0000
0001
0000
0001
0000
1000
0100
0000
0000
0110
0000
0000
1001
0000
0000
,
0110
0000
1000
0100
1000
0100
0000
0000
0010
0001
0010
0001
0010
0000
0000
0001
,
0100
0010
0100
1000
0100
0010
1000
0001
,
0010
0000
0001
0100
0001
0100
0000
0000
0010
0000
1000
0000
0001
0000
1000
0100
,
0000
0000
0010
0001
0010
0001
0000
0000
0100
0000
0010
0000
1000
0001
1000
0000
,
0010
0000
0100
0001
0100
0001
0000
0000
1000
0010
1000
0010
1000
0000
0000
0001
,
1000
0000
0100
0010
0100
0010
0000
0001
0000
1000
0000
0000
0001
0000
0100
0000
,
0010
0000
1000
0001
1000
0001
0000
0000
0010
0100
0010
0100
0010
0000
0000
0001
,
1000
0000
0001
0000
0100
0010
0000
0010
1000
0000
1000
0001
0000
0001
0100
0000
,
0010
0000
1000
0100
1000
0100
0000
0000
0010
0001
0010
0001
0010
0000
0000
0100
,
1000
0010
0100
0001
0100
1000
0100
0010
,
1000
0000
0001
0010
0001
0010
0000
0000
0100
0000
1000
0000
0001
0000
1000
0010
,
0000
0000
0100
0001
0100
0001
0000
0000
1000
0000
0100
0000
0010
0001
0010
0000
,
0100
0000
1000
0010
1000
0010
0000
0000
0100
0001
0100
0001
0100
0000
0000
0001
,
0010
0000
0100
1000
0100
1000
0000
0010
0000
0010
0000
0000
0100
0001
0100
0000
,
0010
0000
1000
0000
0001
0010
0001
0000
1000
0000
0010
0000
0100
0001
0100
0001
,
0000
0000
0100
0000
0010
1000
0000
1000
0001
0000
0001
0010
0000
0100
1000
0000
,
0010
0000
2000
0000
3200
0000
0000
0310
0000
0000
0001
0000
0100
0000
0110
0000
,
0000
1001
0000
0021
0000
1030
0010
0001
,
0110
0000
0010
0001
1000
0010
0000
1010
,
0000
0000
0101
0000
0000
0000
1002
0000
0000
0000
1003
0100
1000
0000
0001
0100
,
0001
0000
1000
0010
1000
0000
1002
0000
0003
0000
0010
0000
0100
0000
1100
0000
,
0000
0011
0000
1001
0000
0001
0100
1000
,
0110
0000
0000
0010
1000
0000
0100
0000
0010
0001
0010
0000
0100
0000
0110
0000
,
0000
0000
1001
0000
0000
0000
0201
0000
0001
0000
0301
0000
0100
0010
1000
0020
,
1000
0000
0000
0000
0030
0000
0220
0000
0330
0000
1000
0001
1000
0100
0000
0000
,
0010
0000
0000
0000
0000
0000
0001
0000
0000
1000
0000
0000
0001
0000
0000
2000
0000
0000
0000
0000
3000
0000
0000
0000
1000
0000
0000
0001
0000
0000
1000
0000
0000
0002
0000
0000
0000
0000
0003
0000
0000
0000
0000
0000
0000
0000
0000
0000
,
2010
0000
3001
0100
1000
0100
0010
1000
,
0002
0000
0013
0001
0020
0000
0130
0010
0200
0000
1300
0001
2000
0000
3000
0000
,
1010
0010
0110
0100
0202
0000
0303
0000
,
0011
0010
0110
0100
2200
0000
3300
0000
,
1000
0000
0001
0100
0001
0100
0000
0001
1000
0000
1000
0000
0010
0100
0000
0100
,
0001
0000
0010
0000
0100
1000
0100
1000
0000
0000
1010
0000
0000
0101
0000
0000
,
1001
0000
1000
0001
1000
0100
0000
0000
1000
0001
1000
0100
1000
0000
0000
0001
,
1000
0010
0001
0010
0100
0001
1000
0100
,
0010
0000
0001
0100
0001
1000
0000
0000
0010
0000
0100
0000
0001
0000
0010
0100
,
0000
0000
0000
0000
0220
0000
0000
0330
0000
0000
2002
0000
0000
3003
0000
0000
0220
0000
0000
0330
0000
0000
0001
0000
1000
0000
0001
0000
1000
0000
0000
0000
,
0001
0000
1000
0100
1000
0010
0000
0000
1000
0100
1000
0010
1000
0000
0000
0001
,
1000
0000
0100
0010
0001
0010
0000
0010
0000
0010
0000
0100
1000
0100
1000
0000
,
0001
0000
0100
0010
1000
0010
0000
0000
0100
0001
0100
0001
1000
0100
1000
0100
,
0010
0001
0010
0001
1000
0010
1000
0010
0100
0000
0000
0110
0000
0000
1001
0000
,
0001
0000
1000
0100
0010
0001
0000
0000
1000
0100
0010
0001
1000
0000
0000
0100
,
1000
0010
0001
0010
0100
1000
0100
0001
,
0010
0000
0100
1000
0001
0100
0000
0000
0010
0000
0100
0000
0001
0000
1000
0010
,
0000
0000
1000
0100
1000
0010
0000
0100
0000
0100
0001
0000
0010
0100
0010
0100
,
1000
0000
0001
0100
0010
1000
0000
0000
0001
0100
0010
1000
0001
0000
0000
0010
,
0100
0000
1000
0001
1000
0001
0000
0010
0000
0010
0000
0000
0100
1000
0100
0000
,
0110
0000
0010
0001
1000
0001
0100
0000
0010
1000
0001
1000
0100
0010
0001
0010
,
0100
0000
1000
0000
0001
0100
0000
0100
0010
0000
0010
1000
0000
0001
0010
0000
,
0200
0000
0010
0020
0000
0000
0030
0000
,
0000
0000
0300
0000
;

//--------------- dance-single - forcednature ----------------
#NOTEDATA:;
#STEPSTYPE:dance-single;
#DESCRIPTION:forcednature;
#DIFFICULTY:Challenge;
#METER:17;
#RADARVALUES:0,0,0,0,0;
#CREDIT:forcednature;
#NOTES:
0000
0000
0000
0000
,
0000
0000
0000
0000
,
0000
0000
0000
0000
,
0000
0000
0000
0000
,
0001
0000
1000
0001
1000
0000
0001
1000
0001
0010
0100
1000
0001
0000
0100
0001
,
0100
0020
2030
0000
3100
0010
1000
0010
,
0000
0110
0000
1001
0000
0002
0203
0320
,
2030
3000
0100
0010
0100
1000
0001
0100
,
0000
0110
0000
1001
0000
2000
3200
0320
,
0032
0003
0100
0010
1000
0001
0010
0100
,
0000
1100
0000
0101
0000
0020
0032
0023
,
2030
0000
3000
0000
0010
0000
0220
0000
0330
0000
1000
0000
0010
0000
0100
0001
,
0000
0000
1000
0100
0000
0000
0010
0001
1000
0010
1000
0010
0100
0000
0100
0000
,
0001
1000
0100
0010
0001
0100
0000
0110
,
0000
1001
0000
0201
0000
1300
0100
0010
,
0110
0100
0001
1000
0100
0010
0000
0011
,
0000
0000
1100
0000
0000
0000
1001
0000
1000
0010
0100
0001
2000
0000
3001
0000
,
1001
1000
0010
0001
0010
1000
0001
0101
,
0000
0000
1100
0000
0000
0000
0102
0000
0000
0000
1003
0100
1000
0000
0001
0100
,
0001
0010
0001
0100
0010
1000
0100
0110
,
0000
0000
1001
0000
0000
0000
0001
0010
0001
1000
0010
1000
0001
0000
1000
0000
,
1001
0001
0100
1000
0100
0010
1000
1100
,
0000
1001
0000
1020
0000
0031
0010
1000
,
0001
0010
1000
0010
0001
0100
0010
1010
,
0000
0000
0101
0000
0000
0000
2001
0000
0000
0000
3001
0100
0001
0000
1000
0100
,
1000
0000
0010
0000
1000
0100
0010
0001
0100
0000
0010
0000
1000
0000
1100
0000
,
0000
0101
0001
1000
0001
0100
1000
0100
,
0010
0000
0010
0000
1000
0000
0001
0000
0010
0000
0100
1000
0000
0000
1010
0000
,
0000
0000
0011
0000
0000
0000
1001
0000
0001
0100
0001
0100
0010
0000
1000
0000
,
1002
0000
1003
0010
1000
1000
0100
0100
,
0010
0000
0001
0100
0001
0200
0000
0000
0310
1000
0010
2000
0000
0000
3100
0000
,
0020
0000
0000
0000
0031
0000
1000
0000
0001
0100
0001
0100
0001
0000
1000
0010
,
1000
0000
0000
1000
0100
0000
0000
0100
0010
0000
0001
1000
0010
0100
0001
0000
,
1001
0000
0000
0000
1200
0000
0000
0000
0001
0000
0000
0000
1300
0100
1000
0100
,
0010
0000
0000
0000
0201
0000
0000
0000
1000
0000
0000
0000
0301
0100
0001
0100
,
0020
0000
0000
0000
1030
0000
0001
0000
0100
0000
0010
0000
1000
0000
0001
0010
,
0100
0000
0100
0000
0010
0000
0100
0010
0000
0000
1001
0000
0000
0110
0000
0000
,
1001
0000
0001
0100
0010
1000
0000
0000
0001
0100
0010
1000
0001
0000
0000
0001
,
1000
0000
0100
0010
0001
0010
0000
0100
0000
0100
0000
0100
1000
0001
1000
0001
,
1000
0000
0001
0010
0100
1000
0000
0000
0010
0100
0010
0000
1000
0000
0001
0020
,
0000
0000
0130
1000
0100
0010
0000
0001
0000
0001
0000
0001
1000
0010
0100
0001
,
1000
0000
0001
1000
0100
0010
0000
0000
0001
1000
0100
0010
0001
0000
0000
0001
,
0100
0000
0010
1000
0001
0100
0000
0010
0000
0010
0000
0010
1000
0100
0010
0001
,
0100
0000
0001
1000
0010
0100
0000
0000
0001
0010
0100
1000
0010
0000
0100
0000
,
0010
0000
1000
0100
1000
0001
0100
0000
0010
0000
0000
0110
0000
0000
0001
1000
,
0001
0000
1000
0100
0010
0001
0000
0000
1000
0100
0010
0001
1000
0000
0000
1000
,
0010
0000
0100
0001
1000
0010
0000
0100
0000
0100
0000
0100
0001
1000
0001
0010
,
0100
0000
1000
0010
0100
0001
0000
0000
0010
0100
0010
0000
0001
0000
1000
0020
,
0000
0000
0130
0001
1000
0001
0000
0010
0000
0010
0000
0010
0100
1000
0001
0100
,
0010
0000
1000
0001
0100
0010
0000
0000
1000
0001
0100
0010
1000
0000
0000
1000
,
0100
0000
0010
0001
1000
0001
0000
0100
0000
0100
0000
0100
0010
1000
0001
0010
,
0100
0000
0010
0001
0010
0001
1000
0000
0010
1000
0010
1000
0001
0100
0001
0100
,
0010
0000
1010
0000
0000
0101
0000
0000
0011
0000
0000
1100
0000
0001
1000
0001
,
1000
0000
0000
0000
0001
0000
0020
0000
0000
0000
0000
0000
0130
0000
2000
0000
0000
3000
0000
0000
0010
0000
0000
0000
0100
0000
0000
0000
0101
0000
0000
0000
,
0000
1010
0000
1002
0000
1003
0100
0010
,
0110
0000
0100
1000
0001
0100
0010
1010
,
0000
0000
0101
0000
0000
0000
1002
0000
0000
0000
1003
0001
1000
0001
1000
0001
,
1000
0001
1000
0001
0100
0000
0110
0000
0000
0000
0001
0000
0100
0000
0110
0000
,
0000
0000
1010
0000
0000
0000
0011
0000
0000
0000
1000
0100
1000
0000
0001
0100
,
0001
0000
1000
0010
1000
0010
0100
0000
0001
0010
0001
0010
0100
1000
0100
0000
,
0000
0000
0110
0000
0000
0000
1001
0000
1000
0010
0100
0001
1000
0000
0001
0020
,
0000
0000
0000
0000
0130
0000
0220
0000
0330
0000
0100
1000
0001
1000
0000
0000
,
0001
0000
0000
0000
0000
0000
1000
0000
0000
0010
0000
0000
1000
0000
0000
0020
0000
0000
0000
0000
0030
0000
0000
0000
0100
0000
0000
0001
0000
0000
0100
0000
0000
0001
0000
0000
0200
0000
0000
0000
0000
0000
0300
0000
0000
0000
0000
0000
,
0020
0000
0000
0000
1030
0000
0100
0000
0001
0000
0100
0000
0010
0001
0000
0000
,
2000
0000
3001
0100
0002
0000
1003
0100
2000
0000
3010
0100
0002
0000
0003
0000
,
0001
0000
0100
0000
0201
0000
0000
0000
1000
0000
0010
0000
0301
0100
0001
0010
,
0001
0000
1000
0000
1200
0000
0000
0000
0001
0000
0010
0000
1300
0100
1000
0010
,
1000
0000
0001
0100
0001
0100
0010
1000
0010
1000
0100
0000
0010
0001
1000
0001
,
0100
0000
0100
0000
0010
0000
0100
0010
0000
0000
1001
0000
0000
0110
0000
0000
,
1001
0000
1000
0100
0010
0001
0000
0000
1000
0100
0010
0001
1000
0000
0000
1000
,
0010
0000
0100
0001
1000
0001
0000
0010
0000
0010
0000
0010
0100
1000
0100
1000
,
0001
0000
0100
0001
1000
0010
0000
0000
0100
0010
0100
0000
0001
0000
1000
0200
,
0000
0000
0310
0001
1000
0002
0000
0203
0300
0200
0300
0100
0001
1000
0100
0010
,
0001
0000
1000
0010
0100
0001
0000
0000
1000
0010
0100
0001
1000
0000
0000
1000
,
0100
0000
0010
0001
1000
0010
0000
0100
0000
0100
0000
0100
0001
1000
0001
0100
,
0010
0000
1000
0010
1000
0001
0100
0001
1000
0100
0010
0001
0100
0010
1000
0100
,
0010
0001
0100
0010
1000
0100
0010
0001
0100
0000
0000
0110
0000
0000
1000
0001
,
1000
0000
0001
0100
0010
1000
0000
0000
0001
0100
0010
1000
0001
0000
0000
0001
,
0010
0000
0100
1000
0001
1000
0000
0010
0000
0010
0000
0010
0100
0001
1000
0010
,
0100
0000
0001
0010
0100
1000
0000
0000
0010
0100
0010
0000
1000
0000
0001
0020
,
0000
0000
0130
1000
0001
1000
0000
0010
0000
0010
0000
0010
1000
0100
0010
0001
,
0100
0000
0001
0100
1000
0100
0000
0000
0001
0100
1000
0100
0010
0000
0000
0010
,
1000
0000
0001
0010
0100
0010
0000
0001
0000
0001
0000
0001
0100
0010
1000
0001
,
0010
0000
0100
0001
0100
1000
0100
0000
0010
0001
0010
0001
1000
0010
1000
0010
,
0100
0000
0101
0000
0000
0011
0000
0000
1100
0000
0000
1010
0000
0001
0100
0010
,
2000
0000
0100
0200
0000
0000
0300
0000
,
0000
0000
3000
0000
;

//--------------- dance-double - forcednature ----------------
#NOTEDATA:;
#STEPSTYPE:dance-double;
#DESCRIPTION:forcednature;
#DIFFICULTY:Easy;
#METER:9;
#RADARVALUES:0,0,0,0,0;
#CREDIT:forcednature;
#NOTES:
00000000
00000000
00000000
00000000
,
00000000
00000000
00000000
00000000
,
00000000
00000000
00000000
00000000
,
00000000
00000000
00000000
00000000
,
00022000
00000000
00000000
00033000
,
00001000
01000000
00010000
01000000
,
00100000
10000000
00010000
00000000
,
00100000
00010000
00100000
00001000
,
00010000
00000100
00001000
00000000
,
00000010
00001000
00000010
00000100
,
00000001
00001000
00000001
00000000
,
00000010
00000100
00001000
00000100
,
00010000
00010000
00001000
01000000
,
00000000
00000000
00010000
00000000
10000000
00000000
00000000
01000000
,
00000000
01000000
00000000
01000000
00000000
00000000
00100000
00000000
,
00000000
00000000
00001000
00000000
00010000
00000000
00000000
00000010
,
00000000
00000010
00000000
00000010
00000000
00000000
00001000
00000000
,
00000000
00000000
00000001
00000000
00000010
00000000
00000000
00000100
,
00000000
00000100
00000000
00000100
00000000
00000000
00010000
00000000
,
00000000
00000000
00001000
00000000
01000000
00000000
00000000
00010000
,
00000000
00010000
00000000
00010000
00000000
00000000
10000000
00000000
,
00000000
00000000
01000000
00000000
00100000
00000000
00000000
00010000
,
00000000
00010000
00000000
00010000
00000000
00000000
01000000
00000000
,
00000000
00000000
00001000
00000000
00010000
00000000
00000000
00000100
,
00000000
00000100
00000000
00000100
00000000
00000000
00001000
00000000
,
00000000
00000000
00000001
00000000
00000100
00000000
00000000
00000010
,
00000000
00000010
00000000
00000010
00000000
00000000
00001000
00000000
,
00000000
00000000
00000100
00000000
00010000
00000000
00000000
00011000
,
00000000
00011000
00000000
00011000
00000000
00000000
00001000
00000000
,
01000000
00000000
00010000
10000000
,
01000000
10000000
01000000
00000000
00100000
00000000
00000000
00000000
,
01100000
00000000
01000000
10000000
,
00010000
00100000
00010000
00000000
00100000
00000000
00001000
00000000
,
00010000
00000010
00020020
00030030
,
00001000
00100000
00202000
00303000
,
00011000
00000000
00001000
01000000
,
00010000
10000000
00010000
00000000
00100000
00000000
01000000
00000000
,
10000000
00010000
10000000
00000000
00010000
10000000
00010000
00000000
,
01000000
00001000
00010000
00000100
,
00001000
00000001
00001000
00000000
00000010
00000000
00000100
00000000
,
00000001
00001000
00000001
00000000
00000010
00000000
00000100
00000000
,
00001000
00000001
00001000
00000000
00000001
00001000
00000001
00000000
,
00000100
00000001
00000100
00000000
00000010
00000000
00001000
00000000
,
00000100
00001000
00000100
00000000
00001000
00000100
00001000
00000000
,
00000010
00010000
00001000
00001000
,
00100000
00010000
00100000
00000000
00010000
00100000
00010000
00000000
,
10000000
00010000
01000000
00100000
,
10000000
00100000
10000000
00000000
00010000
00000000
00100000
00000000
,
00001000
00010000
00001000
00000000
00010000
00000000
00000010
00000000
,
00001000
00000010
00001000
00000000
00000010
00001000
00000010
00000000
,
00000100
00000001
00000100
00000000
00000001
00000000
00001000
00000000
,
00000100
00001000
00000100
00000000
00001000
00000100
00001000
00000000
,
00000000
00000010
00000000
00000010
00010000
00000000
00010000
00000000
,
00011000
00000000
00000000
00000000
00001000
00000000
01000000
00010000
,
00000000
00010000
00000000
00010000
00000000
00000000
10000000
00000000
,
10010000
00000000
00000000
00000000
00010000
00000000
00100000
00001000
,
00000000
00001000
00000000
00001000
00000000
00000000
00010000
00000000
,
00010000
00000000
00010000
00000010
00000000
00000000
00001000
00000001
,
00000000
00000001
00000000
00000001
00000000
00000000
00000010
00000000
,
00000110
00000000
00000000
00000000
00000100
00000000
00000100
00010000
,
00000000
00010000
00000000
00010000
00000000
00000000
00001000
00000000
,
00011000
00000000
00010000
00001000
,
01000000
00010000
01000000
00000000
00100000
00000000
10000000
00000000
,
10010000
00000000
00010000
00100000
,
00001000
00010000
00001000
00000000
00010000
00000000
00000010
00000000
,
00010000
00000100
00010100
00000000
,
00001000
01000000
01001000
00000000
,
00001000
00010000
00001000
00000000
00010000
00001000
00010000
00000000
,
00000100
00001000
00000100
00000000
00000010
00000000
00000001
00000000
,
00000100
00000001
00000100
00000000
00000001
00000100
00000001
00000000
,
00001000
00000010
00010000
00001000
,
00100000
00010000
00100000
00000000
01000000
00000000
10000000
00000000
,
00010000
01000000
00010000
00000000
10000000
00000000
00100000
00000000
,
10000000
01000000
10000000
00000000
01000000
00000000
00100000
00000000
,
00010000
00100000
00010000
00000000
00100000
00000000
00001000
00000000
,
00010000
00001000
00010000
00000000
00000010
00010000
00000010
00000000
,
00001000
00000010
00001000
00000000
00000110
00000000
00001001
00000000
,
00001000
00000100
00001000
00000000
00000100
00000000
00010000
00000000
,
00001000
01000000
00001000
00000000
01000000
00010000
01000000
00000000
,
00010000
10000000
00010000
00000000
10000000
00000000
01000000
00000000
,
00100000
01000000
00100000
00000000
00010000
00000000
00100000
00000000
,
00001000
00010000
00001000
00000000
00010000
00001000
00010000
00000000
,
00000100
00001000
00000100
00000000
00000010
00000000
00000001
00000000
,
00001000
00000001
00001000
00000000
00000010
00001000
00000010
00000000
,
00010000
00001000
01000000
00010000
,
20020000
00000000
30030000
00000000
;

//--------------- dance-double - forcednature ----------------
#NOTEDATA:;
#STEPSTYPE:dance-double;
#DESCRIPTION:forcednature;
#DIFFICULTY:Medium;
#METER:13;
#RADARVALUES:0,0,0,0,0;
#CREDIT:forcednature;
#NOTES:
00000000
00000000
00000000
00000000
,
00000000
00000000
00000000
00000000
,
00000000
00000000
00000000
00000000
,
00000000
00000000
00000000
00000000
,
00022000
00000000
00000000
00033000
,
00010000
01000000
20000000
30000000
00100000
10000000
00010000
10000000
,
00000000
01000000
00010000
00001000
00000010
00000200
00002300
00003002
,
00000203
00000300
00001000
00010000
00001000
01000000
00010000
01000000
,
00000000
00100000
10000000
00010000
10000000
02000000
03020000
00032000
,
00023000
00030000
00000100
00001000
00000100
00000010
00000001
00000010
,
00000000
00000001
00000100
00000001
00001000
00000020
00020030
00032000
,
00023000
00030000
00000000
02200000
03300000
10000000
01000000
00010000
,
00000000
00011000
00000000
00010100
00000000
00000100
00001000
00000010
,
00000000
00000100
00000001
00001000
00000001
00000010
00000000
00000220
,
00000330
00002200
00003300
00010200
00000000
00010300
00001000
01000000
,
00000000
00010000
10000000
00100000
01000000
00010000
00000000
00220000
,
00330000
00011000
00000000
00001020
00000000
00000130
00000001
00001000
,
00000000
00000100
00010000
00001000
01000000
00010000
10000000
22000000
,
33000000
00220000
00330000
01002000
00000000
00013000
00001000
00100000
,
00000000
01000000
00010000
00001000
00000010
00000100
00001000
00002200
,
00003300
00000202
00000303
00001020
00000000
00000031
00000010
00002000
,
00003000
00000100
00010000
00001000
01000000
00010000
00000000
00220000
,
00330000
22000000
33000000
20010000
00000000
30100000
00010000
00001000
,
00000000
00000010
00000100
00001000
00000100
00000001
00000000
00000220
,
00000330
00002002
00003003
00000012
00000000
00000103
00001000
00010000
,
00000000
00100000
10000000
10000000
01000000
00010000
00001000
00022000
,
00033000
00020200
00030300
00001200
00000000
00000310
00000100
00001000
,
00000000
00000001
00000100
00001000
00010000
00100000
00000000
20200000
,
30300000
20020000
30030000
00210000
00000000
01300000
00100000
00001000
,
00020000
00000000
00000000
00130000
10000000
00010000
10000000
00000000
,
01000000
00000000
00010000
00000000
00010000
00001000
00000000
00000000
00010000
00000000
00010000
00001000
00000000
00000000
00000000
00000000
,
00000012
00000000
00000103
00001000
00000100
00000001
00000010
00000000
,
00000100
00000000
00000000
00000100
00010000
00000000
00000000
00010000
00001000
00000000
00000000
00001000
01000000
00000000
00000000
00000000
,
10100000
12000000
00020000
03030000
,
00011000
00010200
00000020
00000330
,
00002002
00000000
00003003
00000001
00000100
00001000
00010000
01000000
,
10000000
00000000
10000000
00000000
10000000
00000000
00000000
00100000
00000000
00000000
01100000
00000000
00000000
10010000
00000000
00000000
,
01000000
00000000
00001000
00000000
00001000
00010000
00000000
00000000
00001000
00000000
00001000
00010000
00000000
00000000
00000000
00000000
,
00000100
00001000
00000010
00000100
00000010
00001000
00000100
00000000
,
00000000
00000000
00000010
00000000
00000010
00000001
00000000
00000000
00000100
00000000
00001000
00000000
00010000
00000000
00000000
00100000
,
00000000
00000000
10000000
00000000
10000000
00010000
00000000
00000000
10000000
00000000
01000000
00000000
00010000
00000000
00010000
00000000
,
00000000
00000000
00001000
00000000
00001000
00010000
00000000
00000000
00001000
00000000
00001000
00010000
00000000
00000000
00000000
00000000
,
00000100
00010000
00001000
00000100
00000010
00010000
00001000
00000000
,
00000000
00000000
00000010
00000000
00000010
00000001
00000000
00000000
00000010
00000000
00000010
00000001
00000000
00000000
00000000
00000000
,
00000100
00000000
00001000
00000000
00010000
00000000
01000000
00000000
00100000
00000000
00000000
01100000
00000000
00000000
10010000
00000000
,
00000000
00000000
10000000
00000000
10000000
01000000
00000000
00000000
10000000
00000000
10000000
01000000
00000000
00000000
00000000
00000000
,
00010000
00001000
00100000
00001000
00010000
00100000
01000000
00000000
,
00000000
00000000
00001000
00000000
00001000
00010000
00000000
00000000
00000100
00000000
00001000
00000000
00000010
00000000
00000000
00000010
,
00000000
00000000
00000100
00000000
00000100
00000001
00000000
00000000
00000010
00000000
00000100
00000000
00001000
00000000
00000100
00000000
,
00000000
00000000
00010000
00000000
00010000
00001000
00000000
00000000
00010000
00000000
00010000
00001000
00000000
00000000
01000000
00000000
,
00000000
00000000
00100000
00000000
00100000
10000000
00000000
00000000
01000000
00000000
00010000
00000000
00001000
00000000
00000010
00000000
,
00000000
00000100
00010000
00001000
00000100
00000001
00001000
00000100
,
00000000
00000000
00010100
00000000
00000000
00011000
00000000
00000000
01001000
00000000
00000000
00011000
00000000
00000000
00010010
00000000
,
00000000
00000000
00010000
00000000
00020000
00000000
00000000
00130000
00000000
00000000
10000000
00000000
00000000
00000000
22000000
00000000
,
33000000
00120000
00030000
10020000
00000000
10030000
00010000
01000000
,
01001000
00000000
00001000
00010000
00000100
00001000
00000000
00002200
,
00003300
00000022
00000033
00001002
00000000
00000103
00000100
00000100
,
00000100
00000100
00000100
00001000
00000000
00010000
00100000
20200000
,
30300000
02020000
03030000
20010000
00000000
31000000
00010000
00001000
,
00000010
00000100
00000100
00000001
00000100
00000100
00001000
00002002
,
00003003
00000220
00000330
00002001
00000000
00003010
00000100
00001000
,
00021000
00000000
00130000
10000000
00010000
10000000
01000000
00000000
,
00010000
00000000
00000100
00000000
00000100
00001000
00000000
00000000
00000100
00000000
00000100
00001000
00000000
00000000
00000010
00000000
,
00000100
00000000
00001000
00000100
00000001
00001000
00000100
00000000
,
00010000
00000000
00000000
00010000
00001000
00000000
00000000
00001000
01000000
00000000
00000000
01000000
00010000
00000000
00000000
00000000
,
00110000
00000000
00012000
00000000
00003020
00000000
00000130
00001000
,
00001010
00000000
00021000
00000000
00230000
00000000
01300000
00010000
,
00100000
01000000
00010000
01000000
10000000
00010000
01000000
00001000
,
00010000
00000000
00010000
00000000
00010000
00000000
00000000
00000100
00000000
00000000
00000110
00000000
00000000
00000110
00000000
00000000
,
00001001
00000000
00001000
00000000
00001000
00000100
00000000
00000000
00001000
00000000
00001000
00000100
00000000
00000000
00000000
00000000
,
00010000
00001000
00100000
01000000
00010000
00001000
00010000
00000000
,
00000000
00000000
00100000
00000000
00100000
10000000
00000000
00000000
01000000
00000000
00010000
00000000
00001000
00000000
00000000
00000010
,
00000000
00000000
00000100
00000000
00000100
00001000
00000000
00000000
00000001
00000000
00000100
00000000
00001000
00000000
00010000
00000000
,
00000000
00000000
00100000
00000000
00100000
10000000
00000000
00000000
00100000
00000000
00100000
10000000
00000000
00000000
01000000
00000000
,
00000000
00000000
00010000
00000000
00010000
00001000
00000000
00000000
00000010
00000000
00000100
00000000
00001000
00000000
00000100
00000000
,
00000000
00000000
00000010
00000000
00000010
00000001
00000000
00000000
00000100
00000000
00001000
00000000
00010000
00000000
00100000
00000000
,
01000000
00000000
00001000
00000000
00010000
00000000
00000100
00000000
00000010
00000000
00000000
00000110
00000000
00000000
00001001
00000000
,
00000000
00000000
00001000
00000000
00001000
00000100
00000000
00000000
00010000
00000000
00010000
00001000
00000000
00000000
00000000
00000000
,
01000000
00010000
01000000
10000000
01000000
00100000
10000000
00000000
,
00000000
00000000
01000000
00000000
01000000
00100000
00000000
00000000
00010000
00000000
00100000
00000000
00001000
00000000
00000000
00010000
,
00000000
00000000
00000010
00000000
00000010
00001000
00000000
00000000
00000100
00000000
00001000
00000000
00000100
00000000
00010000
00000000
,
00000000
00000000
00001000
00010000
00001000
00010000
00000000
00000000
00001000
00010000
00001000
00010000
00000000
00000000
00100000
00000000
,
00000000
00000000
10000000
00010000
10000000
00010000
00000000
00000000
10000000
00000000
01000000
00000000
00010000
00000000
00001000
00000000
,
00000000
00000000
00000010
00000100
00000010
00000100
00000000
00000000
00001000
00000001
00001000
00000001
00000000
00000000
00000100
00000000
,
00000100
00000000
00001000
00000000
00000000
00010000
00000000
00000000
00100000
00000000
00000000
10000000
00000000
00000000
01000000
00000000
,
00020000
00000000
00000010
00000020
00000000
00000000
00000030
00000000
,
00000000
00000000
00030000
00000000
;

//--------------- dance-double - forcednature ----------------
#NOTEDATA:;
#STEPSTYPE:dance-double;
#DESCRIPTION:forcednature;
#DIFFICULTY:Hard;
#METER:16;
#RADARVALUES:0,0,0,0,0;
#CREDIT:forcednature;
#NOTES:
00000000
00000000
00000000
00000000
,
00000000
00000000
00000000
00000000
,
00000000
00000000
00000000
00000000
,
00000000
00000000
00000000
00000000
,
00022000
00000000
00000000
00000000
00000000
00000000
00033000
00000000
00001000
00010000
00001000
00010000
00001000
00000000
01000000
00010000
,
01000000
00100000
20000000
00000000
31000000
00010000
00001000
00000010
,
00000000
00000110
00000000
00001001
00000000
00000002
00000203
00002300
,
00023000
00030000
00100000
10000000
00010000
00100000
01000000
00010000
,
00000000
00011000
00000000
00000110
00000000
00020000
00032000
02003000
,
03020000
00030000
00100000
01000000
10000000
00100000
00010000
00100000
,
00000000
01100000
00000000
00011000
00000000
00000200
00020300
00032000
,
00003200
00000300
00000010
00000220
00000330
00000100
00000000
00002002
,
00003003
00000000
00000220
00000000
00000330
00000000
00001000
00000000
00000100
00001000
00000100
00001000
00000100
00000000
00010000
00000000
,
00000000
00001000
01000000
00010000
01000000
00100000
00000000
10100000
,
00000000
10010000
00000000
21000000
00000000
31000000
00010000
00001000
,
00000000
00000010
00000100
00001000
00000100
00000010
00000000
00000011
,
00000000
00001001
00000000
00000102
00000000
00000103
00002000
00010000
,
00000000
00103000
00001000
00010000
00100000
10000000
01000000
00100000
,
00000000
11000000
00000000
00210000
00000000
00301000
00010000
00100000
,
00000000
01000000
00001000
00010000
00000100
00000010
00000001
00001000
,
00000000
00000011
00000000
00020100
00000000
00030010
00010000
00001000
,
00000000
00100000
00001000
00010000
00100000
10000000
01000000
00010000
,
00000000
00101000
00000000
00020100
00000000
00031000
00000100
00000001
,
00000000
00000010
00000100
00010000
00000100
00001000
00000001
00000100
,
00000000
00000000
00011000
00000000
00000000
00000000
02010000
00000000
00000000
00000000
03100000
10000000
00100000
00000000
01000000
00000000
,
00010000
00100000
01000000
00010000
00001000
00000010
00000100
00001000
,
00000000
00000011
00000000
00010200
00000000
00000310
00000100
00010000
,
00001000
00001000
00000100
00000010
00001000
00010000
00000000
01100000
,
00000000
10010000
00000000
21000000
00000000
30100000
00010000
00001000
,
00000020
00000000
00000030
00000100
00010000
00000100
00000010
00000001
,
00001000
00000000
00000010
00000000
00010000
00001000
00000000
00000000
00100000
00000000
00001000
00010000
00000000
00000000
00000000
00000000
,
00200000
00000000
00000000
00000000
10300000
00000000
00010000
00000000
10000000
01000000
10000000
01000000
00100000
00000000
00000000
00010000
,
01000000
00000000
00000000
01000000
00001000
00000000
00000000
00001000
00010000
00000000
00000000
00010000
00000100
00010000
00000100
00000000
,
00000010
00000100
00001000
00000001
00000200
00000000
00000300
00000000
,
00001000
00010000
00100000
01000000
00020000
00000000
00030000
00000000
,
20010000
00000000
31000000
00010000
00001000
00000100
00000001
00001000
,
00000100
00000000
00000100
00000000
00000100
00000000
00000010
00000100
00000000
00000000
00000011
00000000
00000000
00000011
00000000
00000000
,
00001100
00000000
00010000
00001000
00010000
00001000
00000000
00000000
01000000
00010000
01000000
00010000
01000000
00000000
00000000
00010000
,
10000000
01000000
00010000
01000000
00100000
00001000
00010000
00000010
,
00001000
00000000
00000100
00001000
00000100
00001000
00000000
00000000
00000010
00000000
00000100
00000000
00000001
00000000
00000010
00000001
,
00000000
00000000
00001000
00000010
00001000
00000010
00000000
00000000
00000100
00000000
00001000
00000000
00010000
00001000
00010000
00000000
,
00100000
00000000
10000000
00010000
10000000
00010000
00000000
00000000
10000000
01000000
10000000
01000000
10000000
00000000
00000000
00010000
,
01000000
00000000
00001000
00010000
00001000
00010000
00000000
00000100
00000000
00001000
00000000
00000000
00000001
00000000
00000100
00000000
,
00000010
00000000
00001000
00000001
00001000
00000001
00000000
00000000
00000010
00000100
00000010
00000100
00000010
00000000
00000000
00000001
,
00001000
00000000
00000010
00000000
00010000
00001000
00000000
00001000
00100000
00000000
00100000
01000000
00000000
01000000
10000000
00000000
,
00010000
00000000
01000000
00001000
01000000
00001000
00000000
00000000
00010000
00000100
00010000
00000100
00010000
00000000
00000000
00001000
,
00100000
00010000
01000000
10000000
01000000
00010000
00100000
00001000
,
00010000
00000000
00000010
00001000
00000010
00001000
00000000
00000000
00000100
00000000
00000001
00000000
00000100
00000000
00000010
00000001
,
00000000
00000000
00001000
00000010
00001000
00000010
00000000
00000000
00000100
00000000
00001000
00000000
00010000
00001000
00010000
00000000
,
00000100
00000000
00001000
00000010
00001000
00000010
00000000
00000000
00010000
00001000
00010000
00001000
00010000
00000000
00000000
00001000
,
01000000
00000000
00010000
10000000
00010000
10000000
00000000
01000000
00000000
01000000
00000000
00000000
00010000
00001000
00010000
00000000
,
00000100
00000000
00001000
00000000
00000001
00000100
00000001
00000000
00000010
00000000
00001000
00000000
00010000
00000100
00010000
00000100
,
00000000
00000000
00010000
00000000
00001000
01000000
00000000
01000000
00010000
00000000
00010000
10000000
00000000
10000000
01000000
00000000
,
00010000
00000000
00002000
00000000
00003020
00000000
00000000
00000130
00000000
00000000
00001000
00000000
00000001
00000000
00000101
00000000
,
00000000
00001001
00000000
00000012
00000000
00000103
00001000
00010000
,
00011000
00000000
00001000
01000000
00010000
10000000
00000000
11000000
,
00000000
10010000
00000000
20100000
00000000
31000000
01000000
00010000
,
00010000
00001000
00001000
00022000
00033000
00000100
00010000
00001000
,
00000000
00000110
00000000
00001001
00000000
00000001
00000100
00001000
,
00010000
00000000
00000000
00010000
00100000
00000000
01000000
00000000
00010000
10000000
00010000
00000000
00100000
00000000
01000000
00000000
,
00000000
00000000
10010000
00000000
00000000
00000000
21000000
00000000
00000000
00000000
00000000
00000000
30010000
00100000
01000000
20000000
,
00010000
00000000
00000000
00000000
30000000
00000000
02200000
00000000
03300000
00000000
10000000
00010000
10000000
00100000
00000000
00000000
,
01000000
00000000
00000000
00000000
00000000
00000000
00001000
00000000
00000000
00010000
00000000
00000000
00001000
00000000
00000000
00020000
00000000
00000000
00000000
00000000
00030000
00000000
00000000
00000000
00010000
00000000
00000000
00001000
00000000
00000000
00010000
00000000
00000000
00002000
00000000
00000000
00000000
00000000
00003000
00000000
00000000
00000000
00000000
00000000
00000000
00000000
00000000
00000000
,
00010020
00000000
00001030
00000100
00000010
00001000
00000010
00000001
,
00000200
00001300
00020000
00031000
00200000
00301000
00020000
00030000
,
00100000
10000000
02000000
03020000
00032000
00000000
00003000
00000000
,
00000010
00000001
00000200
00002300
00023000
00000000
00030000
00000000
,
00100000
00000000
10000000
00010000
10000000
00010000
00000000
00010000
00100000
00000000
00100000
00000000
01000000
00010000
00000000
00010000
,
00001000
00000000
00000010
00000000
00000100
00001000
00000100
00001000
00000000
00000000
00001001
00000000
00000000
00000110
00000000
00000000
,
00001001
00000000
00000001
00000010
00000001
00000100
00000000
00000000
00000001
00000010
00000001
00000100
00000001
00000000
00000000
00001000
,
00000100
00010000
00001000
00010000
00100000
10000000
00010000
10000000
,
01000000
00000000
00100000
00010000
00100000
00001000
00000000
00000000
00010000
00000000
00000010
00000000
00010000
00000000
00000100
00001000
,
00000000
00000000
00000000
00000000
00000220
00000000
00000000
00000330
00000000
00000000
00000100
00000000
00000000
00000000
00000000
00000000
00002002
00000000
00000000
00003003
00000000
00000000
00001000
00000000
00000100
00000000
00001000
00000000
00000100
00000000
00000000
00000000
,
00010000
00000000
00001000
00010000
00001000
01000000
00000000
00000000
00001000
00010000
00001000
01000000
00001000
00000000
00000000
00100000
,
00010000
00000000
00100000
01000000
10000000
01000000
00000000
01000000
00000000
01000000
00000000
00010000
00001000
00010000
00001000
00000000
,
00000010
00000000
00000100
00001000
00000100
00010000
00000000
00000000
00000010
00001000
00000010
00001000
00000001
00000100
00000001
00000100
,
00000001
00000010
00000001
00000010
00000100
00010000
00000100
00010000
00001000
00000000
00000000
01001000
00000000
00000000
01000000
00010000
,
01000000
00000000
00001000
01000000
00010000
00100000
00000000
00000000
00001000
01000000
00010000
00100000
00001000
00000000
00000000
00001000
,
00010000
00000100
00000010
00000100
00001000
00000010
00000001
00000010
,
00000100
00000000
00000001
00001000
00000100
00000010
00000000
00000000
00000100
00000000
00001000
00000000
00000100
00000000
00010000
00001000
,
00000000
00000000
01000000
00010000
01000000
00001000
00000000
00010000
00000000
00010000
00000100
00000000
00001000
00000001
00001000
00000001
,
00000100
00000000
00000010
00001000
00000010
00010000
00000000
00000000
00001000
00100000
00010000
00100000
01000000
00000000
00000000
01000000
,
10000000
00000000
00010000
01000000
00010000
01000000
00000000
00001000
00000000
00001000
00000000
00000000
00010000
00000100
00010000
00000000
,
00011000
00000000
00001000
00010000
00001000
00010000
00000100
00000000
00000010
00000001
00001000
00000001
00000100
00000001
00001000
00000010
,
00001000
00000000
00000100
00000000
00010000
00001000
00000000
00001000
00100000
00000000
00100000
00010000
00000000
10000000
00100000
00000000
,
02000000
00000000
00010000
00020000
00000000
00000000
00030000
00000000
,
00000000
00000000
03000000
00000000
;

//--------------- dance-double - forcednature ----------------
#NOTEDATA:;
#STEPSTYPE:dance-double;
#DESCRIPTION:forcednature;
#DIFFICULTY:Challenge;
#METER:17;
#RADARVALUES:0,0,0,0,0;
#CREDIT:forcednature;
#NOTES:
00000000
00000000
00000000
00000000
,
00000000
00000000
00000000
00000000
,
00000000
00000000
00000000
00000000
,
00000000
00000000
00000000
00000000
,
00001000
00000000
00010000
00001000
00010000
00000000
00000100
00001000
00000100
00000010
00000001
00001000
00000001
00000000
00000100
00000001
,
00000100
00002000
00023000
00000000
00130000
10000000
00010000
10000000
,
00000000
01100000
00000000
10010000
00000000
20000000
32000000
03020000
,
00032000
00003000
00000010
00000100
00001000
00000100
00010000
00001000
,
00000000
00000110
00000000
00001001
00000000
00000002
00000203
00002300
,
00023000
00030000
00100000
10000000
00010000
10000000
01000000
00010000
,
00000000
00011000
00000000
00000110
00000000
00000002
00000203
00020300
,
00032000
00000000
00003000
00000000
00000010
00000000
00000220
00000000
00000330
00000000
00000001
00000000
00001000
00000000
00000100
00010000
,
00000000
00000000
00001000
01000000
00000000
00000000
00010000
10000000
01000000
00100000
01000000
00100000
00010000
00000000
00010000
00000000
,
01000000
10000000
01000000
00100000
10000000
01000000
00000000
00110000
,
00000000
00011000
00000000
00001020
00000000
00000031
00000010
00000100
,
00000110
00000010
00001000
00000001
00000010
00001000
00000000
00011000
,
00000000
00000000
01100000
00000000
00000000
00000000
10010000
00000000
10000000
01000000
00100000
00010000
00200000
00000000
00301000
00000000
,
00011000
00010000
00000010
00000100
00001000
00000100
00000001
00000011
,
00000000
00000000
00001100
00000000
00000000
00000000
00002001
00000000
00000000
00000000
00003010
00001000
00000010
00000000
00010000
00001000
,
00010000
00100000
01000000
00100000
10000000
01000000
00100000
00101000
,
00000000
00000000
00010010
00000000
00000000
00000000
00000010
00001000
00000010
00000100
00000001
00000100
00000010
00000000
00001000
00000000
,
00001001
00000001
00000010
00001000
00010000
00100000
10000000
11000000
,
00000000
00110000
00000000
00012000
00000000
00003010
00000100
00001000
,
00000001
00000100
00001000
00010000
00100000
10000000
01000000
01100000
,
00000000
00000000
00011000
00000000
00000000
00000000
00010200
00000000
00000000
00000000
00000310
00000100
00000010
00000000
00000001
00001000
,
00000001
00000000
00000100
00000000
00001000
00010000
00001000
01000000
00010000
00000000
00010000
00000000
00100000
00000000
01100000
00000000
,
00000000
10000000
01000000
00010000
00001000
00000100
00000001
00000010
,
00000100
00000000
00000100
00000000
00000010
00000000
00000001
00000000
00000100
00000000
00000010
00001000
00000000
00000000
00010010
00000000
,
00000000
00000000
00011000
00000000
00000000
00000000
00101000
00000000
00100000
00010000
00100000
00010000
10000000
00000000
00100000
00000000
,
02100000
00000000
13000000
01000000
00010000
00010000
00100000
00100000
,
00001000
00000000
00010000
00000010
00010000
00000020
00000000
00000000
00001030
00000001
00001000
00000002
00000000
00000000
00000013
00000000
,
00000200
00000000
00000000
00000000
00001300
00000000
00000001
00000000
00000100
00000001
00000100
00000001
00000100
00000000
00000010
00001000
,
00000010
00000000
00000000
00000010
00010000
00000000
00000000
00010000
00001000
00000000
00100000
00010000
00100000
01000000
10000000
00000000
,
10010000
00000000
00000000
00000000
01002000
00000000
00000000
00000000
00010000
00000000
00000000
00000000
00003010
00001000
00000010
00001000
,
00010000
00000000
00000000
00000000
00020100
00000000
00000000
00000000
00001000
00000000
00000000
00000000
00130000
00010000
00100000
00010000
,
00002000
00000000
00000000
00000000
00013000
00000000
01000000
00000000
10000000
00000000
00010000
00000000
01000000
00000000
00001000
00010000
,
00001000
00000000
00001000
00000000
00000010
00000000
00000100
00001000
00000000
00000000
00001100
00000000
00000000
00000011
00000000
00000000
,
00001001
00000000
00000001
00000100
00000010
00001000
00000000
00000000
00000001
00000100
00000010
00001000
00000001
00000000
00000000
00000001
,
00000010
00000000
00000100
00001000
00000100
00010000
00000000
00001000
00000000
00001000
00000000
00001000
01000000
00010000
01000000
00100000
,
10000000
00000000
01000000
00100000
00010000
10000000
00000000
00000000
00100000
01000000
00100000
00000000
10000000
00000000
00010000
00200000
,
00000000
00000000
00301000
00010000
00000010
00010000
00000000
00001000
00000000
00001000
00000000
00001000
00000010
00000100
00001000
00000001
,
00000100
00000000
00000010
00010000
00000100
00001000
00000000
00000000
00000010
00010000
00000100
00001000
00000010
00000000
00000000
00000010
,
00010000
00000000
00001000
00100000
00010000
10000000
00000000
00100000
00000000
00100000
00000000
00100000
10000000
01000000
00100000
00010000
,
01000000
00000000
00001000
00100000
00010000
01000000
00000000
00000000
00001000
00100000
00010000
01000000
00001000
00000000
00010000
00000000
,
00000100
00000000
00000010
00000001
00000010
00000100
00001000
00000000
00000010
00000000
00000000
00000110
00000000
00000000
00001000
00000001
,
00001000
00000000
00000100
00001000
00000010
00010000
00000000
00000000
00000100
00001000
00000010
00010000
00000100
00000000
00000000
00000100
,
00010000
00000000
00001000
01000000
00010000
10000000
00000000
01000000
00000000
01000000
00000000
01000000
00100000
00010000
00100000
01000000
,
10000000
00000000
00010000
01000000
00001000
00100000
00000000
00000000
00001000
00010000
00001000
00000000
00000100
00000000
00000010
00002000
,
00000000
00000000
00003100
00000010
00000001
00000010
00000000
00000100
00000000
00000100
00000000
00000100
00001000
00000100
00010000
00001000
,
01000000
00000000
00010000
00100000
01000000
10000000
00000000
00000000
00010000
00100000
01000000
10000000
00100000
00000000
00000000
00100000
,
01000000
00000000
00010000
00100000
00001000
00100000
00000000
01000000
00000000
01000000
00000000
01000000
00010000
00001000
00010000
00000100
,
00001000
00000000
00000001
00000100
00000001
00000100
00000010
00000000
00001000
00000100
00001000
00000100
00010000
00001000
00010000
00001000
,
01000000
00000000
01010000
00000000
00000000
10100000
00000000
00000000
11000000
00000000
00000000
00110000
00000000
00001000
00010000
00001000
,
00010000
00000000
00000000
00000000
00000100
00000000
00002000
00000000
00000000
00000000
00000000
00000000
00003001
00000000
00000200
00000000
00000000
00000300
00000000
00000000
00000010
00000000
00000000
00000000
00010000
00000000
00000000
00000000
00011000
00000000
00000000
00000000
,
00000000
01010000
00000000
00120000
00000000
10030000
01000000
00010000
,
00011000
00000000
00000100
00010000
00001000
00000100
00000001
00000011
,
00000000
00000000
00001100
00000000
00000000
00000000
00021000
00000000
00000000
00000000
00030100
00010000
00000100
00010000
00001000
00010000
,
00001000
00010000
00001000
01000000
00001000
00000000
00100000
00000000
00000000
00000000
01000000
00000000
10000000
00000000
11000000
00000000
,
00000000
00000000
10100000
00000000
00000000
00000000
01010000
00000000
00000000
00000000
00001000
00010000
00001000
00000000
00100000
00010000
,
00100000
00000000
00001000
00010000
00001000
00010000
00000010
00000000
00001000
00000100
00001000
00000100
00000010
00000001
00000010
00000000
,
00000000
00000000
00000110
00000000
00000000
00000000
00001001
00000000
00000001
00000010
00000100
00001000
00000001
00000000
00000100
00002000
,
00010000
00000000
00000000
00000000
00103000
00000000
00200000
00000000
00300000
00000000
01000000
10000000
00010000
10000000
00000000
00000000
,
00010000
00000000
00000000
00000000
00000000
00000000
10000000
00000000
00000000
00100000
00000000
00000000
10000000
00000000
00000000
00200000
00000000
00000000
00000000
00000000
00300000
00000000
00000000
00000000
01000000
00000000
00000000
00001000
00000000
00000000
01000000
00000000
00000000
00001000
00000000
00000000
02000000
00000000
00000000
00000000
00000000
00000000
03000000
00000000
00000000
00000000
00000000
00000000
,
00020000
00000000
00000000
00000000
00130000
00000000
00001000
00000000
00000010
00000000
00001000
00000000
00010000
00000100
00000000
00000000
,
00002000
00000000
00003001
00000100
00000002
00000000
00001003
00000010
00002000
00000000
00003100
00010000
00002000
00000000
00003000
00000000
,
01000000
00000000
00001000
00000000
00100000
00000000
00010000
00000000
10000000
00000000
00100000
00000000
01000000
00010000
01000000
00001000
,
00010000
00000000
00000100
00000000
00001000
00000000
00000001
00000000
00000100
00000000
00001000
00000000
00010000
00000100
00001000
00000100
,
00000010
00000000
00000001
00000100
00000001
00000100
00000010
00001000
00000010
00001000
00000100
00000000
00010000
00001000
00100000
00001000
,
00010000
00000000
00010000
00000000
00100000
00000000
10000000
00010000
00000000
00000000
01100000
00000000
00000000
00011000
00000000
00000000
,
01100000
00000000
10000000
01000000
00100000
00010000
00000000
00000000
10000000
01000000
00100000
00010000
10000000
00000000
00000000
10000000
,
01000000
00000000
00010000
00001000
00010000
00000100
00000000
00000010
00000000
00000010
00000000
00000010
00000001
00000100
00000001
00000100
,
00000010
00000000
00001000
00000100
00010000
00001000
00000000
00000000
01000000
00010000
01000000
00000000
00100000
00000000
10000000
02000000
,
00000000
00000000
03010000
00001000
00010000
00002000
00000000
00003020
00000030
00000020
00000030
00000010
00000100
00001000
00000001
00000100
,
00000010
00000000
00001000
00000100
00010000
00000010
00000000
00000000
00001000
00000100
00010000
00000010
00001000
00000000
00000000
00001000
,
00000100
00000000
00010000
00001000
01000000
00010000
00000000
00100000
00000000
00100000
00000000
00100000
01000000
10000000
01000000
00100000
,
00010000
00000000
01000000
00010000
01000000
00001000
00010000
00001000
00100000
00010000
01000000
00010000
00100000
00001000
00010000
00000010
,
00001000
00000010
00010000
00001000
00010000
00000100
00001000
00000100
00000010
00000000
00000000
00000110
00000000
00000000
00000001
00001000
,
00000001
00000000
00000100
00000001
00001000
00000010
00000000
00000000
00000100
00000001
00001000
00000010
00000100
00000000
00000000
00000100
,
00001000
00000000
00010000
00000100
00010000
00001000
00000000
01000000
00000000
01000000
00000000
01000000
00010000
10000000
01000000
00100000
,
00010000
00000000
01000000
00001000
00010000
00000100
00000000
00000000
00001000
00000001
00001000
00000000
00000010
00000000
00000100
00000002
,
00000000
00000000
00000013
00000100
00001000
00000100
00000000
00010000
00000000
00010000
00000000
00010000
00001000
01000000
00010000
01000000
,
00100000
00000000
10000000
01000000
00010000
00001000
00000000
00000000
10000000
01000000
00010000
00001000
00100000
00000000
00000000
00100000
,
00010000
00000000
01000000
00001000
00010000
00000100
00000000
00000010
00000000
00000010
00000000
00000010
00000001
00000100
00000010
00001000
,
00000010
00000000
00010000
00001000
00010000
00100000
00010000
00000000
00001000
00000010
00001000
00000010
00000100
00001000
00000100
00001000
,
00000010
00000000
00010010
00000000
00000000
00101000
00000000
00000000
00010100
00000000
00000000
01001000
00000000
00001000
00010000
00001000
,
02000000
00000000
00100000
00200000
00000000
00000000
00300000
00000000
,
00000000
00000000
03000000
00000000
;
