#VERSION:0.83;
#TITLE:フレッフレー♪熱血チアガール;
#SUBTITLE:;
#ARTIST:裏マドンナだ!Primちゃん;
#TITLETRANSLIT:Hurray hurray nekketsu cheer girl;
#SUBTITLETRANSLIT:;
#ARTISTTRANSLIT:Prim;
#GENRE:;
#CREDIT:;
#MUSIC:Hurray hurray nekketsu cheer girl.ogg;
#BANNER:Hurray hurray nekketsu cheer girl.png;
#BACKGROUND:Hurray hurray nekketsu cheer girl-bg.png;
#CDTITLE:./CDTitles/GITADORA.png;
#SAMPLESTART:40.930;
#SAMPLELENGTH:15.000;
#SELECTABLE:YES;
#OFFSET:0.916;
#BPMS:0.000=195.000;
#STOPS:;
#TIMESIGNATURES:0.000=4=4;
#BGCHANGES:0.000=../BGAs/19po.mp4=1.000=0=0=0=StretchNoLoop====,
99999.000=-nosongbg-=1.000=0=0=0=StretchNoLoop====
;
#FGCHANGES:;

//--------------- dance-single - forcednature ----------------
#NOTEDATA:;
#STEPSTYPE:dance-single;
#DESCRIPTION:forcednature;
#DIFFICULTY:Beginner;
#METER:2;
#RADARVALUES:0,0,0,0,0;
#CREDIT:forcednature;
#NOTES:
0000
0000
0000
0000
,
0000
0000
0000
0000
,
0000
0000
0000
0000
,
0000
0000
0000
0000
,
0000
0000
0000
0000
,
0000
0000
0000
0000
,
0001
0000
0000
0000
,
0000
0000
0000
0000
,
1000
0000
0000
0000
,
0000
0000
0000
0000
,
0010
0000
0000
0000
,
0000
0000
0000
0000
,
0100
0000
0000
0000
,
0000
0000
0000
0000
,
0001
0000
0000
0000
,
1000
0000
0000
0000
,
0001
0000
0000
0000
,
0010
0000
0000
0000
,
0100
0000
0000
0000
,
1000
0000
0000
0000
,
0001
0000
0000
0000
,
1000
0000
0000
0000
,
0010
0000
0000
0000
,
0100
0000
0000
0000
,
0001
0000
0000
0000
,
0100
0000
0000
0000
,
0010
0000
0000
0000
,
1000
0000
0000
0000
,
0001
0000
0000
0000
,
1000
0000
0000
0000
,
0100
0000
0000
0000
,
0000
0000
0000
0000
,
0010
0000
0000
0000
,
0001
0000
0000
0000
,
0100
0000
0000
0000
,
0010
0000
0000
0000
,
1000
0000
0000
0000
,
0001
0000
0000
0000
,
0010
0000
0000
0000
,
0100
0000
0000
0000
,
1000
0000
0000
0000
,
0001
0000
0000
0000
,
0100
0000
0000
0000
,
0010
0000
0000
0000
,
1000
0000
0000
0000
,
0001
0000
0000
0000
,
0010
0000
0000
0000
,
0100
0000
0000
0000
,
1000
0000
0000
0000
,
0001
0000
0000
0000
,
0100
0000
0000
0000
,
0000
0000
0000
0000
,
0010
0000
0000
0000
,
1000
0000
0000
0000
,
0001
0000
0000
0000
,
0000
0000
0000
0000
,
0010
0000
0000
0000
,
0100
0000
0000
0000
,
1000
0000
0000
0000
,
0000
0000
0000
0000
,
0001
0000
0000
0000
,
0100
0000
0000
0000
,
0001
0000
0000
0000
,
1000
0000
0000
0000
,
0100
0000
0000
0000
,
1000
0000
0000
0000
,
0010
0000
0000
0000
,
0000
0000
0000
0000
,
0100
0000
0000
0000
,
0001
0000
0000
0000
,
0010
0000
0000
0000
,
0100
0000
0000
0000
,
1000
0000
0000
0000
,
0010
0000
0000
0000
,
0100
0000
0000
0000
,
0001
0000
0000
0000
,
1000
0000
0000
0000
,
0100
0000
0000
0000
,
0010
0000
0000
0000
,
0001
0000
0000
0000
,
1000
0000
0000
0000
,
0010
0000
0000
0000
,
0100
0000
0000
0000
,
0001
0000
0000
0000
,
0010
0000
0000
0000
,
0100
0000
0000
0000
,
0000
0000
0000
0000
,
1000
0000
0000
0000
,
0000
0000
0000
0000
,
0001
0000
0000
0000
,
0100
0000
0000
0000
,
0010
0000
0000
0000
,
2002
0000
0000
0000
,
0000
0000
0000
0000
,
0000
0000
3003
0000
,
0110
0000
0000
0000
;

//--------------- dance-single - forcednature ----------------
#NOTEDATA:;
#STEPSTYPE:dance-single;
#DESCRIPTION:forcednature;
#DIFFICULTY:Easy;
#METER:9;
#RADARVALUES:0,0,0,0,0;
#CREDIT:forcednature;
#NOTES:
0000
0000
0000
0000
,
0000
0000
0000
0000
,
0000
0000
0000
0000
,
0000
0000
0000
0000
,
0000
0000
0000
0000
,
0000
0000
0000
0000
,
0001
0010
0100
1000
,
0001
0100
0010
0010
,
1000
0001
0010
0100
,
1000
0001
0100
0100
,
0010
1000
0001
1000
,
0100
0010
0001
0001
,
1000
0010
0100
0001
,
1000
1000
1000
0000
,
1001
0000
0001
0000
,
0100
0010
0100
0001
,
0010
0100
0010
0001
,
0100
0000
0010
0000
1000
0001
1000
0000
,
0000
0100
0010
0100
,
1000
0010
0100
0010
,
1000
0100
0010
0100
,
1000
0000
1000
0000
0001
0100
0001
0000
,
0010
0100
1000
0001
,
0100
0100
0010
1000
,
0000
0100
0010
0001
,
0100
0010
0100
0001
,
0010
0000
0100
1000
,
0001
0100
0020
0000
,
1030
0000
0100
1000
,
0001
0100
0001
0000
1000
0000
0100
0000
,
0010
0010
0010
0000
,
0001
1000
0010
0100
,
0001
0001
0001
0000
,
1000
0100
1000
0001
,
0000
0000
0100
0000
0010
0000
1000
0001
,
1000
0000
0100
0000
0010
0000
0001
1000
,
0001
0000
0100
0000
0010
0000
1000
0001
,
1000
0100
0010
0001
,
0000
0000
1000
0000
0010
0000
0100
0001
,
0100
0000
0010
0000
1000
0000
0001
0100
,
0001
0000
1000
0000
0010
0000
0100
0001
,
0100
0010
1000
0100
,
0000
0000
0010
0000
0001
0000
1000
0100
,
1000
0000
0001
0000
0010
0000
0100
1000
,
0100
0000
0010
0000
0001
0000
1000
0100
,
1000
0010
0100
0001
,
0000
0000
1000
0000
0001
0000
0010
0100
,
0010
0000
0001
0000
1000
0000
0010
0100
,
0010
0000
1000
0000
0001
0000
0010
0100
,
0010
0001
1000
0010
,
0100
0000
0000
0110
0000
0000
0000
0000
,
0010
0000
0000
1001
0000
0000
0000
0000
,
0100
0000
0000
0110
0000
0000
0000
0000
,
0001
1000
0001
0000
,
0100
0010
1000
0010
,
0100
0001
1000
0000
,
0100
0010
0001
0010
,
0100
1000
0001
0000
,
0110
0000
1001
0000
,
1000
1000
0001
0001
,
0000
0100
0010
1000
,
0001
0010
0100
1000
,
0001
0100
0010
1000
,
0001
0010
0100
1000
,
0001
0100
0010
0000
,
1000
0100
0020
0030
,
2002
0000
0000
0000
,
0000
3003
0000
0000
0000
0000
0000
0000
0000
0000
0000
0000
0000
0000
0000
0000
,
0010
0010
0010
0100
,
0000
0000
0001
0000
1000
0000
0010
0100
,
0010
0000
1000
0000
0001
0000
0010
0100
,
0010
0000
0001
0000
1000
0000
0010
0100
,
0010
1000
0100
0010
,
0000
0000
0001
0000
1000
0000
0100
0010
,
0100
0000
1000
0000
0001
0000
0100
0010
,
0100
0000
0001
0000
1000
0000
0100
0010
,
0100
1000
0001
0100
,
0000
0000
0010
0000
1000
0000
0001
0010
,
0001
0000
0100
0000
0010
0000
1000
0100
,
1000
0000
0010
0000
0100
0000
0001
0010
,
0001
1000
0010
0100
,
0000
0000
0001
0000
1000
0000
0001
0100
,
0001
0000
0010
0000
0100
0000
1000
0010
,
1000
0000
0100
0000
0010
0000
0001
0100
,
0001
0010
0100
1000
,
0010
0000
0010
0000
0000
0100
0000
0100
,
0000
0001
1000
0001
,
0010
0000
0010
0000
0000
0100
0000
0100
,
0000
1000
0001
1000
,
0010
0000
0000
0100
0000
0000
0100
0000
,
0010
0010
0010
1000
,
0100
0000
0010
0000
,
1001
0000
0000
0000
,
0010
0000
0010
0000
0010
0000
0100
0000
0100
0000
0100
0000
,
0000
2002
0000
0000
0000
0000
3003
0000
,
0110
0000
0000
0000
;

//--------------- dance-single - forcednature ----------------
#NOTEDATA:;
#STEPSTYPE:dance-single;
#DESCRIPTION:forcednature;
#DIFFICULTY:Medium;
#METER:13;
#RADARVALUES:0,0,0,0,0;
#CREDIT:forcednature;
#NOTES:
0000
0000
0000
0000
,
0000
0000
0000
0000
,
0000
0000
0000
0000
,
0000
0000
0000
0000
,
0000
0000
0000
0000
,
0000
0000
0000
0000
,
0001
0100
0001
0100
0000
0010
1000
0000
,
1000
0100
0010
0001
0100
0000
0010
0000
,
1000
0100
1000
0100
0000
0010
0001
0000
,
1000
0010
0100
0001
0010
0000
0110
0000
,
0100
1000
0001
0100
0000
0010
1000
0000
,
0001
0010
0100
0010
0001
0000
1000
0000
,
0010
0100
0010
1000
0000
0001
0010
0000
,
0100
1000
0001
0100
0020
0000
0030
0000
,
0110
0000
0100
0000
0001
0000
1000
0100
,
0000
1000
0000
1010
0000
0001
0000
0011
,
0000
1000
0100
1000
0000
0010
0000
0110
,
0000
0101
0000
0001
0010
0100
1000
0001
,
0000
0000
0110
0000
0101
0000
0001
0010
,
0000
0100
0000
1100
0000
1000
0010
0100
,
0000
0001
0010
0100
0000
0010
0000
0011
,
0000
1100
0000
1000
0010
1000
0001
0100
,
0000
0000
0010
0100
0010
0000
1000
0000
,
0001
0010
0100
1000
0000
0001
0100
0001
,
0000
0000
0010
0100
1000
0100
0000
0010
,
0000
1001
0000
0001
0100
0010
1000
0001
,
0000
0000
1000
0100
1000
0000
0010
0000
,
0100
0001
1000
0002
0010
0000
0013
0000
,
0101
0000
1000
0000
1100
0000
0010
0100
,
0000
1000
0001
1000
0001
0100
0001
0020
,
0100
0130
1100
0000
,
1000
0001
0000
1000
0001
0000
0000
0000
,
0110
0100
0101
0000
,
0001
1000
0001
1000
0100
0010
0001
1000
,
0000
0000
1010
0000
1010
0000
0001
0010
,
0000
0100
0000
1100
0000
1000
0001
0100
,
0000
0010
0000
0110
0000
0100
0001
0010
,
0000
0100
1000
0100
0010
0001
1000
0001
,
0000
0000
0101
0000
0101
0000
0001
1000
,
0000
1010
0000
0011
0000
0100
0001
0010
,
0000
0110
0000
1100
0000
0001
1000
0010
,
0000
0100
0001
0100
0010
1000
0001
1000
,
0000
0000
1100
0000
1100
0000
0100
0010
,
0000
0011
0000
0101
0000
0001
1000
0010
,
0000
0110
0000
1001
0000
1000
0100
0010
,
0000
0100
1000
0001
1000
0010
0100
0001
,
0000
0000
1100
0000
0011
0000
0001
1000
,
0000
1010
0000
0110
0000
0100
0001
1000
,
0000
0011
0000
0101
0000
1000
0100
1000
,
0100
0010
0001
1000
0010
0100
0001
1000
,
0100
0000
0000
2200
0000
0000
3300
0000
,
0010
0000
0000
0022
0000
0000
0033
0000
,
0100
0000
0000
2002
0000
0000
3003
0000
,
0010
0100
0010
0100
0020
0000
0030
0000
,
1000
0001
1000
0100
1000
0010
0100
0000
,
0001
0010
0001
0000
1000
0010
1000
0000
,
0001
0100
0010
1000
0001
1000
0100
0000
,
0010
0001
0010
0001
0100
0001
0100
0000
,
0010
0100
0110
0000
,
0001
1000
0001
1000
0000
0100
1000
0100
,
0000
0000
0010
0000
0001
1000
0000
0101
,
0000
0001
1000
0000
0100
1000
0010
1000
,
0000
0100
0010
0000
0001
0100
0010
1000
,
0000
0001
1000
0000
0100
0010
0001
0100
,
0000
0010
1000
0000
1001
0000
0000
0001
,
0010
0001
0100
0020
1000
0000
0130
0000
,
2002
0000
0000
0000
,
0000
3003
0000
0000
0000
0000
0000
0000
0000
0000
0000
0000
0000
0000
0000
0000
,
1000
0001
1000
0001
0100
0010
1000
0001
,
0000
0000
0011
0000
1100
0000
1000
0010
,
0000
0100
0000
0101
0000
0001
1000
0100
,
0000
0010
0000
0110
0000
0100
1000
0010
,
0000
0100
1000
0100
0001
1000
0001
0010
,
0000
0000
1100
0000
1100
0000
1000
0001
,
0000
0011
0000
0101
0000
0100
0001
0010
,
0000
0110
0000
1100
0000
1000
0010
0001
,
0000
0010
0100
0001
0010
0100
1000
0100
,
0000
0000
0110
0000
0110
0000
0001
1000
,
0000
0101
0000
0110
0000
1000
0001
1000
,
0000
0011
0000
1001
0000
1000
0100
0001
,
0000
0100
0010
0001
1000
0010
0001
0010
,
0000
0000
0101
0000
1001
0000
1000
0100
,
0000
1010
0000
0110
0000
0100
0001
1000
,
0100
0000
0010
0110
0000
0100
1000
0001
,
0100
1000
0100
0001
1000
0010
0100
0001
,
0010
0000
0100
0100
0000
0001
0100
0100
,
0000
1000
0010
0100
0001
0100
0010
1000
,
0001
0000
0010
0010
0000
1000
0010
0010
,
0000
0001
0010
0100
1000
0100
0010
0001
,
2000
0000
0000
0100
0000
0000
3010
0000
,
1000
0100
1000
0010
0100
0001
0010
0001
,
0200
0000
0310
0000
,
2002
0000
0000
0000
0000
0000
0000
0000
0000
0000
0000
0000
0000
0000
0000
3003
0000
0000
0000
0000
1000
0000
0000
0000
,
0100
0000
1100
0000
0001
0000
0100
0000
0110
0000
1001
0000
,
0000
0000
0220
0000
0000
0000
0000
0000
0000
0000
0330
0000
0000
0000
1000
0001
,
1000
0000
0000
0000
;

//--------------- dance-single - forcednature ----------------
#NOTEDATA:;
#STEPSTYPE:dance-single;
#DESCRIPTION:forcednature;
#DIFFICULTY:Hard;
#METER:15;
#RADARVALUES:0,0,0,0,0;
#CREDIT:forcednature;
#NOTES:
0000
0000
0000
0000
,
0000
0000
0000
0000
,
0000
0000
0000
0000
,
0000
0000
0000
0000
,
0000
0000
0000
0000
,
0000
0000
0000
0000
0001
1000
0001
1000
,
0010
0100
0001
0100
0000
0010
1000
0000
,
0001
1000
0100
0010
0001
1000
0010
0100
,
0001
0010
0100
1000
0000
0001
0100
0000
,
0010
1000
0001
1000
0100
0100
0100
0000
,
0010
0001
1000
0001
0100
0010
1000
0000
,
0001
0010
0100
1000
0001
0100
0010
1000
,
0100
0010
0001
1000
0010
0100
0001
0000
,
0010
0000
0100
0000
1000
0000
0000
0000
0001
0100
0001
0000
1000
0000
0010
0000
,
0100
0000
0001
0010
0100
0010
0001
1000
,
0000
0010
0001
1000
0000
0100
0001
1000
,
0000
0010
1000
0001
0000
0100
1000
0001
,
0000
0010
1000
0001
1000
0100
0001
0100
,
0010
0000
0001
1000
0010
0100
1000
0001
,
0000
0010
1000
0001
0000
0010
1000
0001
,
0000
0100
1000
0001
0000
0100
1000
0001
,
0000
0010
0100
0001
0010
0100
0001
0100
,
1000
0000
0010
0100
0001
0010
0100
0001
,
0100
1000
0001
1000
0000
0010
0001
0010
,
0000
0100
0001
1000
0100
0010
1000
0010
,
0000
0001
0100
1000
0000
0001
0010
1000
,
0001
0000
0010
0100
1000
0010
0100
1000
,
0100
0001
0010
0200
0001
0000
0010
0000
,
1300
0000
0100
0010
0001
1000
0001
0100
,
0000
0010
1000
0001
0010
1000
0001
0100
,
2000
0000
0000
0000
0010
0000
0000
0001
,
0000
3001
0000
1000
0100
0010
0001
1000
,
0020
0000
0100
0100
0100
0000
0031
0010
,
1000
1000
0100
0010
0001
0100
0001
0010
,
0000
0000
0100
0000
1000
0000
0001
0000
0100
0000
1000
0000
0100
0000
0010
1000
,
0000
0000
1000
0100
0000
0000
0100
0010
0000
0000
0001
0000
0010
0000
0100
1000
,
0000
0000
1000
0001
0000
0000
0001
0100
0000
0000
0010
0000
0010
0000
0010
1000
,
0000
1000
0100
0001
1000
0010
0001
1000
,
0000
0000
0001
0000
0100
0000
0010
0000
1000
0000
0001
0000
0010
0000
0100
1000
,
0000
0000
1000
0010
0000
0000
0010
0100
0000
0000
0100
0000
0001
0000
0010
0100
,
0000
0000
0100
1000
0000
0000
1000
0010
0000
0000
0100
0001
0100
0001
0100
0000
,
0000
0010
0001
1000
0100
0001
1000
0100
,
0000
0000
0010
0000
0001
0000
1000
0000
0001
0000
0100
0000
0010
0000
1000
0100
,
0000
0000
0100
0010
0000
0000
0010
0001
0000
0000
1000
0000
0010
0000
0001
0010
,
0000
0000
0010
0100
0000
0000
0100
0001
0000
0000
0010
0000
0010
0000
0010
0100
,
0000
1000
0001
0100
1000
0001
0010
1000
,
0000
0000
0100
0000
0010
0000
0001
0000
0100
0000
0010
0000
1000
0000
0001
0100
,
0000
0000
0001
0010
0000
0000
0001
1000
0000
0000
1000
0000
0010
0000
1000
0100
,
0000
0000
1000
0010
0000
0000
1000
0001
0000
0000
0010
0000
0100
0000
0010
0000
,
0001
1000
0001
1000
0001
0000
0100
0000
0010
0000
1000
0000
0001
0000
0010
0000
,
0100
0000
1000
1100
0000
0001
0100
0000
,
1010
0000
0000
0100
0000
0000
0011
0000
0000
0000
0001
0000
1000
0000
0000
0000
,
0110
0000
0001
1100
0000
1000
0001
0000
,
0100
0000
0100
0000
0100
0000
0100
0010
0200
0000
0000
0000
0300
0000
0000
0000
,
0010
1000
0001
1000
0100
0001
0100
0010
,
0001
1000
0010
0100
0001
0010
0100
0000
,
0001
0100
1000
0001
1000
0010
0100
0001
,
1000
1000
1000
0001
0100
0100
0100
0000
,
0110
0000
1000
0000
0011
0000
0000
0001
,
1000
0010
0100
0001
0000
1000
0100
0001
,
0000
1000
0010
0000
0001
1000
0000
0010
,
0000
0100
0001
0000
0100
1000
0001
0010
,
0000
1000
0001
0000
1000
0100
0010
1000
,
0000
0010
0001
0000
1000
0001
0100
1000
,
0000
0001
0010
0000
0110
0000
0000
0100
,
0001
1000
0100
0020
1000
0000
0130
0010
,
0022
0000
0000
0000
,
0000
0033
0000
0000
0000
0000
0000
0000
0000
0000
0000
0000
0000
0000
0000
0000
,
0001
0001
0001
0001
1000
0010
0100
0001
,
0000
0000
0010
0000
0100
0000
1000
0000
0010
0000
0100
0000
0001
0000
1000
0100
,
0000
0000
0100
0001
0000
0000
0001
0100
0000
0000
0100
0000
0010
0000
0001
1000
,
0000
0000
1000
0010
0000
0000
0010
0001
0000
0000
0010
0000
0010
0000
0110
0000
,
0000
0000
0100
0000
0001
0000
1000
0000
0100
0010
0100
0000
1000
0000
0001
0000
,
0100
0000
0000
0000
0010
0000
0001
0000
0010
0000
1000
0000
0001
0000
0010
0100
,
0000
0000
0100
1000
0000
0000
1000
0010
0000
0000
0010
0000
0100
0000
0001
0010
,
0001
0000
0000
0001
0100
0000
1010
0000
0000
1000
0100
0000
0010
0001
0010
0000
,
0000
0100
1000
0001
0100
1000
0001
0010
,
1000
0000
0001
0000
1000
0000
0100
0000
0010
0000
0001
0000
1000
0000
0001
0100
,
0000
0000
0100
1000
0000
0000
1000
0100
0000
0000
0100
0000
0010
0000
1000
0100
,
0000
0000
0100
0001
0000
0000
0001
0100
0000
0000
0100
0000
0010
0000
1001
0000
,
0000
0001
0100
1000
0001
0010
1000
0001
,
1000
0000
0100
0000
1000
0000
0010
0000
0100
0000
0001
0000
0010
0000
0100
1000
,
0100
0000
0010
0001
0010
0000
0100
1000
0100
0000
0010
0000
0001
0000
0100
0001
,
0100
0000
0010
1000
0010
0000
0100
0000
0010
1000
0010
0000
0100
0000
0001
0000
,
1000
1000
1000
1000
0001
0010
0100
1000
,
0010
0000
0100
0100
0000
0001
0001
0001
,
0000
1000
0100
0001
1000
0010
0001
1000
,
0100
0000
0010
0010
0000
0001
0001
0001
,
0000
0100
0010
1000
0001
0010
0100
2000
,
0001
0000
0000
0100
0000
0000
0010
0000
,
3001
0001
0001
0001
1000
0100
0010
0001
,
0200
0000
0000
0000
0000
0000
0000
0000
0310
0000
0000
0000
0000
0000
1000
0001
,
1000
0100
1000
0001
0100
0001
0010
0000
0100
0000
1000
0000
,
0010
0000
0101
0000
1000
0000
0100
0000
0010
0000
1100
0000
,
0001
0000
2000
0000
0000
0000
0000
0000
0000
0000
0000
0000
0000
0000
3001
0100
,
0010
0000
0000
0000
;

//--------------- dance-double - forcednature ----------------
#NOTEDATA:;
#STEPSTYPE:dance-double;
#DESCRIPTION:forcednature;
#DIFFICULTY:Easy;
#METER:9;
#RADARVALUES:0,0,0,0,0;
#CREDIT:forcednature;
#NOTES:
00000000
00000000
00000000
00000000
,
00000000
00000000
00000000
00000000
,
00000000
00000000
00000000
00000000
,
00000000
00000000
00000000
00000000
,
00000000
00000000
00000000
00000000
,
00000000
00000000
00000000
00000000
,
00010000
00001000
00100000
00001000
,
00010000
00100000
10000000
10000000
,
01000000
00010000
00001000
00010000
,
00000100
00001000
00000010
00000010
,
00000100
00000001
00001000
00000001
,
00000010
00000100
00010000
00010000
,
00001000
01000000
00010000
01000000
,
00100000
00100000
00100000
00000000
,
10010000
00000000
10000000
00000000
,
01000000
00100000
00010000
00100000
,
00001000
00010000
00000010
00010000
,
00001000
00000000
00000010
00000000
00000100
00001000
00000100
00000000
,
00000000
00000010
00000001
00001000
,
00000001
00000100
00000010
00001000
,
00010000
01000000
00100000
01000000
,
00010000
00000000
00010000
00000000
10000000
01000000
10000000
00000000
,
00100000
01000000
00010000
01000000
,
00001000
00001000
00010000
00000100
,
00000000
00001000
00000001
00000100
,
00000010
00001000
00000010
00000100
,
00001000
00000000
00010000
00100000
,
01000000
00100000
20000000
00000000
,
31000000
00000000
00010000
00001000
,
00010000
00000100
00010000
00000000
00001000
00000000
00000010
00000000
,
00000100
00000100
00000100
00000000
,
00001000
00000001
00000100
00000010
,
00010000
00010000
00010000
00000000
,
00001000
01000000
00001000
00010000
,
00000000
00000000
00100000
00000000
01000000
00000000
00010000
10000000
,
00010000
00000000
00100000
00000000
00001000
00000000
00010000
00000010
,
00010000
00000000
00001000
00000000
00000010
00000000
00000100
00001000
,
00000100
00000010
00000001
00000100
,
00000000
00000000
00000010
00000000
00010000
00000000
00001000
01000000
,
00001000
00000000
00010000
00000000
00000100
00000000
00010000
00001000
,
00010000
00000000
00100000
00000000
01000000
00000000
00010000
10000000
,
00010000
00100000
00001000
00010000
,
00000000
00000000
00000010
00000000
00001000
00000000
00000100
00000010
,
00000100
00000000
00001000
00000000
00000001
00000000
00000100
00000010
,
00000100
00000000
00001000
00000000
00010000
00000000
00100000
01000000
,
00100000
10000000
00010000
00100000
,
00000000
00000000
01000000
00000000
10000000
00000000
00010000
01000000
,
00010000
00000000
00100000
00000000
00001000
00000000
00010000
00000010
,
00010000
00000000
00001000
00000000
00000010
00000000
00000100
00001000
,
00000100
00000010
00000001
00001000
,
00000010
00000000
00000000
00000100
00000000
00000000
00000000
00000000
,
00001000
00000000
00000000
00010000
00000000
00000000
00000000
00000000
,
01000000
00000000
01000000
01100000
00000000
00000000
00000000
00000000
,
00010000
10000000
00010000
00000000
,
10000000
01000000
00100000
00010000
,
00100000
00001000
00010000
00000000
,
00000010
00010000
00001000
00000010
,
00000100
00001000
00000001
00000000
,
00001001
00000000
00001001
00000000
,
00000001
00000001
00001000
00001000
,
00000000
00000100
00010000
00001000
,
01000000
00010000
10000000
01000000
,
00100000
00010000
00100000
00001000
,
00010000
00000010
00001000
00000010
,
00000100
00000001
00001000
00000000
,
00000100
00010000
00002000
00003000
,
00022000
00000000
00000000
00000000
,
00000000
00033000
00000000
00000000
00000000
00000000
00000000
00000000
00000000
00000000
00000000
00000000
00000000
00000000
00000000
00000000
,
00010000
00010000
00010000
00100000
,
00000000
00000000
01000000
00000000
00010000
00000000
10000000
01000000
,
10000000
00000000
00010000
00000000
01000000
00000000
00001000
00010000
,
00001000
00000000
00000010
00000000
00000100
00000000
00001000
00000001
,
00001000
00000010
00010000
00001000
,
00000000
00000000
00100000
00000000
00010000
00000000
10000000
00100000
,
10000000
00000000
00010000
00000000
01000000
00000000
00001000
00010000
,
00001000
00000000
00000100
00000000
00000001
00000000
00001000
00000100
,
00001000
00000010
00010000
00001000
,
00000000
00000000
00100000
00000000
00001000
00000000
00010000
00000010
,
00010000
00000000
00001000
00000000
01000000
00000000
00001000
00010000
,
00001000
00000000
00100000
00000000
00010000
00000000
10000000
00100000
,
10000000
01000000
00100000
00010000
,
00000000
00000000
01000000
00000000
00001000
00000000
00010000
00000100
,
00010000
00000000
00000010
00000000
00001000
00000000
00000001
00000010
,
00000001
00000000
00000100
00000000
00001000
00000000
00010000
00001000
,
00010000
00100000
01000000
00010000
,
10000000
00000000
10000000
00000000
00000000
01000000
00000000
01000000
,
00000000
00010000
00001000
00000010
,
00000001
00000000
00000001
00000000
00000000
00000100
00000000
00000100
,
00000000
00001000
00010000
00001000
,
00100000
00000000
00000000
00100000
00000000
00000000
00100000
00000000
,
01000000
01000000
01000000
01000000
,
10000000
00000000
00010000
00000000
,
00011000
00000000
00000000
00000000
,
00000100
00000000
00000100
00000000
00010000
00000000
00001000
00000000
01000000
00000000
01000000
00000000
,
00000000
20020000
00000000
00000000
00000000
00000000
30030000
00000000
,
01100000
00000000
00000000
00000000
;

//--------------- dance-double - forcednature ----------------
#NOTEDATA:;
#STEPSTYPE:dance-double;
#DESCRIPTION:forcednature;
#DIFFICULTY:Medium;
#METER:13;
#RADARVALUES:0,0,0,0,0;
#CREDIT:forcednature;
#NOTES:
00000000
00000000
00000000
00000000
,
00000000
00000000
00000000
00000000
,
00000000
00000000
00000000
00000000
,
00000000
00000000
00000000
00000000
,
00000000
00000000
00000000
00000000
,
00000000
00000000
00000000
00000000
,
00001000
00010000
00001000
00010000
00000000
00010000
00100000
00000000
,
10000000
01000000
00100000
00010000
01000000
00000000
00010000
00000000
,
01000000
00001000
01000000
00001000
00000000
00010000
00000100
00000000
,
00001000
00000010
00000100
00000001
00000010
00000000
00000110
00000000
,
00000100
00001000
00000100
00010000
00000000
00001000
01000000
00000000
,
00010000
10000000
01000000
00100000
00010000
00000000
01000000
00000000
,
00001000
00010000
00000010
00010000
00000000
00001000
00000010
00000000
,
00000100
00001000
00000001
00000100
00000020
00000000
00000030
00000000
,
00000110
00000000
00000100
00000000
00001000
00000000
00010000
00100000
,
00000000
01000000
00000000
01100000
00000000
00010000
00000000
10010000
,
00000000
10000000
01000000
00010000
00000000
00001000
00000000
00011000
,
00000000
00010100
00000000
00000100
00001000
00000010
00001000
00000100
,
00000000
00000000
00000110
00000000
00000011
00000000
00000001
00000100
,
00000000
00001000
00000000
00011000
00000000
00010000
00100000
10000000
,
00000000
01000000
00100000
00010000
00000000
01000000
00000000
01001000
,
00000000
00010100
00000000
00000100
00001000
00000001
00000100
00000010
,
00000000
00000000
00010000
00001000
00010000
00000000
00100000
00000000
,
01000000
00010000
10000000
00010000
00000000
00100000
01000000
10000000
,
00000000
00000000
00100000
01000000
00010000
01000000
00000000
00001000
,
00000000
00011000
00000000
00010000
00000100
00001000
00000100
00000010
,
00000000
00000000
00000001
00000100
00000001
00000000
00000010
00000000
,
00000100
00010000
00001000
00020000
00100000
00000000
00130000
00000000
,
00011000
00000000
00000100
00000000
00001000
00000000
00000001
00000100
,
00000000
00001000
00010000
00001000
00010000
00100000
01000000
00200000
,
10000000
10300000
01100000
00000000
,
00010000
00001000
00000000
00010000
00001000
00000000
00000000
00000000
,
00000110
00000100
00001001
00000000
,
00000001
00000100
00000001
00000100
00000010
00010000
00001000
00100000
,
00000000
00000000
01100000
00000000
01100000
00000000
01000000
10000000
,
00000000
00010000
00000000
01010000
00000000
01000000
00001000
00010000
,
00000000
00000100
00000000
00001100
00000000
00001000
00000001
00000100
,
00000000
00000010
00010000
00001000
01000000
00001000
00010000
00000010
,
00000000
00000000
00000110
00000000
00000110
00000000
00000100
00001000
,
00000000
00011000
00000000
00101000
00000000
00100000
00010000
01000000
,
00000000
01100000
00000000
10010000
00000000
10000000
01000000
00010000
,
00000000
00001000
00010000
00000100
00001000
00000001
00000100
00000010
,
00000000
00000000
00010010
00000000
00010010
00000000
00010000
00001000
,
00000000
00101000
00000000
01001000
00000000
01000000
00010000
10000000
,
00000000
11000000
00000000
00110000
00000000
00010000
01000000
00001000
,
00000000
00010000
00000100
00001000
00000010
00010000
00001000
00000010
,
00000000
00000000
00000110
00000000
00001001
00000000
00000001
00000100
,
00000000
00001010
00000000
00010010
00000000
00010000
00001000
00100000
,
00000000
01100000
00000000
10010000
00000000
10000000
01000000
00100000
,
00010000
01000000
00001000
00010000
00000100
00001000
00000010
00010000
,
00001000
00000000
00000000
00000220
00000000
00000000
00000330
00000000
,
00010000
00000000
00000000
02200000
00000000
00000000
03300000
00000000
,
00010000
00000000
00000000
00022000
00000000
00000000
00033000
00000000
,
00001000
00010000
00100000
01000000
00200000
00000000
00300000
00000000
,
10000000
00010000
10000000
01000000
00100000
00010000
01000000
00000000
,
00001000
00010000
00001000
00000000
00010000
00000100
00010000
00000000
,
00000100
00001000
00000001
00000100
00000010
00010000
00001000
00000000
,
00100000
00010000
00100000
00010000
01000000
00100000
10000000
00000000
,
01000000
00010000
00011000
00000000
,
00000100
00001000
00000100
00001000
00000000
00000001
00000100
00000001
,
00000000
00000000
00000010
00000000
00000100
00010000
00000000
00011000
,
00000000
00001000
01000000
00000000
00010000
10000000
01000000
10000000
,
00000000
00100000
01000000
00000000
00010000
00100000
00001000
00010000
,
00000000
00000010
00001000
00000000
00000100
00000010
00000001
00000100
,
00000000
00000010
00010000
00000000
00011000
00000000
00000000
00001000
,
00100000
00001000
01000000
00020000
10000000
00000000
00130000
00000000
,
02200000
00000000
00000000
00000000
,
00000000
03300000
00000000
00000000
00000000
00000000
00000000
00000000
00000000
00000000
00000000
00000000
00000000
00000000
00000000
00000000
,
10000000
01000000
00010000
00001000
00000100
00000001
00000010
00000100
,
00000000
00000000
00000110
00000000
00001001
00000000
00000001
00000100
,
00000000
00000010
00000000
00010010
00000000
00010000
00001000
00100000
,
00000000
01000000
00000000
01100000
00000000
00100000
00010000
10000000
,
00000000
00100000
00010000
00001000
00000010
00001000
00010000
01000000
,
00000000
00000000
01100000
00000000
01100000
00000000
10000000
00010000
,
00000000
01010000
00000000
01001000
00000000
00001000
00010000
00000100
,
00000000
00001100
00000000
00000011
00000000
00000001
00000100
00001000
,
00000000
00010000
00001000
00010000
00100000
01000000
00010000
01000000
,
00000000
00000000
01100000
00000000
01100000
00000000
10000000
00010000
,
00000000
00110000
00000000
00101000
00000000
00001000
00010000
00000010
,
00000000
00001010
00000000
00001001
00000000
00000001
00000010
00000100
,
00000000
00010000
00001000
01000000
00010000
10000000
01000000
00010000
,
00000000
00000000
00011000
00000000
01001000
00000000
01000000
00010000
,
00000000
00110000
00000000
11000000
00000000
10000000
00100000
00010000
,
00001000
00000000
00000010
00000100
00000000
00001000
00000001
00000100
,
00001000
00010000
00100000
00010000
00001000
00000010
00001000
00010000
,
01000000
00000000
10000000
10000000
00000000
00100000
00010000
00010000
,
00000000
00001000
00000010
00000100
00000010
00000001
00000100
00000010
,
00000100
00000000
00001000
00001000
00000000
00010000
00100000
00100000
,
00000000
10000000
01000000
00100000
00010000
00001000
00000100
00000010
,
00000002
00000000
00000000
00000100
00000000
00000000
00000013
00000000
,
00000001
00000100
00000010
00001000
00010000
01000000
00100000
10000000
,
02000000
00000000
03100000
00000000
,
00022000
00000000
00000000
00000000
00000000
00000000
00000000
00000000
00000000
00000000
00000000
00000000
00000000
00000000
00000000
00033000
00000000
00000000
00000000
00000000
00001000
00000000
00000000
00000000
,
00010000
00000000
00100000
00000000
00010000
00000000
00001000
00000000
00000010
00000000
00000110
00000000
,
00000000
00000000
00002002
00000000
00000000
00000000
00000000
00000000
00000000
00000000
00003003
00000000
00000000
00000000
00000001
00001000
,
00000001
00000000
00000000
00000000
;

//--------------- dance-double - forcednature ----------------
#NOTEDATA:;
#STEPSTYPE:dance-double;
#DESCRIPTION:forcednature;
#DIFFICULTY:Hard;
#METER:16;
#RADARVALUES:0,0,0,0,0;
#CREDIT:forcednature;
#NOTES:
00000000
00000000
00000000
00000000
,
00000000
00000000
00000000
00000000
,
00000000
00000000
00000000
00000000
,
00000000
00000000
00000000
00000000
,
00000000
00000000
00000000
00000000
,
00000000
00000000
00000000
00000000
00001000
00010000
00000100
00001000
,
00000100
00000010
00000001
00000100
00000000
00000010
00001000
00000000
,
00010000
01000000
00100000
10000000
00010000
10000000
01000000
00100000
,
00010000
00100000
00001000
00010000
00000000
00000010
00001000
00000000
,
00000100
00000010
00000001
00001000
00000010
00000010
00000010
00000000
,
00010000
00001000
01000000
00010000
01000000
00100000
10000000
00000000
,
00010000
00100000
01000000
10000000
00010000
01000000
00001000
00010000
,
00000100
00001000
00000001
00001000
00000010
00010000
00001000
00000000
,
00100000
00000000
00010000
00000000
10000000
00000000
00000000
00000000
00010000
01000000
00010000
00000000
10000000
00000000
01000000
00000000
,
00100000
00000000
00010000
01000000
00001000
00010000
00000100
00001000
,
00000000
00000001
00000100
00001000
00000000
00000100
00000010
00001000
,
00000000
00010000
01000000
00100000
00000000
10000000
00010000
00100000
,
00000000
01000000
00010000
00001000
00000100
00001000
00010000
00100000
,
01000000
00000000
00010000
10000000
01000000
00010000
00001000
00000010
,
00000000
00000100
00001000
00000001
00000000
00000100
00000010
00001000
,
00000000
00000100
00010000
00001000
00000000
00100000
00010000
01000000
,
00000000
00100000
10000000
00010000
10000000
01000000
00010000
00001000
,
00010000
00000000
00000100
00001000
00000010
00001000
00000100
00000010
,
00000001
00001000
00000001
00000100
00000000
00000010
00001000
00000010
,
00000000
00010000
00001000
00100000
00010000
00100000
01000000
10000000
,
00000000
00010000
01000000
10000000
00000000
00010000
00100000
10000000
,
00010000
00000000
10000000
01000000
00100000
00010000
00100000
00001000
,
00010000
00000010
00001000
00000020
00000001
00000000
00000100
00000000
,
00001030
00000000
00000010
00000100
00000001
00001000
00000100
00010000
,
00000000
00001000
01000000
00010000
10000000
01000000
00010000
00001000
,
00200000
00000000
00000000
00000000
10000000
00000000
00000000
01000000
,
00000000
01300000
00000000
00100000
00010000
00100000
00001000
00010000
,
00000020
00000000
00001000
00001000
00001000
00000000
00000130
00000010
,
00001000
00001000
00001000
00000001
00000010
00000100
00000010
00000001
,
00000000
00000000
00000100
00000000
00001000
00000000
00010000
00000000
00001000
00000000
01000000
00000000
00010000
00000000
10000000
01000000
,
00000000
00000000
01000000
00100000
00000000
00000000
00100000
00010000
00000000
00000000
01000000
00000000
00001000
00000000
00010000
00000100
,
00000000
00000000
00000100
00001000
00000000
00000000
00001000
00000001
00000000
00000000
00000100
00000000
00000100
00000000
00000100
00000010
,
00000000
00001000
00000100
00010000
00001000
01000000
00010000
10000000
,
00000000
00000000
01000000
00000000
00010000
00000000
00001000
00000000
00010000
00000000
00100000
00000000
01000000
00000000
00010000
10000000
,
00000000
00000000
10000000
01000000
00000000
00000000
01000000
00010000
00000000
00000000
00001000
00000000
00010000
00000000
00000100
00001000
,
00000000
00000000
00001000
00000001
00000000
00000000
00000001
00000100
00000000
00000000
00000010
00001000
00000010
00001000
00000010
00000000
,
00000000
00000100
00001000
00010000
00100000
00010000
00001000
00010000
,
00000000
00000000
01000000
00000000
10000000
00000000
00010000
00000000
01000000
00000000
00100000
00000000
10000000
00000000
00010000
00100000
,
00000000
00000000
00100000
00001000
00000000
00000000
00001000
00010000
00000000
00000000
00000010
00000000
00001000
00000000
00000100
00000010
,
00000000
00000000
00000010
00000001
00000000
00000000
00000001
00000100
00000000
00000000
00001000
00000000
00001000
00000000
00001000
00010000
,
00000000
00100000
10000000
01000000
00100000
00010000
01000000
00001000
,
00000000
00000000
00010000
00000000
00000100
00000000
00001000
00000000
00000001
00000000
00000100
00000000
00000010
00000000
00010000
00001000
,
00000000
00000000
00001000
00100000
00000000
00000000
00100000
00010000
00000000
00000000
01000000
00000000
00100000
00000000
10000000
01000000
,
00000000
00000000
01000000
00100000
00000000
00000000
00100000
00010000
00000000
00000000
01000000
00000000
00001000
00000000
00010000
00000000
,
00000100
00001000
00000100
00001000
00000100
00000000
00000010
00000000
00000001
00000000
00001000
00000000
00000001
00000000
00000100
00000000
,
00000010
00000000
00001000
00001100
00000000
00000100
00010000
00000000
,
00011000
00000000
00000000
00100000
00000000
00000000
01010000
00000000
00000000
00000000
10000000
00000000
00010000
00000000
00000000
00000000
,
01100000
00000000
10000000
01010000
00000000
00100000
00001000
00000000
,
00010000
00000000
00010000
00000000
00010000
00000000
00001000
00010000
00002000
00000000
00000000
00000000
00003000
00000000
00000000
00000000
,
00000010
00000100
00001000
00000001
00000100
00000010
00000100
00001000
,
00010000
00100000
01000000
00100000
10000000
00010000
10000000
00000000
,
01000000
00010000
00001000
00010000
00000100
00001000
00000100
00000010
,
00000001
00000001
00000001
00000100
00001000
00001000
00001000
00000000
,
00011000
00000000
00100000
00000000
01010000
00000000
00000000
10000000
,
00100000
01000000
00010000
10000000
00000000
01000000
00010000
00001000
,
00000000
00000100
00001000
00000000
00010000
00100000
00000000
00010000
,
00000000
00001000
00000010
00000000
00000100
00001000
00000001
00000100
,
00000000
00001000
00010000
00000000
01000000
10000000
00010000
01000000
,
00000000
00100000
10000000
00000000
01000000
00010000
00001000
00010000
,
00000000
00000100
00000010
00000000
00001001
00000000
00000000
00000001
,
00000100
00001000
00010000
00200000
10000000
00000000
01300000
00100000
,
20020000
00000000
00000000
00000000
,
00000000
30030000
00000000
00000000
00000000
00000000
00000000
00000000
00000000
00000000
00000000
00000000
00000000
00000000
00000000
00000000
,
00010000
00010000
00010000
00010000
01000000
00001000
00010000
00000100
,
00000000
00000000
00001000
00000000
00000001
00000000
00000100
00000000
00000010
00000000
00001000
00000000
00000100
00000000
00010000
00001000
,
00000000
00000000
00001000
01000000
00000000
00000000
01000000
00010000
00000000
00000000
00100000
00000000
01000000
00000000
10000000
00100000
,
00000000
00000000
00100000
00010000
00000000
00000000
00010000
00001000
00000000
00000000
00000010
00000000
00000010
00000000
00000110
00000000
,
00000000
00000000
00000100
00000000
00001000
00000000
00000001
00000000
00000100
00000010
00000100
00000000
00001000
00000000
00010000
00000000
,
00100000
00000000
00000000
00000000
10000000
00000000
00010000
00000000
10000000
00000000
01000000
00000000
00100000
00000000
00010000
01000000
,
00000000
00000000
01000000
00001000
00000000
00000000
00001000
00010000
00000000
00000000
00000100
00000000
00001000
00000000
00000001
00000100
,
00000001
00000000
00000000
00000001
00000010
00000000
00000110
00000000
00000000
00000100
00001000
00000000
00000010
00001000
00000010
00000000
,
00000000
00010000
00001000
00100000
00001000
00010000
00100000
01000000
,
00010000
00000000
10000000
00000000
01000000
00000000
00010000
00000000
00001000
00000000
00000100
00000000
00000001
00000000
00001000
00000100
,
00000000
00000000
00000100
00010000
00000000
00000000
00010000
00001000
00000000
00000000
01000000
00000000
00010000
00000000
00100000
01000000
,
00000000
00000000
01000000
10000000
00000000
00000000
10000000
00010000
00000000
00000000
01000000
00000000
00001000
00000000
00011000
00000000
,
00000000
00000100
00001000
00000010
00000100
00000001
00000010
00001000
,
00010000
00000000
00100000
00000000
01000000
00000000
00100000
00000000
10000000
00000000
01000000
00000000
00100000
00000000
00010000
01000000
,
00010000
00000000
00100000
00001000
00100000
00000000
00001000
00010000
00001000
00000000
00000010
00000000
00000100
00000000
00001000
00000001
,
00001000
00000000
00000001
00000100
00000001
00000000
00000010
00000000
00000001
00000100
00000001
00000000
00000010
00000000
00001000
00000000
,
00010000
00010000
00010000
00010000
00100000
01000000
00100000
10000000
,
01000000
00000000
00010000
00010000
00000000
00001000
00001000
00001000
,
00000000
00000100
00000001
00000010
00000100
00001000
00000010
00000100
,
00001000
00000000
00010000
00010000
00000000
00100000
00100000
00100000
,
00000000
10000000
01000000
00010000
00001000
00000100
00000001
00000010
,
00000200
00000000
00000000
00000001
00000000
00000000
00000010
00000000
,
00001300
00001000
00001000
00001000
00000100
00000100
00010000
00001000
,
02000000
00000000
00000000
00000000
00000000
00000000
00000000
00000000
03100000
00000000
00000000
00000000
00000000
00000000
10000000
00010000
,
10000000
01000000
00100000
00010000
00100000
00001000
00010000
00000000
00000010
00000000
00001000
00000000
,
00000100
00000000
00000110
00000000
00000001
00000000
00001000
00000000
00000010
00000000
00011000
00000000
,
00100000
00000000
00020000
00000000
00000000
00000000
00000000
00000000
00000000
00000000
00000000
00000000
00000000
00000000
01030000
00010000
,
00100000
00000000
00000000
00000000
;
