#VERSION:0.83;
#TITLE:Horizons of Promise;
#SUBTITLE:;
#ARTIST:BEMANI Sound Team "SPIRITUAL RIDE";
#TITLETRANSLIT:;
#SUBTITLETRANSLIT:;
#ARTISTTRANSLIT:SPIRITUAL RIDE;
#GENRE:ALTANATIVE ROCK;
#CREDIT:;
#MUSIC:Horizons of Promise.ogg;
#BANNER:Horizons of Promise.png;
#BACKGROUND:Horizons of Promise-bg.png;
#CDTITLE:./CDTitles/bm IIDX 27 HEROIC VERSE.png;
#SAMPLESTART:51.637;
#SAMPLELENGTH:15.000;
#SELECTABLE:YES;
#OFFSET:0.342;
#BPMS:0.000=180.000;
#STOPS:;
#TIMESIGNATURES:0.000=4=4;
#DISPLAYBPM:180.000;
#BGCHANGES:2.500=Horizons of Promise.mp4=1.000=0=0=0=StretchNoLoop====,
99999.000=-nosongbg-=1.000=0=0=0=StretchNoLoop====
;
#FGCHANGES:;

//--------------- dance-single - forcednature ----------------
#NOTEDATA:;
#STEPSTYPE:dance-single;
#DESCRIPTION:forcednature;
#DIFFICULTY:Beginner;
#METER:4;
#RADARVALUES:0.155337,0.261285,0.057663,0.164751,0,132,125,7,20,0,0,0.155337,0.261285,0.057663,0.164751,0,132,125,7,20,0,0;
#CREDIT:forcednature;
#NOTES:
0000
0000
0000
0000
,
0000
0000
0000
0000
,
0000
0000
0000
0000
,
0010
0000
0000
0000
,
0100
0000
0000
0000
,
0001
0000
0000
0000
,
1000
0000
0000
0000
,
0100
0000
0000
0000
,
0010
0000
0000
0000
,
0001
0000
0000
0000
,
1000
0000
0000
0000
,
0020
0000
0000
0000
,
0030
0000
0000
0000
,
0200
0000
0000
0000
,
0300
0000
0000
0000
,
0001
0000
0000
0000
,
1000
0000
0000
0000
,
0100
0000
0000
0000
,
0010
0000
0000
0000
,
0002
0000
0000
0000
,
0003
0000
0000
0000
,
2000
0000
0000
0000
,
3000
0000
0000
0000
,
0000
0010
0010
0010
,
0000
0100
0100
0100
,
0000
0001
0001
0001
,
0000
1000
1000
1000
,
0100
0000
0000
0000
,
0010
0000
0000
0000
,
0001
0000
0000
0000
,
1000
0000
0000
0000
,
0000
0001
0001
0001
,
0000
1000
1000
1000
,
0000
0010
0010
0010
,
0000
0100
0100
0100
,
0001
0000
0000
0000
,
1000
0000
0000
0000
,
0100
0000
0000
0000
,
0010
0000
0000
0000
,
2002
0000
3003
0000
,
0001
0000
0100
0000
,
0001
0000
0000
0000
,
0100
0000
0001
0000
,
2002
0000
3003
0000
,
1000
0000
0100
0000
,
1000
0000
0000
0000
,
0100
0000
1000
0000
,
2002
0000
3003
0000
,
0001
0000
0010
0000
,
0001
0000
0000
0000
,
0010
0000
0001
0000
,
0010
0000
0000
0000
,
0010
0000
1000
0000
,
0010
0000
0010
0000
,
0010
0000
0000
0000
,
0100
0100
0000
0000
,
0001
0001
0000
0000
,
1000
1000
0000
0000
,
0010
0000
0000
0000
,
0100
0000
0000
0000
,
0001
0000
0001
0000
,
0100
0000
0000
0000
,
1000
0000
1000
0000
,
1001
0000
0000
0000
,
0010
0000
0000
0000
,
0100
0000
0000
0000
,
1000
0000
0001
0000
,
0100
0000
0010
0000
,
0000
0000
1000
0000
,
0001
0000
0010
0000
,
0200
0000
0300
0000
,
2002
0000
0000
0000
,
0000
0000
3003
0000
,
2002
0000
3003
0000
,
0001
0000
0100
0000
,
0001
0000
0000
0000
,
1000
0000
0100
0000
,
1000
0000
0000
0000
,
0010
0000
0100
0000
,
0010
0000
0100
0000
,
0001
0000
0000
0000
,
1000
1000
0000
0000
,
0001
0001
0000
0000
,
0010
0010
0000
0000
,
0100
0000
0100
0000
,
2000
0000
3000
0000
,
0001
0002
0000
0003
,
0020
0000
0130
0000
,
0100
0000
0100
0000
,
2002
0000
0000
0000
,
0000
0000
0000
3003
;

//--------------- dance-single - forcednature ----------------
#NOTEDATA:;
#STEPSTYPE:dance-single;
#DESCRIPTION:forcednature;
#DIFFICULTY:Easy;
#METER:8;
#RADARVALUES:0.335387,0.373265,0.280077,0.362453,0,285,251,34,44,0,0,0.335387,0.373265,0.280077,0.362453,0,285,251,34,44,0,0;
#CREDIT:forcednature;
#NOTES:
0000
0000
0000
0000
,
0000
0000
0000
0000
,
0000
0000
0000
0000
,
1000
0001
0100
0100
,
0001
1000
0100
0100
,
1000
0000
0001
0000
0010
0000
0000
0100
,
0000
0100
0000
0010
0000
1001
0000
0000
,
1000
0000
0010
0000
0100
0000
0001
1000
,
0001
0010
0010
0000
,
0100
0000
1000
0000
0010
0100
0010
0000
,
1000
0001
0010
0000
,
0100
0100
0100
0100
,
0100
0100
1000
0001
,
0100
0100
0100
0100
,
0100
0000
0100
0000
0010
0000
0000
1001
,
0000
1000
0010
0100
,
0001
0000
1000
0000
0001
0010
0001
0000
,
0000
0100
0010
1000
,
0010
0100
0001
1000
,
0010
0010
0010
0010
,
0010
0010
1000
0001
,
0010
0010
0010
0010
,
0010
0000
0010
0000
0001
0000
0000
0110
,
0000
1001
1001
1001
,
0000
1100
1100
1100
,
0000
1001
1001
1001
,
0000
0101
0101
0101
,
1001
1000
0100
0010
,
0001
0100
0010
0000
,
1000
1100
0000
0101
,
0000
0000
0010
0000
0010
0000
0000
0110
,
0000
0101
0101
0101
,
0000
1010
1010
1010
,
0000
1100
1100
1100
,
0000
0011
0011
0011
,
0001
1000
0010
0100
,
0001
1000
0100
0000
,
0110
0000
0000
0001
0000
0000
1000
0000
,
0010
0000
0000
0100
0000
0000
0001
0000
,
2002
0000
0000
0000
,
3003
1000
0100
1000
,
0010
0100
0100
0001
,
0010
0100
1000
0001
,
2002
0000
0000
0000
,
3003
0001
0100
0010
,
1000
0100
0220
0330
,
2002
3003
0220
0330
,
2002
0000
0000
0000
,
3003
0001
0100
0010
,
1000
0001
1000
0100
,
0000
0100
0010
0001
,
1000
0010
0100
0001
,
0000
0010
0100
1000
,
1001
0000
0001
0100
,
1000
0100
0010
0000
,
0110
0110
1000
0000
,
0110
0110
0001
0000
,
1001
1000
0001
0100
,
0001
0010
0100
0000
,
0110
1000
0001
0100
,
0010
1000
0001
0000
,
0110
0001
1000
0100
,
0010
0001
1000
0000
,
2002
0000
3003
0000
,
0100
0100
0000
0000
,
0010
0010
0100
0000
,
1000
0000
0001
0000
,
1001
1000
0010
0100
,
0000
0001
1000
0000
,
0001
0010
0100
1000
,
0010
0100
0010
0000
,
2002
0000
0000
0000
,
0000
0000
3003
0000
,
0220
0000
0000
0000
,
0330
0001
0100
0010
,
1000
0001
1000
0100
,
0000
0010
0001
1000
,
0010
0100
0010
0000
1000
0000
0001
0000
,
0000
0010
0100
0010
,
0110
0100
1000
0001
,
0100
0000
0010
0000
1000
0001
0000
0000
,
1100
1100
0000
0000
,
0101
0101
0000
0000
,
1001
1000
0001
0100
,
0001
0010
0100
0000
,
0220
0000
0330
0000
,
1001
2002
3003
0000
,
0220
0330
1000
1000
,
0001
0001
0100
0100
,
2002
0000
0000
0000
,
0000
0000
0000
3003
;

//--------------- dance-single - forcednature ----------------
#NOTEDATA:;
#STEPSTYPE:dance-single;
#DESCRIPTION:forcednature;
#DIFFICULTY:Medium;
#METER:12;
#RADARVALUES:0.467188,0.522571,0.535442,0.54368,0.070019,397,332,65,66,0,0,0.467188,0.522571,0.535442,0.54368,0.070019,397,332,65,66,0,0;
#CREDIT:forcednature;
#NOTES:
0000
0000
0000
0000
,
0000
0000
0000
0000
,
0000
0000
0000
0000
,
0101
0000
1001
0000
1000
0100
0010
0001
,
0000
0000
0101
0000
1000
0010
1000
0001
,
0000
0000
0110
0000
0001
0100
0010
2000
,
0000
0100
0000
0001
0000
3010
0000
0000
,
1000
0000
0101
0000
0001
0010
0000
0110
,
0000
0100
1000
0000
0001
0100
0000
0100
,
0000
0010
0010
0000
1000
0100
0000
0110
,
0000
0010
0001
0000
1000
0010
0000
0100
,
0001
0010
0001
0010
0001
0100
0001
0100
,
0001
1000
0001
1000
0100
0010
0000
0100
,
1000
0010
1000
0010
1000
0100
1000
0100
,
1000
0001
1000
0001
0100
0100
0000
1001
,
0000
0001
0010
0000
0100
1000
0000
1001
,
0000
1000
0010
0000
0001
0010
0000
0010
,
0000
1000
1000
0000
0001
0010
0000
0010
,
0000
0100
0100
0000
1000
0001
0000
0001
,
0010
1000
0010
1000
0010
0100
0010
0100
,
0010
0001
0010
0001
1000
0001
0000
1000
,
0010
0001
0010
0001
0010
0100
0010
0100
,
0010
1000
0010
1000
0100
0010
0000
0001
,
0010
1100
1001
0101
,
0000
0011
0110
1100
,
0000
1010
0110
0101
,
0000
1001
1100
0110
,
0011
0000
1000
0000
0100
0010
0001
0000
,
0100
0000
0010
1000
0001
0010
0100
0000
,
1000
0101
0010
1100
,
0001
1000
0010
0100
0001
0001
0000
1000
,
0100
0011
0101
1001
,
0000
1010
1100
1001
,
0000
1010
0011
0110
,
0000
0101
1100
1001
,
1100
0000
0001
0000
0010
0100
1000
0000
,
0001
0100
0010
1000
0001
1000
0100
0000
,
2200
0000
3300
0202
0000
0303
1001
0000
,
0220
0000
0330
2002
0000
3003
0110
0000
,
2002
0000
0000
0000
,
3003
0101
1001
1100
,
1000
0100
0010
0001
0000
0001
0100
0010
,
0000
1000
0001
0010
0100
0100
0000
1000
,
0020
1000
0100
0031
,
0010
1010
1100
0011
,
0001
1000
0010
0000
0102
0000
1003
0000
,
2100
0000
3001
0000
0010
0100
0010
0000
,
0220
0000
0000
0000
,
0330
0011
1001
0101
,
1000
0010
0100
0001
1000
0100
0010
0000
,
0001
0100
0001
0000
0010
0000
0100
0000
,
0110
1100
1001
0101
,
0001
1000
0100
0000
1000
0001
0100
0000
,
0110
0000
0010
1000
0001
1000
0100
0000
,
0010
0001
1000
0000
0020
0100
0030
0000
,
1100
0000
1100
0000
0001
0001
0000
0000
,
0101
0000
0101
0000
1000
0010
1000
0000
,
1100
0000
0001
0010
0100
0000
1000
0010
,
0100
0000
0001
1000
0100
0010
0000
0010
,
0002
0100
1000
0010
,
1000
0100
2000
3003
,
2000
0100
0001
0010
,
0001
0100
0002
3003
,
0201
0320
2030
3002
,
0023
0230
0320
0032
,
2003
0000
3020
0000
0230
0000
0301
1000
,
0001
0000
0000
0010
0000
0000
0100
0000
1000
0000
0000
0100
0000
0000
0010
0000
,
0002
0000
0103
0001
0100
0010
2000
0000
,
0000
0000
3100
1000
0100
0010
0001
0000
,
1002
0000
1003
0010
0100
0001
2000
0000
,
3100
0000
0100
0000
0100
0000
0010
0000
0000
0001
0000
0000
,
2002
0000
3003
0220
0000
0330
1001
0000
,
0220
0000
0330
2002
0000
3003
0110
0000
,
2002
0000
0000
0000
,
3003
0101
0110
1010
,
1000
0100
0010
0001
0100
0000
0110
0000
,
0010
1000
0001
0000
0010
0100
1000
0000
,
1100
1010
0101
0011
,
0001
1000
0010
0000
0100
0001
0000
0001
,
0010
0000
0100
1000
0010
0000
0110
0000
,
1000
0001
1000
0000
0010
2002
0000
3003
,
0101
0000
0101
0000
1000
1000
0000
0000
,
1100
0000
1100
0000
0001
0010
0001
0000
,
1001
0000
0001
0100
0010
0000
1000
0100
,
0010
0000
0001
1000
0010
0100
0000
0100
,
0102
0000
1003
0100
,
1100
0000
2100
0000
0010
0000
3001
1000
,
2002
0000
3003
0000
0001
0100
0001
0100
,
0010
1000
0010
1000
0100
0010
0100
0010
,
0002
0000
0000
0000
,
0000
0000
0000
0003
;

//--------------- dance-single - forcednature ----------------
#NOTEDATA:;
#STEPSTYPE:dance-single;
#DESCRIPTION:forcednature;
#DIFFICULTY:Hard;
#METER:14;
#RADARVALUES:0,0,0,0,0;
#CREDIT:forcednature;
#NOTES:
0000
0000
0000
0000
,
0000
0000
0000
0000
,
0000
0000
0000
0000
,
1000
0001
0100
0010
1000
0100
1000
0100
,
0010
0001
0100
0010
1000
0100
0001
0100
,
1000
0001
0100
0001
0010
0100
0010
0200
,
0000
0001
0000
0010
0000
1300
0000
0000
,
0100
1000
0000
0101
0000
0001
1000
0010
,
1000
0001
0010
0000
0100
0001
0100
1000
,
0000
0000
0110
0000
0100
0001
0000
1001
,
0000
1000
0100
0000
0010
0100
0000
1000
,
0010
0001
0010
0001
1000
0100
1000
0100
,
0001
1000
0001
1000
0100
0001
0000
1000
,
0010
0001
0010
0001
0100
1000
0100
1000
,
0001
0010
0001
0010
1000
0100
0000
1001
,
0000
1000
0010
1000
0001
0010
0000
0110
,
0000
0100
1000
0000
0001
0100
1000
0100
,
0000
0010
1000
0000
0100
0010
0000
1001
,
0000
0001
0010
0000
0001
0100
0000
0010
,
0001
0010
0001
0010
1000
0001
1000
0001
,
0010
1000
0010
1000
0001
0100
0000
1000
,
0001
0100
0001
0100
1000
0001
1000
0001
,
0010
1000
0010
1000
0100
0010
0000
0100
,
1001
0000
0000
0000
1000
0100
0000
0000
0100
0010
0000
0000
0010
0001
0000
0000
,
0000
0000
0000
0000
0001
0100
0000
0000
0100
0010
0000
0000
0010
1000
0000
0000
,
0000
0000
0000
0000
1000
0100
0000
0000
0010
0001
0000
0000
1000
0001
0000
0000
,
0000
0000
0000
0000
0001
0100
0000
0000
0010
1000
0000
0000
0001
1000
0000
0000
,
1001
0000
1000
0100
0001
0100
1000
0000
,
0010
0100
0001
1000
0010
0001
0010
1000
,
0100
0000
1001
0000
0010
0001
0100
0000
,
0010
0000
1001
0000
0100
0100
0000
0010
,
1001
0000
0000
0000
0001
0100
0000
0000
1000
0100
0000
0000
0001
1000
0000
0000
,
0000
0000
0000
0000
1000
0100
0000
0000
0001
0100
0000
0000
1000
0001
0000
0000
,
0000
0000
0000
0000
0001
0010
0000
0000
0100
0001
0000
0000
0100
1000
0000
0000
,
0000
0000
0000
0000
1000
0010
0000
0000
0100
1000
0000
0000
0100
0001
0000
0000
,
1001
0000
1000
0100
0010
0001
0100
1000
,
0100
0010
1000
0001
0010
1000
0010
0000
,
0110
0000
0100
1000
0000
0001
0100
0010
,
0001
0000
0010
0000
1000
0000
0001
0000
1000
0100
1000
0000
0010
0000
0100
0000
,
0002
0010
1000
0100
,
0013
0011
0101
0110
,
1000
0001
1000
0100
0001
0100
0010
0001
,
0000
0000
0100
0000
0010
0000
1000
0001
1000
0000
0010
0000
0100
0000
1000
0000
,
0200
0001
0010
1000
,
0301
1100
0101
1001
,
1000
0000
0100
0000
0010
0000
0001
0100
0001
0000
1000
0000
0010
0000
0000
0000
,
1000
0001
1000
0000
0010
0000
0100
0000
0001
0010
0001
0000
0100
0000
0010
0000
,
2000
0100
0001
0010
,
3100
1100
0110
0011
,
0001
0100
1000
0100
0010
1000
0001
1000
,
0000
0000
0100
0000
0001
0000
0000
0000
0100
0010
0100
0000
1000
0000
0001
0000
,
1001
0000
0001
0100
0010
0100
1000
0000
,
0100
0010
1000
0001
0010
0100
1000
0000
,
1001
0000
1000
0100
0010
0000
0101
0000
,
0001
0000
0100
0000
0010
0000
1000
0001
1000
0000
0100
0000
0000
0000
0010
0000
,
0110
0000
0110
0000
0001
0100
1000
0000
,
0110
0000
0110
0000
1000
0100
0001
0000
,
0110
0000
1000
0001
1000
0010
0100
0000
,
0001
0010
0100
0000
1000
0001
0000
0100
,
0010
0001
0010
1000
0010
0001
0010
1000
,
0010
0000
0000
0001
0000
0000
0010
0000
0000
1000
0000
0000
0001
0000
1000
0000
0010
0000
1000
0000
0001
0000
0010
0000
,
0100
0001
0100
1000
0100
0001
0100
1000
,
0001
0100
0001
1000
0100
1000
0001
0010
0100
1000
0010
0100
,
0001
0010
0100
1000
,
1010
1010
0010
0100
,
0001
0000
1000
0000
1001
0000
1000
0100
,
0010
0000
0000
0001
0000
0000
0100
0000
0010
0000
0000
1000
0000
0000
0001
0010
,
0001
0000
0100
0010
1000
0001
0010
0000
,
0000
0000
0100
0000
0001
0000
0100
0000
1000
0000
0010
0000
1000
0000
0001
0100
,
0001
0000
1000
0010
0001
0010
0100
0000
,
0001
0010
0001
1000
0100
1000
0001
0100
0010
1000
0000
0000
,
1001
0000
0001
0100
1000
0100
0010
0000
,
1000
0000
0001
0000
1000
0000
0100
0000
0010
0001
0010
0001
0010
0000
0100
0000
,
2000
0010
0100
0010
,
3100
1010
0101
1001
,
0001
0100
1000
0100
0010
0001
0010
1000
,
0001
0000
1000
0000
0100
0000
0010
0000
0001
1000
0001
0000
0010
0000
1000
0000
,
0010
0011
1100
1001
,
0001
0100
1000
0100
0010
1000
0100
0000
,
0110
0000
0010
1000
0010
0001
1000
0010
,
0001
0000
0010
0000
0100
0000
0001
1000
0001
0000
0010
0000
0000
0000
0100
0000
,
0110
0000
0110
0000
1000
0100
0001
0000
,
0110
0000
0110
0000
0001
0100
1000
0000
,
0110
0000
1001
0000
0001
1000
0010
1000
,
0001
0000
0010
0000
0100
0000
1000
0010
1000
0000
0001
0000
0000
0000
0100
0000
,
0001
0010
0100
1000
0100
0010
0001
0000
0000
0101
0000
0000
,
1000
0010
0100
0001
0100
0010
1000
0000
0000
1100
0000
0000
,
1000
0000
0100
0000
1000
0000
0001
0000
0100
0000
0001
0000
1000
0000
0000
0010
0000
0000
0100
0000
0000
1000
0000
0000
,
0100
0000
0001
0000
1000
0000
0100
0010
0100
0000
0001
0000
0100
0000
1000
0000
,
2002
0000
0000
0000
,
0000
0000
0000
3003
;

//--------------- dance-double - forcednature ----------------
#NOTEDATA:;
#STEPSTYPE:dance-double;
#DESCRIPTION:forcednature;
#DIFFICULTY:Easy;
#METER:8;
#RADARVALUES:0,0,0,0,0;
#CREDIT:forcednature;
#NOTES:
00000000
00000000
00000000
00000000
,
00000000
00000000
00000000
00000000
,
00000000
00000000
00000000
00000000
,
00000000
01000000
00010000
01000000
,
00000000
00001000
00010000
00001000
,
00000000
00100000
00010000
00100000
,
01000000
01000000
01000000
00000000
,
10000000
00010000
01000000
00000000
,
00001000
00010000
00000010
00000000
,
00001000
00000001
00000010
00000100
,
00001000
00000100
00000010
00000000
,
00000001
00000001
00000100
00000100
,
00000010
00001000
00000001
00000000
,
00000010
00000010
00000100
00000100
,
00001000
00000100
00010000
00000000
,
00001000
01000000
00010000
00000000
,
01000000
00001000
00010000
00000000
,
00000010
00001000
00000001
00000010
,
00000001
00001000
00000010
00000000
,
00010000
00010000
00001000
00001000
,
01000000
00010000
01000000
00000000
,
00001000
00001000
00010000
00010000
,
00000100
00001000
00000100
00000000
,
00000010
00000100
00001000
00000000
,
00000100
00010000
00001000
00000000
,
00010000
00001000
00100000
00000000
,
00010000
00100000
01000000
00000000
,
01100000
00000000
00100000
00010000
,
10000000
00010000
01000000
00000000
,
00001000
00010000
00000010
00000000
,
00001000
00000010
00010000
00001000
,
00000000
00010000
00000100
00001000
,
00000000
00000100
00001000
00000001
,
00000000
00001000
00000001
00000010
,
00000000
00000001
00000010
00000100
,
00000110
00000000
00000010
00000001
,
00001000
00000001
00000100
00000000
,
00000110
00000000
00000010
00001000
,
00000010
00010000
00001000
01000000
,
00020000
00000000
10000000
10000000
,
10030000
00010000
00100000
00010000
,
01000000
00001000
00010000
00001000
,
00100000
00010000
00100000
00001000
,
00020000
00000000
00000010
00000010
,
00030010
00010000
00001000
00010000
,
00000100
00001000
00000001
00000000
,
00001001
00000000
00000110
00000000
,
00000002
00000000
00001000
00001000
,
00001003
00000001
00000100
00000001
,
00001000
00000010
00010000
00001000
,
00000000
00100000
00010000
00100000
,
00001000
00010000
00001000
01000000
,
00000000
00010000
10000000
01000000
,
01100000
00000000
00100000
10010000
,
00000000
01000000
01100000
00000000
,
10010000
10010000
00000000
00000000
,
00011000
00011000
00000000
00000000
,
00001001
00000001
00000100
00000001
,
00001000
00000010
00001000
00000000
,
00000002
00000000
00000023
00000000
,
00000230
00000000
00002300
00003200
,
00020300
00000000
00032000
00000000
,
02003000
00000000
03020000
20030000
,
30100000
10000000
00010000
00100000
,
01000000
01000000
00100000
00001000
,
00010000
00000100
00001000
00000100
,
00010000
00001000
00010000
00000010
,
00000110
00000000
00000100
00000001
,
00001000
00000001
00000010
00000100
,
00000110
00000000
00000010
00000001
,
00002000
00003020
00020030
00032000
,
01003000
00000000
00010000
10000000
,
00010000
00100000
01000000
00000000
,
01100000
00100000
00001000
00010000
,
00000010
00001000
00000001
00000010
,
00000110
00000100
00001000
00000100
,
00010000
00001000
01000000
00010000
,
10010000
10000000
01000000
00100000
,
00010000
01000000
00001000
00010000
,
00011000
00001000
00010000
00000100
,
00001000
00000001
00000010
00000000
,
00001001
00001001
00000000
00000000
,
00011000
00011000
00000000
00000000
,
10010000
10000000
00100000
10000000
,
00010000
01000000
00010000
00000000
,
00100000
01000000
10000000
01000000
,
00100000
00010000
00100000
00001000
,
00010000
00000010
00001000
00000001
,
00000100
00000100
00000010
00000010
,
00002002
00000000
00000000
00000000
,
00000000
00000000
00000000
00003003
;

//--------------- dance-double - forcednature ----------------
#NOTEDATA:;
#STEPSTYPE:dance-double;
#DESCRIPTION:forcednature;
#DIFFICULTY:Medium;
#METER:13;
#RADARVALUES:0,0,0,0,0;
#CREDIT:forcednature;
#NOTES:
00000000
00000000
00000000
00000000
,
00000000
00000000
00000000
00000000
,
00000000
00000000
00000000
00000000
,
00010000
00000000
00001000
00000000
01000000
00010000
01000000
00010000
,
01000000
00000000
00001000
00000000
00010000
00000000
00000010
00001000
,
00000010
00000000
00010000
00000000
00000100
00001000
00000100
00002000
,
00000000
00003002
00000000
00000203
00000000
00000320
00000000
00000030
,
00000000
00000000
00001000
00000000
00000001
00000010
00000100
00000010
,
00000000
00000100
00001000
00000000
00000100
00010000
00001000
00010000
,
00000000
00000000
00011000
00000000
00100000
00010000
00100000
00001000
,
00000000
00010000
00001000
00000000
01000000
00010000
10000000
00100000
,
00000000
10000000
01000000
10000000
01000000
00100000
01000000
00100000
,
01000000
00100000
00010000
00100000
00001000
00010000
00000000
00001100
,
00000000
00000001
00000100
00000001
00000100
00000010
00000100
00000010
,
00000100
00000010
00001000
00000010
00010000
00001000
00000000
00011000
,
00000000
00001000
00100000
00010000
00100000
00001000
00000000
00011000
,
00000000
00010000
00000010
00001000
00000010
00010000
00000000
00011000
,
00000000
00010000
01000000
00010000
10000000
00100000
00000000
01100000
,
00000000
01000000
00010000
10000000
00010000
00100000
00000000
01100000
,
00000000
01000000
10000000
01000000
10000000
00010000
00100000
00010000
,
00100000
00001000
00010000
00001000
00010000
00000010
00000000
00000110
,
00000000
00000100
00000001
00000100
00000001
00001000
00000010
00001000
,
00000010
00010000
00001000
00010000
00000100
00001000
00000000
00000010
,
00000010
00001010
00011000
02020000
,
03030000
00110000
00011000
00002200
,
00003300
00001010
00011000
00220000
,
00330000
01010000
00011000
00001100
,
00000010
00000000
00001001
00000000
00000001
00000100
00001000
00000000
,
00000100
00000001
00001000
00000010
00010000
00001000
00010000
00000000
,
00100000
10010000
01000000
10010000
,
10000000
01000000
00100000
00001000
00010000
00010000
00000000
00010000
,
00001000
01010000
00011000
00002020
,
00003030
00001100
00011000
00220000
,
00330000
01010000
00011000
00002200
,
00003300
00001010
00011000
00110000
,
01000000
00000000
10010000
00000000
10000000
01000000
00010000
00000000
,
00001000
00100000
00010000
00100000
00001000
00010000
00000010
00000000
,
00000110
00000000
00000100
00001000
00000000
00000100
00000001
00000000
,
00000011
00000000
00000010
00000100
00010000
00001000
00100000
00000000
,
02100000
10000000
00100000
13000000
,
01000000
00010000
00001000
00000000
00010000
00001000
00000010
00000000
,
00000100
00001000
00000001
00000100
00000001
00001000
00000100
00000000
,
00001000
00000010
00010000
00001000
01000000
00010000
00100000
00000000
,
00012000
01000000
00010000
00103000
,
00001000
00010000
00100000
00000000
01000000
00010000
10000000
00000000
,
01000000
00010000
00001000
00100000
00001000
00010000
00000100
00000000
,
00001000
00000010
00010000
00001000
00000010
00000001
00000100
00000000
,
00000120
00001000
00010000
00001030
,
00000010
00000100
00001000
00000000
00010000
00000010
00001000
00000000
,
00000001
00000010
00000100
00000010
00000001
00001000
00000100
00000000
,
00010000
00001000
01000000
00000000
01010000
00000000
00110000
00000000
,
00100000
01000000
10000000
01000000
00010000
00001000
00100000
00000000
,
00001000
00010000
00000010
00000000
00001000
00000001
00000010
00000000
,
00000110
00000000
00000100
00010000
00001000
00100000
00010000
00000000
,
01000000
00000000
00001000
00000000
00010000
00000000
00000000
00000000
00001000
00000000
00022000
00000000
00000000
00033000
00000000
00000000
,
00010010
00010010
00010000
00001000
,
00101000
00101000
00001000
00010000
,
00011000
00000000
00001000
01000000
00010000
00000000
01000000
00001000
,
00010000
00000000
00000100
00001000
00000100
00010000
00000000
00010000
,
00000020
00000230
00002300
00023000
,
00230000
01300000
20010000
00000000
,
30200000
02300000
03020000
00032000
,
00003020
00000130
00002002
00003003
,
00000110
00000002
00000023
00001030
,
00011000
00011000
00020000
00230000
,
02300000
00000000
03010000
00000000
10010000
00000000
10000000
01000000
,
00010000
00000000
00000000
00010000
00000000
00000000
00010000
00000000
00001000
00000000
00000000
00001000
00000000
00000000
00100000
00000000
,
00020000
00000000
00130000
00001000
00010000
00000010
00002000
00000000
,
00003000
00000100
00000010
00000100
00001000
00000001
00000010
00000001
,
00002000
00000000
00003010
00000100
00000001
00000100
00000010
00000000
,
00000200
00000000
00002300
00000000
00023000
00000000
00230000
00000000
00000000
01300000
00000000
00000000
,
10010000
00000000
00000000
11000000
00000000
00000000
00110000
00000000
,
00001000
00010000
00000000
00010000
00000010
00001000
00000010
00000000
,
00000102
00001000
00000010
00001003
,
00000001
00000100
00001000
00000000
00000100
00001000
00010000
00000000
,
00001000
00100000
00001000
00010000
00001000
01000000
00010000
00000000
,
00100000
01000000
10000000
00000000
11000000
00000000
00110000
00000000
,
00010000
00100000
00001000
00010000
00000010
00001000
00000010
00000000
,
00000100
00001000
00000100
00000001
00000010
00000100
00010000
00000000
,
00011000
00000000
00001000
00100000
00010000
00000000
01100000
00000000
,
01000000
10000000
01000000
00010000
00001000
00100000
00000000
00001000
,
00011000
00000000
00011000
00000000
00000010
00001000
00000100
00000000
,
00011000
00000000
00011000
00000000
00100000
00010000
01000000
00000000
,
00011000
00000000
00000100
00001000
00000010
00000000
00001000
00000100
,
00010000
00000000
00001000
01000000
00010000
00100000
00000000
00100000
,
02000000
00000000
03010000
00001000
00000010
00000000
00000012
00000000
,
00000203
00000000
00001300
00010000
00100000
00000000
20100000
00000000
,
32000000
00000000
03010000
00001000
00000010
00000000
00001000
00010000
,
00000010
00001000
00000010
00010000
00001000
00000010
00000100
00000000
,
00002002
00000000
00000000
00000000
,
00000000
00000000
00000000
00003003
;

//--------------- dance-double - forcednature ----------------
#NOTEDATA:;
#STEPSTYPE:dance-double;
#DESCRIPTION:forcednature;
#DIFFICULTY:Hard;
#METER:16;
#RADARVALUES:0,0,0,0,0;
#CREDIT:forcednature;
#NOTES:
00000000
00000000
00000000
00000000
,
00000000
00000000
00000000
00000000
,
00000000
00000000
00000000
00000000
,
00001000
00010000
00000100
00001000
00000010
00000010
00000010
00000010
,
00000000
00000100
00000001
00001000
00000001
00000010
00001000
00010000
,
00000000
00001000
01000000
00010000
00100000
00100000
00100000
02100000
,
00000000
13000000
00010000
01000000
00000000
00011000
00000000
00000000
,
00000010
00001000
00000001
00000100
00000001
00000010
00000100
00000010
,
00000000
00001000
00010000
00000100
00001000
00000100
00000010
00000001
,
00000000
00000001
00000100
00001000
00010000
00001000
01000000
00010000
,
00000000
10000000
01000000
00010000
00001000
00100000
00000000
00110000
,
00000000
00010000
01000000
00100000
00010000
00001000
00100000
01000000
,
00010000
00001000
00000010
00000100
00010000
00000010
00000000
00001010
,
00000000
00001000
00000100
00000010
00001000
00010000
00000010
00000100
,
00001000
00010000
00200000
00000000
01300000
00010000
00000000
10100000
,
00000000
10000000
01000000
00010000
00001000
00100000
01000000
00010000
,
00000000
00001000
00000010
00000100
00010000
00000010
00001000
00000001
,
00000000
00000100
00001000
00000100
00000010
00010000
00001000
01000000
,
00000000
00010000
00100000
01000000
00010000
00001000
00000000
01010000
,
00000000
00010000
00100000
01000000
00010000
00001000
01000000
00100000
,
00010000
00001000
00000100
00000010
00010000
00000100
00000000
00001100
,
00000000
00001000
00000010
00000100
00001000
00010000
00000100
00000010
,
00001000
00010000
01000000
00100000
00001000
00010000
00000000
00010000
,
00011000
00000000
00000000
00000000
00000100
00001000
00000100
00000000
00010000
00001000
00010000
00000000
00000010
00001000
00000010
00000000
,
00000000
00000000
00000000
00000000
01000000
00010000
01000000
00000000
00001000
00010000
00001000
00000000
00100000
00010000
00100000
00000000
,
00000000
00000000
00000000
00000000
00000010
00001000
00000010
00000000
00010000
00001000
00010000
00000000
00000100
00001000
00000100
00000000
,
00000000
00000000
00000000
00000000
00100000
00010000
00100000
00000000
00001000
00010000
00001000
00000000
01000000
00010000
01000000
00000000
,
10010000
00000000
10000000
01000000
00010000
00001000
00000010
00000100
,
00010000
00000010
00001000
00010000
00001000
00000010
00000100
00000001
,
00000010
00000000
00000110
00000000
00000100
00010000
00011000
00000000
,
00001000
00100000
01000000
00010000
00001000
00100000
00000000
00001000
,
00011000
00000000
00000000
00000000
01000000
00010000
01000000
00000000
00001000
00010000
00001000
00000000
00100000
00010000
00100000
00000000
,
00000000
00000000
00000000
00000000
00000100
00001000
00000100
00000000
00010000
00001000
00010000
00000000
00000010
00001000
00000010
00000000
,
00000000
00000000
00000000
00000000
00100000
00010000
00100000
00000000
00001000
00010000
00001000
00000000
01000000
00010000
01000000
00000000
,
00000000
00000000
00000000
00000000
00000010
00001000
00000010
00000000
00010000
00001000
00010000
00000000
00000100
00001000
00000100
00000000
,
00001001
00000000
00000001
00000100
00001000
00010000
00100000
01000000
,
00001000
00100000
00010000
00001000
00010000
00100000
01000000
00000000
,
01100000
00000000
00100000
01000000
00010000
00000100
00001000
00000010
,
00000110
00000000
00000000
00000000
00000100
00000000
00000001
00000000
00001000
00000100
00001000
00000001
00000010
00000000
00000100
00000000
,
00000110
00000000
00000010
00000001
00000100
00001000
00010000
01000000
,
10000000
00000000
00010000
00000000
00100000
00010000
00100000
00000000
00010000
10000000
01000000
00000000
10000000
01000000
00100000
00000000
,
00001000
00000000
00010000
00000000
00000100
00000000
00001000
00000100
00010000
00000000
00001000
00000000
00000010
00000000
00000110
00000000
,
00000000
00000000
00000100
00000000
00010000
00000000
00001000
00010000
00001000
00000000
01000000
00000000
00010000
00000000
00000000
00000000
,
01100000
00000000
00100000
10000000
01000000
00010000
00001000
00000100
,
00000001
00000000
00001000
00000000
00000010
00001000
00000010
00000000
00001000
00000001
00000100
00000000
00000001
00000100
00000010
00000000
,
00010000
00000000
00001000
00000000
01000000
00000000
00010000
01000000
00002000
00000000
00000000
00000000
00103000
00000000
01000000
00000000
,
00010000
00000000
00000100
00000000
00001000
00000000
00000001
00000000
00000100
00000010
00001000
00000010
00000100
00000000
00000000
00000000
,
00000110
00000000
00000100
00000001
00000010
00001000
00010000
00100000
,
10000000
00000000
00010000
00000000
01000000
00010000
01000000
00000000
00001000
00000000
00010000
00000000
00000010
00000000
00000000
00000000
,
00001000
00000000
00000100
00000000
00000001
00000000
00000100
00000000
00001000
00000000
00000001
00000010
00000200
00000000
00000000
00000000
,
00010300
00000000
00001000
00000000
01000000
00000000
00010000
00000000
00100000
01000000
10000000
00000000
01000000
00000000
00000000
00000000
,
00100000
00010000
00100000
00000000
00010000
00100000
00001000
00000000
00010000
00001000
00010000
00000000
00001000
00010000
00000100
00000000
,
00000000
00001000
00000001
00000100
00001000
00010000
00100000
00000000
,
01100000
00000000
00000000
00000000
01000000
00000000
00010000
00000000
10000000
00000000
00010000
00100000
01000000
00000000
00010000
00000000
,
00001000
00100000
00001000
00000010
00000100
00000110
00000000
00000010
,
00001001
00001001
00000010
00000100
,
00011000
00011000
00100000
01000000
,
10010000
00000000
10000000
01000000
00020000
00000000
00031000
00010000
,
02000000
00000000
13000000
00010000
00100000
00101000
00000000
00001000
,
00010000
00000010
00000100
00001000
00010000
00000010
00000100
00001000
,
00010000
00000000
00000000
00000010
00000000
00000000
00000100
00000000
00000000
00001000
00000000
00000000
00010000
00000000
00000010
00000000
00001000
00000000
00000010
00000000
00010000
00000000
00001000
00000000
,
00100000
01000000
00010000
00001000
00100000
01000000
00010000
00001000
,
00100000
00010000
00100000
00001000
00010000
00001000
01000000
00010000
01000000
00001000
00010000
00000010
,
00002000
00003002
00000023
00001030
,
00011000
00011000
00020000
02030000
,
23000000
00000000
30010000
00000000
10010000
00000000
10000000
00100000
,
00010000
00000000
00000000
00001000
00000000
00000000
01000000
00000000
00001000
00000000
00000000
00010000
00000000
00000000
00001000
00010000
,
00000020
00000000
00001030
00000001
00000100
00001000
00020000
00000000
,
00130000
00000000
01000000
00000000
00010000
00000000
01000000
00000000
00100000
00000000
10000000
00000000
00010000
00000000
10000000
01000000
,
00200000
00000000
01300000
00010000
00001000
00010000
00000020
00000000
,
00001030
00000001
00000100
00000001
00001000
00000010
00001000
00000100
00010000
00001000
00000000
00000000
,
00011000
00000000
00010000
01000000
10000000
00010000
00100000
00000000
,
00001000
00000000
00010000
00000000
00000010
00000000
00001000
00000000
00000010
00000100
00000001
00001000
00000010
00000000
00000000
00000000
,
00000110
00000000
00000100
00000001
00000010
00001000
00010000
00100000
,
10000000
00000000
00010000
00000000
01000000
00010000
01000000
00000000
00001000
00010000
00001000
00000000
00100000
00010000
00100000
00000000
,
01000000
10000000
00010000
00100000
01000000
00010000
00000200
00000000
,
00001300
00000000
00000001
00000000
00000100
00000000
00001000
00000000
00000100
00000001
00001000
00000000
00000010
00000000
00000100
00000000
,
00000010
00001000
00000010
00000000
00001000
00000010
00010000
00000000
00001000
00010000
00001000
00000000
00010000
00001000
01000000
00000000
,
00000000
00010000
00100000
01000000
00010000
00000100
00001000
00000000
,
00000110
00000000
00000000
00000000
00000010
00000000
00000001
00000000
00000100
00000000
00000001
00001000
00000010
00000000
00000100
00000000
,
00001000
01000000
00010000
10000000
00100000
01100000
00000000
01000000
,
10010000
00000000
10010000
00000000
10000000
01000000
00010000
00000000
,
00011000
00000000
00011000
00000000
00001000
00000010
00000001
00000000
,
00001001
00000000
00000001
00000100
00001000
00010000
00000010
00001000
,
00000010
00010000
00001000
00100000
00010000
01010000
00000000
10000000
,
01000000
00000000
10000000
00000000
00010000
00000000
00100000
00000000
00010000
00000000
10000000
00000000
01000000
00000000
00000000
00010000
00000000
00000000
00001000
00000000
00000000
00010000
00000000
00000000
,
00000100
00000000
00001000
00000000
00000001
00000000
00000010
00000000
00000001
00000000
00001000
00000000
00000100
00000000
00000000
00010000
00000000
00000000
00001000
00000000
00000000
00010000
00000000
00000000
,
00000010
00000000
00001000
00000000
00000001
00000000
00000100
00000000
00000001
00000000
00001000
00000000
00000010
00000000
00000000
00000100
00000000
00000000
00001000
00000000
00000000
00010000
00000000
00000000
,
00100000
00000000
01000000
00000000
00010000
00000000
10000000
01000000
00010000
00000000
00001000
00000000
00011000
00000000
00010100
00000000
,
00002200
00000000
00000000
00000000
,
00000000
00000000
00000000
00003300
;
