#VERSION:0.83;
#TITLE:Hollywood Galaxy;
#SUBTITLE:;
#ARTIST:dj TAKA;
#TITLETRANSLIT:;
#SUBTITLETRANSLIT:;
#ARTISTTRANSLIT:;
#GENRE:DRUM'N'BASS;
#CREDIT:;
#MUSIC:Hollywood Galaxy.ogg;
#BANNER:Hollywood Galaxy.png;
#BACKGROUND:Hollywood Galaxy-bg.png;
#CDTITLE:./CDTitles/REFLEC BEAT.png;
#SAMPLESTART:42.917;
#SAMPLELENGTH:15.000;
#SELECTABLE:YES;
#OFFSET:0.947;
#BPMS:0.000=186.000;
#STOPS:;
#TIMESIGNATURES:0.000=4=4;
#BGCHANGES:0.000=../BGAs/14tr.mp4=1.000=0=0=0=StretchNoLoop====,
99999.000=-nosongbg-=1.000=0=0=0=StretchNoLoop====
;
#FGCHANGES:;

//--------------- dance-single - forcednature ----------------
#NOTEDATA:;
#STEPSTYPE:dance-single;
#DESCRIPTION:forcednature;
#DIFFICULTY:Beginner;
#METER:4;
#RADARVALUES:0,0,0,0,0;
#CREDIT:forcednature;
#NOTES:
0000
0000
0000
0000
,
0000
0000
0000
0000
,
0000
0000
0000
0000
,
0000
0000
0000
0000
,
0000
0000
0000
0000
,
0000
0000
0000
0000
,
0000
0000
0000
0000
,
0000
0000
0000
0000
,
0000
0000
0000
0000
,
1000
0000
0000
0000
,
0001
0000
0000
0000
,
0100
0000
0000
0000
,
0001
0000
1000
0000
,
0010
0000
0000
0000
,
1000
0000
0000
0000
,
0100
0000
0000
0000
,
1000
0000
0001
0000
,
0000
0000
0000
0000
,
0100
0001
0000
0001
,
0000
0010
0000
0010
,
0000
0100
0000
0100
,
0000
1000
0000
1000
,
0000
0001
0000
0100
,
0000
0001
0000
0100
,
0000
0010
0000
1000
,
0000
0010
0000
1000
,
0001
1000
0000
0100
,
0000
1000
0000
0010
,
0000
0100
0000
0001
,
0000
0010
0000
0001
,
0000
0100
0000
0010
,
0000
1000
0000
0001
,
0000
0010
0000
0000
,
2002
0000
3003
0000
,
1000
0100
0000
0000
,
1000
0010
0000
0000
,
0100
0001
0000
0000
,
0010
0001
0100
0001
,
1000
0000
0010
0000
,
0100
0001
0100
0000
,
0001
0000
0010
0000
,
0100
1000
0100
0000
,
0010
0001
0000
0000
,
1000
0010
0000
0000
,
0100
0001
0000
0000
,
1000
0100
1000
0010
,
0100
0000
0001
0000
,
0010
0000
0001
0000
,
0100
0000
0100
0000
,
0010
0010
1000
1000
,
0002
0000
0003
0000
,
0020
0000
0030
0000
,
0200
0000
0300
0000
,
2000
0000
3000
0000
,
0020
0000
0030
0000
,
0200
0000
0300
0000
,
0002
0000
0003
0000
,
2000
0000
3000
0000
,
0100
0000
0000
0000
,
1000
0000
0000
0000
,
0001
0000
0000
0000
,
0010
0000
0000
0000
,
0001
0000
0001
0000
,
0100
0000
0100
0000
,
0010
0000
1000
0000
,
1001
0000
0000
0000
,
1000
0100
1000
0000
,
0001
0000
0010
0000
,
0001
0100
0001
0000
,
1000
0000
0010
0000
,
0100
0010
0100
0000
,
0001
0000
1000
0000
,
0100
0010
0100
0000
,
1000
0000
0001
0000
,
1000
1000
0000
0010
,
0100
0000
0001
0000
,
0010
0000
0001
0000
,
0100
0000
0010
0000
,
1000
1000
0000
0001
,
0010
0000
0100
0000
,
1000
0000
1000
0001
,
0000
0000
0100
0000
,
2002
0000
0000
0000
,
0000
0000
0000
0000
,
3003
0000
0000
0000
;

//--------------- dance-single - forcednature ----------------
#NOTEDATA:;
#STEPSTYPE:dance-single;
#DESCRIPTION:forcednature;
#DIFFICULTY:Easy;
#METER:9;
#RADARVALUES:0,0,0,0,0;
#CREDIT:forcednature;
#NOTES:
0000
0000
0000
0000
,
0000
0000
0000
0000
,
0000
0000
0000
0000
,
0000
0000
0000
0000
,
0000
0000
0000
0000
,
0000
0000
0000
0000
,
0000
0000
0000
0000
,
0000
0000
0000
0000
,
0000
0000
0000
0000
,
1000
1000
0100
1000
,
0001
0001
0100
0001
,
1000
1000
0010
1000
,
0001
0010
0001
0100
,
0010
1000
0100
1000
,
0001
0100
0001
0010
,
0100
1000
0001
0100
,
0010
0000
1000
0000
0001
0010
0001
0010
,
0000
0000
0000
0000
,
0100
0110
0000
0010
,
0001
1001
0000
1000
,
0010
0110
0000
0100
,
0001
1001
0000
1000
,
0100
1010
0000
0001
,
0100
0011
0000
1000
,
0010
1100
0000
0001
,
0010
0101
0000
1000
,
0100
0110
0010
0001
,
0100
0110
0010
1000
,
0100
1001
0010
0001
,
0100
1001
1000
0100
,
0010
0011
0001
0100
,
0010
1010
1000
0001
,
0010
0110
0100
1000
,
2002
0000
3003
0000
,
1000
0100
1000
0000
0001
0000
0010
0000
,
0100
1000
0100
0000
0010
0000
0001
0000
,
0100
0001
0100
0000
0010
0000
1000
0000
,
0001
0100
0001
0000
1000
0000
0010
0000
,
1000
0100
1000
0000
0001
0000
0100
0000
,
0010
1000
0001
0010
,
0100
1000
0100
0000
0010
0000
0001
0000
,
1000
0000
0010
0000
0100
0001
0100
0000
,
0010
1000
0010
0000
1000
0000
0100
0000
,
0010
0001
0010
0000
0001
0000
0100
0000
,
0010
0100
0010
0000
1000
0000
0001
0000
,
0010
0100
0010
0000
0001
0000
1000
0000
,
0001
0010
0001
0000
1000
0000
0010
0000
,
0100
0001
0100
0000
0010
0000
1000
0000
,
1100
0010
0101
0010
,
1001
0000
0110
0000
0001
1000
0001
1000
,
0200
0000
0000
0000
,
0320
0000
0000
0000
,
0032
0000
2003
0000
,
3002
0000
0000
0203
,
0320
0000
0000
0000
,
2030
0000
0000
0000
,
3002
0000
0023
0000
,
0230
2300
3002
2003
,
3010
0000
0010
0100
0000
0000
0001
0000
,
0010
0000
0010
0100
0000
0000
1000
0000
,
0001
0000
0001
0100
0000
0000
0010
0000
,
1000
0000
1000
0100
0000
0000
0010
0000
,
0001
0001
0100
0100
,
0010
0010
1000
1000
,
0001
0100
0001
0000
1000
0100
1000
0000
,
2002
0000
0000
3003
,
1000
0000
0100
0010
0000
0001
0010
0000
,
0100
1000
0001
0100
,
0010
0000
1000
0001
0000
0010
0001
0000
,
0100
0010
1000
0010
,
0100
0000
0001
1000
0000
0100
1000
0000
,
0001
0010
0100
0010
,
0001
0000
1000
0010
0000
0100
0010
0000
,
1000
0000
0001
0000
0000
0001
0010
0000
,
0001
0100
0001
0000
1000
0000
0010
0000
,
1000
0100
1000
0000
0100
0010
0100
0000
,
0010
0001
0010
0000
0001
1000
0001
0000
,
0100
0001
0100
0000
0010
0000
1000
0000
,
0001
0010
0001
0000
1000
0000
0010
0000
,
0100
0001
0100
0000
0010
1000
0010
0000
,
1000
1000
0000
0001
0001
0000
0100
0200
,
0000
0000
0000
0000
0000
0300
0000
0000
0010
0000
1000
0000
0001
0000
1000
0000
,
0200
0000
0000
0000
,
0000
0000
0000
0000
,
0300
0000
0000
0000
;

//--------------- dance-single - forcednature ----------------
#NOTEDATA:;
#STEPSTYPE:dance-single;
#DESCRIPTION:forcednature;
#DIFFICULTY:Medium;
#METER:12;
#RADARVALUES:0,0,0,0,0;
#CREDIT:forcednature;
#NOTES:
0000
0000
0000
0000
,
0000
0000
0000
0000
,
0000
0000
0000
0000
,
0000
0000
0000
0000
,
0000
0000
0000
0000
,
0000
0000
0000
0000
,
0000
0000
0000
0000
,
0000
0000
0000
0000
,
0000
0000
0000
0000
,
1001
1000
0100
1000
,
0001
1000
0010
1000
,
0001
0010
0100
0010
,
0001
0000
1000
0000
0010
0100
0010
0100
,
0001
0000
1000
0010
0000
0100
0001
0000
,
1000
0000
0001
0010
0000
0100
1000
0000
,
0010
0000
0100
0001
0000
1000
0100
0000
,
0010
0001
1000
0000
0010
0100
0001
0100
,
0000
0000
0000
0000
,
0010
0000
1100
0000
0001
0010
0100
0000
,
0010
0000
0101
0000
1000
0001
0100
0000
,
0010
0000
1001
0000
0001
0010
0100
0000
,
1000
0000
1010
0000
0001
0010
0001
0000
,
0100
0000
1010
0000
0001
1000
0100
0000
,
0010
0000
0101
0000
1000
0001
0010
0000
,
0100
0000
1010
0000
0001
1000
0100
0000
,
0010
0000
0101
0000
1000
0010
0100
0001
,
1000
0000
1100
0000
0001
0010
0100
0000
,
0010
0000
0101
0000
1000
0001
0010
0000
,
0100
0000
1010
0000
0001
1000
0100
0000
,
0010
0000
0101
0000
1000
0001
0010
0000
,
0100
0000
1010
0000
0001
1000
0100
0000
,
1000
0000
0110
0000
0001
1000
0010
0000
,
0100
0000
1001
0000
0001
0010
0100
0000
,
0220
0000
0330
0000
,
1000
0000
0001
1000
0001
0000
0000
0000
0100
0000
0010
0000
1000
0000
0000
0000
,
0001
0000
1000
0001
1000
0000
0000
0000
0100
0000
0010
0000
0001
0000
0000
0000
,
0100
0000
0010
0100
0010
0000
0000
0000
0100
0000
0001
0000
1000
0000
0000
0000
,
0100
0000
0010
0100
0010
0000
0000
0000
0001
0000
0001
0000
0010
0000
0000
0000
,
0001
0100
0001
0000
0100
0000
0000
0000
0010
0000
1000
0000
0001
0000
0000
0000
,
0010
0100
0001
0100
0010
0100
1000
0000
,
0010
1000
0010
0000
1000
0000
0000
0000
0001
0000
0010
0000
0100
0000
0000
0000
,
0010
0001
1000
0001
0000
0100
0010
0100
,
0001
0000
1000
0001
1000
0000
0000
0000
0100
0000
0010
0000
0001
0000
0000
0000
,
1000
0000
0001
1000
0001
0000
0000
0000
0100
0000
0010
0000
1000
0000
0000
0000
,
0100
0000
0010
0100
0010
0000
0000
0000
0100
0000
1000
0000
0001
0000
0000
0000
,
0100
0000
0010
0100
0010
0000
0000
0000
0100
0000
0001
0000
0010
0000
0000
0000
,
0100
1000
0100
0000
1000
0000
0000
0000
0001
0000
0100
0000
0010
0000
0000
0000
,
1000
0100
0001
0100
0010
0100
1000
0000
,
0001
0010
0001
0000
0010
0000
0000
0000
0100
0000
1000
0000
0001
0000
0000
0000
,
0100
0010
1000
0010
0100
0001
0010
0001
,
0200
0000
0000
0000
,
0320
0000
0000
0000
,
2030
0000
3002
0000
,
0023
0000
0000
0000
0000
0031
0100
0010
,
2000
0000
0000
0000
,
3200
0000
0000
0000
,
2300
0000
3002
0000
,
0203
0320
2030
3001
,
1001
0000
1000
0100
0000
1000
0010
0000
,
0100
0000
0001
0010
0000
0001
0100
0000
,
0010
0000
1000
0100
0000
1000
0001
0000
,
0010
0000
0001
0100
0000
0001
1000
0000
,
0010
1000
0010
1000
0000
1000
0100
0000
,
0010
0001
0010
0001
0000
0001
0100
0000
,
0010
1000
0010
1000
0100
1000
0001
1000
,
0020
0000
0000
0030
,
1001
0000
0001
0100
0010
1000
0001
0010
,
0001
1000
0010
0100
0001
1000
0100
0010
,
0001
0000
1000
0010
0100
0010
1000
0001
,
0010
1000
0010
0100
1000
0001
1000
0010
,
0100
0000
0001
0010
0100
0010
0001
1000
,
0010
0100
1000
0100
0001
1000
0010
1000
,
0001
0000
0010
0100
1000
0001
0100
0010
,
1000
0001
0010
0001
0000
0100
0100
0100
,
0010
1000
0000
0010
1000
0000
0000
0000
0001
0000
0010
0000
0100
0000
0000
0000
,
0010
0001
0010
0000
0001
0000
0000
0000
1000
0010
1000
0000
0010
0000
0000
0000
,
0100
0001
0100
0000
0001
0000
0000
0000
1000
0100
0000
1000
0100
0000
0000
0000
,
0010
0001
0000
0010
0001
0000
0000
0000
0100
0000
0001
0000
1000
0000
0001
0000
,
0010
0100
0000
0010
0100
0000
0000
0000
1000
0000
0001
0000
0100
0000
0000
0000
,
0010
1000
0010
0000
1000
0000
0000
0000
0001
0010
0001
0000
0010
0000
0000
0000
,
0100
0001
0000
0100
1000
0000
0010
0220
,
0000
0000
0000
0330
0000
0100
0100
0010
,
2002
0000
0000
0000
,
0000
0000
0000
0000
,
3003
0000
0000
0000
;

//--------------- dance-single - forcednature ----------------
#NOTEDATA:;
#STEPSTYPE:dance-single;
#DESCRIPTION:forcednature;
#DIFFICULTY:Hard;
#METER:15;
#RADARVALUES:0,0,0,0,0;
#CREDIT:forcednature;
#NOTES:
0000
0000
0000
0000
,
0000
0000
0000
0000
,
0000
0000
0000
0000
,
0000
0000
0000
0000
,
0000
0000
0000
0000
,
0000
0000
0000
0000
,
0000
0000
0000
0000
,
0000
0000
0000
0000
,
0000
0000
0000
0000
,
0001
0001
0100
0001
,
1000
1000
0100
1000
,
0001
0001
0010
0001
,
1000
0000
1000
0000
0010
0100
0010
0100
,
0001
0000
0001
0010
0100
0000
0100
1000
,
0010
0000
0010
0100
0001
0000
0001
1000
,
0100
0000
0100
0010
0001
0000
0001
1000
,
0010
0000
0100
0000
0001
0000
0000
0000
1000
0000
0100
0000
1000
0000
0100
0010
,
0000
0000
0000
0000
,
1001
0000
0101
0000
0001
0010
1000
0000
,
0010
0000
0000
0000
1100
0000
0000
1000
0010
0000
0100
0000
0001
0000
0000
0000
,
1010
0000
1100
0000
1000
0010
0001
0000
,
0010
0000
0000
0000
0101
0000
0000
0001
0010
0000
0100
0000
1000
0000
0000
0000
,
1010
0000
0110
0000
0001
0100
1000
0000
,
0100
0000
0000
0000
0011
0000
0000
0010
0100
0000
1000
0000
0010
0000
0000
0000
,
0011
0000
0110
0000
1000
0100
0001
0000
,
0100
0000
0000
0000
1010
0000
0000
0010
0100
0000
0001
0000
0010
0000
0000
0000
,
0100
1000
1100
0000
1000
0010
0001
0000
,
0010
0000
0100
0000
0001
0000
0000
0001
0010
0000
0100
0000
1100
0000
0000
0000
,
1000
0010
0110
0000
1000
0100
0001
0000
,
0010
0000
0100
0000
1000
0000
0000
1000
0010
0000
0100
0000
0001
0000
0000
0000
,
0010
1000
1010
0000
1000
0010
0001
0000
,
0100
0000
0001
0000
1000
0000
0000
1000
0010
0000
0100
0000
0101
0000
0000
0000
,
1000
0010
0011
0000
0001
0010
1000
0000
,
0110
0000
0000
0000
0001
1000
1000
1000
,
0100
0010
0100
0010
0001
0000
0000
0000
1000
0000
0010
0000
0100
0000
0010
0000
,
1000
0001
1000
0001
0010
0000
0000
0000
0100
0000
1000
0000
0001
0000
1000
0000
,
0010
0100
0010
0100
0001
0000
0000
0000
1000
0000
0100
0000
0010
0000
0001
0000
,
0100
0001
0100
0001
1000
0000
0000
0000
0100
0000
0001
0000
0100
0000
1000
0000
,
0010
1000
0010
1000
0001
0000
0000
0000
0010
0000
0100
0000
1000
0000
0001
0000
,
0100
0001
0100
0000
0010
0100
0010
0000
1000
0010
1000
0000
0001
1000
0001
0000
,
0010
0001
0010
0001
0100
0000
0000
0000
0010
0000
1000
0000
0001
0000
0010
0000
,
0100
1000
0100
0000
1000
0010
1000
0000
0001
0000
0100
0000
0100
0000
0100
0000
,
0001
0010
0001
0010
0100
0000
0000
0000
1000
0000
0001
0000
0100
0000
0001
0000
,
0010
0100
0010
0100
1000
0000
0000
0000
0010
0000
0100
0000
0001
0000
1000
0000
,
0100
0010
0100
0010
0001
0000
0000
0000
1000
0000
0001
0000
0100
0000
0001
0000
,
1000
0100
1000
0100
0010
0000
0000
0000
0001
0000
0100
0000
1000
0000
0100
0000
,
0010
1000
0010
1000
0001
0000
0000
0000
1000
0000
0100
0000
0010
0000
0001
0000
,
1000
0001
1000
0000
0010
1000
0010
0000
0100
0010
0100
0000
0001
0100
0001
0000
,
0010
0100
0010
0100
1000
0000
0000
0000
0001
0000
0100
0000
0010
0000
1000
0000
,
0001
0100
0001
0000
1000
0100
1000
0000
0010
0000
0100
0010
0100
0010
0100
0000
,
2002
0000
0000
3003
,
2000
0000
0000
0000
,
3200
0000
0320
0000
,
0032
0000
0000
0000
0000
0103
0001
1000
,
0020
0000
0000
0000
,
2030
0000
0000
0000
,
3002
0000
0023
0000
,
0230
0000
0000
0000
2300
0000
0000
0000
3001
0000
0200
0000
0000
0300
0000
0000
,
0110
0000
0010
1000
0000
1000
0100
0000
,
0010
0010
0001
0100
0000
0001
0010
0000
,
0110
0000
0100
1000
0000
0001
0100
0000
,
0010
0010
1000
0001
0000
0001
0010
0000
,
0001
0100
0001
0100
0010
1000
0010
1000
,
0001
0010
0001
0010
0100
1000
0100
1000
,
0010
0000
0100
0000
1000
0000
0100
0000
0001
0000
0001
0010
0100
0000
0100
0000
,
2002
0000
0000
3003
,
1000
0000
0100
1000
0100
0000
0010
0000
0001
0000
0100
0001
0100
0000
0010
0000
,
1000
0001
1000
0000
0001
0100
0001
0000
1000
0000
0100
0010
0001
0000
0000
0000
,
1000
0000
0010
1000
0010
0000
0100
0000
0001
0000
0010
0001
0010
0000
0100
0000
,
1000
0010
1000
0000
0100
1000
0100
0000
0010
0000
0001
1000
0010
0000
0000
0000
,
0100
0000
0001
0100
0001
0000
1000
0000
0100
0000
0010
0100
0010
0000
0001
0000
,
1000
0010
1000
0000
0001
0010
0001
0000
0100
0000
0010
1000
0001
0000
0000
0000
,
0010
0000
0100
0010
0100
0000
1000
0000
0001
0000
0100
0001
0100
0000
0010
0000
,
1000
0100
1000
0000
0001
0100
0001
0000
0010
0000
0100
0000
0100
0000
0100
0000
,
1000
0001
0010
0001
1000
0000
0000
0000
0010
0000
0100
0001
0100
0000
0000
0000
,
0010
1000
0010
0000
0100
0000
0001
0000
0010
0001
0010
0000
0100
0000
0000
0000
,
1000
0100
0010
0100
1000
0000
0000
0000
0001
1000
0010
1000
0001
0000
0000
0000
,
0100
0001
1000
0001
0100
0000
0000
0000
0010
0000
1000
0000
0001
0000
0010
0000
,
0100
1000
0010
1000
0100
0000
0000
0000
0010
0000
0001
1000
0001
0000
1000
0000
,
0010
0100
0001
0100
0010
0000
1000
0000
0001
1000
0100
1000
0001
0000
0000
0000
,
0100
0001
0100
0000
0100
0000
0010
1000
0010
0000
0010
0000
0110
0000
2002
0000
,
0000
0000
0000
0000
0000
0000
3003
0000
0000
0001
1000
0001
0100
0001
0010
0001
,
0200
0000
0000
0000
,
0000
0000
0000
0000
,
0300
0000
0000
0000
;

//--------------- dance-double - forcednature ----------------
#NOTEDATA:;
#STEPSTYPE:dance-double;
#DESCRIPTION:forcednature;
#DIFFICULTY:Easy;
#METER:9;
#RADARVALUES:0,0,0,0,0;
#CREDIT:forcednature;
#NOTES:
00000000
00000000
00000000
00000000
,
00000000
00000000
00000000
00000000
,
00000000
00000000
00000000
00000000
,
00000000
00000000
00000000
00000000
,
00000000
00000000
00000000
00000000
,
00000000
00000000
00000000
00000000
,
00000000
00000000
00000000
00000000
,
00000000
00000000
00000000
00000000
,
00000000
00000000
00000000
00000000
,
00001000
01000000
00001000
01000000
,
00001000
00010000
00001000
00010000
,
00000100
00010000
00000100
00010000
,
00001000
00010000
00001000
00010000
,
00000010
00001000
00000100
00010000
,
00001000
01000000
00010000
00100000
,
01000000
10000000
01000000
00100000
,
00010000
00000000
00100000
00000000
00001000
00010000
00001000
00010000
,
00000000
00000000
00000000
00000000
,
00000010
00001001
00000000
00001000
,
00000100
00001001
00000000
00001000
,
00000100
00011000
00000000
00001000
,
01000000
10010000
00000000
00010000
,
01000000
00011000
00000000
00010000
,
00000010
00000110
00000000
00000100
,
00000001
00001001
00000000
00001000
,
00000100
00011000
00000000
00001000
,
01000000
01100000
00100000
10000000
,
01000000
01100000
00100000
00010000
,
01000000
00011000
00000010
00001000
,
00000100
00000110
00000010
00000001
,
00000100
00001001
00001000
00000100
,
00010000
00011000
00001000
01000000
,
00010000
10010000
10000000
01000000
,
02200000
00000000
03300000
00000000
,
00100000
00010000
00100000
00000000
00010000
00000000
00100000
00000000
,
00001000
00010000
00001000
00000000
00010000
00000000
00001000
00000000
,
00010000
00000100
00010000
00000000
00000100
00000000
00010000
00000000
,
00000100
00001000
00000100
00000000
00000010
00000000
00000001
00000000
,
00001000
00000010
00001000
00000000
00000010
00000000
00001000
00000000
,
00000100
00010000
00001000
01000000
,
00010000
00100000
00010000
00000000
00100000
00000000
00010000
00000000
,
10000000
00000000
00100000
00000000
01000000
00010000
01000000
00000000
,
00001000
00010000
00001000
00000000
00010000
00000000
00001000
00000000
,
00100000
00010000
00100000
00000000
00010000
00000000
00100000
00000000
,
01000000
10000000
01000000
00000000
10000000
00000000
01000000
00000000
,
00010000
00001000
00010000
00000000
00000010
00000000
00001000
00000000
,
00000001
00000010
00000001
00000000
00001000
00000000
00000010
00000000
,
00001000
00000100
00010000
00001000
,
00011000
01000000
00011000
00100000
,
01100000
00000000
10010000
00000000
10000000
00010000
10000000
00010000
,
02000000
00000000
00000000
00000000
,
03002000
00000000
00000000
00000000
,
00023000
00000000
00030200
00000000
,
00002300
00000000
00000000
00003002
,
00000203
00000000
00000000
00000000
,
00000320
00000000
00000000
00000000
,
00020030
00000000
00032000
00000000
,
00203000
00320000
20030000
30020000
,
01030000
00000000
01000000
00001000
00000000
00000000
00010000
00000000
,
00000100
00000000
00000100
00010000
00000000
00000000
00001000
00000000
,
00100000
00000000
00100000
00001000
00000000
00000000
00010000
00000000
,
00000010
00000000
00000010
00010000
00000000
00000000
00001000
00000000
,
01000000
01000000
00010000
00010000
,
00100000
00100000
00001000
00001000
,
00010000
00000010
00010000
00000000
00000010
00001000
00000010
00000000
,
00000220
00000000
00000000
00000330
,
00000001
00000000
00001000
00000010
00000000
00001000
00000100
00000000
,
00010000
00001000
01000000
00001000
,
00100000
00000000
00010000
00100000
00000000
01000000
00100000
00000000
,
00010000
10000000
00010000
01000000
,
00001000
00000000
00010000
00000100
00000000
00001000
00000100
00000000
,
00000010
00000001
00001000
00000001
,
00000100
00000000
00000010
00001000
00000000
00000010
00010000
00000000
,
00001000
00000000
00100000
00000000
00000000
00100000
00010000
00000000
,
01000000
00010000
01000000
00000000
00100000
00000000
10000000
00000000
,
01000000
10000000
01000000
00000000
00100000
01000000
00100000
00000000
,
00010000
00100000
00010000
00000000
00100000
00001000
00100000
00000000
,
00001000
00010000
00001000
00000000
00010000
00000000
00000010
00000000
,
00001000
00000010
00001000
00000000
00000001
00000000
00000010
00000000
,
00000100
00000010
00000100
00000000
00001000
00000100
00001000
00000000
,
00000100
00000100
00000000
00010000
00010000
00000000
00001000
00002000
,
00000000
00000000
00000000
00000000
00000000
00003000
00000000
00000000
01000000
00000000
00010000
00000000
10000000
00000000
00010000
00000000
,
00200000
00000000
00000000
00000000
,
00000000
00000000
00000000
00000000
,
00300000
00000000
00000000
00000000
;

//--------------- dance-double - forcednature ----------------
#NOTEDATA:;
#STEPSTYPE:dance-double;
#DESCRIPTION:forcednature;
#DIFFICULTY:Medium;
#METER:13;
#RADARVALUES:0,0,0,0,0;
#CREDIT:forcednature;
#NOTES:
00000000
00000000
00000000
00000000
,
00000000
00000000
00000000
00000000
,
00000000
00000000
00000000
00000000
,
00000000
00000000
00000000
00000000
,
00000000
00000000
00000000
00000000
,
00000000
00000000
00000000
00000000
,
00000000
00000000
00000000
00000000
,
00000000
00000000
00000000
00000000
,
00000000
00000000
00000000
00000000
,
00011000
00001000
01000000
00001000
,
00010000
00001000
00100000
00001000
,
00010000
00000010
00010000
00001000
,
00010000
00000000
00000100
00000000
00001000
00000001
00001000
00000001
,
00000100
00000000
00001000
00010000
00000000
00001000
00100000
00000000
,
00010000
00000000
10000000
00100000
00000000
01000000
00010000
00000000
,
00100000
00000000
00001000
00010000
00000000
00000010
00001000
00000000
,
00000100
00000010
00000001
00000000
00001000
00000010
00010000
00000010
,
00000000
00000000
00000000
00000000
,
00000100
00000000
00001001
00000000
00001000
00000100
00010000
00000000
,
00001000
00000000
00011000
00000000
00010000
00001000
01000000
00000000
,
00100000
00000000
10010000
00000000
00010000
01000000
00001000
00000000
,
00010000
00000000
00011000
00000000
00001000
00010000
00000010
00000000
,
00000100
00000000
00001001
00000000
00001000
00000100
00010000
00000000
,
00001000
00000000
00011000
00000000
01000000
00010000
00100000
00000000
,
01000000
00000000
10010000
00000000
00010000
01000000
00001000
00000000
,
00010000
00000000
00011000
00000000
00001000
00100000
00010000
00100000
,
01000000
00000000
10010000
00000000
10000000
01000000
00010000
00000000
,
00001000
00000000
00011000
00000000
00010000
00000100
00001000
00000000
,
00000010
00000000
00001001
00000000
00000001
00000100
00001000
00000000
,
00010000
00000000
00011000
00000000
00001000
00100000
00010000
00000000
,
01000000
00000000
10010000
00000000
10000000
01000000
00010000
00000000
,
00001000
00000000
00011000
00000000
00010000
00000100
00001000
00000000
,
00000010
00000000
00001001
00000000
00000001
00000100
00001000
00000000
,
00022000
00000000
00033000
00000000
,
01000000
00000000
00010000
01000000
00010000
00000000
00000000
00000000
01000000
00000000
00001000
00000000
00010000
00000000
00000000
00000000
,
00000100
00000000
00001000
00000100
00001000
00000000
00000000
00000000
00000100
00000000
00000010
00000000
00000001
00000000
00000000
00000000
,
00001000
00000000
00000010
00001000
00000010
00000000
00000000
00000000
00010000
00000000
00001000
00000000
01000000
00000000
00000000
00000000
,
00010000
00000000
00100000
00010000
00100000
00000000
00000000
00000000
01000000
00000000
01000000
00000000
10000000
00000000
00000000
00000000
,
00010000
01000000
00010000
00000000
01000000
00000000
00000000
00000000
00001000
00000000
00010000
00000000
00000100
00000000
00000000
00000000
,
00001000
00000010
00000100
00000001
00000100
00000010
00001000
00000000
,
00000100
00010000
00000100
00000000
00010000
00000000
00000000
00000000
00001000
00000000
01000000
00000000
00010000
00000000
00000000
00000000
,
00100000
01000000
10000000
01000000
00000000
00100000
00001000
00010000
,
00001000
00000000
00010000
00001000
00010000
00000000
00000000
00000000
00000100
00000000
00001000
00000000
00000010
00000000
00000000
00000000
,
00000100
00000000
00000001
00000100
00000001
00000000
00000000
00000000
00000010
00000000
00000100
00000000
00010000
00000000
00000000
00000000
,
00001000
00000000
00100000
00001000
00100000
00000000
00000000
00000000
00010000
00000000
01000000
00000000
00001000
00000000
00000000
00000000
,
00010000
00000000
00000010
00010000
00000010
00000000
00000000
00000000
00001000
00000000
00000100
00000000
00000010
00000000
00000000
00000000
,
00000100
00001000
00000100
00000000
00001000
00000000
00000000
00000000
00000010
00000000
00010000
00000000
00001000
00000000
00000000
00000000
,
01000000
00010000
01000000
00001000
00100000
00010000
00100000
00000000
,
01000000
10000000
01000000
00000000
10000000
00000000
00000000
00000000
00010000
00000000
01000000
00000000
00001000
00000000
00000000
00000000
,
00010000
00000010
00001000
00000100
00001000
00000010
00010000
00000010
,
00002000
00000000
00000000
00000000
,
00003200
00000000
00000000
00000000
,
00020300
00000000
00032000
00000000
,
02003000
00000000
00000000
00000000
00000000
03010000
00100000
01000000
,
20000000
00000000
00000000
00000000
,
30020000
00000000
00000000
00000000
,
02030000
00000000
03002000
00000000
,
00023000
00030200
00002300
00003010
,
00001001
00000000
00000001
00000100
00000000
00000001
00000010
00000000
,
00000100
00000000
00010000
00001000
00000000
00010000
00000010
00000000
,
00001000
00000000
00010000
01000000
00000000
00010000
00100000
00000000
,
01000000
00000000
10000000
00100000
00000000
10000000
01000000
00000000
,
00100000
00010000
00100000
00010000
00000000
00010000
01000000
00000000
,
00001000
00010000
00001000
00010000
00000000
00010000
00000010
00000000
,
00001000
00000100
00001000
00000100
00000010
00000001
00001000
00000001
,
00000200
00000000
00000000
00000300
,
00001001
00000000
00001000
00000100
00010000
00001000
01000000
00010000
,
00100000
00001000
00010000
00000010
00001000
00000100
00000010
00000100
,
00010000
00000000
00001000
01000000
00010000
01000000
00100000
10000000
,
00010000
10000000
01000000
00010000
00001000
00010000
00001000
00000010
,
00000001
00000000
00000100
00000001
00001000
00000100
00001000
00000001
,
00000100
00001000
00010000
00001000
00010000
00100000
10000000
01000000
,
10000000
00000000
01000000
00010000
00001000
00010000
00000010
00001000
,
00000100
00001000
00000001
00000100
00000000
00001000
00001000
00001000
,
00010000
00001000
00000000
00010000
00001000
00000000
00000000
00000000
01000000
00000000
00010000
00000000
00100000
00000000
00000000
00000000
,
01000000
10000000
01000000
00000000
10000000
00000000
00000000
00000000
00010000
01000000
00010000
00000000
01000000
00000000
00000000
00000000
,
00001000
00010000
00001000
00000000
00010000
00000000
00000000
00000000
00000100
00001000
00000000
00000100
00001000
00000000
00000000
00000000
,
00000001
00000100
00000000
00000001
00000100
00000000
00000000
00000000
00000010
00000000
00001000
00000000
00000010
00000000
00010000
00000000
,
00001000
01000000
00000000
00001000
01000000
00000000
00000000
00000000
00010000
00000000
10000000
00000000
01000000
00000000
00000000
00000000
,
00100000
00010000
00100000
00000000
00010000
00000000
00000000
00000000
01000000
00010000
01000000
00000000
00010000
00000000
00000000
00000000
,
00100000
01000000
00000000
00010000
00001000
00000000
00000010
00000220
,
00000000
00000000
00000000
00000330
00000000
00000001
00000100
00001000
,
00020000
00000000
00000000
00000000
,
00000000
00000000
00000000
00000000
,
00030000
00000000
00000000
00000000
;

//--------------- dance-double - forcednature ----------------
#NOTEDATA:;
#STEPSTYPE:dance-double;
#DESCRIPTION:forcednature;
#DIFFICULTY:Hard;
#METER:16;
#RADARVALUES:0,0,0,0,0;
#CREDIT:forcednature;
#NOTES:
00000000
00000000
00000000
00000000
,
00000000
00000000
00000000
00000000
,
00000000
00000000
00000000
00000000
,
00000000
00000000
00000000
00000000
,
00000000
00000000
00000000
00000000
,
00000000
00000000
00000000
00000000
,
00000000
00000000
00000000
00000000
,
00000000
00000000
00000000
00000000
,
00000000
00000000
00000000
00000000
,
00001000
00001000
00100000
00001000
,
00010000
00010000
00000010
00010000
,
00001000
00001000
01000000
00001000
,
00010000
00000000
00010000
00000000
00000100
00001000
00000100
00001000
,
00000001
00000000
00000001
00000100
00001000
00000000
00001000
00010000
,
00000010
00000000
00000010
00001000
00000100
00000000
00000100
00010000
,
00001000
00000000
00001000
00010000
00100000
00000000
00100000
10000000
,
01000000
00000000
10000000
00000000
00010000
00000000
00000000
00000000
00100000
00000000
00001000
00000000
00100000
00000000
00001000
00010000
,
00000000
00000000
00000000
00000000
,
00011000
00000000
00010010
00000000
00000010
00001000
00000100
00000000
,
00010000
00000000
00000000
00000000
00101000
00000000
00000000
00100000
00010000
00000000
01000000
00000000
00001000
00000000
00000000
00000000
,
00011000
00000000
00010100
00000000
00000100
00001000
00000010
00000000
,
00010000
00000000
00000000
00000000
01001000
00000000
00000000
01000000
00010000
00000000
00100000
00000000
00001000
00000000
00000000
00000000
,
00011000
00000000
00010010
00000000
00000010
00000100
00001000
00000000
,
00010000
00000000
00000000
00000000
00101000
00000000
00000000
00001000
00010000
00000000
00100000
00000000
10000000
00000000
00000000
00000000
,
11000000
00000000
00110000
00000000
00010000
01000000
00100000
00000000
,
00010000
00000000
00000000
00000000
00011000
00000000
00000000
00001000
00010000
00000000
00000100
00000000
00001000
00000000
00000000
00000000
,
00000010
00000001
00000011
00000000
00000010
00001000
00000100
00000000
,
00000010
00000000
00001000
00000000
00010000
00000000
00000000
00010000
00001000
00000000
01000000
00000000
01010000
00000000
00000000
00000000
,
00010000
10000000
11000000
00000000
01000000
00010000
00001000
00000000
,
00000100
00000000
00001000
00000000
00010000
00000000
00000000
00010000
00000010
00000000
00001000
00000000
00000100
00000000
00000000
00000000
,
00000010
00001000
00001010
00000000
00000010
00000001
00000100
00000000
,
00000010
00000000
00001000
00000000
00010000
00000000
00000000
00010000
01000000
00000000
00100000
00000000
01100000
00000000
00000000
00000000
,
01000000
00010000
00110000
00000000
00100000
01000000
00010000
00000000
,
00011000
00000000
00000000
00000000
00001000
00000010
00000010
00000010
,
00000100
00001000
00000100
00001000
00000001
00000000
00000000
00000000
00000100
00000000
00001000
00000000
00010000
00000000
00001000
00000000
,
01000000
00010000
01000000
00010000
10000000
00000000
00000000
00000000
01000000
00000000
00010000
00000000
00001000
00000000
00010000
00000000
,
00000010
00001000
00000010
00001000
00000001
00000000
00000000
00000000
00000010
00000000
00001000
00000000
00010000
00000000
00001000
00000000
,
00100000
00010000
00100000
00010000
10000000
00000000
00000000
00000000
00100000
00000000
01000000
00000000
00001000
00000000
00010000
00000000
,
00000010
00001000
00000010
00001000
00000100
00000000
00000000
00000000
00000010
00000000
00001000
00000000
00010000
00000000
00001000
00000000
,
00100000
00010000
00100000
00000000
01000000
00100000
01000000
00000000
10000000
01000000
10000000
00000000
00010000
10000000
00010000
00000000
,
01000000
00010000
01000000
00010000
00100000
00000000
00000000
00000000
00001000
00000000
00010000
00000000
00000010
00000000
00010000
00000000
,
00000100
00001000
00000100
00000000
00000010
00000100
00000010
00000000
00000001
00000000
00000100
00000000
00000100
00000000
00000100
00000000
,
00000010
00010000
00000010
00010000
00001000
00000000
00000000
00000000
00000100
00000000
00001000
00000000
00010000
00000000
00001000
00000000
,
00100000
00001000
00100000
00001000
00010000
00000000
00000000
00000000
01000000
00000000
00010000
00000000
00001000
00000000
00010000
00000000
,
00000100
00010000
00000100
00010000
00001000
00000000
00000000
00000000
00000010
00000000
00001000
00000000
00010000
00000000
00001000
00000000
,
01000000
00001000
01000000
00001000
00010000
00000000
00000000
00000000
00100000
00000000
10000000
00000000
00010000
00000000
10000000
00000000
,
01000000
00100000
01000000
00100000
00010000
00000000
00000000
00000000
01000000
00000000
00001000
00000000
00010000
00000000
00000010
00000000
,
00001000
00000100
00001000
00000000
00000100
00000010
00000100
00000000
00000010
00000001
00000010
00000000
00000001
00001000
00000001
00000000
,
00000100
00000010
00000100
00000010
00001000
00000000
00000000
00000000
00000100
00000000
00010000
00000000
00001000
00000000
01000000
00000000
,
00100000
10000000
00100000
00000000
10000000
01000000
10000000
00000000
01000000
00000000
00010000
00001000
00010000
00001000
00010000
00000000
,
00022000
00000000
00000000
00033000
,
00000200
00000000
00000000
00000000
,
00002300
00000000
00003002
00000000
,
00000203
00000000
00000000
00000000
00000000
00001300
00010000
00100000
,
20000000
00000000
00000000
00000000
,
32000000
00000000
00000000
00000000
,
03020000
00000000
00032000
00000000
,
00003020
00000000
00000000
00000000
00000230
00000000
00000000
00000000
00001300
00000000
00000002
00000000
00000000
00000003
00000000
00000000
,
00001001
00000000
00001000
00000010
00000000
00000010
00010000
00000000
,
00001000
00001000
00100000
00010000
00000000
00100000
01000000
00000000
,
01100000
00000000
00100000
00001000
00000000
00010000
00000010
00000000
,
00001000
00001000
00000100
00000001
00000000
00000001
00000100
00000000
,
00000010
00000001
00000010
00000001
00000100
00001000
00000100
00001000
,
00010000
01000000
00010000
01000000
10000000
00100000
10000000
00100000
,
01000000
00000000
10000000
00000000
01000000
00000000
00010000
00000000
00100000
00000000
00100000
00001000
00010000
00000000
00010000
00000000
,
00000020
00000000
00000000
00000030
,
00000100
00000000
00000001
00000100
00000001
00000000
00001000
00000000
00000010
00000000
00001000
00000010
00001000
00000000
00000100
00000000
,
00010000
00001000
00010000
00000000
00001000
00010000
00001000
00000000
01000000
00000000
00010000
10000000
00100000
00000000
00000000
00000000
,
10000000
00000000
01000000
10000000
01000000
00000000
00100000
00000000
00010000
00000000
00100000
00010000
00100000
00000000
00001000
00000000
,
00010000
00000010
00010000
00000000
00000010
00001000
00000010
00000000
00000100
00000000
00000001
00001000
00000100
00000000
00000000
00000000
,
00010000
00000000
00001000
00010000
00001000
00000000
01000000
00000000
00010000
00000000
10000000
00100000
10000000
00000000
01000000
00000000
,
00100000
00010000
00100000
00000000
00001000
00010000
00001000
00000000
00010000
00000000
00000010
00001000
00000100
00000000
00000000
00000000
,
00000010
00000000
00000001
00000010
00000001
00000000
00001000
00000000
00000010
00000000
00010000
00000010
00010000
00000000
00001000
00000000
,
01000000
00010000
01000000
00000000
00010000
00100000
00010000
00000000
10000000
00000000
00100000
00000000
00100000
00000000
00100000
00000000
,
01000000
00001000
00010000
00001000
01000000
00000000
00000000
00000000
00001000
00000000
00010000
00001000
00010000
00000000
00000000
00000000
,
00000100
00001000
00000100
00000000
00000010
00000000
00000001
00000000
00001000
00000010
00001000
00000000
00000100
00000000
00000000
00000000
,
00010000
00001000
00100000
00001000
00010000
00000000
00000000
00000000
00000010
00001000
00000100
00001000
00000010
00000000
00000000
00000000
,
00010000
00001000
01000000
00001000
00010000
00000000
00000000
00000000
00100000
00000000
10000000
00000000
00010000
00000000
10000000
00000000
,
01000000
00100000
00010000
00100000
01000000
00000000
00000000
00000000
00100000
00000000
00001000
00010000
00001000
00000000
00010000
00000000
,
00000010
00001000
00000100
00001000
00000010
00000000
00000100
00000000
00000001
00001000
00000100
00001000
00000001
00000000
00000000
00000000
,
00000100
00000000
00001000
00010000
00001000
00000000
00100000
00000000
00001000
00010000
00001000
00000000
01000000
00000000
20020000
00000000
,
00000000
00000000
00000000
00000000
00000000
00000000
30030000
00000000
00000000
10000000
01000000
10000000
00010000
01000000
00010000
00100000
,
00002000
00000000
00000000
00000000
,
00000000
00000000
00000000
00000000
,
00003000
00000000
00000000
00000000
;
