#VERSION:0.83;
#TITLE:Hollywood Galaxy (DJ NAGAI Remix);
#SUBTITLE:;
#ARTIST:Remixed by DJ NAGAI;
#TITLETRANSLIT:;
#SUBTITLETRANSLIT:;
#ARTISTTRANSLIT:;
#GENRE:GALACTIC J-CORE;
#CREDIT:;
#MUSIC:Hollywood Galaxy (DJ NAGAI Remix).ogg;
#BANNER:Hollywood Galaxy (DJ NAGAI Remix).png;
#BACKGROUND:Hollywood Galaxy (DJ NAGAI Remix)-bg.png;
#CDTITLE:./CDTitles/bm IIDX 22 PENDUAL.png;
#SAMPLESTART:82.603;
#SAMPLELENGTH:15.000;
#SELECTABLE:YES;
#OFFSET:0.777;
#BPMS:0.000=186.000;
#STOPS:;
#TIMESIGNATURES:0.000=4=4;
#BGCHANGES:0.000=../BGAs/19cy.mp4=1.000=0=0=0=StretchNoLoop====,
99999.000=-nosongbg-=1.000=0=0=0=StretchNoLoop====
;
#FGCHANGES:;

//--------------- dance-single - forcednature ----------------
#NOTEDATA:;
#STEPSTYPE:dance-single;
#DESCRIPTION:forcednature;
#DIFFICULTY:Beginner;
#METER:4;
#RADARVALUES:0,0,0,0,0;
#CREDIT:forcednature;
#NOTES:
0000
0000
0000
0000
,
0000
0000
0000
0000
,
0000
0000
0000
0000
,
0000
0000
0000
0000
,
0000
0000
0000
0000
,
0000
0000
0000
0000
,
0000
0000
0000
0000
,
0000
0000
0000
0000
,
0000
0000
0000
0000
,
1000
0000
0000
0000
,
0100
0000
0000
0000
,
1000
0000
0000
0000
,
1000
0000
0000
0000
,
0001
0000
0000
0000
,
0100
0000
0000
0000
,
0001
0000
0000
0000
,
0010
0000
0000
0000
,
0100
0000
0000
0000
,
0000
0000
0000
0000
,
1000
0000
0000
0000
,
0001
0000
0000
0000
,
0100
0000
0000
0000
,
0010
0000
0000
0000
,
1000
0000
1000
0000
,
1000
0000
0000
0000
,
0001
0000
0000
0000
,
0010
0000
0000
0000
,
0001
0000
0000
0000
,
0100
0000
0000
0000
,
0010
0000
0000
0000
,
1000
0000
0000
0000
,
0001
0000
0001
0000
,
0000
0000
0000
0000
,
0010
0000
0000
0000
,
0100
0000
0000
0000
,
1000
0000
0000
0000
,
0001
0000
0000
0000
,
0100
0000
0000
0000
,
0010
0000
0000
0000
,
1000
0000
1000
0000
,
0001
0000
0010
0000
,
0100
0000
0000
0000
,
1000
0000
0000
0000
,
0001
0000
0000
0000
,
0100
0000
0000
0000
,
0010
0000
0000
0000
,
1000
0000
0000
0000
,
0001
0000
0000
0000
,
0010
0000
0010
0000
,
0010
0000
0000
0000
,
0100
0000
1000
0000
,
0100
0000
0000
0000
,
0010
0000
0001
0000
,
0010
0000
0000
0000
,
0001
0000
0100
0000
,
0001
0000
0000
0000
,
1000
0000
1000
0000
,
0100
0000
0000
0000
,
0010
0000
0000
0000
,
0001
0000
0000
0000
,
1000
0000
0000
0000
,
0010
0000
0010
0000
,
0100
0000
0100
0000
,
0001
0000
1000
0000
,
1001
0000
0000
0000
,
0110
0000
0000
0000
,
0001
0000
0100
0000
,
0001
0000
1000
0000
,
0010
0000
0000
0000
,
1001
0000
0000
0000
,
1000
0000
0100
0000
,
1000
0000
0001
0000
,
0010
0000
0000
0000
,
0110
0000
0000
0000
,
0100
0000
1000
0000
,
0001
0000
1000
0000
,
0010
0000
0000
0000
,
0110
0000
0000
0000
,
0100
0000
0001
0000
,
1000
0000
0001
0000
,
0010
0000
0000
0000
,
0100
0000
0000
0000
,
1000
0000
0000
0000
,
0001
0000
0000
0000
,
0100
0000
0000
0000
,
0010
0010
0000
0000
,
1000
1000
0000
0000
,
0001
0000
0010
0000
,
0100
0100
1000
1000
;

//--------------- dance-single - forcednature ----------------
#NOTEDATA:;
#STEPSTYPE:dance-single;
#DESCRIPTION:forcednature;
#DIFFICULTY:Easy;
#METER:8;
#RADARVALUES:0,0,0,0,0;
#CREDIT:forcednature;
#NOTES:
0000
0000
0000
0000
,
0000
0000
0000
0000
,
0000
0000
0000
0000
,
0000
0000
0000
0000
,
0000
0000
0000
0000
,
0001
0001
0100
0100
,
0010
0010
1000
1000
,
0001
0010
0100
1000
,
0020
0000
0030
0000
,
0100
0001
0010
0000
,
0100
1000
0010
0000
,
0100
0001
1000
0000
,
0100
0010
0001
1000
,
0010
0100
0001
0000
,
0010
0100
1000
0000
,
0001
0100
0010
0000
,
2002
0000
0000
3003
,
1000
0000
0000
0100
,
0010
0000
0000
0100
,
1000
0000
0000
0100
,
0010
0000
0001
1000
,
0001
0000
0000
0100
,
0010
0000
0000
0100
,
0001
0000
0000
0100
,
2002
0000
0000
3003
,
1000
0100
0010
0000
,
0100
1000
0001
0000
,
0100
0010
1000
0000
,
0001
0010
0100
0010
,
0001
1000
0010
0000
,
0100
0001
0100
0001
,
1000
0100
0010
0000
,
0000
0100
0000
0000
0100
0000
0000
0000
,
1000
0001
0100
0000
,
0010
1000
0001
0000
,
0010
0100
1000
0000
,
0001
0100
0010
1000
,
1001
0000
0000
0010
,
0110
0000
0000
1000
,
0001
0001
0100
0100
,
0010
1000
0001
1000
,
0200
0000
0000
0300
,
0020
0000
0000
0030
,
0002
0000
2003
0000
,
3002
0000
0000
0003
,
0200
0000
0000
0300
,
0020
0000
0000
0030
,
2000
0000
3002
0000
,
2003
0000
3200
0000
,
0310
0000
0001
0000
,
0001
0001
0001
0000
,
0100
0000
0010
0000
,
0010
0010
0010
0000
,
1000
0000
0100
0000
,
0100
0100
0100
0000
,
1000
1000
0001
0001
,
0100
0100
0010
0010
,
2000
0000
3000
0000
,
0001
0000
0000
0000
,
0010
0000
0100
0000
,
0020
0000
0000
0030
,
0001
1000
0001
1000
,
0010
0100
0010
0100
,
0001
0000
0000
0010
0000
0000
0100
0000
,
1000
0000
0000
0000
,
0001
1000
0001
0000
0100
0000
0010
0000
,
1000
0001
0010
0100
,
1000
0001
0100
0010
,
2000
0000
3000
0000
,
0100
0010
0100
0000
0010
0000
0001
0000
,
1000
0010
0100
0001
,
0010
0000
0000
0010
0000
0000
0100
0000
,
0220
0000
0330
0000
,
0001
1000
0001
0000
0100
0000
0010
0000
,
1000
0100
1000
0001
,
0100
0010
1000
0001
,
0020
0000
0030
0000
,
0100
0010
0100
0000
1000
0000
0001
0000
,
1000
0010
0100
0001
,
1000
0000
0000
0100
0000
0000
0010
0000
,
0002
0000
0003
0000
,
0100
0010
1000
0000
,
0001
0010
0100
0000
,
0010
0001
1000
0000
,
0010
0100
0001
1000
,
0100
0010
0100
0000
0000
0000
0100
0000
,
0010
0100
0010
0000
0000
0000
0010
0000
,
0001
1000
0001
0000
1000
0001
1000
0000
,
0010
0100
0001
1000
;

//--------------- dance-single - forcednature ----------------
#NOTEDATA:;
#STEPSTYPE:dance-single;
#DESCRIPTION:forcednature;
#DIFFICULTY:Medium;
#METER:14;
#RADARVALUES:0,0,0,0,0;
#CREDIT:forcednature;
#NOTES:
0000
0000
0000
0000
,
0000
0000
0000
0000
,
0000
0000
0000
0000
,
0000
0000
0000
0000
,
0000
0000
0000
0000
,
0001
0100
0010
1000
,
0001
0100
0010
1000
0001
0100
0010
1000
,
0001
0010
0100
1000
0100
0010
0001
1000
,
0020
0000
0000
0100
0130
0000
0110
0000
,
0001
0100
0010
1000
0001
0010
0100
0000
,
0010
0001
0100
0010
1000
0100
0010
0000
,
0100
1000
0001
0100
0010
1000
0100
0000
,
0010
1000
0010
0001
1000
0001
0100
0000
,
0010
1000
0100
1000
0001
0100
0010
0000
,
1000
0001
0010
0100
1000
0001
0100
0000
,
0010
1000
0100
1000
0001
0100
0001
0000
,
0110
1001
0110
1000
,
0001
0000
0100
0010
0000
1000
0001
0010
,
0100
0000
1000
0001
0000
0100
0010
1000
,
0100
0000
0010
0001
0000
1000
0010
0100
,
0001
0010
0100
0000
0001
0100
1000
0000
,
0010
0100
0001
1000
0000
0100
0010
0000
,
0001
0100
0010
1000
0000
0001
0010
0000
,
0100
1000
0010
1000
0001
0010
0001
0100
,
0020
0000
0000
0130
,
0001
1000
0001
0000
0000
0000
0010
0000
0100
0000
1000
0000
0000
0000
0000
0000
,
1000
0001
1000
0000
0000
0000
0010
0000
0100
0000
0001
0000
0000
0000
0000
0000
,
0010
0100
0010
0000
0000
0000
0100
0000
1000
0000
0001
0000
0000
0000
0000
0000
,
0100
0010
0100
0000
0000
0000
0000
0000
0001
0000
1000
0000
0100
0000
0010
0000
,
0001
1000
0001
0000
0000
0000
0100
0000
0010
0000
1000
0000
0001
0000
0000
0000
,
0010
0100
1000
0100
0010
0001
1000
0000
,
0001
0100
0001
0000
0000
0000
1000
0000
0100
0000
0010
0000
0001
0000
0000
0000
,
0000
0000
0101
0000
0000
0001
0000
0000
1100
0000
0000
1000
0000
0000
0010
0000
,
0100
0001
0010
0001
1000
0100
0010
0001
,
0100
0010
1000
0100
1000
0001
0100
0010
,
1000
0001
0010
0100
0010
0001
0100
0010
,
1000
0100
0010
0100
1000
0001
0100
0001
,
0020
0000
0000
0000
0000
0000
0000
0000
0000
0000
0000
0000
0030
0000
0100
1000
,
0200
1000
0010
1300
,
0001
0100
0001
0100
0010
1000
0010
1000
,
0001
0010
0001
0000
0010
0000
0100
0000
1000
0000
0100
0000
0010
0000
0001
0000
,
2000
0000
0000
3000
,
0020
0000
0000
0030
,
0200
0000
0302
0000
,
2003
0000
0000
0000
3000
0100
0010
0001
,
0200
0000
0000
0300
,
0020
0000
0000
0030
,
2000
0000
3002
0000
,
0013
0000
0100
0000
1000
0001
1000
0000
,
0101
0000
0101
0000
0001
0010
0000
0100
,
0010
0000
0001
0100
0000
0010
1000
0000
,
1100
0000
1100
0000
1000
0100
0000
0010
,
0100
0000
1000
0010
0000
0100
0001
0000
,
0010
0001
0010
0000
0100
0010
0100
0000
,
1000
0100
1000
0000
0001
1000
0001
0000
,
0100
0010
0100
0010
1000
0001
1000
0001
,
0010
0100
1000
0001
0100
0010
1000
0001
,
0020
0000
0130
1000
,
0001
0100
0010
1000
,
0002
0000
0000
0023
0000
0000
0230
0000
,
2300
0000
3000
0000
,
0001
0100
0001
0100
0010
1000
0010
1000
,
0001
0010
0001
0010
0100
1000
0100
1000
,
0001
0000
0100
0010
0000
1000
0001
0000
,
2002
0000
0000
3003
0000
0000
0000
0000
,
0001
1000
0001
1000
0001
0000
0000
0000
1000
0000
0010
0000
0100
0000
0001
0000
,
0100
0010
1000
0001
0010
0100
1000
0000
,
0001
0100
1000
0100
0001
0010
0001
0000
,
1000
0100
0001
0100
1000
0010
1000
0000
,
1000
0001
1000
0001
1000
0000
0000
0000
0100
0000
0010
0000
0001
0000
0100
0000
,
0010
1000
0001
0010
0100
1000
0001
0000
,
0110
0000
1000
0001
0000
0010
0100
0000
,
0010
1001
0000
0001
0100
0010
1000
0000
,
0010
0100
0010
0100
0010
0000
0000
0000
1000
0000
0001
0000
0010
0000
0100
0000
,
0010
0001
1000
0001
0100
0010
1000
0000
,
0100
0001
0100
0010
0001
1000
0010
0000
,
0100
0001
1000
0010
0001
0010
0100
0000
,
0010
0100
0010
0100
0010
0000
0000
0000
1000
0000
0001
0000
0010
0000
0100
0000
,
1000
0001
0100
0010
1000
0100
0010
0001
,
0100
0100
0010
0010
1000
1000
0001
0001
,
0020
0000
0000
0030
0000
0000
0000
0000
,
0100
1000
0100
0000
1000
0000
0001
0000
0100
0000
0010
0000
0000
0000
0000
0000
,
0100
0001
0100
0000
0010
0000
1000
0000
0001
0000
0010
0000
0000
0000
0000
0000
,
0100
0010
0100
0000
0010
0000
0001
0000
1000
0000
0010
0000
0000
0000
0000
0000
,
0100
0001
0100
0000
0001
0000
0000
0000
1000
0100
1000
0000
0001
0000
0100
0000
,
0010
0010
1000
0000
1000
0001
1000
0001
,
0010
0010
0001
0000
0001
1000
0001
1000
,
0010
0010
0100
0000
0001
0001
1000
0000
,
0100
0010
0100
0000
0010
0000
0001
0000
1000
0000
0010
0000
0100
0000
0001
0000
;

//--------------- dance-single - forcednature ----------------
#NOTEDATA:;
#STEPSTYPE:dance-single;
#DESCRIPTION:forcednature;
#DIFFICULTY:Hard;
#METER:17;
#RADARVALUES:0,0,0,0,0;
#CREDIT:forcednature;
#NOTES:
0000
0000
0000
0000
,
0000
0000
0000
0000
,
0000
0000
0000
0000
,
0000
0000
0000
0000
,
0000
0000
0000
0000
,
1000
0100
1000
0010
0100
0001
0010
0001
,
1000
0010
1000
0010
0100
0001
0100
0001
1000
0100
1000
0100
0010
0001
0010
0001
,
1000
0010
0100
0001
0100
0010
1000
0001
1000
0100
0010
0001
0010
0100
1000
0001
,
0200
0000
0000
0000
0000
0000
0310
1000
0001
0000
0000
0000
0011
0000
0000
0000
,
1000
0100
0000
1000
0010
0000
0100
0001
1000
0000
1100
0000
0000
0000
0100
0000
,
0010
0001
0000
0100
0001
0000
1000
0100
0010
0000
0011
0000
0000
0000
1000
0000
,
0001
0100
0000
0010
1000
0000
0100
0010
0100
0000
0011
0000
0000
0000
1000
0000
,
0001
0010
0000
0100
1000
0000
0010
0100
0001
0000
1001
0000
0000
0000
1000
0000
,
0010
0100
0000
0001
0010
0000
0100
1000
0001
0000
0101
0000
0000
0000
1000
0000
,
0100
0010
0000
0100
1000
0000
0001
0010
0100
0000
0110
0000
0000
0000
0010
0000
,
0001
1000
0000
0010
1000
0000
0100
1000
0001
0000
0100
0010
1000
0000
0001
0000
,
0021
1000
1000
0230
,
1300
0010
0100
0002
0003
0001
0100
0010
,
1000
0100
0010
0002
0003
0001
0010
0100
,
1000
0001
0010
2000
3000
1000
0010
0001
,
1000
0010
0100
1000
0001
0010
0100
0001
,
1000
0100
0001
0200
0300
0100
0010
0001
,
1000
0010
0001
0020
0030
0010
0100
0001
,
0010
0001
0010
0001
0100
0001
0100
0001
1000
0100
1000
0100
1000
0010
1000
0010
,
0200
0000
0000
0310
,
0100
0001
0100
0010
1000
0000
0001
0010
0100
0000
0110
0000
0000
0000
0000
0000
,
0010
0001
0010
0100
1000
0000
0001
1000
0010
0000
0110
0000
0000
0000
0000
0000
,
0100
0001
1000
0001
0010
0000
0100
1000
0001
0000
0101
0000
0000
0000
0000
0000
,
0100
0010
1000
0010
0100
0000
0000
0000
0001
0000
0000
0000
0010
0100
1000
0001
,
0100
0010
0100
0010
1000
0000
0000
0000
0001
0000
0010
0000
0100
0000
0000
0000
,
0010
0001
1000
0000
1000
0010
0100
0000
0100
0001
1000
0000
1000
0100
0010
0000
,
0001
0010
0100
1000
0001
0000
0100
0010
1000
0000
0001
0000
0010
0100
1000
0100
,
0000
0000
0011
0000
0000
0101
0000
0000
1100
0000
0000
1010
0000
0000
0010
0100
,
0001
0100
0010
1000
0001
0000
0010
0100
1000
0000
1010
0000
0000
0000
0010
0000
,
0100
0001
1000
0001
0010
0000
0100
1000
0001
0000
0101
0000
0000
0000
0100
0000
,
0010
1000
0100
1000
0001
0000
0010
0100
1000
0000
1010
0000
0000
0000
0010
0000
,
0100
0001
1000
0001
0010
0000
0000
0000
0100
0000
0000
0000
1000
0010
0100
0001
,
1000
0100
0010
0001
0010
0000
0000
0000
0100
0000
1100
0000
0000
0000
1000
0001
,
0100
0001
0100
0010
1000
0001
1000
0010
1000
0100
0010
0100
1000
0001
0010
0001
,
0100
0010
0100
0010
1000
0100
1000
0000
0100
0010
0100
0010
0001
0100
0001
0000
,
1000
0010
0100
0010
1000
0001
0100
0001
0010
0100
1000
0100
0010
0001
1000
0001
,
0200
0000
0000
0300
,
0020
0000
0000
0030
,
2000
0000
3002
0000
,
0023
0000
0000
0000
0000
0130
1000
0001
,
0200
0000
0000
0300
,
0020
0000
0000
0030
,
2000
0000
3002
0000
,
0013
0000
0010
0000
0100
0000
1000
0001
0010
0001
0010
0000
0100
0000
0000
0000
,
1100
0000
0000
0000
1100
0000
0000
0000
0001
0010
0100
0000
0010
0000
0001
0100
,
0010
0000
0100
0000
0001
0010
0100
0010
0001
0000
0001
0000
1000
0000
0010
0000
,
0101
0000
0000
0000
0101
0000
0000
0000
1000
0010
0100
0000
0010
0000
1000
0100
,
0010
0000
0100
0000
1000
0010
0100
0010
1000
0001
1000
0001
0010
0000
0100
0000
,
0011
0000
0000
0000
0011
0000
0000
0000
1000
0100
0010
0100
1000
0000
0001
0100
,
0010
0100
0001
0000
1000
0010
0100
0010
1000
0001
1000
0001
0010
0000
0100
0000
,
1000
0010
1000
0010
0100
0000
0001
0000
0010
0000
0100
0000
1000
0000
1000
0001
,
0100
0000
0010
0000
1000
0100
1000
0100
0010
0001
0010
0001
1000
0100
0010
0001
,
0100
0000
0100
0000
0010
0000
0010
1000
,
0001
0000
0001
0000
0010
0000
0010
0100
,
1000
0000
1000
0000
0001
0000
0001
0100
,
0010
0010
1000
1000
,
0001
0010
0001
0100
0010
1000
0100
1000
,
0001
0000
0100
0000
0001
0000
0010
0000
0100
0000
1000
0000
0010
0000
1000
0001
,
0010
0000
0100
1001
0000
0010
0110
0000
,
2002
0000
0000
3003
0000
0001
0100
0010
,
1000
0010
0100
0010
1000
0010
0100
0010
1000
0000
0100
0010
0001
0000
1000
0000
,
0010
0100
0010
0000
1000
0100
1000
0000
0001
0100
0001
1000
0010
0000
1000
0000
,
0001
0010
0100
0010
0001
0000
1000
0010
0100
0010
1000
0000
0001
1000
0100
1000
,
0001
0010
0001
1000
0010
0000
0000
0000
0100
0000
0001
0100
0001
0000
1000
0000
,
0100
0010
0001
0010
0100
0010
0001
0010
0100
0000
1000
0001
0100
0000
0010
0000
,
0100
0001
0100
0000
0001
0010
0001
0000
1000
0010
1000
0000
0100
0000
0010
0000
,
1100
0000
0001
0000
0010
0000
0101
0000
1000
0000
0010
0000
0110
0000
0100
0001
,
1000
0000
1100
0000
0000
0000
0001
0000
0100
0010
0100
0010
1000
0000
1000
0000
,
0001
0100
0010
0100
0001
0100
0010
0100
0001
0000
0100
0010
1000
0000
0001
0000
,
1000
0100
1000
0000
0100
0010
0100
0000
0010
0001
0010
0000
0100
0000
1000
0000
,
0001
0100
0010
0100
0001
0000
1000
0100
0010
0100
1000
0000
0001
0010
0001
1000
,
0100
1000
0001
1000
0100
0000
0000
0000
0010
0000
0001
1000
0001
0000
0100
0000
,
0010
1000
0100
1000
0010
1000
0100
1000
0010
0000
1000
0001
0010
0000
0100
0000
,
1000
0010
1000
0010
0100
0001
0100
0000
0001
0010
0001
0010
0100
1000
0100
0000
,
0010
0001
0010
0001
1000
0010
1000
0010
0100
0001
1000
0100
0010
0001
0100
0010
,
2000
0000
0000
3000
0000
0000
0000
0000
,
0001
0010
0100
1000
0001
0000
0100
0010
1000
0000
1100
0000
0000
0000
0001
0000
,
1000
0010
0100
0001
1000
0000
0100
0010
0001
0000
0101
0000
0000
0000
1000
0000
,
0010
0100
0001
0010
0100
0000
0010
0001
1000
0000
1010
0000
0000
0000
0001
0000
,
0010
0100
1000
0010
0100
0000
0001
0000
1000
0100
0010
0000
0001
1000
0010
0100
,
0001
0000
0001
0000
1000
0100
1000
0100
0010
0100
0010
0100
0010
0001
0010
0001
,
1000
0000
1000
0000
0001
0100
0001
0100
0010
0100
0010
0100
0010
1000
0010
1000
,
0001
0000
0001
0000
1000
0100
0010
0001
1000
0000
1000
0000
0001
0100
0010
1000
,
0001
0010
0001
0100
0010
1000
0100
1000
0001
0010
0100
1000
0010
0100
0001
1000
;

//--------------- dance-double - forcednature ----------------
#NOTEDATA:;
#STEPSTYPE:dance-double;
#DESCRIPTION:forcednature;
#DIFFICULTY:Easy;
#METER:8;
#RADARVALUES:0,0,0,0,0;
#CREDIT:forcednature;
#NOTES:
00000000
00000000
00000000
00000000
,
00000000
00000000
00000000
00000000
,
00000000
00000000
00000000
00000000
,
00000000
00000000
00000000
00000000
,
00000000
00000000
00000000
00000000
,
00010000
00000100
00010000
00001000
,
01000000
00001000
00010000
00000010
,
00010000
00001000
00100000
00001000
,
00022000
00000000
00033000
00000000
,
00010000
00000100
00001000
00000000
,
00000001
00000010
00000100
00000000
,
00001000
00000100
00010000
00000000
,
00001000
01000000
00010000
01000000
,
00100000
10000000
00010000
00000000
,
00100000
01000000
10000000
00000000
,
01000000
00010000
00001000
00000000
,
00022000
00000000
00000000
00033000
,
00010000
00000100
00000000
00010000
,
00001000
01000000
00000000
00001000
,
00010000
00000010
00000000
00010000
,
00001000
00100000
00010000
00100000
,
00001000
00010000
00000000
00000100
,
00001000
00000100
00000000
00010000
,
00001000
01000000
00000000
00010000
,
00200000
00000000
00000000
00300000
,
01000000
10000000
00010000
00100000
,
00001000
00010000
00001000
00000000
,
01000000
00010000
01000000
00001000
,
00010000
00000010
00001000
00000000
,
00000001
00000010
00000100
00001000
,
00000100
00000010
00000001
00000000
,
00001000
00000010
00010000
00001000
,
00000000
00011000
00000000
00000000
00011000
00000000
00000000
00000000
,
00001000
00100000
00010000
00100000
,
00001000
00010000
00000100
00000000
,
00001000
00000010
00001000
00000001
,
00000100
00000001
00000010
00000000
,
00000110
00000100
00000000
00010000
,
00011000
00001000
00000000
01000000
,
01100000
00100000
00100000
10000000
,
00010000
00100000
01000000
10000000
,
00020000
00000000
00000000
00030000
,
02000000
00000000
00000000
03000000
,
00002000
00000000
00000000
00003000
00020000
00000000
00000000
00030000
,
00000020
00000000
00000000
00000000
00000030
00001000
00000000
00000000
,
00000002
00000000
00000000
00000003
,
00000020
00000000
00000000
00000030
,
00000200
00000000
00000000
00000300
00020000
00000000
00000000
00030000
,
00001000
00000000
00010000
00001000
00010000
00000000
00001000
00000000
,
00011000
00000000
00001000
01000000
,
00010000
01000000
00001000
00010000
,
00011000
00000000
00010000
00000100
,
00001000
00000100
00010000
00001000
,
00011000
00000000
00001000
00100000
,
00010000
00100000
00001000
00010000
,
00011000
00000000
00010000
00000010
,
00001000
00000010
00000100
00000001
,
00002002
00000000
00003003
00000000
,
00001000
00000000
00000100
00000000
,
00010000
00000000
00001000
00000000
,
00100000
00000000
00000000
00000000
,
00010000
00010000
01000000
00010000
,
10000000
10000000
01000000
10000000
,
00100000
00000000
00000000
01100000
00000000
00000000
01000000
00000000
,
20020000
00000000
30030000
00000000
,
00010000
10000000
00010000
00000000
01000000
00000000
00001000
00000000
,
00010000
00000100
00001000
00000001
,
00000100
00000010
00001000
00000001
,
00002002
00000000
00003003
00000000
,
00000001
00001000
00000001
00000000
00000100
00000000
00000010
00000000
,
00001000
00000100
00010000
00001000
,
00011000
00000000
00000000
00100000
00000000
00000000
00001000
00000000
,
00010000
00001000
00000000
00010000
00000000
00010000
00000000
00000000
,
00000010
00001000
00000010
00000000
00000100
00000000
00000001
00000000
,
00001000
00000100
00010000
00001000
,
01000000
00010000
00100000
01000000
,
20020000
00000000
30030000
00000000
,
10000000
00010000
10000000
00000000
00010000
00000000
01000000
00000000
,
00001000
00010000
00000010
00001000
,
00000100
00000000
00000010
00000100
00000010
00000000
00000100
00000000
,
00002002
00000000
00000000
00003003
,
00001000
00000100
00010000
00011000
,
00001000
01000000
00010000
10010000
,
10000000
01000000
00100000
01100000
,
01000000
10000000
00010000
01000000
,
00001000
00010000
00001000
00000000
00100000
00000000
00001000
00000000
,
00010000
00001000
00010000
00000000
00000010
00000000
00010000
00000000
,
00001000
00010000
00001000
00000000
00010000
00001000
00010000
00000000
,
00000100
00001000
00000001
00000010
;

//--------------- dance-double - forcednature ----------------
#NOTEDATA:;
#STEPSTYPE:dance-double;
#DESCRIPTION:forcednature;
#DIFFICULTY:Medium;
#METER:14;
#RADARVALUES:0,0,0,0,0;
#CREDIT:forcednature;
#NOTES:
00000000
00000000
00000000
00000000
,
00000000
00000000
00000000
00000000
,
00000000
00000000
00000000
00000000
,
00000000
00000000
00000000
00000000
,
00000000
00000000
00000000
00000000
,
00010000
00000000
00001000
00000000
01000000
00010000
01000000
00000000
,
00001000
00000000
00010000
00000000
00000100
00001000
00000100
00000000
,
00010000
00001000
00100000
00001000
00010000
00001000
01000000
00001000
,
00200000
00000000
01300000
01100000
,
01000000
10000000
00010000
00100000
00001000
00000000
00010000
00000000
,
00000010
00001000
00000001
00000100
00000010
00000000
00001000
00000000
,
00000100
00010000
00001000
00100000
00001000
00000000
00010000
00000000
,
00000010
00001000
00000001
00000100
00000010
00000000
00001000
00000000
,
00000100
00010000
00001000
01000000
00010000
00000000
00100000
00000000
,
01000000
10000000
01000000
00100000
00010000
00000000
01000000
00000000
,
00001000
00010000
00000010
00001000
00000001
00000000
00000100
00000000
,
00002002
00000000
00000000
00003003
,
00000001
00000000
00000100
00000001
00000000
00000100
00001000
00000000
,
00010000
00000000
00001000
00010000
00000000
01000000
10000000
00000000
,
00010000
00000000
00100000
00010000
00000000
00100000
00001000
00000000
,
00010000
00000010
00001000
00000000
00000010
00010000
00001000
00000000
,
01000000
00010000
10000000
00100000
00000000
10000000
00010000
00000000
,
00100000
01000000
10000000
01000000
00000000
00100000
00010000
00000000
,
00100000
00001000
00010000
00000100
00001000
00000100
00010000
00000010
,
00002000
00000000
00000000
00003000
,
00000001
00000100
00001000
00000100
00000001
00001000
00000000
00000010
,
00010000
00001000
00100000
00010000
00100000
00001000
00000000
00010000
,
00100000
01000000
00100000
10000000
00010000
00100000
00000000
01000000
,
00010000
00001000
00100000
00001000
00010000
00000000
01000000
10000000
,
00010000
00000000
00100000
00001000
00010000
00000010
00001000
00010000
,
01000000
00010000
00100000
00010000
00001000
00000100
00001000
00000010
,
00010000
00000000
00001000
00000010
00000001
00000100
00000001
00000010
,
00000000
00000000
00000110
00000000
00000000
00010100
00000000
00000000
00011000
00000000
00000000
00101000
00000000
00000000
00100000
00000000
,
01000000
10000000
00010000
01000000
10000000
11000000
00000000
01000000
,
00010000
10000000
00010000
00100000
00001000
00011000
00000000
00010000
,
00000010
00001000
00000100
00000001
00000100
00001100
00000000
00001000
,
00000010
00010000
00001000
01000000
00010000
00000000
00100000
01000000
,
00020000
00000100
00001000
00000010
,
00032000
01000000
00010000
00100000
,
00013000
00000100
00001000
00000100
00010000
00001000
01000000
00010000
,
00100000
01000000
00010000
01000000
00100000
00001000
00010000
00000100
,
00002000
00000000
00000000
00003000
,
00000002
00000000
00000000
00000003
,
00000200
00000000
00000000
00000300
00002000
00000000
00000000
00003000
,
00020000
00000000
00000000
00000000
00030000
00100000
01000000
00010000
,
20000000
00000000
00000000
30000000
,
02000000
00000000
00000000
03000000
,
00020000
00000000
00000000
00030000
00002000
00000000
00000000
00003000
,
00000010
00000010
00000100
00000000
00000110
00000000
00001000
00000001
,
00000100
00000000
00000101
00000000
00001010
00000000
00000001
00000010
,
00001000
00000000
00000010
00000001
00001000
00000100
00001000
00000010
,
00010000
00000000
00010100
00000000
00101000
00000000
00001000
00100000
,
00010000
00000000
01000000
00001000
00010000
00010000
00001000
00100000
,
00010000
00000000
01010000
00000000
10100000
00000000
10000000
01000000
,
00010000
00000000
01000000
10000000
00010000
00100000
00001000
00010000
,
00000010
00000000
00001010
00000000
00010010
00000000
00000010
00001000
,
00000001
00000100
00000001
00000100
00000010
00001000
00010000
01000000
,
00200000
10000000
10300000
00100000
,
01000000
00001000
00010000
00000010
,
00001000
00001000
00000100
00001000
,
00000001
00000001
00000100
00000001
,
00000010
00000100
00000010
00000100
00010000
00001000
00010000
00001000
,
00100000
00000000
01000000
00000000
00100000
00000000
01000000
00000000
10000000
00000000
00010000
00000000
10000000
00000000
00010000
10000000
,
00010000
00000000
00000000
01100000
00000000
00000000
00100000
00000000
,
20020000
00000000
00000000
30030000
00000000
00000000
00000000
00000000
,
10000000
00010000
10000000
00010000
10000000
00000000
00000000
00000000
00010000
00000000
01000000
00000000
00001000
00000000
00010000
00000000
,
00000010
00010000
00001000
00000010
00000100
00001000
00000001
00000100
,
00000110
00000000
00000010
00001000
00000001
00001000
00000100
00000000
,
00000110
00000000
00000100
00010000
00001000
00100000
00001000
00000000
,
00010000
00001000
00010000
00001000
00010000
00000000
00000000
00000000
00000010
00000000
00001000
00000000
00000001
00000000
00000100
00000000
,
00000001
00001000
00000100
00000010
00000100
00010000
00001000
00000000
,
00011000
00000000
00010000
00100000
01000000
00100000
10000000
00000000
,
01000000
01100000
00000000
00100000
00001000
00010000
00000100
00000000
,
00010000
00001000
00010000
00001000
00010000
00000000
00000000
00000000
00001000
00000000
01000000
00000000
00010000
00000000
01000000
00000000
,
00100000
10000000
00010000
10000000
01000000
00010000
00001000
00000000
,
00011000
00000000
00010000
00000010
00001000
00000001
00000010
00000000
,
00000110
00000000
00000100
00010000
00001000
00100000
00010000
00000000
,
10000000
00010000
10000000
00010000
10000000
00000000
00000000
00000000
00100000
00000000
01000000
00000000
00010000
00000000
01000000
00000000
,
00001000
00010000
00001000
00100000
00010000
00100000
00001000
00000000
,
00010000
00000000
00000010
00000000
00000010
00000000
00001000
00000000
00000010
00000000
00000010
00000000
00000100
00000000
00000001
00000100
,
00000020
00000000
00000000
00000030
,
00001000
00000001
00000100
00001000
00010000
00011000
00000000
00001000
,
00100000
00010000
10000000
00100000
10000000
11000000
00000000
01000000
,
00010000
00001000
00100000
00010000
00100000
00110000
00000000
00010000
,
01000000
00001000
00010000
00000100
00001000
00000100
00010000
00000000
,
00001000
00000010
00000001
00000100
00000001
00000010
00001000
00000000
,
00010000
00100000
10000000
01000000
10000000
00100000
00010000
00000000
,
00001000
00001000
01000000
00001000
00010000
00010000
00000100
00010000
,
00001000
00000010
00000100
00000010
00000001
00000100
00001000
00010000
;

//--------------- dance-double - forcednature ----------------
#NOTEDATA:;
#STEPSTYPE:dance-double;
#DESCRIPTION:forcednature;
#DIFFICULTY:Hard;
#METER:17;
#RADARVALUES:0,0,0,0,0;
#CREDIT:forcednature;
#NOTES:
00000000
00000000
00000000
00000000
,
00000000
00000000
00000000
00000000
,
00000000
00000000
00000000
00000000
,
00000000
00000000
00000000
00000000
,
00000000
00000000
00000000
00000000
,
00001000
00010000
00001000
01000000
00010000
01000000
00001000
00010000
,
00000100
00001000
00000100
00010000
00001000
00100000
00010000
00100000
,
00001000
00010000
00001000
00010000
00001000
00010000
00001000
00010000
00001000
00010000
00001000
00010000
00001000
00010000
00001000
00010000
,
00000020
00000000
00000000
00000000
00000000
00000000
00000130
00000010
00000100
00000000
00000000
00000000
00001001
00000000
00000000
00000000
,
00000001
00000100
00000000
00000001
00000010
00000000
00001000
00000000
00010000
00000000
00011000
00000000
00000000
00000000
00001000
00000000
,
00100000
00010000
00000000
00100000
01000000
00000000
10000000
00000000
00010000
00000000
01010000
00000000
00000000
00000000
00001000
00000000
,
00010000
00000010
00000000
00001000
00000010
00000000
00010000
00000000
00001000
00000000
00101000
00000000
00000000
00000000
00100000
00000000
,
00010000
01000000
00000000
00100000
01000000
00000000
00010000
00000000
10000000
00000000
10100000
00000000
00000000
00000000
00100000
00000000
,
00010000
00001000
00000000
00010000
00000100
00000000
00001000
00000000
00000001
00000000
00000011
00000000
00000000
00000000
00000010
00000000
,
00000100
00001000
00000000
00000100
00010000
00000000
00001000
00000000
00100000
00000000
00110000
00000000
00000000
00000000
00010000
00000000
,
01000000
00001000
00000000
00010000
00001000
00000000
00010000
00000000
00000100
00000000
00001100
00000000
00000000
00000000
00000001
00000000
,
00000021
00000000
00000000
00000000
00001000
00000000
00000000
00000000
00000001
00000000
00000000
00000000
00000130
00000010
00000100
00000010
,
00000100
00001000
00000100
00020000
00000000
00031000
00100000
00010000
,
01000000
00010000
01000000
00002000
00000000
00013000
00000010
00001000
,
00000100
00001000
00000100
00020000
00000000
00031000
00100000
00010000
,
01000000
00001000
00010000
00100000
10000000
01000000
00010000
00001000
,
00000010
00000100
00010000
00000020
00000000
00001030
00000001
00000100
,
00001000
00010000
00100000
02000000
00000000
03010000
10000000
00100000
,
10000000
01000000
10000000
01000000
10000000
01000000
10000000
01000000
00100000
00010000
00100000
00010000
00100000
00010000
00100000
00010000
,
02000000
00000000
00000000
03000000
,
00001000
00010000
00001000
00100000
00010000
00000000
00100000
00000000
00001000
00000000
00011000
00000000
00000000
00000000
00010000
00000000
,
00000010
00001000
00000010
00000100
00000001
00000000
00001000
00000000
00000100
00000000
00001100
00000000
00000000
00000000
00001000
00000000
,
00000010
00001000
00000010
00010000
00001000
00000000
00100000
00000000
00010000
00000000
01010000
00000000
00000000
00000000
10000000
00000000
,
00100000
10000000
00100000
01000000
00010000
00000000
10000000
00000000
01000000
00000000
00000000
00000000
00010000
00001000
00010000
00000100
,
00001000
00000000
00000100
00000010
00000001
00000000
00001000
00000000
00000010
00000000
00000100
00000000
00000001
00000000
00000000
00000000
,
00000100
00001000
00000100
00000000
00001000
00000000
00010000
00000000
00100000
00010000
00100000
00000000
00010000
00000000
00001000
00000000
,
01000000
00010000
01000000
00001000
00010000
00000000
00000100
00000000
00001000
00000000
00000001
00000010
00000001
00001000
00000100
00000010
,
00000000
00000000
00000101
00000000
00000000
00001010
00000000
00000000
00010010
00000000
00000000
00011000
00000000
00000000
00001000
00010000
,
00001000
01000000
00010000
01000000
00001000
00000000
00010000
00000000
00001000
00000000
00101000
00000000
00000000
00000000
00100000
00000000
,
00010000
01000000
00010000
10000000
00100000
00000000
10000000
00000000
01000000
00000000
01100000
00000000
00000000
00000000
00100000
00000000
,
00001000
00010000
00000100
00001000
00000100
00000000
00010000
00000000
00001000
00000000
00010010
00000000
00000000
00000000
00000010
00000000
,
00001000
00000001
00000100
00000001
00001000
00000000
00000010
00000000
00011000
00000000
00000000
00000000
00100000
00010000
00100000
01000000
,
10000000
00000000
00000000
00000000
01000000
00000000
00010000
00000000
00001000
00000000
00000010
00000000
00000001
00000000
00001000
00000100
,
00000010
00000000
00000001
00000000
00000100
00000001
00000100
00000000
00001000
00000000
00010000
00000000
00001000
00100000
00001000
00000000
,
00010000
00001000
00010000
00001000
00010000
00001000
00010000
00001000
01000000
00010000
01000000
00010000
01000000
00010000
01000000
00010000
,
10000000
01000000
00100000
01000000
10000000
00010000
00100000
00010000
00100000
00001000
00010000
00001000
00010000
00000100
00001000
00000100
,
00000020
00000000
00000000
00000030
,
00000002
00000000
00000000
00000003
,
00000200
00000000
00000000
00000300
00002000
00000000
00000000
00003000
,
00020000
00000000
00000000
00000000
00030000
00100000
01000000
00010000
,
20000000
00000000
00000000
30000000
,
02000000
00000000
00000000
03000000
,
00020000
00000000
00000000
00030000
00002000
00000000
00000000
00003000
,
00000010
00000000
00000010
00000000
00000100
00000000
00000010
00000001
00001000
00000100
00000010
00000000
00000001
00000000
00000100
00000001
,
00001000
00000000
00001010
00000000
00000010
00010000
00001000
00000010
,
00001000
00010000
00100000
01000000
00001000
00010000
01000000
10000000
,
00010000
00000000
00110000
00000000
00100000
01000000
00010000
01000000
,
00100000
00001000
00000010
00001000
00010000
00010000
00000100
00001000
,
00000002
00000000
00000013
00000000
00000001
00000100
00001000
00000100
,
00000001
00001000
00000010
00010000
00001000
01000000
00010000
10000000
,
00200000
00000000
01300000
00010000
20000000
00000000
31000000
00010000
,
00001000
00010000
00001000
00010000
00000100
00001000
00000100
00001000
00000001
00000010
00000100
00001000
00000100
00000010
00000001
00001000
,
00000020
00000000
00000000
00000000
00000030
00000100
00001000
00010000
,
00001000
01000000
00010000
01000000
00001000
00010000
00001000
00100000
,
00020000
00000000
00000000
20030000
00000000
00000000
30200000
00000000
,
02300000
00000000
00000000
03000000
,
20020000
00000000
00000000
00000000
00000000
00000000
00000000
30030000
00000000
00000000
10000000
00000000
01000000
00000000
00010000
00000000
,
00001000
00000000
00000100
00000000
00000001
00000000
00000010
00000000
00000100
00000000
00000010
00000000
00000001
00000000
00001000
00000001
,
00000100
00000000
00000000
00000110
00000000
00000000
00011000
00000000
,
02200000
00000000
00000000
03300000
00000000
00000000
00000000
00000000
,
00001000
00010000
00000100
00010000
00001000
00010000
00000100
00010000
00001000
00000000
00100000
00000000
00010000
00000000
10000000
00000000
,
00100000
00010000
00001000
00000100
00000001
00001000
00000010
00001000
,
00000001
00000010
00000100
00000010
00000001
00000000
00001000
00000100
00000010
00000100
00001000
00000000
00000010
00000000
00010000
00001000
,
00010000
00001000
01000000
00010000
00100000
01000000
01100000
00000000
,
00010000
00001000
01000000
00001000
00010000
00001000
01000000
00001000
00010000
00000000
00000010
00000000
00001000
00000000
00000001
00000000
,
00000010
00001000
00010000
01000000
00100000
00001000
00010000
00100000
,
01100000
00000000
01000000
10010000
00000000
00100000
01100000
00000000
,
00010000
00000000
00011000
00000000
00000000
00000000
00001000
00000000
00000010
00000000
00000100
00000010
00000100
00000000
00001000
00000000
,
00000010
00010000
00001000
00010000
00000010
00010000
00001000
00010000
00000010
00000000
00001000
00000000
00000001
00000000
00000100
00000000
,
00001000
00010000
00100000
10000000
00010000
00100000
01000000
10000000
,
00010000
00100000
01000000
00100000
00010000
00000000
00100000
00001000
00010000
00001000
00100000
00000000
00001000
00000000
00010000
00000000
,
00000010
00001000
00000010
00000000
00000100
00000000
00000001
00000000
00001000
00000000
00000100
00000000
00010100
00000000
00000000
00000000
,
00100000
00001000
00010000
00001000
00100000
00001000
00010000
00001000
00100000
00000000
00010000
00000000
01000000
00000000
00100000
00000000
,
10000000
01000000
00010000
00001000
00000010
00000001
00000100
00000010
,
00001000
00000001
00000100
00000001
00001000
00000000
00000001
00001000
00000010
00001000
00000001
00000000
00000010
00000100
00001000
00000100
,
00020000
00000000
00000000
00030000
,
00001000
00100000
00010000
00100000
01000000
00000000
10000000
00000000
00010000
00000000
01010000
00000000
00000000
00000000
01000000
00000000
,
00001000
00010000
00000100
00010000
00001000
00000000
00000010
00000000
00000100
00000000
00001100
00000000
00000000
00000000
00000001
00000000
,
00000010
00000100
00001000
00000100
00000010
00000000
00000001
00000000
00001000
00000000
00001010
00000000
00000000
00000000
00000010
00000000
,
00010000
00001000
00010000
00000100
00010000
00000000
00001000
00000000
01000000
00000000
00010000
00000000
10000000
01000000
00100000
00010000
,
10000000
00000000
10000000
00000000
00010000
01000000
00010000
01000000
00001000
00010000
00001000
00010000
00000010
00001000
00000010
00001000
,
00000001
00000000
00000001
00000000
00001000
00000100
00001000
00000100
00010000
00001000
00010000
00001000
00100000
00010000
00100000
00010000
,
10000000
00000000
10000000
00000000
00010000
01000000
00001000
00010000
00000010
00000000
00000010
00000000
00001000
00000100
00010000
00001000
,
00100000
00010000
00100000
00001000
00010000
00001000
01000000
00010000
01000000
00001000
00010000
00000010
00001000
00000010
00000100
00000001
;
