#VERSION:0.83;
#TITLE:Highcharge Divolt;
#SUBTITLE:;
#ARTIST:HuΣeR;
#TITLETRANSLIT:;
#SUBTITLETRANSLIT:;
#ARTISTTRANSLIT:;
#GENRE:BEMANIZED DIGITAL ROCK;
#CREDIT:;
#MUSIC:Highcharge Divolt.ogg;
#BANNER:Highcharge Divolt.png;
#BACKGROUND:Highcharge Divolt-bg.png;
#CDTITLE:./CDTitles/bm IIDX 23 copula.png;
#SAMPLESTART:73.929;
#SAMPLELENGTH:15.000;
#SELECTABLE:YES;
#OFFSET:0.446;
#BPMS:0.000=200.000;
#STOPS:;
#TIMESIGNATURES:0.000=4=4;
#BGCHANGES:0.000=Highcharge Divolt.mp4=1.000=0=0=0=StretchNoLoop====,
99999.000=-nosongbg-=1.000=0=0=0=StretchNoLoop====
;
#FGCHANGES:;

//--------------- dance-single - forcednature ----------------
#NOTEDATA:;
#STEPSTYPE:dance-single;
#DESCRIPTION:forcednature;
#DIFFICULTY:Beginner;
#METER:1;
#RADARVALUES:0,0,0,0,0;
#CREDIT:forcednature;
#NOTES:
0000
0000
0000
0000
,
0000
0000
0000
0000
,
0000
0000
0000
0000
,
0000
0000
0000
0000
,
0000
0000
0000
0000
,
0000
0000
0000
0000
,
0001
0000
0000
0000
,
0000
0000
0000
0000
,
0001
0000
0000
0000
,
0000
0000
0000
0000
,
1000
0000
0000
0000
,
0000
0000
0000
0000
,
0000
0000
0000
0000
,
0000
0000
0000
0000
,
0010
0000
0000
0000
,
0000
0000
0000
0000
,
0000
0000
0000
0000
,
0000
0000
0000
0000
,
0100
0000
0000
0000
,
0000
0000
0000
0000
,
0100
0000
0000
0000
,
0000
0000
0000
0000
,
0001
0000
0000
0000
,
0000
0000
0000
0000
,
0010
0000
0000
0000
,
0000
0000
0000
0000
,
0100
0000
0000
0000
,
0000
0000
0000
0000
,
1000
0000
0000
0000
,
0000
0000
0000
0000
,
0010
0000
0000
0000
,
0000
0000
0000
0000
,
1000
0000
0000
0000
,
0000
0000
0000
0000
,
0001
0000
0000
0000
,
0000
0000
0000
0000
,
0010
0000
0000
0000
,
0000
0000
0000
0000
,
0001
0000
0000
0000
,
0000
0000
0000
0000
,
0100
0000
0000
0000
,
0100
0000
0000
0000
,
0010
0000
0000
0000
,
0000
0000
0000
0000
,
1000
0000
0000
0000
,
0000
0000
0000
0000
,
0001
0000
0000
0000
,
0000
0000
0000
0000
,
0100
0000
0000
0000
,
0000
0000
0000
0000
,
0001
0000
0000
0000
,
0000
0000
0000
0000
,
0010
0000
0000
0000
,
0000
0000
0000
0000
,
0100
0000
0000
0000
,
0000
0000
0000
0000
,
1000
0000
0000
0000
,
0010
0000
0000
0000
,
0100
0000
0000
0100
,
0000
0000
0000
0000
,
0001
0000
0000
0001
,
0000
0000
0000
0000
,
1000
0000
0000
1000
,
0000
0000
1000
0000
,
0010
0000
0010
0000
,
0010
0000
0000
0000
,
0100
0000
0000
0000
,
0000
0000
0000
0000
,
0001
0000
0000
0000
,
1000
0000
0000
0000
,
0001
0000
0000
0000
,
0010
0000
0000
0000
,
0100
0000
0000
0000
,
1000
0000
0000
0000
,
0001
0000
0000
0000
,
0100
0000
0000
0000
,
0001
0000
0000
0000
,
1000
0000
0000
0000
,
0010
0000
0000
0000
,
0010
0000
0000
0000
,
1000
0000
1000
0000
,
1000
0000
0000
0000
,
0100
0000
0000
0000
,
0000
0000
0000
0000
,
0010
0000
0000
0000
,
0000
0000
0000
0000
,
0001
0000
0000
0000
,
1000
0000
0000
0000
,
0010
0000
0000
0010
,
0000
0000
0100
0000
,
0001
0000
0000
1001
;

//--------------- dance-single - forcednature ----------------
#NOTEDATA:;
#STEPSTYPE:dance-single;
#DESCRIPTION:forcednature;
#DIFFICULTY:Easy;
#METER:7;
#RADARVALUES:0,0,0,0,0;
#CREDIT:forcednature;
#NOTES:
0000
0000
0000
0000
,
0000
0000
0000
0000
,
0000
0000
0000
0000
,
0000
0000
0000
0000
,
0000
0000
0000
0000
,
0000
0000
0000
0000
,
0001
0000
0000
0001
0000
0000
0000
0000
,
1000
0000
0000
1000
0000
0000
0000
0000
,
0010
0000
0000
0010
0000
0000
0000
0000
,
0100
0001
0010
0000
,
1001
0000
0000
0000
,
0100
0000
0000
0000
,
0010
0000
0000
0000
,
0001
0000
0000
0000
,
0100
0000
0000
0000
,
0010
0000
0000
0000
,
1000
0000
0000
0000
,
0001
0000
0000
0000
,
1001
0000
0000
0000
,
1000
0000
1000
0000
,
0100
0000
0000
0000
,
0010
0000
0010
0000
,
0001
0000
0000
0000
,
0100
0000
0100
0000
,
0010
0000
1000
0000
,
0001
0000
0000
0000
,
1001
0000
0000
0000
,
1000
0000
0100
0000
,
0010
0000
0000
0000
,
0100
0000
0010
0000
,
0001
0000
0000
0000
,
0100
0000
0010
0000
,
1000
1000
1000
0000
,
0001
0001
0001
0000
,
0110
0000
0000
0000
,
1000
0000
0010
0000
,
0100
0000
0000
0000
,
0001
0000
1000
0000
,
0100
0000
0000
0000
,
0010
0000
0001
0000
,
1000
1000
0000
0010
,
0010
0000
0100
0000
,
1001
0000
0000
0000
,
0001
0000
0000
0000
,
0010
0000
0000
0000
,
0000
0000
0100
0000
,
1000
0000
0000
0010
,
0000
0000
0000
0000
,
0100
0000
0000
0001
,
0000
0000
0000
0000
,
0010
0000
0010
0000
,
0001
0000
0100
0000
,
0010
0000
0010
0000
,
1000
0000
0001
0000
,
0010
0000
0010
0000
,
0100
0000
1000
0000
,
0001
0001
0001
0000
,
0200
0000
0310
0000
,
1001
0000
0000
1000
0000
0000
0100
0000
,
0000
0100
0000
0000
1000
0000
0000
0000
,
0010
0000
0000
0010
0000
0000
0100
0000
,
0000
0001
0000
0000
0010
0000
0000
0000
,
0100
0100
1000
0100
,
0100
0010
0001
1000
,
0010
0010
0100
0100
,
0001
1000
1001
0000
,
0001
0010
0100
0010
,
0001
1000
0100
0000
,
1000
0010
0100
0001
,
0100
0010
1000
0001
,
0010
0000
0100
0000
,
1000
0000
0001
0100
,
0010
0000
0000
0010
0000
0000
1000
0000
,
0000
0001
0000
0000
0010
0000
0000
0000
,
0100
1000
0001
0010
,
0001
1000
0010
0100
,
0001
0010
0100
1000
,
0010
0100
0001
0000
,
0010
0000
0000
0010
0000
0000
0010
0000
,
0000
0010
0000
0000
0001
0000
1000
0000
,
0010
0010
0100
0100
,
0010
0100
0010
0000
0100
0000
0000
0000
,
1001
0000
0000
0000
,
1000
0000
0100
0000
,
1000
1000
0010
0000
,
0100
0000
0001
0000
,
0010
0001
0010
0001
,
1000
0100
1000
0000
,
0010
0000
0000
0100
0000
0000
0001
0000
,
0000
1000
0000
0000
0010
0000
0000
0000
,
0110
0000
0000
0110
0000
0000
2002
0000
,
0000
3003
0000
0000
0000
0000
0000
0000
;

//--------------- dance-single - forcednature ----------------
#NOTEDATA:;
#STEPSTYPE:dance-single;
#DESCRIPTION:forcednature;
#DIFFICULTY:Medium;
#METER:13;
#RADARVALUES:0,0,0,0,0;
#CREDIT:forcednature;
#NOTES:
0000
0000
0000
0000
,
0000
0000
0000
0000
,
0000
0000
0000
0000
,
0000
0000
0000
0000
,
0000
0000
0000
0000
,
0000
0000
0000
0000
,
0101
0000
0000
0101
0000
0000
0000
0000
,
1010
0000
0000
1010
0000
0000
0000
0000
,
1100
0000
0000
1100
0000
0000
0000
0000
,
0001
0010
0001
0000
0010
0001
1000
0000
,
1002
0000
0203
0000
,
0320
0000
2030
3002
,
0023
0000
0230
0000
,
2300
0000
3002
0203
,
0310
0000
0000
0010
0000
0000
1000
0000
,
0000
0001
0000
0000
0010
0000
0100
0000
,
1000
0000
0000
1000
0000
0000
0001
0000
,
0200
0320
2030
0000
,
3001
0000
0010
0001
0000
0010
0100
0000
,
1000
0100
0000
1000
0001
0000
0010
0000
,
0001
0000
0100
0001
0000
0100
0010
0000
,
1000
0010
0000
1000
0200
0000
0320
0000
,
0130
0000
1000
0001
0000
0010
0001
0000
,
1000
0010
0000
0100
0010
0000
1000
0000
,
0001
0010
0001
0000
0010
0100
0010
0000
,
0100
1000
0100
1000
0001
0010
0001
0000
,
1001
0000
0000
1000
0010
0000
0200
0000
,
0301
0000
1000
0200
0000
0310
0002
0000
,
1003
0000
0010
0100
0010
0000
0200
0000
,
0301
0000
0001
0000
0010
0100
1000
0000
,
0001
0100
0001
0100
0000
0001
1000
0000
,
0100
0010
0001
0000
0100
0010
1000
0000
,
0001
0010
0100
2000
0000
3100
1000
0010
,
0100
0002
0000
0103
0010
1000
0001
0000
,
0110
0000
1001
0000
1000
0100
0002
0000
,
0103
1000
0001
0010
0000
0001
1000
0000
,
0010
0100
0001
0000
0010
0100
1000
0000
,
0001
0100
0001
0100
0010
1000
0001
0000
,
0000
1000
0100
0010
0100
0010
0001
1000
,
0010
0100
0001
1000
0100
0010
0001
0000
,
0100
0001
0100
0010
0000
1000
0100
1000
,
0100
0010
0000
0001
1000
0010
0100
0000
,
1001
0000
0000
0000
0000
0000
0000
1000
,
2000
0000
0000
3200
0000
0320
0000
0032
,
2003
0000
0000
3000
0000
0000
0020
0000
0000
0000
0000
0000
0000
0000
0000
0000
,
0000
0030
0200
0302
,
2003
0000
0000
3200
0000
0000
0320
0000
,
0000
0000
0000
0000
0032
0000
1003
0010
,
0200
0000
0000
0302
0000
0000
0023
0000
,
0230
0000
0000
0300
,
0110
0000
0011
0000
1100
0000
0001
0010
,
0200
0000
0310
0002
0000
1003
0020
0000
,
0130
0000
0101
0000
0001
0010
0100
1000
,
0020
0000
0100
0000
1030
0001
0010
0100
,
2000
0000
3001
0002
0000
0103
0200
0000
,
0310
1000
0001
0100
0001
1000
0020
0000
,
1030
0100
1000
0100
0010
0001
0010
0001
,
1000
0010
0100
0001
0020
0000
0030
0000
,
0110
0000
0000
1100
0000
0000
0011
0000
,
0000
0110
0000
1000
0001
0000
0100
0000
,
0110
0000
0000
1010
0000
0000
0101
0000
,
0000
0110
0000
1000
0001
0010
0100
0000
,
1000
1000
0100
1000
0000
0001
0010
0010
,
0001
1000
0000
0010
0100
0001
0100
0000
,
0010
1000
0001
0100
0001
1000
0010
0000
,
0110
0000
0101
0000
0001
0010
2000
0000
,
3010
0001
1000
0100
1000
0001
0100
2000
,
0000
3100
0001
1000
0010
1000
0001
0000
,
0010
0100
1000
0010
0100
0001
0010
2000
,
0000
3010
0001
1000
0100
1000
0001
0100
,
2000
0000
3100
0001
0020
0000
1030
0010
,
0002
0000
1003
0100
0001
0001
0100
1000
,
0001
0011
0000
1000
1010
0000
0001
0101
,
0000
1000
1100
0000
0010
0100
0110
0000
,
1001
0000
1100
0000
0001
0010
0100
1000
,
0010
0100
1000
0100
0001
1000
0010
1000
,
0001
0010
0100
0001
0100
1000
0001
0010
,
0000
0001
0100
1000
0100
0001
1000
0010
,
2000
0000
3100
0002
0000
0103
2000
0000
,
3010
0002
0000
0013
1000
0000
1001
0000
,
0001
0010
0001
0100
0010
1000
0100
1000
,
0010
0010
0100
0100
0001
1000
0010
0000
,
0110
0000
0100
0001
0020
0000
0230
0000
,
1300
0001
0010
0001
0000
1000
0010
0000
,
0100
0001
0010
0001
1000
0010
1000
0000
,
0100
0010
0001
0010
0100
1000
0001
0000
,
0000
0100
0010
1000
0010
0100
1000
0100
,
0001
1000
0010
1000
0001
0010
0100
0000
,
0001
0100
1000
0001
0010
0001
1000
0010
,
0001
0000
0011
0000
0010
1000
0001
0000
,
0101
0000
0000
1100
0000
0000
2002
0000
,
0000
3003
0000
0000
0000
0000
0000
0000
;

//--------------- dance-single - forcednature ----------------
#NOTEDATA:;
#STEPSTYPE:dance-single;
#DESCRIPTION:forcednature;
#DIFFICULTY:Hard;
#METER:17;
#RADARVALUES:0,0,0,0,0;
#CREDIT:forcednature;
#NOTES:
0000
0000
0000
0000
,
0000
0000
0000
0000
,
0000
0000
0000
0000
,
0000
0000
0000
0000
,
0000
0000
0000
0000
,
0000
0000
0000
0000
,
1100
0000
0001
0011
0000
0000
1000
0000
,
0101
0000
1000
1010
0000
0002
0000
0003
,
0110
0000
0100
1001
0000
2000
0000
3000
,
0001
0000
0010
0000
0001
0000
1000
0100
1000
0100
1000
0000
0001
0000
0100
0000
,
0010
0000
0010
1000
0000
1000
0001
0000
,
0001
0010
0000
0010
0100
0000
1000
0000
,
0001
0000
0001
0100
0000
0100
0010
0000
,
0010
1000
0000
1000
0001
0010
0001
1000
,
0100
0000
0100
0001
0000
0001
0100
0000
,
0100
1000
0000
1000
0001
0000
0010
0000
,
0001
0000
0001
0100
0000
0100
1000
0000
,
0100
0000
0001
0000
1000
0000
0010
1000
0010
1000
0001
0000
0200
0000
0000
0000
,
0310
0010
1000
0001
0000
0010
0001
0000
,
1100
0000
1100
0000
0001
0010
1000
0000
,
0010
0010
0001
1000
0000
0010
0100
0000
,
0110
0000
1010
0000
0001
0100
1000
0100
,
0001
0001
1000
0010
0000
1000
0100
0100
,
1000
0001
0000
0010
0001
1000
0010
0000
,
0100
0100
0001
1000
0010
0010
1000
0000
,
0001
0010
0001
0010
0100
1000
0100
1000
0001
0010
0100
1000
0001
0000
0000
0000
,
1000
0000
0010
0000
0100
0000
0010
1000
0001
0000
0100
0000
0020
0000
0000
0000
,
1030
0001
0010
2000
0000
3010
0011
0000
,
0001
0000
0100
0000
0010
0000
0100
0010
1000
0000
1000
0000
0002
0000
0000
0000
,
0023
2030
3020
0032
2003
3200
0302
0203
,
0300
0000
1000
0100
1000
0000
0100
0010
0100
0010
0100
0000
0010
0000
0001
0000
,
1000
0000
0001
0100
0001
0000
0100
0010
0100
0010
0100
0000
0010
0000
0000
0000
,
1010
0010
0100
0201
0000
0301
0011
0010
,
0100
0000
1200
0000
0000
0000
1300
0000
0100
0010
0100
0010
0002
0000
0000
0000
,
0103
0000
0000
0000
0010
0000
1001
0000
0000
0000
1000
0100
0020
0000
0000
0000
,
0031
1000
0010
2000
0000
3100
0002
0000
,
0103
0000
1000
0000
0001
0000
0010
0001
0010
0000
0100
1000
0002
0000
0000
0000
,
0203
2300
3200
0302
2003
3020
0032
0023
,
0030
0000
1000
0010
1000
0010
0100
0001
0100
0001
1000
0010
0100
0010
1000
0001
,
1000
0100
1000
0100
0010
0100
0010
0100
1000
0001
0010
0100
1000
0000
0000
0000
,
0001
0100
1000
0200
0000
0301
1000
0100
,
0001
0000
0200
0000
0000
0000
1300
0000
0001
0100
0010
0100
0001
1000
0010
0000
,
0100
0000
0000
0000
0000
0000
0000
0001
,
0002
0000
0000
0203
0000
0320
0000
1030
,
0002
0000
0000
0003
0000
0000
0020
0000
0000
0000
0000
0000
0000
0000
0000
0000
,
0000
0030
0200
2300
,
3002
0000
0000
0203
0000
0000
0320
0000
,
0000
0000
0000
0000
2030
0000
3100
0010
,
0002
0000
0000
2003
0000
0000
3020
0000
,
0230
0000
0000
0300
,
0101
0011
0100
0011
,
2000
0000
3010
0200
0000
0301
2000
0000
,
3100
0000
1010
0000
0001
0010
0100
2000
,
0001
0001
3001
0000
2000
3200
0320
0032
,
2003
0000
0010
3020
0000
0100
0230
0000
,
0301
0010
0100
1000
0001
0100
2000
0000
,
3100
0000
0001
0000
0001
0000
1000
0000
0010
1000
0010
1000
0001
0100
0010
0100
,
0001
1000
0100
1000
0001
0010
0001
1000
0100
0010
0001
1000
0001
0000
0000
0000
,
0101
0000
0000
1010
0000
0000
1100
0000
,
0000
0011
0000
1000
0100
0001
0100
0000
,
1010
0000
0000
1100
0000
0000
0101
0000
,
0000
0011
0000
0001
0100
1000
0100
0000
,
0001
0010
0001
0010
0001
0000
0001
0000
1000
0000
0100
0000
1000
0010
1000
0010
,
1000
0000
1000
0001
0100
0000
0010
0000
1000
0000
0001
0000
0010
0001
0010
0001
,
1000
0010
0100
0010
1000
0001
0100
0001
1000
0010
0100
0001
1000
0001
0100
0010
,
2000
0000
0000
0000
3200
0000
0000
0000
0320
0000
0000
0031
0100
0000
0000
0000
,
0010
0000
1000
0000
0100
0000
1000
0000
0010
0100
0001
0100
0010
0000
2000
0000
,
0000
0000
3001
0010
0001
0000
0010
0100
0010
0000
0100
0000
1000
0000
0001
0000
,
0100
0000
0010
0000
1000
0000
0001
0000
0010
0100
1000
0100
0010
0000
0002
0000
,
0000
0000
1003
0000
0010
0000
0100
0000
0001
1000
0001
1000
0001
0000
0010
0000
,
0200
0000
0000
0000
0000
0000
0310
0001
2000
0000
0000
0000
0000
0000
3010
0100
,
0002
0000
0000
0000
0000
0000
0013
0100
1000
0100
1000
0001
0010
0000
0001
0000
,
0011
0011
0000
0110
1001
0000
1010
1010
,
0000
0000
0110
0000
1001
0000
0000
0000
1000
0001
1000
0001
0010
0000
0000
0000
,
0002
0000
0000
0000
0203
0000
0000
0000
0301
0010
0001
0010
0100
1000
0100
1000
,
0001
0100
0010
0100
0001
1000
0010
1000
0001
0010
0001
1000
0100
0000
0010
0000
,
0001
0100
0001
0100
0010
1000
0010
1000
0001
0010
0100
0010
0001
1000
0100
1000
,
0001
0000
0100
0000
0010
0100
0010
1000
0001
0000
0001
0000
0010
0000
0100
0000
,
2000
0000
0000
0000
3010
0100
0001
2000
0000
0000
3100
0010
0001
2000
0000
0000
,
3010
0100
0001
2000
0000
0000
3100
0010
0001
2000
0000
0000
3010
0000
0100
0000
,
0002
0000
0010
0000
0023
0000
0100
0000
0230
0000
1000
0000
1300
0001
1000
0001
,
1000
0010
0100
0010
1000
0001
0100
0001
1000
0100
0010
0001
0010
0100
1000
0001
,
0200
0000
0000
0010
0010
0000
0302
0000
,
2003
0000
3100
0020
0000
0031
0011
0000
,
1000
0010
0100
0100
0001
1000
0020
0000
,
2030
3200
0302
0203
2300
3002
0023
0000
,
0030
0000
0001
0100
0001
0100
0010
1000
0010
1000
0001
0010
0100
0010
0001
1000
,
0100
1000
0001
0010
0001
1000
0010
0100
0001
0100
0010
1000
0001
0010
0100
1000
,
0002
0100
0103
0220
0330
0001
2000
0100
,
3100
0000
0220
0000
0330
0000
1000
0000
0001
0100
0010
0100
0001
1000
0010
0100
,
0002
0000
0000
0000
1003
0000
1200
0000
0000
0000
1300
0010
0002
0000
0000
0000
,
0000
0003
0000
0000
0000
0000
0000
0000
;

//--------------- dance-double - forcednature ----------------
#NOTEDATA:;
#STEPSTYPE:dance-double;
#DESCRIPTION:forcednature;
#DIFFICULTY:Easy;
#METER:7;
#RADARVALUES:0,0,0,0,0;
#CREDIT:forcednature;
#NOTES:
00000000
00000000
00000000
00000000
,
00000000
00000000
00000000
00000000
,
00000000
00000000
00000000
00000000
,
00000000
00000000
00000000
00000000
,
00000000
00000000
00000000
00000000
,
00000000
00000000
00000000
00000000
,
00001000
00000000
00000000
00001000
00000000
00000000
00000000
00000000
,
00010000
00000000
00000000
00010000
00000000
00000000
00000000
00000000
,
00100000
00000000
00000000
00100000
00000000
00000000
00000000
00000000
,
10000000
00010000
01000000
00000000
,
10010000
00000000
00000000
00000000
,
00010000
00000000
00000000
00000000
,
00100000
00000000
00000000
00000000
,
00001000
00000000
00000000
00000000
,
00010000
00000000
00000000
00000000
,
00000100
00000000
00000000
00000000
,
00001000
00000000
00000000
00000000
,
00000010
00000000
00000000
00000000
,
00001001
00000000
00000000
00000000
,
00001000
00000000
00001000
00000000
,
00000100
00000000
00000000
00000000
,
00010000
00000000
00001000
00000000
,
00010000
00000000
00000000
00000000
,
00001000
00000000
00001000
00000000
,
01000000
00000000
00010000
00000000
,
10000000
00000000
00000000
00000000
,
10010000
00000000
00000000
00000000
,
00010000
00000000
00100000
00000000
,
00001000
00000000
00000000
00000000
,
00010000
00000000
00000100
00000000
,
00001000
00000000
00000000
00000000
,
00000010
00000000
00000100
00000000
,
00000001
00000001
00000001
00000000
,
00000010
00000000
00000100
00000000
,
00000110
00000000
00000000
00000000
,
00001000
00000000
00000100
00000000
,
00010000
00000000
00000000
00000000
,
00001000
00000000
01000000
00000000
,
00010000
00000000
00100000
00000000
,
01000000
00000000
10000000
00000000
,
00100000
00100000
00000000
01000000
,
01000000
00000000
00100000
00000000
,
10010000
00000000
00000000
00000000
,
00010000
00000000
00000000
00000000
,
00200000
00000000
00000000
00000000
,
00300000
00000000
00001000
00000000
,
00010000
00000000
00000000
00000100
,
00000000
00000000
00001000
00000000
,
00000001
00000000
00000001
00000000
,
00000200
00000000
00000300
00000000
,
00000010
00000000
00000010
00000000
,
00001000
00000000
00000100
00000000
,
00010000
00000000
00010000
00000000
,
00001000
00000000
01000000
00000000
,
00010000
00000000
00010000
00000000
,
00100000
00000000
01000000
00000000
,
10000000
10000000
10000000
00000000
,
00020000
00000000
00130000
00000000
,
10010000
00000000
00000000
00010000
00000000
00000000
01000000
00000000
,
00000000
01000000
00000000
00000000
00001000
00000000
00000000
00000000
,
00010000
00000000
00000000
00010000
00000000
00000000
00000100
00000000
,
00000000
00000100
00000000
00000000
00001000
00000000
00000000
00000000
,
00000010
00000010
00000100
00000010
,
00000010
00000100
00000001
00001000
,
00000100
00000100
00010000
00010000
,
00001000
00100000
00011000
00000000
,
01000000
00010000
10000000
00100000
,
00000000
10000000
01000000
00100000
,
00010000
00100000
00001000
00010000
,
00000000
00000010
00001000
00000001
,
00000200
00000000
00002300
00000000
,
00023000
00000000
00130000
01000000
,
00100000
00000000
00000000
00100000
00000000
00000000
10000000
00000000
,
00000000
00010000
00000000
00000000
00100000
00000000
00000000
00000000
,
01000000
10000000
00010000
00100000
,
00001000
00010000
00000100
00001000
,
00000010
00000100
00000001
00000010
,
00000100
00001000
00000010
00000000
,
00000100
00000000
00000000
00001000
00000000
00000000
00010000
00000000
,
00000000
00100000
00000000
00000000
01000000
00000000
00000000
00000000
,
00010000
00010000
10000000
10000000
,
00100000
01000000
00100000
00000000
01000000
00000000
00000000
00000000
,
20020000
00000000
30030000
00000000
,
10000000
00000000
01000000
00000000
,
00010000
00000000
00001000
00000000
,
00000010
00000010
00000010
00000000
,
00000100
00001000
00000100
00010000
,
00001000
00100000
00010000
00000000
,
00100000
00000000
00000000
01000000
00000000
00000000
10000000
00000000
,
00000000
00100000
00000000
00000000
01000000
00000000
00000000
00000000
,
01100000
00000000
00000000
01100000
00000000
00000000
20020000
00000000
,
00000000
30030000
00000000
00000000
00000000
00000000
00000000
00000000
;

//--------------- dance-double - forcednature ----------------
#NOTEDATA:;
#STEPSTYPE:dance-double;
#DESCRIPTION:forcednature;
#DIFFICULTY:Medium;
#METER:14;
#RADARVALUES:0,0,0,0,0;
#CREDIT:forcednature;
#NOTES:
00000000
00000000
00000000
00000000
,
00000000
00000000
00000000
00000000
,
00000000
00000000
00000000
00000000
,
00000000
00000000
00000000
00000000
,
00000000
00000000
00000000
00000000
,
00000000
00000000
00000000
00000000
,
00011000
00000000
00000000
00011000
00000000
00000000
00000000
00000000
,
01010000
00000000
00000000
01010000
00000000
00000000
00000000
00000000
,
10100000
00000000
00000000
10100000
00000000
00000000
00000000
00000000
,
10000000
01000000
10000000
00000000
01000000
00010000
00001000
00000000
,
00021000
00000000
00030200
00000000
,
00002300
00000000
00003002
00000203
,
00000320
00000000
00002030
00000000
,
00003200
00000000
00020300
00032000
,
00103000
00000000
00000000
00100000
00000000
00000000
00010000
00000000
,
00000000
01000000
00000000
00000000
00100000
00000000
00000000
00000000
,
10000000
00000000
00000000
10000000
00000000
00000000
01000000
00000000
,
00020000
00032000
00003020
00000000
,
00000130
00000000
00001000
00000100
00000000
00010000
00001000
00000000
,
00100000
00010000
00000000
00010000
01000000
00000000
00100000
00000000
,
10000000
00000000
01000000
00100000
00000000
00010000
00100000
00000000
,
00001000
00010000
00000000
00010000
00000020
00000000
00002030
00000000
,
00003001
00000000
00000010
00000100
00000000
00001000
00000100
00000000
,
00010000
00001000
00000000
00001000
01000000
00000000
00010000
00000000
,
10000000
00100000
10000000
00000000
01000000
10000000
01000000
00000000
,
00010000
00001000
00010000
00001000
00100000
00000000
01000000
00000000
,
10010000
00000000
00000000
00010000
01000000
00000000
00002000
00000000
,
00013000
00000000
00000100
00002000
00000000
00003100
00000020
00000000
,
00000031
00000000
00000100
00000001
00000100
00000000
00002000
00000000
,
00013000
00000000
00010000
00000000
00100000
10000000
00010000
00000000
,
01000000
00100000
01000000
00100000
00000000
10000000
01000000
00000000
,
00100000
00001000
00010000
00000000
00000010
00010000
00001000
00000000
,
00000010
00000100
00001000
00000200
00000000
00010300
00001000
00100000
,
00010000
00200000
00000000
01300000
10000000
00010000
00100000
00000000
,
01100000
00000000
10010000
00000000
10000000
01000000
00020000
00000000
,
00031000
00100000
00010000
00100000
00000000
00001000
00010000
00000000
,
00000010
00001000
00000100
00000000
00000010
00000001
00000100
00000000
,
00001000
00010000
00001000
00100000
00010000
00100000
00001000
00000000
,
00000000
00010000
00100000
00010000
00100000
10000000
00100000
10000000
,
00100000
10000000
01000000
10000000
01000000
00010000
00001000
00000000
,
00100000
00010000
01000000
00001000
00000000
00010000
00000010
00001000
,
00000100
00010000
00000000
00001000
01000000
00010000
00100000
00000000
,
01100000
00000000
00000000
00000000
00000000
00000000
00000000
01000000
,
02000000
00000000
00000000
03020000
00000000
00032000
00000000
00003020
,
00000230
00000000
00000000
00000300
00000000
00000000
00002000
00000000
00000000
00000000
00000000
00000000
00000000
00000000
00000000
00000000
,
00000000
00003000
00000002
00000203
,
00002300
00000000
00000000
00023000
00000000
00000000
00230000
00000000
,
00000000
00000000
00000000
00000000
20300000
00000000
30010000
00100000
,
02000000
00000000
00000000
03020000
00000000
00000000
00032000
00000000
,
00003020
00000000
00000000
00000030
,
00000110
00000000
00001100
00000000
00000011
00000000
00000001
00000100
,
00002000
00000000
00013000
00200000
00000000
10300000
00020000
00000000
,
01030000
00000000
01010000
00000000
00010000
10000000
00100000
01000000
,
00020000
00000000
00100000
00000000
10030000
01000000
00010000
00001000
,
00200000
00000000
00301000
00002000
00000000
00013000
00020000
00000000
,
00030100
00001000
00000010
00000100
00000010
00001000
00000200
00000000
,
00000310
00000001
00000010
00000001
00001000
00000100
00001000
00000100
,
00010000
00001000
01000000
00010000
00200000
00000000
00300000
00000000
,
01100000
00000000
00000000
11000000
00000000
00000000
00110000
00000000
,
00000000
00011000
00000000
00000100
00001000
00000000
00000010
00000000
,
00000110
00000000
00000000
00000101
00000000
00000000
00001010
00000000
,
00000000
00011000
00000000
01000000
00010000
10000000
00100000
00000000
,
10000000
10000000
01000000
10000000
00000000
00010000
00100000
00100000
,
00001000
00010000
00000000
00000100
00001000
00000010
00001000
00000000
,
00000001
00000100
00000001
00000100
00001000
00000000
00010000
00000000
,
00011000
00000000
00011000
00000000
00010000
00001000
00200000
00000000
,
00310000
10000000
01000000
10000000
00010000
00100000
00001000
00020000
,
00000000
00030100
00001000
00000010
00001000
00000100
00000010
00000000
,
00000001
00000100
00000010
00000100
00000001
00001000
00000010
00002000
,
00000000
00003100
00010000
00001000
00100000
00001000
00010000
00000100
,
00002000
00000000
00003010
00000100
00000002
00000000
00000013
00001000
,
00020000
00000000
01030000
00010000
00001000
00001000
00100000
00010000
,
01000000
01010000
00000000
00001000
00011000
00000000
00100000
00110000
,
00000000
00001000
00011000
00000000
00000010
00000100
00000110
00000000
,
00001001
00000000
00001100
00000000
00000001
00000100
00001000
00010000
,
00000010
00001000
00000010
00010000
00001000
00100000
00010000
01000000
,
00100000
10000000
01000000
00010000
00001000
00100000
00010000
01000000
,
00000000
00001000
00010000
00000010
00001000
00000001
00000100
00001000
,
00020000
00000000
00130000
20000000
00000000
30100000
00020000
00000000
,
00031000
00000200
00000000
00000301
00000100
00000000
00001001
00000000
,
00000001
00000010
00000001
00000100
00000010
00001000
00000100
00001000
,
00000010
00001000
00010000
01000000
00100000
10000000
00010000
00000000
,
01100000
00000000
10000000
00010000
00200000
00000000
02300000
00000000
,
03010000
00001000
00100000
00001000
00000000
00010000
00000100
00000000
,
00001000
00000010
00000100
00000001
00000010
00000100
00001000
00000000
,
00000010
00000100
00001000
00010000
00100000
01000000
00010000
00000000
,
00000000
10000000
01000000
10000000
01000000
00010000
00001000
00100000
,
00001000
00010000
00000100
00010000
00001000
00000010
00000001
00000000
,
00000100
00001000
00010000
00001000
00000000
00100000
01000000
00010000
,
00001000
00000000
00011000
00000000
00100000
00010000
01000000
00000000
,
01100000
00000000
00000000
00011000
00000000
00000000
00000220
00000000
,
00000000
00000330
00000000
00000000
00000000
00000000
00000000
00000000
;

//--------------- dance-double - forcednature ----------------
#NOTEDATA:;
#STEPSTYPE:dance-double;
#DESCRIPTION:forcednature;
#DIFFICULTY:Hard;
#METER:17;
#RADARVALUES:0,0,0,0,0;
#CREDIT:forcednature;
#NOTES:
00000000
00000000
00000000
00000000
,
00000000
00000000
00000000
00000000
,
00000000
00000000
00000000
00000000
,
00000000
00000000
00000000
00000000
,
00000000
00000000
00000000
00000000
,
00000000
00000000
00000000
00000000
,
00011000
00000000
01000000
00010000
00000000
00000000
00100000
00000000
,
00011000
00000000
00000100
00001000
00000000
00000020
00000000
00000030
,
00000110
00000000
00000100
00000001
00000000
00000020
00000000
00000030
,
00000100
00000000
00001000
00000000
00000100
00000000
00010000
00000000
00001000
00100000
00010000
00000000
01000000
00000000
00000000
00000000
,
00100000
00000000
00100000
10000000
00000000
10000000
00010000
00000000
,
00010000
00100000
00000000
00100000
01000000
00000000
00010000
00000000
,
00001000
00000000
00001000
00000010
00000000
00000010
00000001
00000000
,
00000001
00000100
00000000
00000100
00001000
00010000
00001000
00000000
,
01000000
00000000
01000000
00010000
00000000
00010000
10000000
00000000
,
10000000
00100000
00000000
00100000
10000000
00000000
01000000
00000000
,
00010000
00000000
00010000
00001000
00000000
00001000
00000010
00000000
,
00000100
00000000
00010000
00000000
00000010
00000000
00001000
00000000
00000001
00000100
00000010
00000000
00002000
00000000
00000000
00000000
,
00003001
00000001
00000010
00001000
00000000
00010000
00001000
00000000
,
00011000
00000000
00011000
00000000
00010000
00100000
10000000
00000000
,
00010000
00010000
01000000
00010000
00000000
10000000
00100000
00000000
,
01100000
00000000
10100000
00000000
10000000
01000000
00010000
00001000
,
00100000
00100000
00001000
00010000
00000000
00000100
00001000
00001000
,
00000001
00000010
00000000
00000001
00000100
00000000
00001000
00000000
,
00010000
00100000
00010000
00100000
10000000
00010000
01000000
00000000
,
00100000
00000000
10000000
00100000
10000000
00000000
01000000
10000000
01000000
00000000
10000000
00010000
00200000
00000000
00000000
00000000
,
01300000
00000000
00000000
00000000
00010000
00000000
00001000
00010000
00001000
00000000
00000000
00000000
00000020
00000000
00000000
00000000
,
00000130
00001000
00000001
00000200
00000000
00001300
00010000
00000000
,
00100000
00000000
01000000
00000000
00100000
00000000
01000000
00010000
10000000
00000000
10000000
00000000
00200000
00000000
00000000
00000000
,
20300000
32000000
03020000
00032000
00023000
02030000
23000000
30200000
,
00300000
01000000
01000000
00010000
00100000
00100000
00001000
00010000
,
00010000
00000100
00001000
00001000
00000010
00000100
00000001
00000000
,
00000100
00001000
00010000
00002000
00000000
00103000
01000000
00010000
,
00001000
00000000
00020000
00000000
00000000
00000000
00030010
00000000
00001000
00000001
00001000
00000001
00002000
00000000
00000000
00000000
,
00003100
00000000
00011000
00100000
00010000
00000000
02000000
00000000
,
03100000
10000000
01000000
20000000
00000000
31000000
00020000
00000000
,
00031000
00000010
00000010
00000001
00001000
00000100
00000020
00000000
,
00000032
00000203
00002300
00023000
00032000
00003200
00000302
00000023
,
00000030
00000000
00000001
00000100
00000001
00000000
00000100
00000010
00000100
00000000
00000010
00001000
00000001
00000000
00001000
00000000
,
00000100
00001000
00000100
00001000
00000100
00010000
00001000
00100000
00010000
00100000
00001000
00000000
00010000
00000000
00000000
00000000
,
01000000
00010000
00001000
00020000
00000000
00030010
00000100
00001000
,
00010000
00000000
00002000
00000000
00000000
00000000
00103000
00000000
00010000
01000000
00010000
01000000
00100000
10000000
00010000
01000000
,
00100000
00000000
00000000
00000000
00000000
00000000
00000000
10000000
,
20000000
00000000
00000000
32000000
00000000
03020000
00000000
00031000
,
00002000
00000000
00003000
00000020
00000000
00000000
00000000
00000000
,
00000000
00000030
00000002
00000203
,
00002300
00000000
00000000
00023000
00000000
00000000
00230000
00000000
,
00000000
00000000
00000000
00000000
20300000
00000000
30010000
01000000
,
00200000
00000000
00000000
20300000
00000000
00000000
30020000
00000000
,
00230000
00000000
00000000
00300000
,
01010000
00110000
00001000
00110000
,
00002000
00000000
00013000
00000020
00000000
00001030
00000200
00000000
,
00000310
00000000
00001001
00000000
00000001
00000100
00000010
00002000
,
00000100
00000100
00003100
00000000
00020000
00032000
02003000
03020000
,
20030000
00000000
00100000
30200000
00000000
01000000
02300000
00000000
,
03010000
00100000
01000000
00010000
00001000
00000010
00000200
00000000
,
00001300
00000000
00000001
00000000
00000001
00000000
00001000
00000000
00000010
00001000
00000010
00000000
00010000
00000000
00001000
00000000
,
00100000
00010000
00100000
00010000
10000000
01000000
10000000
01000000
00100000
00010000
10000000
00010000
01000000
00000000
00000000
00000000
,
10010000
00000000
00000000
01100000
00000000
00000000
00011000
00000000
,
00000000
00000110
00000000
00000001
00001000
00000000
00000010
00000000
,
00001001
00000000
00000000
00000110
00000000
00000000
00011000
00000000
,
00000000
01100000
00000000
10000000
01000000
00010000
00001000
00100000
,
00010000
00100000
00010000
00100000
00010000
00000000
10000000
00000000
00000000
00000000
00010000
00000000
01000000
00010000
01000000
00010000
,
01000000
00001000
00000000
00010000
00000100
00001000
00000010
00000010
,
00000100
00000001
00000100
00000001
00001000
00000010
00001000
00000010
00010000
00000000
00001000
00010000
00001000
00000000
00100000
00010000
,
00200000
00000000
00000000
00000000
02300000
00000000
00000000
00000000
23000000
00000000
00000000
30010000
01000000
00000000
00000000
00000000
,
00100000
00000000
10000000
00000000
01000000
00000000
10000000
00000000
00100000
00000000
00000000
00010000
00001000
00000000
00020000
00000000
,
00000000
00000000
00031000
00000000
00000010
00000000
00000001
00000010
00000001
00000000
00000100
00000000
00000010
00000000
00001000
00000000
,
00000001
00000000
00000100
00000000
00000001
00000000
00000010
00000000
00000001
00001000
00000100
00001000
00000001
00000000
00000200
00000000
,
00000000
00000000
00001300
00000000
00010000
00000000
00100000
00000000
01000000
00100000
01000000
00100000
01000000
00000000
00010000
00000000
,
20000000
00000000
00000000
00000000
00000000
00000000
31000000
00100000
00020000
00000000
00000000
00000000
00000000
00000000
00031000
00000100
,
00000020
00000000
00000000
00000000
00000000
00000000
00000130
00001000
00000001
00000100
00000001
00000100
00000010
00000000
00001000
00000000
,
00001100
00001100
00000000
00011000
00011000
00000000
00110000
00110000
,
00000000
00000000
10010000
00000000
10010000
00000000
00000000
00000000
10000000
01000000
00100000
00010000
00100000
00000000
00000000
00000000
,
00002000
00000000
00000000
00000000
00023000
00000000
00000000
00000000
00030010
00000000
00001000
00000010
00001000
00000000
00000010
00000100
,
00000001
00000000
00000010
00000001
00000010
00000000
00000001
00001000
00000200
00000000
00020300
00000000
00032000
00000000
00203000
00000000
,
00310000
01000000
00010000
01000000
00100000
10000000
00100000
10000000
00010000
01000000
00001000
00010000
00001000
00000000
00010000
00000000
,
00000100
00000000
00001000
00000000
00000001
00000100
00000010
00000100
00000001
00000000
00000001
00000000
00001000
00000000
00000010
00000000
,
00000200
00000000
00000000
00000000
00001300
00010000
00001000
02000000
00000000
00000000
03001000
00010000
00001000
00200000
00000000
00000000
,
00301000
00010000
00001000
02000000
00000000
00000000
03001000
00010000
00001000
00200000
00000000
00000000
00301000
00000000
00010000
00000000
,
00200000
00000000
10000000
00000000
20300000
00000000
01000000
00000000
32000000
00000000
00010000
00000000
03010000
00001000
00010000
00001000
,
00010000
00000100
00001000
00000100
00010000
00001000
00010000
00000010
00001000
00000010
00000100
00000001
00001000
00000000
00000000
00000000
,
00000102
00000000
00000000
00000010
00000010
00000000
00002003
00000000
,
00003200
00000000
00010300
00002000
00000000
00103000
00110000
00000000
,
10000000
00100000
01000000
01000000
00010000
10000000
00200000
00000000
,
20300000
32000000
03020000
00032000
00023000
02030000
23000000
00000000
,
30000000
00000000
00010000
00100000
00010000
00100000
00001000
00010000
00001000
00010000
00000100
00001000
00000100
00000000
00000010
00000000
,
00000001
00001000
00000001
00001000
00000010
00000000
00000100
00000000
00001000
00010000
00001000
00010000
00000010
00000000
00000000
00000000
,
00000100
00001000
00010000
00002000
00000000
00103000
01000000
00010000
,
00001000
00000000
00020000
00000000
00000000
00000000
00030010
00000000
00001000
00000010
00001000
00000010
00000100
00000001
00001000
00000010
,
00000100
00000000
00001000
00011000
00000000
00100000
02200000
00000000
,
00000000
03300000
00000000
00000000
00000000
00000000
00000000
00000000
;
