#VERSION:0.83;
#TITLE:Harpuia;
#SUBTITLE:;
#ARTIST:BlackY;
#TITLETRANSLIT:;
#SUBTITLETRANSLIT:;
#ARTISTTRANSLIT:;
#GENRE:;
#CREDIT:;
#MUSIC:Harpuia.ogg;
#BANNER:Harpuia.png;
#BACKGROUND:Harpuia-bg.png;
#CDTITLE:./CDTitles/SDVX II infinite infection.png;
#SAMPLESTART:72.218;
#SAMPLELENGTH:15.000;
#SELECTABLE:YES;
#OFFSET:1.292;
#BPMS:0.000=186.000
,44.000=93.000
,45.500=186.000
,174.000=93.000
,199.500=186.000
;
#STOPS:45.500=0.161
,199.500=0.161
;
#TIMESIGNATURES:0.000=4=4,
44.000=2=4,
46.000=4=4,
198.000=2=4,
200.000=4=4
;
#BGCHANGES:0.000=../BGAs/19cy.mp4=1.000=0=0=0=StretchNoLoop====,
99999.000=-nosongbg-=1.000=0=0=0=StretchNoLoop====
;
#FGCHANGES:;

//--------------- dance-single - forcednature ----------------
#NOTEDATA:;
#STEPSTYPE:dance-single;
#DESCRIPTION:forcednature;
#DIFFICULTY:Beginner;
#METER:5;
#RADARVALUES:0,0,0,0,0;
#CREDIT:forcednature;
#NOTES:
0000
0000
0000
0000
,
0000
0000
0000
0000
,
0000
0000
0000
0000
,
0000
0000
0000
0000
,
0000
0000
0000
0000
,
0000
0000
0000
0000
,
0000
0000
0000
0000
,
1000
0000
0000
0000
,
0001
0000
0000
0000
,
0100
0000
0010
0000
,
1000
0001
1000
0000
,
2002
0000
0000
3003
0000
0000
0000
0000
,
0001
0000
0100
0000
,
0001
0000
1000
0000
,
0100
0000
1000
0000
,
0000
0000
0010
0000
,
0100
0000
0001
0000
,
0000
0000
0010
0000
,
0100
0000
1000
0000
,
0001
0000
0100
0000
,
0000
0000
0010
0000
,
1000
0000
0001
0000
,
0100
0000
0010
0000
,
1000
0000
0001
0000
,
0001
0000
0010
0000
,
0010
0000
0100
0000
,
1000
0000
1000
0000
,
0100
0000
1001
0000
,
0000
0000
1000
0000
,
0000
0000
0010
0000
,
0000
0000
0100
0000
,
0000
0000
0001
0000
,
0000
0000
0010
0000
,
0000
0000
0100
0000
,
0000
0000
1000
0000
,
0001
0000
0000
1000
,
0000
1000
0000
1000
,
1000
1000
0000
0001
,
0000
0001
0000
0001
,
0001
0001
0000
0100
,
0000
0100
0000
0010
,
0000
0010
0000
1000
,
0001
1000
0001
0001
,
1000
0000
2002
0000
,
0000
0000
0000
3003
1000
0000
0000
0000
,
0100
0000
0010
0000
,
0001
0000
0100
0000
,
0010
0000
1000
0000
,
0001
0000
0010
0000
,
0100
0000
0000
0000
1000
0000
0000
1001
,
0000
0000
0001
0000
,
0100
0001
0100
0000
,
0010
0000
1000
0000
,
0010
1000
0010
0000
,
1000
0100
0010
0000
,
0100
0010
0001
0000
,
1000
1000
1000
0000
,
0001
0001
0001
0000
,
0100
0000
0010
0000
,
1000
0010
0100
0000
,
1001
0000
0001
0000
,
0010
0000
0100
0000
,
1000
1000
1000
0000
,
0001
0001
0001
0000
,
0100
0010
1000
0000
,
0010
1000
0100
0000
,
0100
0010
0001
0000
,
0010
0001
0100
0000
,
0010
1000
0010
0000
,
1000
0100
1000
0000
,
0001
0001
0100
0000
,
0001
0010
0001
0010
,
0200
0000
0000
0000
,
0000
0000
0000
0000
,
0000
0000
0000
0000
,
0000
0000
0000
0300
,
1000
0000
0000
1000
0000
0000
0001
0000
,
0000
0001
0000
0000
0100
0000
0000
0000
,
2002
0000
0000
0000
,
0000
0000
0000
0000
,
0000
0000
0000
0000
,
0000
0000
0000
0000
,
3003
0000
0000
0000
;

//--------------- dance-single - forcednature ----------------
#NOTEDATA:;
#STEPSTYPE:dance-single;
#DESCRIPTION:forcednature;
#DIFFICULTY:Easy;
#METER:9;
#RADARVALUES:0,0,0,0,0;
#CREDIT:forcednature;
#NOTES:
0000
0000
0000
0000
,
0000
0000
0000
0000
,
0000
0000
0000
0000
,
0000
0000
0000
0000
,
0000
0000
0000
0000
,
0000
0000
0000
0000
,
0000
0000
0000
0000
,
2002
0000
0000
3003
,
0220
0000
0000
0330
,
1001
0000
0000
0100
0000
0000
0110
0000
,
0000
0000
1000
0000
0000
0001
0000
0000
1000
0000
0000
0001
0000
0000
0100
0000
,
0020
0000
0000
0030
1001
0000
1000
0000
,
0100
1000
0001
0010
,
0001
0000
0100
0001
0100
0000
0010
0000
,
1000
0000
0000
1000
0000
0000
1000
0000
0000
0000
0000
0000
0001
0000
0000
0000
,
0010
0001
0011
0000
,
1000
0010
1000
0100
,
1000
0000
0001
0000
0010
0001
0010
0000
,
0100
0000
1000
0000
0010
1000
0010
0000
,
0100
0110
0001
1000
,
0100
0000
1000
0001
0010
0000
0001
0000
,
1000
0010
0110
1000
,
0001
0000
0000
0001
0000
0000
1000
0000
0000
1000
0000
0000
0001
0000
0000
0100
,
0000
0000
0010
0000
0000
1000
0000
0000
0001
0000
0000
0000
0001
0000
0010
0000
,
0001
0100
0010
1000
,
0100
0000
1000
0000
0010
1000
0010
0000
,
0100
0001
0100
0000
0002
0000
0023
0000
,
0130
1000
0100
0000
0010
0000
0001
0000
,
0100
0000
0001
0000
0010
0100
0010
0000
,
0001
0100
0010
1000
,
0100
0000
0010
0000
0100
1000
0100
0000
,
1000
0010
0100
0001
,
0010
0000
0100
0000
0010
0001
0010
0000
,
0001
0100
0010
1000
,
0100
0000
0010
0000
0100
1000
0100
0000
,
1000
0010
0000
0110
,
0000
1000
0000
0000
0110
0000
0000
0001
,
0000
1001
0000
0110
,
0000
0010
0000
0000
1001
0000
0000
0100
,
0000
0010
0000
0000
0000
0000
0000
0000
1001
0000
0000
0000
1000
0000
0000
0000
,
0100
0010
1001
0001
,
0100
0000
0010
0000
1000
0100
1000
0000
,
0001
0100
0001
0000
0010
0000
0100
0000
,
0010
0100
0010
0000
2002
0000
0000
0000
,
0000
0000
0000
3003
1000
0000
0100
0000
,
1000
0000
0001
0000
0010
0000
0001
1000
,
0010
0100
0001
1000
,
0100
0000
0010
0001
1000
0000
0010
0000
,
0100
0000
0001
1000
0100
0000
0000
0010
,
0001
0000
0000
0000
0000
0000
0000
0000
0000
0000
0000
0000
0000
0000
0000
0000
0100
0000
0000
0100
0000
0000
0100
0000
0000
0000
0000
0000
1001
0000
0000
0000
,
1000
0010
0100
0010
,
1000
0010
1000
0000
0001
0000
0100
0000
,
0001
0010
0100
0010
,
0001
0010
0001
0000
1000
0100
1000
0000
,
0010
0100
0001
1000
,
0010
1000
0010
0000
0100
0000
0001
0000
,
0010
0001
0010
0000
0100
0000
1000
0000
,
0010
1000
0010
0000
0100
0000
0001
0000
,
1000
0100
1000
0000
0001
0000
0010
0000
,
0001
0100
0001
0000
0010
0000
1001
0000
,
1000
0000
0100
0000
1000
0010
1000
0000
,
0001
0000
0100
0000
0001
0010
0001
0000
,
1000
0000
0000
0000
0010
0000
0000
0000
0100
0000
0000
0100
0000
0000
0001
0000
,
0000
0001
0000
0000
1000
0000
0000
0010
0000
0000
1000
0000
0000
0001
0000
0000
,
0010
0000
0010
0100
1000
0000
0100
0000
,
0010
0000
0010
0001
0100
0000
0010
0000
,
1000
0000
1000
0001
0100
0000
0001
1000
,
0010
0000
1000
0001
0010
0000
0100
0000
,
1100
0001
0101
1000
,
1010
0001
0011
1000
,
0001
0100
0001
0000
1000
0100
1000
0000
,
1001
0010
0110
0100
,
2002
0000
0000
0000
,
0000
0000
0000
0000
,
0000
0000
0000
0000
,
0000
0000
0000
3003
,
1000
0000
0000
1000
0000
0000
0001
0000
0000
0000
0000
0000
0010
0000
0000
0100
,
0000
0000
0010
0000
0000
0000
0000
0000
0001
0000
0000
0001
0000
0000
1000
0000
,
0020
0000
0000
0000
,
0000
0000
0000
0000
,
0000
0000
0000
0000
,
0000
0000
0000
0000
,
0030
0000
0000
0000
;

//--------------- dance-single - forcednature ----------------
#NOTEDATA:;
#STEPSTYPE:dance-single;
#DESCRIPTION:forcednature;
#DIFFICULTY:Medium;
#METER:14;
#RADARVALUES:0,0,0,0,0;
#CREDIT:forcednature;
#NOTES:
0000
0000
0000
0000
,
0000
0000
0000
0000
,
0000
0000
0000
0000
,
0000
0000
0000
0000
,
0000
0000
0000
0000
,
0000
0000
0000
0000
,
0000
0000
0000
0000
,
0022
0000
0000
0033
,
2020
0000
0000
3030
,
1001
0000
0000
0110
0000
0000
1001
0000
,
0000
0000
1000
0000
0000
1100
0000
0000
0001
0000
0000
0101
0000
0000
0010
0000
,
2002
0000
0000
3003
0000
0100
0010
0000
0110
0000
0000
0000
0001
0000
1000
0000
,
0010
1000
0001
0010
0000
0100
1000
0010
,
0100
0000
0000
0100
0001
0000
1000
0000
0010
0000
0000
0000
1000
0000
0001
0000
,
0010
0000
0000
0110
0000
0000
0100
0000
0000
0000
1000
0000
0010
0000
1000
0000
,
0001
0100
0001
0000
0100
0000
0010
0000
2000
0000
0000
0000
3001
0000
0010
0000
,
0001
0000
1000
0000
0010
0000
0000
0010
0100
0000
0001
0000
0000
0010
0000
0000
,
0100
0000
0000
0100
1000
0000
0001
0010
0001
0000
0000
1000
0000
0000
0010
0000
,
0100
0101
0000
0001
0010
0100
0010
0001
,
1000
0100
1000
0100
0010
0000
0000
0000
0001
0000
1000
0000
0010
0000
1000
0000
,
0001
0000
0100
0000
1000
0000
0100
0000
0000
0000
0001
0000
0000
0010
0000
0000
,
0001
0000
0000
0100
0001
0000
1000
0010
1000
0000
0100
0000
0100
0000
1000
0000
,
0001
0000
0000
0011
0000
0000
1000
0000
0000
1010
0000
0000
0100
0000
0000
0110
,
0000
0000
0010
0000
0000
1001
0000
0000
1000
0000
0100
1000
0000
0100
0010
0000
,
0002
0000
0000
0000
1003
0000
0001
0100
0001
0000
1000
0000
0010
0000
0000
0010
,
0100
0000
0001
0000
0010
0001
0010
0000
0100
0000
1000
0000
0010
0000
1000
0000
,
0100
0000
0010
0000
0001
0000
1000
0001
1000
0000
0000
1000
0010
0000
0000
0010
,
0100
0001
0101
0000
1000
0100
0010
0100
,
0000
1000
0010
0100
0010
1000
0001
0010
,
0000
0100
0010
0001
1000
0001
0100
0010
,
0000
1000
0100
1000
0001
0100
0001
0010
,
0100
0010
0001
0000
1000
0010
0100
0010
,
0000
1000
0001
0100
0001
0010
0100
1000
,
0000
0100
0010
0001
1000
0010
1000
0001
,
0000
0000
0010
0000
0100
0000
1000
0000
0001
0000
0000
0100
0000
0000
0010
0000
,
0000
1000
0000
0000
0001
0000
0001
0000
0000
0000
1000
0000
1100
0000
0000
0000
,
0001
0011
0000
1000
1010
0000
0001
0101
,
0000
0000
0010
0000
0100
0000
0010
0100
0000
0000
1000
0000
1010
0000
0000
0000
,
0001
0011
0000
0100
0110
0000
0010
1001
,
0000
0000
0000
0000
1000
0000
0000
0000
0001
0000
0000
0000
1000
0000
0000
0000
0001
0000
0000
0000
1000
0000
0000
0000
0001
0000
0000
0000
0000
0000
0000
0000
0000
0001
0000
0000
0100
0000
0000
0000
0000
0000
0010
0000
0000
0000
0000
0000
,
1000
0000
0001
0000
0010
0000
0100
0000
1000
0000
0000
1000
0010
0000
0100
0000
,
0001
1000
0100
0010
0001
0001
0100
0001
,
1000
1000
0100
1000
0010
0100
0001
0100
,
0010
1000
0010
0000
1000
0000
0001
0000
0020
0000
0000
0000
0000
0000
0000
0000
,
0000
0000
0000
0030
0002
0000
0203
0000
,
0320
0000
2030
0000
3002
0000
0013
0100
,
2000
3002
0203
0320
,
2030
0000
3001
0010
0200
0000
2300
0000
,
3002
0000
0103
0010
2000
0000
0000
3100
,
0020
0000
0000
0000
0000
0000
0000
0000
0000
0000
0000
0000
0030
0000
0000
0000
0001
0000
0000
1000
0000
0000
0001
0000
1000
0000
0001
1000
0001
0000
0000
0000
,
0100
0000
0001
0000
0100
0010
0000
1000
0010
0000
0100
0000
0001
0000
0010
0000
,
0100
0000
1000
0000
0100
0010
0000
0001
0010
0000
0100
0000
1000
0000
0001
0000
,
0100
0000
0000
0100
0010
0000
0000
0010
1000
0000
0000
1100
0000
0000
0100
0000
,
0010
0000
0001
0000
0100
0000
0001
0000
0100
0010
0100
0000
0010
0000
0000
0000
,
1000
0000
0001
0000
0010
0001
0000
0010
0100
0000
1000
0000
0100
0000
0010
0000
,
0001
0000
1000
0000
0010
1000
0000
0001
0000
0100
0000
0001
1000
0000
0010
0000
,
1000
0000
0100
0000
0010
0100
0000
1000
0000
0001
0010
0000
0001
0000
1000
0000
,
1010
0000
1000
0001
1000
0100
0001
0100
,
1000
0010
0100
1000
0100
0010
1000
0001
,
0010
0010
0001
0100
0010
1000
1010
0000
,
0001
0000
0100
0000
0101
0000
0000
0000
1000
0000
0100
0010
0000
0100
1000
0000
,
0001
0000
0010
0000
0011
0000
0000
0000
1000
0000
0010
0100
0000
0001
0100
0000
,
0010
0000
0000
0000
0001
1000
0001
1000
0010
0000
0000
0101
0000
0000
0010
0000
,
0000
1010
0000
0000
0001
0000
0000
0101
0000
0000
1000
0000
0000
1100
0000
0000
,
0001
0000
0010
0000
0100
0000
0010
0000
0001
0000
1000
0000
0100
1000
0100
0000
,
1000
0000
0010
0000
0100
0000
0010
0000
1000
0000
0001
0000
0100
0001
0100
0000
,
0010
1000
0000
0010
1000
0000
0001
0010
0000
0001
0010
0000
0001
0000
1000
0000
,
0100
0010
0000
0100
0010
0000
0001
0000
1000
0000
0010
0000
0200
0000
0000
0000
,
0301
0000
0010
0001
0000
0010
0100
0000
1000
0100
0000
0010
0100
0000
0010
0000
,
0001
0000
0100
0001
0000
0100
0010
0000
1000
0010
0000
0100
0010
0000
1000
0000
,
0001
0000
0010
0000
0100
0010
0100
0000
1000
0000
0010
0000
0100
0010
0100
0000
,
0001
0000
0000
0001
0010
0000
0100
0010
0100
0000
1000
0100
1000
0000
0000
0000
,
2002
0000
0000
0000
,
0000
0000
0000
0000
,
0000
0000
0000
0000
,
0000
0000
0000
3003
,
1100
0000
0000
1010
0000
0000
0011
0000
0000
0000
0000
0000
0101
0000
0000
0011
,
0000
0000
1010
0000
0000
0000
0000
0000
1001
0000
0000
0110
0000
0000
0010
0000
,
2002
0000
0000
0000
,
0000
0000
0000
0000
,
0000
0000
0000
0000
,
0000
0000
0000
0000
,
3003
0000
0000
0000
;

//--------------- dance-single - forcednature ----------------
#NOTEDATA:;
#STEPSTYPE:dance-single;
#DESCRIPTION:forcednature;
#DIFFICULTY:Hard;
#METER:17;
#RADARVALUES:0,0,0,0,0;
#CREDIT:forcednature;
#NOTES:
0000
0000
0000
0000
,
0000
0000
0000
0000
,
0000
0000
0000
0000
,
0000
0000
0000
0000
,
0000
0000
0000
0000
,
0000
0000
0000
0000
,
0000
0000
0000
0000
,
2200
0000
0000
3300
,
0202
0000
0000
0303
,
1010
0000
0001
0011
0000
0100
0110
0000
,
0010
0000
1001
0000
0000
1100
0000
0000
0101
0000
0000
0011
0000
0000
1000
0000
,
1020
0000
0000
0000
0000
0130
0101
0000
0001
0000
0010
0000
0100
0000
0010
0001
,
0010
0000
0100
0010
0000
0100
1000
0000
0001
0000
0100
0000
0010
0000
0100
0000
,
0010
0000
1000
0010
0000
0100
0001
0000
1000
0000
0100
0000
1000
0000
0001
0000
,
0101
0000
0000
0110
0000
0000
1010
0000
0000
0000
1000
0000
0100
0000
0010
0100
,
0010
0001
1000
0100
0010
0100
1000
0000
0001
0100
0000
0000
0010
0000
1000
0000
,
0001
0000
0000
0001
0010
0000
0001
1000
0100
0000
1000
0000
0010
1000
0000
0010
,
0100
0000
0001
0100
0001
1000
0010
0100
0001
0000
0000
0001
0010
0000
0100
0000
,
1000
0020
0000
0130
0101
0001
0010
0001
,
1000
0100
0010
0001
1000
0010
0100
0010
1000
0000
0001
0000
0100
0000
0010
0000
,
0100
0000
0001
1000
0000
0010
1000
0000
0001
0000
0010
0000
0100
0000
0010
0000
,
0100
0000
0000
1100
0000
0000
1000
0001
0010
0000
0001
0000
0100
0010
0100
0001
,
1000
0000
0000
1010
0000
0000
1100
0000
0100
0010
0000
0000
0011
0000
0001
0100
,
0000
1000
0100
0000
0000
0110
0000
0000
1010
0000
0000
1000
0001
0000
0100
0000
,
0001
0000
0010
0000
0001
1000
0100
0010
0001
0000
1000
0000
0010
0000
0100
0001
,
0000
0010
0001
0000
1000
0010
0100
0010
0100
0001
1000
0010
1000
0001
0100
0001
,
1000
0100
1000
0001
0010
0100
1000
0001
0010
0000
0001
0100
0000
0010
1000
0000
,
0001
0010
0100
1000
0001
0000
0100
0000
0120
0000
0000
0000
1000
0000
0000
1000
,
0000
1000
0000
0000
0100
0000
0100
0000
0000
0000
1000
0000
1000
0000
0000
0100
,
0000
0100
0000
0000
1000
0000
2030
0000
0000
0000
0000
0000
0100
0000
0000
0001
,
0000
0001
0000
0000
0100
0000
0100
0000
0000
0000
0001
0000
0001
0000
0000
0100
,
0000
0100
0000
0000
0001
0000
3002
0000
0000
0000
0000
0000
1000
0000
0000
0010
,
0000
0010
0000
0000
1000
0000
1000
0000
0000
0000
0010
0000
0010
0000
0000
1000
,
0000
1000
0000
0000
0010
0000
0023
0000
0000
0000
0001
0000
0001
0000
0000
0100
,
0000
0100
0000
0000
0001
0000
0000
0100
0000
0000
1000
0000
0000
0100
0000
0000
,
0031
0000
1000
0000
0010
1000
0010
0100
0001
0000
0010
0000
0001
1000
0000
0100
,
0000
0001
0000
0100
1000
0000
0001
0000
0010
0000
1000
0000
0010
0001
0000
1000
,
0000
0100
0010
0100
1000
0001
0010
0001
1000
0000
0010
0000
1000
0001
0000
0100
,
0000
1000
0000
0100
0001
0000
1000
0000
0010
0000
0001
0000
0010
1000
0000
0001
,
0000
0000
0000
0000
0100
0000
0000
0000
1000
0000
0000
0000
0001
0000
0000
0000
0010
0000
0000
0000
1000
0000
0000
0000
0001
0000
0000
0000
0000
0000
0010
0000
0000
0000
0000
0000
0001
0000
0000
0100
0000
0000
0000
0000
0000
0010
0000
0000
,
0100
0001
1000
0010
1000
0000
0001
0000
1000
0100
1000
0000
0001
0010
0100
0010
,
0000
0001
1000
0100
1000
0000
0001
0000
1000
0010
0100
0010
1000
0001
0100
0001
,
1000
0100
1000
0001
0010
0001
1000
0100
1000
0001
0100
0010
0100
0001
1000
0001
,
0010
0100
1000
0100
0010
0001
1000
0001
0200
0000
0000
0000
0000
0000
0000
0000
,
0000
0000
0000
0310
2000
0000
3200
0000
,
0320
0000
0032
0000
0203
0000
0320
2030
,
3002
0023
0230
2300
,
3020
0000
0230
0302
2003
0000
3200
0000
,
0320
0000
0032
2003
3020
0000
0000
0230
,
0302
0000
0000
0000
0000
0000
0000
0000
0000
0000
0000
0000
0003
0000
0000
0000
0110
0000
0000
0110
0000
0000
0110
0000
1000
0100
0010
0001
0200
0000
0300
0000
,
1001
0000
0000
0000
0001
0100
0010
0100
0000
0001
1000
0010
1000
0000
0001
0000
,
0010
0100
1000
0000
0001
1000
0100
1000
0010
0000
0100
0001
1000
0000
0100
0000
,
1001
0000
1000
0100
0010
0000
0100
0010
0001
0000
0100
0001
0000
0010
0100
1000
,
0100
0000
0100
0010
0001
0000
0001
0100
0010
1000
0010
0100
0001
0000
0000
0000
,
1000
0100
0010
0000
0100
1000
0001
1000
0000
0010
0100
0001
0100
0000
0010
0000
,
1000
0000
0001
0000
0010
0001
0010
0100
0000
0010
0100
1000
0100
0000
1000
0000
,
0001
0000
0100
0000
1000
0100
0000
0001
0100
0010
1000
0010
0100
0001
1000
0000
,
0001
0010
0100
0010
0001
0000
1000
0010
1000
0001
0100
0010
0100
0000
0001
0000
,
1000
0000
0100
0000
0001
0000
1000
0000
0010
0000
0001
0000
1000
0000
0001
0010
,
0001
1000
0100
0010
0001
0010
0100
1000
0001
0100
0010
1000
0002
0000
0000
0000
,
0013
0100
1000
0000
0001
0100
0001
1000
0010
0000
0100
0001
0000
0001
1000
0000
,
0100
0010
0001
0000
1000
0010
1000
0001
0100
0000
0010
1000
0000
0001
0010
0000
,
0001
0100
0010
0100
0001
1000
0010
1000
0001
0000
0000
0011
0000
0000
0110
0000
,
0000
0100
1000
0000
0010
1000
0010
0100
0001
0000
0010
0001
0000
0100
0010
0000
,
1000
0001
0010
0000
0100
0010
0001
1000
0010
0100
0010
1000
0001
0010
0100
0010
,
0000
0001
0100
0000
0010
1000
0010
0100
0001
1000
0100
1000
0001
0100
0010
1000
,
0001
0010
0000
0100
0010
0000
0001
0100
0000
0001
1000
0000
0010
0100
0001
1000
,
0100
1000
0001
0100
0001
1000
0010
1000
0001
0010
0100
1000
0100
0010
0001
1000
,
0010
0000
0100
0010
0100
0001
0010
0000
0100
0010
0001
0100
0010
0000
1000
0001
,
0100
0000
0010
0100
0010
1000
0100
0000
0010
0100
1000
0010
0100
0010
1000
0000
,
0001
0010
0001
0100
0010
1000
0100
1000
0010
0100
0001
0010
0100
1000
0010
0100
,
0001
0000
0010
0100
1000
0000
0001
0100
1000
0000
0100
0001
1000
0010
1000
0001
,
0020
0000
0000
0000
,
0000
0000
0000
0000
,
0000
0000
0000
0000
,
0000
0130
1000
0001
0100
0001
1000
0100
1000
0001
0100
0010
1000
0000
0000
0000
,
1010
0000
0000
1100
0000
0000
0101
0000
0000
0000
0000
0000
0011
0000
0000
0101
,
0000
0000
1100
0000
1000
0010
0100
0001
1000
0000
0000
1100
0000
0000
0001
0010
,
2000
0000
0000
0000
,
0000
0000
0000
0000
,
0000
0000
0000
0000
,
0000
0000
0000
0000
,
3000
0000
0000
0000
;

//--------------- dance-double - forcednature ----------------
#NOTEDATA:;
#STEPSTYPE:dance-double;
#DESCRIPTION:forcednature;
#DIFFICULTY:Easy;
#METER:9;
#RADARVALUES:0,0,0,0,0;
#CREDIT:forcednature;
#NOTES:
00000000
00000000
00000000
00000000
,
00000000
00000000
00000000
00000000
,
00000000
00000000
00000000
00000000
,
00000000
00000000
00000000
00000000
,
00000000
00000000
00000000
00000000
,
00000000
00000000
00000000
00000000
,
00000000
00000000
00000000
00000000
,
00022000
00000000
00000000
00033000
,
00022000
00000000
00000000
00033000
,
00000100
00000000
00000000
00001100
00000000
00000000
00000010
00000000
,
00000000
00000000
00000001
00000000
00000000
00000001
00000000
00000000
00000100
00000000
00000000
00000010
00000000
00000000
00010000
00000000
,
00002000
00000000
00000000
00003000
00011000
00000000
00000000
00000000
,
01000000
00010000
00100000
01000000
,
10000000
01000000
01100000
00000000
,
00100000
00000000
00001000
00000000
00010000
00000100
00010000
00000000
,
00001000
00000010
00000001
00000000
,
00001000
00000010
00010000
00001000
,
01000000
00000000
00010000
10000000
00010000
00000000
00100000
00000000
,
01000000
00000000
10000000
00010000
10000000
00000000
00100000
00000000
,
00010000
00001000
00011000
00000000
,
00010000
00000100
00001000
00000001
,
00000010
00000000
00000100
00001000
00000100
00000000
00010000
00000000
,
00001000
00000000
00000000
00001000
00000000
00000000
00010000
00000000
00000000
00010000
00000000
00000000
00001000
00000000
00000000
01000000
,
00000000
00000000
00010000
00000000
00000000
01000000
00000000
00000000
00100000
00000000
00000000
00000000
10000000
00000000
00000000
00000000
,
01000000
00000000
00100000
00010000
00100000
00000000
00001000
00000000
,
00010000
00000000
00000010
00001000
00000010
00000000
00000100
00000001
,
00000100
00000000
00000001
00000010
00000001
00000000
00000010
00000000
,
00001000
00011000
00010000
01000000
,
10000000
00100000
10000000
01000000
,
00010000
00000000
00001000
00000100
,
00000001
00000010
00000001
00000100
,
00001000
00000000
00010000
00100000
,
10000000
01000000
10000000
00100000
,
00010000
00000000
00001000
00000010
,
00000001
00000100
00000001
00000010
,
00001000
00010000
00000000
00011000
,
00000000
01000000
00000000
00000000
00011000
00000000
00000000
00000100
,
00000000
00011000
00000000
00011000
,
00000000
00100000
00000000
00000000
00011000
00000000
00000000
00000010
,
00000000
00000000
00000100
00000000
00000000
00000000
00000000
00000100
00000000
00000000
00000000
00000000
00000100
00000000
00000000
00000000
00000000
00000000
00000001
00000000
00000000
00000000
00000000
00000000
,
00000010
00000100
00000110
00000010
,
00000001
00000000
00000100
00000000
00000010
00001000
00000010
00000000
,
00010000
00001000
00010000
00000000
00000100
00001000
00000100
00000000
,
00010000
00001000
00022000
00000000
,
00000000
00000000
00000000
00033000
02000000
00000000
03020000
00000000
,
20030000
00000000
30020000
00000000
00230000
00000000
00301000
00010000
,
00002000
00023000
00030200
00002300
,
00003002
00000000
00000103
00000010
00002000
00000000
00003200
00000000
,
00020300
00000000
00031000
00100000
00020000
00000000
00000000
01030000
,
00200000
00000000
00000000
00000000
00000000
00000000
00000000
00000000
00000000
00000000
00000000
00000000
00300000
00000000
00000000
00000000
10000000
00000000
00000000
10000000
00000000
00000000
20000000
00000000
00000000
00000000
00000000
00000000
30010000
00000000
00000000
00000000
,
10010000
10000000
01000000
00010000
,
00001000
00000000
00100000
00000000
00010000
00000000
00100000
00001000
,
00010000
00000000
00000010
00000000
00001000
00000000
00000001
00000100
,
00000001
00000000
00001000
00000000
00000010
00000000
00010000
00001000
,
00010000
00000100
00001000
00000100
,
00010000
00000000
00001000
00000000
01000000
00000000
00010000
10000000
,
00100000
00000000
10000000
00000000
01000000
00000000
00010000
00001000
,
00100000
00000000
00001000
00000000
00010000
00000000
00000010
00001000
,
00000010
00000100
00000001
00000010
,
00000100
00001000
00000100
00000000
00010000
00000000
00011000
00000000
,
00001000
01000000
00001000
00000000
00010000
00000000
00100000
00000000
,
01000000
00100000
01000000
00000000
00010000
00000000
10000000
00000000
,
01000000
10000000
01000000
00000000
00100000
00000000
00100000
00000000
,
00001000
00001000
00010000
00000100
,
00001000
00000100
00001000
00000000
00000001
00000000
00000010
00000000
,
00000001
00000100
00000001
00000000
00001000
00000000
00000010
00000000
,
00010000
00001000
00010000
00000000
00000100
00000000
00001000
00000000
,
00000100
00010000
00001000
00000000
01000000
00000000
00010000
00000000
,
00100000
00000000
00100000
01000000
00000000
01000000
10000000
00000000
,
00100000
00000000
00100000
01000000
00000000
01000000
00010000
00000000
,
00100000
00001000
00100000
00000000
00001000
00010000
00001000
00000000
,
00020000
00030020
00002030
00003001
,
00002002
00000000
00000000
00000000
,
00000000
00000000
00000000
00000000
,
00000000
00000000
00000000
00000000
,
00000000
00000000
00000000
00003003
,
00000001
00000000
00000000
00000001
00000000
00000000
00000001
00000000
00000000
00000000
00000000
00000000
00000100
00000000
00000000
00000100
,
00000000
00000000
00000100
00000000
00000000
00000000
00000000
00000000
00001000
00000000
00000000
00010000
00000000
00000000
00001000
00000000
,
00020000
00000000
00000000
00000000
,
00000000
00000000
00000000
00000000
,
00000000
00000000
00000000
00000000
,
00000000
00000000
00000000
00000000
,
00030000
00000000
00000000
00000000
;

//--------------- dance-double - forcednature ----------------
#NOTEDATA:;
#STEPSTYPE:dance-double;
#DESCRIPTION:forcednature;
#DIFFICULTY:Medium;
#METER:14;
#RADARVALUES:0,0,0,0,0;
#CREDIT:forcednature;
#NOTES:
00000000
00000000
00000000
00000000
,
00000000
00000000
00000000
00000000
,
00000000
00000000
00000000
00000000
,
00000000
00000000
00000000
00000000
,
00000000
00000000
00000000
00000000
,
00000000
00000000
00000000
00000000
,
00000000
00000000
00000000
00000000
,
00020200
00000000
00000000
00030300
,
02002000
00000000
00000000
03003000
,
00011000
00000000
00000000
00000110
00000000
00000000
00001001
00000000
,
00000000
00000000
00000001
00000000
00000000
00000100
00000000
00000000
00001000
00000000
00000000
00010000
00000000
00000000
01000000
00000000
,
20000000
00000000
00000000
00000000
00000000
30100000
01100000
00000000
10010000
00000000
00000000
00000000
10000000
00000000
01000000
00000000
,
00010000
01000000
00100000
00001000
00000000
00010000
00000100
00001000
,
00000010
00000000
00000000
00000010
00000100
00000000
00000001
00000000
00000011
00000000
00000000
00000000
00000010
00000000
00001000
00000000
,
00010000
00000000
00000000
00011000
00000000
00000000
00001000
00000000
00000000
00000000
00010000
00000000
00100000
00000000
10000000
00000000
,
01000000
10000000
01000000
00000000
00100000
00000000
00010000
00000000
02000000
00000000
00000000
00000000
03001000
00000000
00010000
00000000
,
00000010
00000000
00001000
00000000
00000100
00000000
00000000
00000100
00000010
00000000
00000001
00000000
00000000
00000100
00000000
00000000
,
00001000
00000000
00000000
00001000
00010000
00000000
00001000
00100000
00010000
00000000
00000000
10000000
00000000
00000000
01000000
00000000
,
00010000
00001000
00000000
00000010
00000001
00000100
00001000
00000100
,
00000001
00001000
00000001
00001000
00000010
00000000
00000000
00000000
00000100
00000000
00001000
00000000
00010000
00000000
00001000
00000000
,
01000000
00000000
00010000
00000000
00100000
00000000
00010000
00000000
00000000
00000000
10000000
00000000
00000000
01000000
00000000
00000000
,
00010000
00000000
00000000
00010000
00001000
00000000
00010000
00000100
00001000
00000000
00000010
00000000
00000100
00000000
00000100
00000000
,
00000001
00000000
00000000
00000010
00000000
00000000
00001000
00000000
00000000
00011000
00000000
00000000
00010000
00000000
00000000
00100000
,
00000000
00000000
10100000
00000000
00000000
01010000
00000000
00000000
00010000
00000000
00100000
01000000
00000000
00100000
00010000
00000000
,
02000000
00000000
00000000
00000000
03001000
00000000
00010000
00001000
00010000
00000000
00000100
00000000
00001000
00000000
00000000
00001000
,
00000010
00000000
00000100
00000000
00000001
00000010
00000001
00000000
00000100
00000000
00001000
00000000
00010000
00000000
00100000
00000000
,
01000000
00000000
00100000
00000000
00010000
00000000
00001000
00010000
00001000
00000000
00000000
00001000
01000000
00000000
00000000
01000000
,
00010000
00100000
11000000
00000000
10000000
01000000
00010000
01000000
,
00000000
00010000
00001000
00010000
00001000
00000010
00000001
00000010
,
00000000
00000001
00000100
00001000
00000100
00000001
00000100
00001000
,
00000000
00010000
00001000
00010000
00100000
10000000
01000000
10000000
,
00100000
00010000
00001000
00000000
00010000
00001000
00000010
00001000
,
00000000
00000010
00000001
00000100
00000001
00000010
00001000
00010000
,
00000000
00100000
00010000
00001000
00010000
00100000
10000000
00100000
,
00000000
00000000
10000000
00000000
01000000
00000000
00010000
00000000
00001000
00000000
00000000
00100000
00000000
00000000
01000000
00000000
,
00000000
00010000
00000000
00000000
00000100
00000000
00001000
00000000
00000000
00000000
00000001
00000000
00000101
00000000
00000000
00000000
,
00000100
00001100
00000000
00001000
00011000
00000000
00010000
00110000
,
00000000
00000000
00100000
00000000
10000000
00000000
00100000
10000000
00000000
00000000
10000000
00000000
11000000
00000000
00000000
00000000
,
01000000
01010000
00000000
00010000
00011000
00000000
00001000
00001010
,
00000000
00000000
00000000
00000000
00000010
00000000
00000000
00000000
00000001
00000000
00000000
00000000
00000010
00000000
00000000
00000000
00000001
00000000
00000000
00000000
00000010
00000000
00000000
00000000
00000001
00000000
00000000
00000000
00000000
00000000
00000000
00000000
00000000
00000001
00000000
00000000
00000100
00000000
00000000
00000000
00000000
00000000
00000010
00000000
00000000
00000000
00000000
00000000
,
00001000
00000000
00000100
00000000
00010000
00000000
00001000
00000000
01000000
00000000
00000000
01000000
00010000
00000000
00100000
00000000
,
01000000
00010000
00001000
00000010
00000001
00000001
00000100
00001000
,
00010000
00010000
00100000
10000000
01000000
00010000
00001000
00100000
,
00001000
00010000
00001000
00010000
00001000
00000000
00010000
00000000
00000020
00000000
00000000
00000000
00000000
00000000
00000000
00000000
,
00000000
00000000
00000000
00000030
00002000
00000000
00003002
00000000
,
00000203
00000000
00002300
00000000
00023000
00000000
00130000
10000000
,
00020000
00230000
02300000
03020000
,
00032000
00000000
00003010
00000001
00000200
00000000
00002300
00000000
,
00023000
00000000
00130000
10000000
02000000
00000000
00000000
03010000
,
00002000
00000000
00000000
00000000
00000000
00000000
00000000
00000000
00000000
00000000
00000000
00000000
00003000
00000000
00000000
00000000
00010000
00000000
00000000
00001000
00000000
00000000
00010000
00000000
00001000
00010000
00001000
00010000
00001000
00000000
00000000
00000000
,
00010000
00000000
00000100
00000000
00001000
00000100
00000000
00000010
00000100
00000000
00000010
00000000
00000001
00000000
00000100
00000000
,
00000010
00000000
00001000
00000000
00000010
00010000
00000000
00001000
00010000
00000000
00001000
00000000
00100000
00000000
00010000
00000000
,
01000000
00000000
00000000
01000000
00010000
00000000
00000000
00010000
10000000
00000000
00000000
01000000
00000000
00000000
00010000
00000000
,
00001000
00000000
00100000
00000000
00010000
00000000
00100000
00000000
00001000
00010000
00001000
00010000
00001000
00000000
00000000
00000000
,
00010000
00000000
00000100
00000000
00001000
00000100
00000000
00001000
00000010
00000000
00000100
00000000
00000001
00000000
00000100
00000000
,
00000010
00000000
00001000
00000000
00000010
00010000
00000000
00001000
00000000
01000000
00000000
00001000
00010000
00000000
00100000
00000000
,
10000000
00000000
00010000
00000000
00100000
01000000
00000000
10000000
00000000
01000000
00010000
00000000
00001000
00000000
00100000
00000000
,
00010000
00000000
00100000
01000000
00010000
00000100
00001000
00000001
,
00000100
00001000
00010000
00100000
00010000
00001000
00000100
00000001
,
00000010
00000010
00001000
00010000
01000000
00100000
10010000
00000000
,
10000000
00000000
01000000
00000000
00010000
00000000
01000000
00000000
00100000
00000000
00010000
00100000
00000000
00001000
00010000
00000000
,
00000010
00000000
00001000
00000000
00000010
00000000
00000100
00000000
00000001
00000000
00000010
00000100
00000000
00001000
00000100
00000000
,
00010000
00000000
00001000
00000000
00010000
00001000
00010000
00001000
01000000
00000000
00000000
01010000
00000000
00000000
00100000
00000000
,
00000000
10100000
00000000
00000000
00010000
00000000
00000000
01010000
00000000
00000000
00001000
00000000
00000000
00011000
00000000
00000000
,
00000010
00000000
00001000
00000000
00000100
00000000
00000001
00000000
00000100
00000000
00001000
00000000
00000010
00001000
00000010
00000000
,
00010000
00000000
00001000
00000000
00100000
00000000
01000000
00000000
00010000
00000000
01000000
00000000
10000000
01000000
10000000
00000000
,
00100000
10000000
00000000
00100000
10000000
00000000
00010000
01000000
00000000
00010000
01000000
00000000
00010000
00000000
00100000
00000000
,
00001000
00010000
00000000
00001000
00010000
00000000
00000010
00000000
00001000
00000000
00000100
00000000
00000002
00000000
00000000
00000000
,
00000103
00000000
00001000
00000100
00000000
00010000
00001000
00000000
00010000
00000010
00000000
00001000
00000010
00000000
00000100
00000000
,
00001000
00000000
00010000
00001000
00000000
01000000
00010000
00000000
00100000
01000000
00000000
10000000
01000000
00000000
00010000
00000000
,
00001000
00000000
00000010
00000000
00000001
00000000
00000100
00000000
00001000
00000000
00010000
00000000
00001000
00010000
00001000
00010000
,
00001000
00000000
00000000
00001000
00100000
00000000
00010000
00100000
00010000
00000000
00100000
01000000
10000000
00000000
00000000
00000000
,
20020000
00000000
00000000
00000000
,
00000000
00000000
00000000
00000000
,
00000000
00000000
00000000
00000000
,
00000000
00000000
00000000
30030000
,
10000000
00000000
00000000
01000000
00000000
00000000
00010000
00000000
00000000
00000000
00000000
00000000
00001000
00000000
00000000
00000010
,
00000000
00000000
00000001
00000000
00000000
00000000
00000000
00000000
00001001
00000000
00000000
00000110
00000000
00000000
00000010
00000000
,
00002002
00000000
00000000
00000000
,
00000000
00000000
00000000
00000000
,
00000000
00000000
00000000
00000000
,
00000000
00000000
00000000
00000000
,
00003003
00000000
00000000
00000000
;

//--------------- dance-double - forcednature ----------------
#NOTEDATA:;
#STEPSTYPE:dance-double;
#DESCRIPTION:forcednature;
#DIFFICULTY:Hard;
#METER:18;
#RADARVALUES:0,0,0,0,0;
#CREDIT:forcednature;
#NOTES:
00000000
00000000
00000000
00000000
,
00000000
00000000
00000000
00000000
,
00000000
00000000
00000000
00000000
,
00000000
00000000
00000000
00000000
,
00000000
00000000
00000000
00000000
,
00000000
00000000
00000000
00000000
,
00000000
00000000
00000000
00000000
,
02002000
00000000
00000000
03003000
,
00020200
00000000
00000000
00030300
,
00011000
00000000
00100000
00101000
00000000
00000010
00010010
00000000
,
00010000
00000000
00011000
00000000
00000000
01001000
00000000
00000000
01010000
00000000
00000000
00110000
00000000
00000000
01000000
00000000
,
20010000
00000000
00000000
00000000
00000000
00000000
00000000
00000000
00000000
00000000
31000000
00010000
00001000
00000000
00000000
00000000
00100000
00000000
00000000
00000000
00010000
00000000
00000000
00000000
00100000
00000000
00000000
00000000
00001000
00000000
00010000
00000000
,
00001000
00000000
00010000
00000010
00000000
00001000
00000010
00000000
00000100
00000000
00001000
00000000
00000100
00000000
00000001
00000000
,
00001000
00000000
00000010
00010000
00000000
00001000
00010000
00000000
00001000
00000000
00100000
00000000
00010000
00000000
00100000
00000000
,
01100000
00000000
00000000
11000000
00000000
00000000
10100000
00000000
00000000
00000000
00100000
00000000
00010000
00000000
00001000
00010000
,
00000100
00001000
00000100
00010000
00001000
00000010
00000001
00000000
00000100
00000001
00000000
00010000
00010100
00000000
00001000
00000000
,
00010000
00000000
00000000
00010000
00100000
00000000
01000000
00100000
10000000
00000000
01000000
00000000
00100000
01000000
00000000
00100000
,
00010000
00000000
00100000
00001000
00010000
00000100
00001000
00000100
00000010
00000000
00000000
00000010
00000001
00000000
00000100
00000000
,
00001000
00021000
00000000
00130000
01100000
01000000
00010000
01000000
,
00100000
10000000
00010000
01000000
00001000
00010000
00001000
00100000
00010000
00000000
00001000
00000000
00000100
00000000
00000010
00000000
,
00000001
00000000
00001000
00000010
00000000
00000100
00000010
00000000
00001000
00000000
00000100
00000000
00010000
00000000
00001000
00000000
,
01000000
00000000
00000000
01010000
00000000
00000000
00010000
00100000
01000000
00000000
00010000
00000000
00001000
00010000
00000100
00001000
,
00000100
00000000
00000000
00000110
00000000
00000000
00000011
00000000
00000001
00000100
00001000
00000000
00011000
00000000
00010000
00100000
,
00000000
10000000
01000000
00000000
00000000
01100000
00000000
00000000
00101000
00000000
00100000
00001000
00010000
00000000
00000100
00000000
,
00010000
00000000
00001000
00000000
00010000
00000010
00001000
00000010
00000100
00000000
00000001
00000000
00000010
00000000
00000100
00001000
,
00000000
00000100
00010000
00000000
00001000
01000000
00010000
01000000
00100000
10000000
00010000
10000000
01000000
00100000
00010000
00100000
,
00001000
00010000
00000010
00001000
00000010
00010000
00001000
00010000
00000200
00000000
00001300
00000001
00000200
00000000
00001300
00000100
,
00000001
00001000
00000010
00010000
00001000
00000000
01000000
00000000
01100000
00000000
00000000
00000000
10000000
00000000
00000000
01000000
,
00000000
00010000
00000000
00000000
00001000
00000000
00010000
00000000
00000000
00000000
00001000
00000000
00000010
00000000
00000000
00000001
,
00000000
00000010
00000000
00000000
00000001
00000000
00000100
00000000
00001000
00000000
00000000
00000000
00010000
00000000
00000000
00100000
,
00000000
00010000
00000000
00000000
00100000
10000000
00100000
10000000
00000000
00000000
01000000
00000000
10000000
00000000
00000000
01000000
,
00000000
00010000
01000000
00000000
00010000
00000000
00001000
00010000
00001000
00000000
00000000
00000000
00000010
00000000
00000000
00000001
,
00000000
00000010
00000001
00000010
00000001
00000000
00000100
00000001
00000000
00000000
00000100
00000000
00001000
00000000
00000000
00010000
,
00001000
00010000
00000000
00000000
00100000
00000000
10000000
00100000
00000000
10000000
01000000
00000000
10000000
00000000
00000000
01000000
,
00000000
00010000
00000000
00000000
00001000
00000000
00010000
00001000
00000000
00010000
00000100
00001000
00000100
00000000
00000010
00000100
,
00000000
00000010
00000001
00001000
00000001
00000000
00000100
00000010
00000000
00000000
00001000
00000000
00000100
00000001
00000000
00000100
,
00000000
00001000
00000000
00000010
00001000
00000000
00010000
00000000
01000000
00000000
00001000
00000000
00100000
00010000
00000000
01000000
,
00000000
00100000
00000000
10000000
01000000
00010000
00001000
00010000
00000000
00000000
00000100
00000000
00001000
00000010
00000000
00000001
,
00000000
00000010
00000000
00001000
00000100
00000000
00010000
00000000
00001000
00000000
01000000
00000000
00010000
00100000
00000000
10000000
,
00000000
00000000
00000000
00000000
00100000
00000000
00000000
00000000
00001000
00000000
00000000
00000000
00010000
00000000
00000000
00000000
00100000
00000000
00000000
00000000
10000000
00000000
00000000
00000000
00010000
00000000
00000000
00000000
00000000
00000000
01000000
00000000
00000000
00000000
00000000
00000000
00001000
00000000
00000000
00010000
00000000
00000000
00000000
00000000
00000000
00000100
00000000
00000000
,
00001000
00000100
00010000
00001000
00010000
00000000
00000010
00000000
00001000
00000001
00000010
00000000
00000100
00001000
00000100
00010000
,
00000000
00001000
01000000
00010000
01000000
00000000
00100000
00000000
10000000
01000000
00100000
01000000
10000000
00010000
00100000
00001000
,
00010000
00000010
00001000
00000010
00000100
00000001
00001000
00000001
00000010
00000100
00001000
00000100
00010000
00001000
00100000
00010000
,
00100000
00000000
01000000
00000000
10000000
00000000
00010000
00000000
10000000
00000000
00100000
00000000
01000000
00000000
00001000
00000000
00010000
00000000
00000000
00000000
00001000
00010000
00001000
00010000
00000100
00001000
00000100
00001000
00000001
00000100
00000001
00000100
,
00000010
00001000
00000010
00010000
00001000
00010000
00000100
00001000
00000100
00010000
00001000
00100000
00010000
00000000
00000000
00000000
20000000
00000000
00000000
00000000
00000000
00000000
00000000
00000000
30200000
00000000
00000000
00000000
00000000
00000000
00000000
00000000
,
00320000
00000000
00032000
00000000
00003200
00000000
00000302
00002003
,
00003020
00020030
00032000
02003000
,
03020000
00000000
00230000
02300000
23000000
00000000
32000000
00000000
,
03020000
00000000
00030200
00002300
00003002
00000000
00000000
00000203
,
00000320
00000000
00000000
00000000
00000000
00000000
00000000
00000000
00000000
00000000
00000000
00000000
00000030
00000000
00000000
00000000
00001001
00000000
00000000
00001001
00000000
00000000
00001001
00000000
00000001
00000100
00001000
00010000
00000020
00000000
00000030
00000000
,
00001000
00000000
00000100
00000000
00000010
00000100
00001000
00000100
00000000
00010000
00001000
00100000
00001000
00000000
00010000
00000000
,
00100000
01000000
00010000
00000000
10000000
00100000
01000000
00100000
10000000
00000000
01000000
00010000
00001000
00000000
00010000
00000000
,
00011000
00000000
00001000
00010000
00000100
00000000
00001000
00000100
00000010
00000000
00000001
00000010
00000000
00000100
00000010
00000100
,
00001000
00000000
00001000
00000100
00010000
00000000
00010000
00001000
01000000
00010000
10000000
00100000
02000000
00000000
00000000
00000000
,
03010000
00000000
10000000
00000000
01000000
00010000
00001000
00010000
00000000
00001000
00000010
00000001
00000010
00000000
00000100
00000000
,
00001000
00000000
00000001
00000000
00000100
00001000
00010000
00001000
00000000
00010000
00100000
10000000
00100000
00000000
01000000
00000000
,
00010000
00000000
10000000
00000000
01000000
00010000
00000000
00001000
00100000
00001000
00010000
00000100
00010000
00000000
00001000
00000000
,
00000010
00000100
00001000
00000100
00000010
00000000
00000001
00001000
00000010
00010000
00001000
00010000
00000100
00000000
00001000
00000000
,
00000001
00000000
00000100
00000000
00001000
00000000
00010000
00000000
01000000
00000000
10000000
00000000
00100000
00000000
10000000
01000000
,
10000000
00010000
00100000
00010000
00100000
00001000
00010000
00000100
00010000
00001000
00000100
00000010
00020000
00000000
00000000
00000000
,
00031000
00000000
00010000
00000100
00001000
00000000
00000100
00000010
00000001
00000000
00000100
00001000
00000000
00000100
00000001
00000000
,
00001000
00000000
00000010
00010000
00001000
00000000
01000000
00010000
00100000
00000000
01000000
00010000
00000000
01000000
10000000
00000000
,
00100000
10000000
00100000
01000000
00010000
00100000
00001000
00010000
00001000
00000000
00000000
00010100
00000000
00000000
00001100
00000000
,
00000000
00000001
00000010
00000000
00000001
00000100
00000010
00000100
00000001
00000000
00000010
00000100
00000000
00001000
00000100
00000000
,
00010000
00001000
01000000
00000000
00010000
10000000
00100000
10000000
00010000
00100000
01000000
00100000
00010000
01000000
00001000
00010000
,
00000000
00000100
00001000
00000000
00000100
00000010
00000001
00000010
00000100
00001000
00000010
00010000
00001000
01000000
00010000
01000000
,
00001000
00010000
00000000
00100000
00010000
00000000
00100000
10000000
00000000
01000000
10000000
00000000
01000000
00010000
00001000
00010000
,
00000100
00001000
00000100
00000010
00000001
00000100
00000010
00000100
00000001
00000010
00000100
00001000
00000100
00000010
00000001
00001000
,
00000010
00000000
00010000
00001000
01000000
00010000
00100000
00000000
00001000
00010000
00000100
00001000
00000010
00000000
00010000
00001000
,
00100000
00000000
00010000
01000000
00001000
00010000
00000010
00000000
00001000
00000100
00010000
00001000
00100000
00001000
00010000
00000000
,
00100000
10000000
01000000
00100000
00010000
00100000
00001000
00010000
00000010
00000100
00001000
00010000
00001000
00000100
00000010
00001000
,
00000001
00000000
00000001
00000010
00001000
00000000
00010000
01000000
10000000
00000000
00100000
10000000
00010000
01000000
00010000
00100000
,
00002000
00000000
00000000
00000000
,
00000000
00000000
00000000
00000000
,
00000000
00000000
00000000
00000000
,
00000000
00003010
00000100
00001000
00000001
00000100
00000001
00001000
00000010
00000100
00001000
00010000
00000010
00000000
00000000
00000000
,
00001100
00000000
00000000
00011000
00000000
00000000
00110000
00000000
00000000
00000000
00000000
00000000
01010000
00000000
00000000
00011000
,
00000000
00000000
00001010
00000000
00000010
00000100
00000001
00001000
00000100
00000000
00000000
00011000
00000000
00000000
00010000
00100000
,
20000000
00000000
00000000
00000000
,
00000000
00000000
00000000
00000000
,
00000000
00000000
00000000
00000000
,
00000000
00000000
00000000
00000000
,
30000000
00000000
00000000
00000000
;
