#VERSION:0.83;
#TITLE:Harmonia;
#SUBTITLE:;
#ARTIST:ATSUMI UEDA;
#TITLETRANSLIT:;
#SUBTITLETRANSLIT:;
#ARTISTTRANSLIT:;
#GENRE:NU PRELUDE;
#CREDIT:;
#MUSIC:Harmonia.ogg;
#BANNER:Harmonia.png;
#BACKGROUND:Harmonia-bg.png;
#CDTITLE:./CDTitles/pnm Lapistoria.png;
#SAMPLESTART:46.212;
#SAMPLELENGTH:15.000;
#SELECTABLE:YES;
#OFFSET:0.313;
#BPMS:0.000=177.000;
#STOPS:;
#TIMESIGNATURES:0.000=4=4;
#BGCHANGES:1.800=Harmonia.mp4=1.000=0=0=0=StretchNoLoop====,
99999.000=-nosongbg-=1.000=0=0=0=StretchNoLoop====
;
#FGCHANGES:;

//--------------- dance-single - forcednature ----------------
#NOTEDATA:;
#STEPSTYPE:dance-single;
#DESCRIPTION:forcednature;
#DIFFICULTY:Beginner;
#METER:1;
#RADARVALUES:0,0,0,0,0;
#CREDIT:forcednature;
#NOTES:
0000
0000
0000
0000
,
0000
0000
0000
0000
,
0000
0000
0000
0000
,
0001
0000
0000
0000
,
0000
0000
0000
0000
,
0000
0000
0000
0000
,
0000
0000
0000
0000
,
1000
0000
0000
0000
,
0000
0000
0000
0000
,
0000
0000
0000
0000
,
0000
0000
0000
0000
,
0010
0000
0000
0000
,
0000
0000
0000
0000
,
0000
0000
0000
0000
,
0000
0000
0000
0000
,
0100
0000
0000
0000
,
0000
0000
0000
0000
,
0001
0000
0000
0000
,
0000
0000
0000
0000
,
0000
0000
0000
0000
,
0000
0000
0000
0000
,
1000
0000
0000
0000
,
0000
0000
0000
0000
,
0100
0000
0000
0000
,
0000
0000
0000
0000
,
0000
0000
0000
0000
,
0000
0000
0000
0000
,
0001
0000
0000
0000
,
0000
0000
0000
0000
,
0000
0000
0000
0000
,
0000
0000
0000
0000
,
0100
0000
0000
0000
,
0000
0000
0000
0000
,
0010
0000
0000
0000
,
0000
0000
0000
0000
,
1000
0000
0000
0000
,
0000
0000
0000
0000
,
0100
0000
0000
0000
,
0000
0000
0000
0000
,
1000
0000
0000
0000
,
0000
0000
0000
0000
,
0001
0000
0000
0000
,
0000
0000
0000
0000
,
0100
0000
0000
0000
,
0000
0000
0000
0000
,
0001
0000
0000
0000
,
0000
0000
0000
0000
,
0010
0000
0000
0000
,
0000
0000
0000
0000
,
0100
0000
0000
0000
,
0000
0000
0000
0000
,
0000
0000
0000
0000
,
1001
0000
0000
0000
,
0000
0000
0000
0000
,
0000
0000
0000
0000
,
0000
0000
0000
0000
,
0001
0000
0000
0000
,
0000
0000
0000
0000
,
1000
0000
0000
0000
,
0000
0000
0000
0000
,
0010
0000
0000
0000
,
0000
0000
0000
0000
,
0100
0000
0000
0000
,
0000
0000
0000
0000
,
0001
0000
0000
0000
,
0000
0000
0000
0000
,
1000
0000
0000
1000
;

//--------------- dance-single - forcednature ----------------
#NOTEDATA:;
#STEPSTYPE:dance-single;
#DESCRIPTION:forcednature;
#DIFFICULTY:Easy;
#METER:4;
#RADARVALUES:0,0,0,0,0;
#CREDIT:forcednature;
#NOTES:
0000
0000
0000
0000
,
0000
0000
0000
0000
,
0000
0000
0000
0000
,
1000
0000
0000
0000
,
0100
0000
1000
0000
,
0100
0000
0010
0000
,
0001
0000
0000
0000
,
1000
0000
0000
0000
,
0001
0000
0100
0000
,
0010
0000
0010
0000
,
0010
0000
0000
0000
,
1001
0000
0000
0000
,
1000
0000
0100
0000
,
1000
0000
0000
0000
,
0001
0000
0100
0000
,
0010
0000
0010
0000
,
0010
0000
0000
0000
,
1001
0000
0000
0000
,
1000
0000
0000
0000
,
0100
0000
0000
0000
,
0010
0000
0001
0000
,
0010
0000
0000
0000
,
0001
0000
0000
0000
,
0100
0000
0010
0000
,
0010
0000
0110
0000
,
0000
1001
0000
0000
,
0100
0100
0100
0000
,
1001
0000
0000
0000
,
0001
0000
0000
0000
,
0100
0000
0010
0000
,
1000
0000
0100
0000
,
0010
0000
0000
0110
,
0000
0000
0100
0000
,
1000
0000
1000
0000
,
0001
0000
0100
0000
,
0110
0000
0000
0000
,
0010
0000
1000
0000
,
0001
0000
0010
0000
,
0100
0000
1000
0000
,
1001
0000
0000
0000
,
0001
0000
0100
0000
,
0001
0000
1000
0000
,
0100
0000
0010
0000
,
0110
0000
0000
0000
,
0100
0000
1000
0000
,
0001
0000
0100
0000
,
0010
0000
1000
0000
,
1001
0000
0000
0000
,
0001
0000
0010
0000
,
0001
0000
0100
0000
,
0010
0000
1000
0000
,
1001
0000
0000
0000
,
0001
0000
0100
0000
,
0010
0000
1000
0000
,
0100
0000
0000
0000
,
1000
0000
0000
0000
,
0002
0000
0000
0000
,
0100
0000
0000
0000
,
1000
0000
1000
0000
,
1003
0000
0000
0000
,
0110
0000
1000
0000
,
0100
0000
1000
0000
,
0001
0000
0100
0000
,
0001
0000
0000
0000
,
0010
0000
0000
0110
,
0000
0000
0100
0000
,
1000
0000
1000
0000
,
0001
0001
0000
0000
;

//--------------- dance-single - forcednature ----------------
#NOTEDATA:;
#STEPSTYPE:dance-single;
#DESCRIPTION:forcednature;
#DIFFICULTY:Medium;
#METER:11;
#RADARVALUES:0,0,0,0,0;
#CREDIT:forcednature;
#NOTES:
0000
0000
0000
0000
,
0000
0000
0000
0000
,
0000
0000
0002
2003
,
3001
0100
0001
0100
0000
0010
1000
0010
,
0000
0100
0000
0001
0000
1000
0100
1000
,
0000
0000
0010
0100
0010
0100
0000
2002
,
0000
3003
0000
0001
0100
0000
0010
0000
,
1000
0100
1000
0100
0000
0010
0001
0010
,
0000
0100
0000
1000
0000
0001
0100
0001
,
0000
0000
1000
0100
0000
0010
0000
2002
,
0000
0000
3003
0000
0001
1000
0001
0000
,
0100
0000
0010
1000
0010
0000
0100
0000
,
0001
0010
0001
0000
1000
0010
1000
0000
,
0100
0000
0010
0001
0010
0000
0100
0000
,
1000
0010
1000
0000
0001
0010
0001
0000
,
1000
0000
1000
0100
0000
1000
0001
0000
,
0001
0100
0000
0110
0000
0000
0000
0000
,
1000
0000
0100
0000
1000
0000
0001
0010
,
0000
0010
0001
0000
1000
0000
0100
1000
,
0001
0000
0100
0000
0001
0000
1000
0010
,
0000
0010
0100
0001
0000
1001
0000
0000
,
0001
0000
0100
0000
0001
0000
1000
0010
,
0000
0010
1000
0000
0001
0100
0010
0000
,
1001
0000
0000
0000
1000
0001
1000
0001
,
0100
0010
0100
0010
0000
0100
0000
1001
,
0000
0000
0010
0100
0000
1001
0000
0000
,
0001
0001
0001
0000
0100
0010
1000
0000
,
0100
0000
1001
0000
1000
0000
0100
0010
,
0000
0001
0010
0000
0100
0000
1000
0000
,
0001
0000
0100
0010
0100
0000
0001
2000
,
0000
0000
3010
0200
0000
0000
0300
0000
,
0001
0000
0001
0010
0000
0100
0010
0000
,
0100
1000
0001
0000
0100
0010
0100
0000
,
0001
0000
0010
0100
0000
1000
0010
0000
,
0100
0001
0000
0100
0010
0000
1001
0000
,
0001
0010
0001
2000
0000
3010
0100
0002
,
0000
0013
0000
1001
0000
1000
0100
0010
,
0000
0000
0100
1000
0001
0100
0000
0220
,
0000
0330
0000
0010
2000
0000
3002
0000
,
1003
0100
0010
0200
0000
1300
0001
0200
,
0000
0310
0000
1001
0000
0001
0010
0100
,
0000
0001
0100
1000
0000
0010
0000
2002
,
0000
3003
0000
1000
0002
0000
0203
0000
,
0310
1000
0100
0020
0000
0130
1000
0001
,
0000
0101
0000
1010
0000
0001
0100
2000
,
0000
3000
0100
0001
1000
0010
0000
0110
,
0000
0100
0001
0020
0000
0130
1000
0000
,
0010
0100
0001
0020
0000
0130
1000
0020
,
0000
0130
0000
1001
0000
1000
0100
0001
,
0000
0100
1000
0001
0000
0011
0000
0202
,
0000
0303
0000
0010
1000
0010
0100
0001
,
2000
0000
0000
0000
0000
0000
0000
0000
3100
0000
0000
0100
0000
0000
0100
0000
,
0000
0010
0001
0010
0000
0100
0010
0100
,
0000
1000
0100
1000
0000
0001
1000
0001
,
0000
0100
0000
0100
0000
0010
1000
0000
,
0001
0000
0000
0010
0000
0000
0100
0000
0000
1000
0000
0000
0001
0000
0000
0000
,
0100
0000
0010
0100
0001
0000
0010
0100
,
1000
0000
0001
0000
0100
0100
0100
0000
,
0110
0000
0001
1000
0000
0100
0000
1001
,
0000
0000
1000
0000
0001
0100
0001
0000
,
1000
0000
0000
0000
0010
0000
0000
0000
0100
0000
0000
0100
0000
0000
0100
0000
,
0001
1000
0100
0000
1000
0001
0100
0000
,
0001
0000
0000
0000
0010
0000
0000
0000
0100
0000
0000
0100
0000
0000
0100
0000
,
1000
0001
0010
0000
0001
1000
0010
0000
,
0110
0000
0100
0001
0000
0010
0100
0000
,
1000
0010
0000
0110
0000
1000
0001
0000
,
0100
0000
0010
1000
0000
0100
0010
0000
,
0001
0100
0000
1001
0000
0000
0000
0000
;

//--------------- dance-single - forcednature ----------------
#NOTEDATA:;
#STEPSTYPE:dance-single;
#DESCRIPTION:forcednature;
#DIFFICULTY:Hard;
#METER:15;
#RADARVALUES:0,0,0,0,0;
#CREDIT:forcednature;
#NOTES:
0000
0000
0000
0000
,
0000
0000
0000
0000
,
0000
0000
0000
0100
0010
0000
1001
0000
,
0001
0100
0001
2000
0000
3010
1000
0002
,
0000
0013
0001
2000
0000
3100
1000
0001
,
0000
0100
0010
1000
0010
0100
0000
0110
,
0000
0010
0100
0001
0010
0100
1000
0000
,
0010
1000
0001
0020
0000
0130
1000
0002
,
0000
0103
0001
2000
0000
3100
0010
0001
,
0000
1000
0001
0100
0000
0110
0000
1010
,
0000
1000
0100
0010
0001
1000
0010
0100
,
0002
0000
0000
0000
0013
0000
0100
0000
1000
0000
0000
0001
0000
0000
0010
0000
,
0001
1000
0010
0100
0010
1000
0001
0010
,
0200
0000
0000
0000
1300
0000
0001
0000
0010
0000
0000
0001
0000
0000
1000
0000
,
0010
0100
0001
0010
0001
1000
1000
0000
,
0001
0000
0010
0001
0010
0000
0100
0000
1000
0100
1000
0000
0001
0000
0100
0001
,
0100
0000
0010
0000
1000
0010
1000
0000
0000
0000
0000
0000
0000
0000
0000
0000
,
0001
0010
0100
0000
0010
0001
0100
0002
,
0000
1003
0010
0000
1000
0100
0010
0000
,
0100
1000
0001
0000
0100
0010
1000
0020
,
0000
0130
0001
0010
0000
0011
0000
0000
,
1000
0100
0010
0000
0100
1000
0001
0200
,
0000
0310
1000
0200
0000
1300
0001
0000
,
0101
0000
0100
0010
1000
1000
0001
0001
,
0010
0010
0100
0100
1000
0001
0000
1010
,
0000
0010
1000
0001
0000
0011
0000
0001
,
1000
0000
1000
0000
0010
0000
0100
0010
0100
0000
0001
0000
1000
0000
0000
0000
,
1010
0000
0011
0000
0001
0100
0010
0200
,
0000
0310
1000
0020
0000
0130
0001
1000
,
0100
0000
0010
0001
0100
0001
1000
0200
,
0000
0310
0001
2000
0000
3010
0010
0100
,
0001
0010
0100
1000
0000
0100
0020
0000
,
0000
0031
1000
0020
0000
0130
0100
0001
,
1000
0000
0100
1000
0100
0000
0010
0000
0001
0010
0001
0000
1000
0000
0010
1000
,
0010
0100
0001
0010
0110
0000
1001
0000
,
1000
0100
0010
0021
0000
0031
0100
0210
,
0000
0310
1000
2100
0000
3001
0010
0100
,
0010
0001
0100
0010
1000
0100
0010
0120
,
0000
0000
0130
0000
1000
0000
0001
0000
0100
0000
0010
0100
0010
0000
1000
0010
,
1000
0001
0010
0210
0000
0310
0001
0102
,
0000
0000
1003
0000
0100
0000
0120
0000
0000
0000
0031
0010
0001
0000
0010
0000
,
0100
0000
1000
0100
1000
0000
0001
0000
0000
0000
0101
0000
0000
0000
1020
0000
,
0000
0000
1030
0000
0100
0000
0010
0000
0001
0000
0100
0001
0100
0000
0010
0000
,
1000
0100
0001
0102
0000
0103
1000
2010
,
0000
3001
0010
0210
0000
1300
0010
0101
,
0000
0001
0100
1000
0100
0001
0010
0120
,
0000
0000
0130
0000
1000
0000
1010
0000
0000
0000
0010
0100
0010
0000
0100
0001
,
0100
0010
1000
2100
0000
3100
0010
0012
,
0000
0000
1003
0000
0010
0000
0120
0000
0000
0000
0130
0001
0100
0000
0001
1000
,
0001
0000
0010
0110
0000
1100
0000
2001
,
0000
0000
3001
0000
0010
0000
0100
0000
0000
0000
1000
0100
1000
0000
0010
0000
,
1000
0000
1000
0000
0001
0000
0000
0000
0011
0000
0000
0110
0000
0000
1000
0000
,
0001
0000
0100
0001
0100
0000
0020
0000
0000
0000
1030
0100
1000
0000
0020
0000
,
0000
0000
1030
0001
1000
0000
0200
0000
0000
0000
0310
0001
0010
0000
0100
0000
,
1000
0010
0100
0010
0001
0010
0100
0010
,
1000
0001
0000
0010
0001
0000
0010
0100
0000
1000
0100
0000
1000
0000
0001
0000
,
0100
0001
0100
0000
0010
0000
0100
0000
0001
1000
0001
0000
0010
0000
0100
0000
,
1000
0100
1000
0000
0001
0000
0200
0000
0000
0000
0310
1000
0010
0000
0100
0000
,
0001
0000
1000
0001
1000
0000
0100
0000
0000
0000
1100
0000
0000
0000
0011
0000
,
0000
0000
0001
0000
1000
0000
0000
0000
0010
0000
0100
0010
0100
0000
0001
0000
,
0010
0000
0100
0000
1000
0000
0010
0000
0100
0000
0000
0101
0000
0000
0001
0000
,
0010
0000
0100
0000
1000
0100
1000
0000
0001
0000
0100
0000
0010
0100
0010
0000
,
1000
0000
0001
0000
0010
0000
0001
0000
1000
0000
0000
1010
0000
0000
0010
0000
,
0100
0000
0001
0000
0010
0001
0010
0000
0100
0000
0010
0000
0100
1000
0100
0000
,
1000
0000
0010
0110
0000
0100
1001
0000
,
0001
0000
0011
0000
0000
0000
1010
0000
0000
0000
1000
0000
0100
0000
0010
0100
,
0010
0000
0001
0010
0001
0000
1000
0000
0010
0100
0010
0000
1000
0000
0100
0010
,
0100
1000
0001
1001
0000
0000
0000
0000
;

//--------------- dance-double - forcednature ----------------
#NOTEDATA:;
#STEPSTYPE:dance-double;
#DESCRIPTION:forcednature;
#DIFFICULTY:Easy;
#METER:5;
#RADARVALUES:0,0,0,0,0;
#CREDIT:forcednature;
#NOTES:
00000000
00000000
00000000
00000000
,
00000000
00000000
00000000
00000000
,
00000000
00000000
00000000
00000000
,
00001000
00000000
00000000
00000000
,
01000000
00000000
00010000
00000000
,
01000000
00000000
00100000
00000000
,
10000000
00000000
00000000
00000000
,
00010000
00000000
00000000
00000000
,
00100000
00000000
00001000
00000000
,
00010000
00000000
00010000
00000000
,
00010000
00000000
00000000
00000000
,
00011000
00000000
00000000
00000000
,
00000100
00000000
00001000
00000000
,
00000100
00000000
00000000
00000000
,
00000010
00000000
00000001
00000000
,
00001000
00000000
00001000
00000000
,
00001000
00000000
00000000
00000000
,
00001001
00000000
00000000
00000000
,
00000001
00000000
00000000
00000000
,
00000100
00000000
00000000
00000000
,
00000010
00000000
00010000
00000000
,
00001000
00000000
00000000
00000000
,
01000000
00000000
00000000
00000000
,
00010000
00000000
00010000
00000000
,
00010000
00000000
10010000
00000000
,
00000000
01100000
00000000
00000000
,
10000000
10000000
10000000
00000000
,
10010000
00000000
00000000
00000000
,
00010000
00000000
00000000
00000000
,
01000000
00000000
00001000
00000000
,
00010000
00000000
00001000
00000000
,
00010000
00000000
00000000
00011000
,
00000000
00000000
00000100
00000000
,
00001000
00000000
00001000
00000000
,
00000001
00000000
00000100
00000000
,
00000110
00000000
00000000
00000000
,
00000010
00000000
00001000
00000000
,
00000100
00000000
00010000
00000000
,
00001000
00000000
01000000
00000000
,
10010000
00000000
00000000
00000000
,
00010000
00000000
01000000
00000000
,
00001000
00000000
00010000
00000000
,
00000100
00000000
00001000
00000000
,
00001001
00000000
00000000
00000000
,
00001000
00000000
00000010
00000000
,
00010000
00000000
00001000
00000000
,
00100000
00000000
00010000
00000000
,
10010000
00000000
00000000
00000000
,
00010000
00000000
00100000
00000000
,
00001000
00000000
00010000
00000000
,
00000010
00000000
00001000
00000000
,
00000110
00000000
00000000
00000000
,
00000001
00000000
00000100
00000000
,
00000010
00000000
00001000
00000000
,
00000100
00000000
00000000
00000000
,
00010000
00000000
00010000
00000000
,
00002000
00000000
00000000
00000000
,
01000000
00000000
00000000
00000000
,
00100000
00000000
00100000
00000000
,
00103000
00000000
00000000
00000000
,
10010000
00000000
10000000
00000000
,
01000000
00000000
10000000
00000000
,
00010000
00000000
01000000
00000000
,
00001000
00000000
00000000
00000000
,
00010000
00000000
00000000
00011000
,
00000000
00000000
00001000
00000000
,
00010000
00000000
00010000
00000000
,
00000100
00000100
00000000
00000000
;

//--------------- dance-double - forcednature ----------------
#NOTEDATA:;
#STEPSTYPE:dance-double;
#DESCRIPTION:forcednature;
#DIFFICULTY:Medium;
#METER:11;
#RADARVALUES:0,0,0,0,0;
#CREDIT:forcednature;
#NOTES:
00000000
00000000
00000000
00000000
,
00000000
00000000
00000000
00000000
,
00000000
00000000
00002000
00023000
,
00030100
00001000
00000100
00001000
00000000
00000010
00001000
00000010
,
00000000
00010000
00000000
00001000
00000000
00100000
00010000
00100000
,
00000000
00000000
01000000
10000000
01000000
10000000
00000000
20020000
,
00000000
30030000
00000000
00010000
01000000
00000000
00001000
00000000
,
00010000
00000100
00010000
00000100
00000000
00001000
00000001
00001000
,
00000000
00000010
00000000
00000100
00000000
00001000
00010000
00001000
,
00000000
00000000
01000000
00010000
00000000
00100000
00000000
20020000
,
00000000
00000000
30030000
00000000
10000000
00010000
10000000
00000000
,
01000000
00000000
00010000
00001000
00010000
00000000
00000100
00000000
,
00001000
00000010
00001000
00000000
00000001
00000010
00000001
00000000
,
00000100
00000000
00000010
00001000
00000010
00000000
00010000
00000000
,
00001000
00100000
00001000
00000000
01000000
00010000
01000000
00000000
,
00100000
00000000
00100000
10000000
00000000
10000000
01000000
00000000
,
01000000
00010000
00000000
00011000
00000000
00000000
00000000
00000000
,
00001000
00000000
00000010
00000000
00000001
00000000
00000010
00000100
,
00000000
00000100
00000010
00000000
00000001
00000000
00000100
00000000
,
00001000
00000000
00010000
00000000
00100000
00000000
10000000
01000000
,
00000000
01000000
00100000
00001000
00000000
00011000
00000000
00000000
,
00010000
00000000
00000100
00000000
00000010
00000000
00000001
00000100
,
00000000
00000100
00000001
00000000
00000010
00000000
00001000
00000000
,
00011000
00000000
00000000
00000000
01000000
00010000
01000000
00001000
,
01000000
00010000
01000000
00001000
01000000
00000000
00000000
10010000
,
00000000
00000000
00100000
00000000
00000000
00011000
00000000
00000000
,
00010000
00010000
00010000
00000000
00001000
00010000
00000100
00000000
,
00000010
00000000
00001001
00000000
00001000
00000100
00010000
00000200
,
00000000
00000300
00010000
00000000
00001000
00000000
01000000
00000000
,
00010000
00000000
00100000
01000000
00100000
00000000
01000000
20000000
,
00000000
00000000
30010000
02000000
00000000
00000000
03000000
00000000
,
00001000
00000000
00001000
00010000
00000000
00010000
00000020
00000000
,
00000000
00000000
00000130
00000000
00000001
00001000
00000001
00000000
,
00000010
00000000
00000010
00000100
00000000
00000100
00010000
00000000
,
00001000
01000000
00000000
01000000
00100000
00000000
10010000
00000000
,
10000000
01000000
00010000
00002000
00000000
00013000
00001000
00000020
,
00000000
00000031
00000000
00001001
00000000
00001000
00000001
00000100
,
00000000
00000000
00000010
00010000
00001000
01000000
00000000
00022000
,
00000000
00033000
00000000
00010000
00000200
00000000
00000320
00000000
,
00000031
00000100
00001000
00020000
00000000
00031000
00010000
00200000
,
00000000
10300000
00000000
10010000
00000000
00010000
00100000
01000000
,
00000000
10000000
01000000
00010000
00000000
00001000
00000000
00022000
,
00000000
00033000
00000000
00001000
02000000
00000000
03020000
00000000
,
10030000
00100000
00010000
00002000
00000000
00013000
00001000
00000200
,
00000000
00000301
00000000
00001001
00000000
00001000
00000100
00000020
,
00000000
00000030
00000100
00010000
00001000
00100000
00000000
01100000
,
00000000
01000000
00010000
00002000
00000000
00003000
00000100
00000000
,
00000001
00000010
00001000
00020000
00000000
00031000
00010000
02000000
,
00000000
13000000
00000000
10010000
00000000
00010000
01000000
00001000
,
00000000
00010000
00000100
00000010
00000000
00000110
00000000
00002002
,
00000000
00003003
00000000
00000002
00000000
00000103
00001000
00010000
,
00200000
00000000
00000000
00000000
00000000
00000000
00000000
00000000
01300000
00000000
00000000
01000000
00000000
00000000
01000000
00000000
,
00000000
00100000
10000000
00100000
00000000
10000000
01000000
10000000
,
00000000
01000000
00010000
01000000
00000000
00010000
00001000
00010000
,
00000000
00001000
00000000
00000010
00000000
00000001
00000100
00000000
,
00001000
00000000
00000000
00010000
00000000
00000000
00100000
00000000
00000000
01000000
00000000
00000000
00010000
00000000
00000000
00000000
,
10000000
00000000
01000000
00010000
01000000
00000000
00010000
00001000
,
00000000
00001000
00000010
00000000
00000100
00000100
00000100
00000000
,
00001001
00000000
00000001
00000100
00000000
00001000
00000000
00011000
,
00000000
00010000
00100000
10000000
00000000
01000000
10000000
00000000
,
10010000
00000000
00000000
00000000
00010000
00000000
00000000
00000000
01000000
00000000
00000000
01000000
00000000
00000000
01000000
00000000
,
00001000
00010000
00000100
00000000
00010000
00001000
01000000
00000000
,
00011000
00000000
00000000
00000000
00000100
00000000
00000000
00000000
00001000
00000000
00000000
00001000
00000000
00000000
00001000
00000000
,
00000010
00010000
00001000
00000000
00100000
00001000
00010000
00000000
,
00100000
00000000
00100000
10000000
00000000
10000000
01000000
00000000
,
01000000
00010000
00000000
00011000
00000000
00001000
00000010
00000000
,
00000001
00000100
00000001
00000010
00000100
00000010
00000001
00000100
,
00000010
00001000
00000100
00010000
00000000
00000000
00000000
00000000
;

//--------------- dance-double - forcednature ----------------
#NOTEDATA:;
#STEPSTYPE:dance-double;
#DESCRIPTION:forcednature;
#DIFFICULTY:Hard;
#METER:15;
#RADARVALUES:0,0,0,0,0;
#CREDIT:forcednature;
#NOTES:
00000000
00000000
00000000
00000000
,
00000000
00000000
00000000
00000000
,
00000000
00000000
00000000
00001000
00010000
00000000
00011000
00000000
,
00001000
01000000
00010000
02000000
00000000
03100000
10000000
00020000
,
00000000
00130000
00000000
01100000
00000000
01000000
00010000
00001000
,
00000000
00010000
00000100
00001000
00000010
00001000
00000000
00001001
,
00000000
00000001
00000010
00000100
00001000
00000100
00000010
00000000
,
00000001
00000100
00000010
00000200
00000000
00000310
00010000
00002000
,
00000000
00103000
00000000
00110000
00000000
00010000
01000000
00100000
,
00000000
10000000
01000000
00010000
00000000
00011000
00000000
00010200
,
00000000
00001300
00000100
00000010
00000001
00001000
00000010
00000000
,
00020000
00000000
00000000
00000000
00031000
00000000
00100000
00000000
00010000
00000000
00000000
00010000
00000000
00000000
10000000
00000000
,
01000000
00100000
00001000
00010000
00001000
01000000
00100000
10000000
,
00010000
00000000
00000000
00000000
00100000
00000000
00001000
00000000
00010000
00000000
00000000
00010000
00000000
00000000
00000010
00000000
,
00001000
00000100
00000010
00000100
00010000
00000010
00000010
00000000
,
00001000
00000000
00000100
00001000
00000100
00000000
00010000
00000000
00001000
00010000
00001000
00000000
01000000
00000000
00010000
01000000
,
00010000
00000000
00100000
00000000
01000000
00100000
01000000
00000000
00000000
00000000
00000000
00000000
00000000
00000000
00000000
00000000
,
01000000
00010000
01000000
00000000
00001000
00010000
00000100
00020000
,
00000000
00031000
00001000
00000000
00000010
00000100
00000010
00000000
,
00000001
00001000
00000100
00000000
00010000
00001000
01000000
00020000
,
00000000
00130000
01000000
10000000
00000000
11000000
00000000
00000000
,
01000000
00010000
00001000
00000000
00010000
00000100
00001000
00000200
,
00000000
00000310
00000001
00002000
00000000
00003010
00010000
00000000
,
00011000
00000000
00001000
01000000
00001000
00010000
00001000
00100000
,
00001000
00010000
00001000
00000100
00000001
00001000
00000000
00001100
,
00000000
00000100
00010000
00001000
00000000
00021000
00000000
00130000
,
01000000
00000000
01000000
00000000
00100000
00000000
10000000
00100000
10000000
00000000
01000000
00000000
00010000
00000000
00000000
00000000
,
00011000
00000000
00010100
00000000
00000100
00000010
00000001
00000200
,
00000000
00000310
00000000
00002010
00000000
00003100
00010000
00001000
,
00100000
00000000
01000000
10000000
01000000
00010000
00001000
00200000
,
00000000
00310000
01000000
00200000
00000000
10000000
10300000
00100000
,
01000000
10000000
01000000
00010000
00000000
00100000
00002000
00000000
,
00000000
00013000
00000100
00000020
00000000
00000031
00000010
00000100
,
00001000
00000000
00000100
00001000
00000100
00000000
00010000
00000000
00001000
00010000
00001000
00000000
01000000
00000000
00010000
01000000
,
00010000
00100000
00000000
01000000
01100000
00000000
10010000
00000000
,
00001000
00010000
00000100
00002100
00000000
00003010
00000100
00000120
,
00000000
00002030
00000000
00023000
00000000
01030000
00010000
00100000
,
00000000
01000000
10000000
01000000
00010000
00001000
00000000
00201000
,
00000000
00000000
00310000
00000000
00001000
00000000
00000100
00000000
00010000
00000000
00000010
00001000
00000010
00000000
00000100
00000010
,
00000100
00000001
00000010
00000210
00000000
00010300
00001000
02001000
,
00000000
00000000
03200000
00000000
00000000
00000000
20300000
00000000
00000000
00000000
31000000
10000000
01000000
00000000
00100000
00000000
,
00001000
00000000
01000000
00010000
01000000
00000000
00001000
00000000
00000000
00000000
00011000
00000000
00000000
00000000
00010200
00000000
,
00000000
00000000
00000310
00000000
00000001
00000000
00000100
00000000
00000010
00000000
00001000
00000010
00002000
00000000
00000000
00000000
,
00003100
00010000
00001000
00201000
00000000
00310000
01000000
01200000
,
00000000
20300000
00000000
32000000
00000000
03010000
00001000
00011000
,
00000000
00010000
00000100
00000010
00000001
00000100
00000010
00020010
,
00000000
00000000
00031000
00000000
01000000
00000000
01002000
00000000
00000000
00000000
00103000
00010000
00100000
00000000
01000000
00100000
,
01000000
10000000
01000000
01020000
00000000
00031000
00000010
00000210
,
00000000
00000000
00020300
00000000
00000000
00000000
00030020
00000000
00000000
00000000
00000130
00000001
00000100
00000000
00000010
00001000
,
00000010
00000000
00000100
00001000
00000000
00011000
00000000
02001000
,
00000000
00000000
03010000
00000000
10000000
00000000
00200000
00000000
00000000
00000000
01300000
00010000
01000000
00000000
00001000
00000000
,
00010000
00000000
00000100
00000000
00000010
00000000
00000000
00000000
00000110
00000000
00000000
00001100
00000000
00000000
00000001
00000000
,
00000100
00000000
00000010
00001000
00000010
00000000
00020000
00000000
00000000
00000000
00030100
00001000
00000100
00000000
00000020
00000000
,
00000000
00000000
00000031
00001000
00000001
00000000
00000200
00000000
00000000
00000000
00001300
00010000
00001000
00000000
00100000
00000000
,
00010000
01000000
10000000
01000000
00010000
00100000
10000000
00100000
,
00010000
01000000
00000000
00001000
00010000
00000000
00000100
00001000
00000000
00000010
00000100
00000000
00000001
00000000
00000010
00000000
,
00000100
00001000
00000100
00000000
00010000
00000000
00001000
00000000
01000000
00010000
01000000
00000000
00001000
00000000
00010000
00000000
,
00000010
00001000
00000010
00000000
00000100
00000000
00002000
00000000
00000000
00000000
00013000
00001000
00010000
00000000
00100000
00000000
,
01000000
00000000
00000000
01000000
00010000
00000000
00100000
00000000
00000000
00000000
00101000
00000000
00000000
00000000
00010200
00000000
,
00000000
00000000
00000310
00000000
00000001
00000000
00001000
00000000
00000010
00000000
00000100
00000010
00000100
00000000
00001000
00000000
,
00010000
00000000
01000000
00000000
00100000
00000000
01000000
10000000
01000000
00000000
00000000
01100000
00000000
00000000
00100000
00000000
,
00010000
00000000
01000000
00000000
00001000
00100000
00001000
00000000
00010000
00000000
00000100
00000000
00001000
00000010
00001000
00000000
,
00000001
00000000
00001000
00000000
00000010
00000000
00000100
00000010
00000100
00000000
00000000
00000110
00000000
00000000
00000010
00000000
,
00001000
00000000
00000100
00000000
00010000
00000010
00010000
00000000
00001000
00000000
01000000
00000000
00010000
00100000
00010000
00000000
,
10000000
00000000
01000000
00010000
00001000
00000100
00000010
00000000
,
00000100
00000110
00000000
00001001
00000000
00000001
00000100
00000001
,
00001000
00000000
00000010
00001000
00000010
00000000
00010000
00000000
00001000
00010000
00001000
00000000
00100000
00000000
00010000
00100000
,
00010000
01000000
00100000
01100000
00000000
00000000
00000000
00000000
;
