#VERSION:0.83;
#TITLE:羽根亡キ少女唄;
#SUBTITLE:;
#ARTIST:純情ディスコード;
#TITLETRANSLIT:Hanenaki shoujo uta;
#SUBTITLETRANSLIT:;
#ARTISTTRANSLIT:;
#GENRE:;
#CREDIT:;
#MUSIC:Hanenaki shoujo uta.ogg;
#BANNER:Hanenaki shoujo uta.png;
#BACKGROUND:Hanenaki shoujo uta-bg.png;
#CDTITLE:./CDTitles/GITADORA.png;
#SAMPLESTART:46.363;
#SAMPLELENGTH:15.000;
#SELECTABLE:YES;
#OFFSET:1.209;
#BPMS:0.000=174.000;
#STOPS:203.500=0.345;
#TIMESIGNATURES:0.000=4=4;
#BGCHANGES:0.000=../BGAs/17te.mp4=1.000=0=0=0=StretchNoLoop====,
99999.000=-nosongbg-=1.000=0=0=0=StretchNoLoop====
;
#FGCHANGES:;

//--------------- dance-single - forcednature ----------------
#NOTEDATA:;
#STEPSTYPE:dance-single;
#DESCRIPTION:forcednature;
#DIFFICULTY:Beginner;
#METER:2;
#RADARVALUES:0,0,0,0,0;
#CREDIT:forcednature;
#NOTES:
0000
0000
0000
0000
,
0000
0000
0000
0000
,
0000
0000
0000
0000
,
0000
0000
0000
0000
,
0000
0000
0000
0000
,
0000
0000
0000
0000
,
0000
0000
0000
0000
,
1000
0000
0000
0000
,
0001
0000
0000
0000
,
0100
0000
0000
0000
,
0010
0000
0000
0000
,
1000
0000
0000
0000
,
0000
0000
0000
0000
,
0001
0000
0000
0000
,
0000
0000
0000
0000
,
0010
0000
0000
0000
,
0000
0000
0000
0000
,
0100
0000
0000
0000
,
0000
0000
0000
0000
,
1000
0000
0000
0000
,
0000
0000
0000
0000
,
0001
0000
0000
0000
,
0000
0000
0000
0000
,
0100
0000
0000
0000
,
0000
0000
0000
0000
,
0010
0000
0000
0000
,
1000
0000
0000
0000
,
0001
0000
0000
0000
,
0000
0000
0000
0000
,
0010
0000
0000
0000
,
0000
0000
0000
0000
,
0100
0000
0000
0000
,
1000
0000
0000
0000
,
0010
0000
0000
0000
,
0100
0000
0000
0000
,
1001
0000
0000
0000
,
0001
0000
0000
0000
,
0010
0000
0000
0000
,
0001
0000
0000
0000
,
1000
0000
0000
0000
,
0010
0000
0000
0000
,
0100
0000
0000
0000
,
0001
0000
0000
0000
,
1000
0000
0000
0000
,
0000
0000
0000
0000
,
0100
0000
0000
0000
,
0000
0000
0000
0000
,
0010
0000
0000
0000
,
0000
0000
0000
0000
,
0001
0000
0000
0000
,
0000
0000
0000
0000
,
0000
0000
0000
0000
,
0100
0000
0000
0000
,
0000
0000
0000
0000
,
0010
0000
0000
0000
,
1000
0000
0000
0000
,
0001
0000
0000
0000
,
0010
0000
0000
0000
,
0100
0000
0000
0000
,
1000
0000
0000
0000
,
0000
0000
0000
0000
,
0001
0000
0000
0000
,
0010
0000
0000
0000
,
0100
0000
0000
0000
,
1000
0000
0000
0000
,
0001
0000
0000
0000
,
0100
0000
0000
0000
,
0010
0000
0000
0000
,
1000
0000
0000
0000
,
0001
0000
0000
0000
,
0010
0000
0000
0000
,
0001
0000
0000
0000
,
0100
0000
0000
0000
,
0010
0000
0000
0000
,
1000
0000
0000
0000
,
0100
0000
0000
0000
,
0010
0000
0000
0000
,
0000
0000
0000
0000
,
0001
0000
0000
0000
,
0000
0000
0000
0000
,
1000
0000
0000
0000
,
0010
0000
0000
0000
,
0100
0000
0000
0000
0000
0000
0000
2002
,
0000
0000
0000
0000
0000
0000
0000
3003
;

//--------------- dance-single - forcednature ----------------
#NOTEDATA:;
#STEPSTYPE:dance-single;
#DESCRIPTION:forcednature;
#DIFFICULTY:Easy;
#METER:6;
#RADARVALUES:0,0,0,0,0;
#CREDIT:forcednature;
#NOTES:
0000
0000
0000
0000
,
0000
0000
0000
0000
,
0000
0000
0000
0000
,
0000
0000
0000
0000
,
0000
0000
0000
0000
,
0000
0000
0000
0000
,
0000
0000
0000
0000
,
1000
0000
0001
0000
,
0100
0010
1000
0001
,
0010
0000
0010
0000
,
0100
1000
0001
0000
,
0200
0000
0000
0300
,
0002
0000
0000
0003
,
2000
0000
0000
3000
,
0200
0000
0000
0300
0020
0000
0000
0030
,
0001
0000
0001
0000
,
1000
0000
1000
0000
,
0010
0100
0001
0100
,
0010
1000
0001
0000
,
1001
0000
1000
0100
,
1000
0000
0010
0100
,
0001
0000
0010
0100
,
1000
0100
0010
0001
,
1000
0000
0010
0100
,
0001
0010
0001
1000
,
0010
0000
0000
0000
0100
0000
0000
0110
,
0000
0000
0000
2002
0000
0000
3003
0000
,
1000
0100
1000
0000
,
1000
0001
0010
0000
,
0001
0100
0001
0000
,
0001
1000
0010
0000
,
0110
0000
0100
0001
,
1000
0010
1000
0001
,
0010
0000
0000
0100
0000
0000
0010
0000
,
0001
0000
2000
0000
,
3001
0100
0001
0010
,
0100
1000
0010
0100
,
0010
1000
0001
0010
,
0100
0100
1000
0001
,
0100
0000
0010
1000
,
0100
1000
0001
0000
,
0010
0001
1000
0010
,
0100
0001
1000
0100
,
0010
0000
0001
1000
,
0010
0000
0100
0001
,
1000
0000
0100
0000
,
0010
0100
1000
0000
,
0001
0010
0001
0000
,
0100
0010
0100
0000
,
0001
1000
0010
0000
,
1000
0000
0000
0000
0000
0000
0000
0000
0000
0000
0000
0000
0000
0000
0000
0000
0000
0000
0000
0000
0000
0000
0000
0000
0000
0000
0000
0000
0000
0000
0000
0000
0002
0000
0000
0000
0000
0000
0000
0000
0000
0000
0000
0000
0000
0000
0000
0000
0000
0000
0000
0000
0000
0000
0000
0000
0000
0003
0000
0000
0000
0000
0000
0000
,
0000
0010
0100
1000
,
0000
0001
0100
0010
,
1000
0000
0001
0010
,
0001
0000
1000
0000
,
0110
0000
0001
1000
,
0100
0000
0010
0001
,
1000
0000
0000
0010
0000
0000
0100
0000
,
0001
0001
1000
0100
,
0020
0000
0000
0030
,
0002
0000
0000
0003
,
2000
0000
0000
3000
,
0010
0010
0100
0000
,
0001
0000
1001
0000
,
1000
0000
1001
0000
,
0001
0010
0001
0100
,
0010
1000
0100
0000
,
0110
0000
0010
0001
,
1000
0010
0100
0001
,
1000
0000
0100
1000
,
0010
0100
0001
0010
,
0100
0000
1000
0001
,
0100
0010
1000
0001
,
0010
0000
0100
1000
,
0001
0100
0010
1000
,
2002
0000
3003
0000
,
0001
0100
0010
0100
,
0001
1000
0100
1000
,
0010
0100
0001
0010
,
0100
0000
1000
0000
,
0001
0000
0110
0000
,
1000
0000
0110
0000
,
0001
0000
0000
1000
0000
0000
2002
0000
,
0000
0000
0000
0000
0000
0000
0000
3003
;

//--------------- dance-single - forcednature ----------------
#NOTEDATA:;
#STEPSTYPE:dance-single;
#DESCRIPTION:forcednature;
#DIFFICULTY:Medium;
#METER:11;
#RADARVALUES:0,0,0,0,0;
#CREDIT:forcednature;
#NOTES:
0000
0000
0000
0000
,
0000
0000
0000
0000
,
0000
0000
0000
0000
,
0000
0000
0000
0000
,
0000
0000
0000
0000
,
0000
0000
0000
0000
,
0000
0000
0000
0000
,
1100
0000
0101
0000
,
1000
0010
0100
0001
,
0010
0100
1000
0010
0100
0001
0010
0100
,
0000
1000
0010
0100
0010
0001
0010
0000
,
0200
0000
0000
0300
,
0002
0000
0000
0003
,
2000
0000
0000
3020
,
0000
0000
0230
0000
0000
0301
0000
0000
,
0011
0010
0100
1000
,
0001
0100
0010
1000
,
0100
0000
0010
0001
0000
1000
0010
0000
,
0200
0000
0000
0000
0302
0000
0000
0000
2003
0000
3020
0000
0000
0030
0000
0000
,
1100
0000
0000
0000
0001
0000
0000
0000
0010
0000
0000
0100
0000
0000
0010
0000
,
0001
0000
0000
1000
0000
0000
0001
0000
0000
0000
0100
0000
0010
0000
0000
0000
,
1000
0000
0000
0100
0000
0000
1000
0000
0000
0000
0001
0000
0010
0000
0010
0000
,
0000
0100
1000
0002
0000
0203
0320
0000
,
1030
0000
0001
0010
0001
0000
1000
0010
,
0000
0000
0100
0000
0001
0000
0000
0000
0010
0000
0000
0100
0000
0000
1000
0000
,
0001
0000
0100
1000
0000
0100
0001
0100
,
0000
0010
0000
2002
0000
0000
3003
0000
,
0110
0000
0001
1000
0000
0100
0000
0010
,
0001
0000
0000
0000
0100
0000
0000
0000
0010
0000
0000
1000
0000
0000
0001
0000
,
0010
0000
0100
0000
1000
0001
0000
0100
,
0000
0010
1000
0001
0000
0010
0100
0000
,
1100
0000
1000
0010
0100
0010
1000
0000
,
0011
0000
0000
0010
0000
0000
0100
0000
1000
0000
0000
0000
1001
0000
0000
0000
,
0110
0000
0001
0100
0000
1000
0100
0000
,
0010
1000
0001
0000
0010
0000
0100
0000
,
1000
0000
0001
0100
0010
0100
0001
1000
,
0010
0000
1000
0100
0010
0100
1000
0001
,
0010
0000
0001
0100
0010
1000
0001
0010
,
0100
1000
0100
0000
0010
0001
0010
0000
,
1001
0000
1000
0010
0100
0001
1000
0100
,
0010
0000
0000
0010
0000
0000
0001
0000
1000
0000
0000
0000
0010
0000
0100
0000
,
1000
0000
0100
0001
0000
0010
0100
0000
,
1000
0010
1000
0001
0010
0001
0100
0000
,
0010
0000
0000
1000
0000
0000
0001
0000
0010
0000
0000
0001
0000
0000
1000
0000
,
0000
0010
0100
0100
0001
0000
0010
0000
,
0200
0000
2300
0000
3001
0100
0010
1000
,
0000
0100
0010
0001
0000
0100
0000
0000
,
1010
0000
0010
1000
0001
1000
0100
0010
,
0000
0010
0001
0001
0000
0100
0010
0000
,
1000
0100
1000
0100
1000
0001
0010
0000
,
0001
0000
0000
0000
0000
0000
0000
0000
0000
0000
0000
0000
0100
0000
0000
0000
0000
0000
0000
0000
0000
0000
0000
0000
0101
0000
0000
0000
0000
0000
0000
0000
1000
0000
0000
0000
0000
0000
0000
0000
0000
0000
0000
0000
0010
0000
0000
0000
0000
0000
0000
0000
0000
0000
0000
0000
2020
3030
0000
0000
0000
0000
0000
0000
,
1001
0000
0001
0010
0100
0000
1000
0000
,
0001
0000
0100
0010
1000
0000
0100
0100
,
0010
0000
0001
1000
0010
0000
1000
0100
,
0000
0010
0001
0100
0000
0010
0010
0000
,
1001
1100
1001
1100
,
0011
0000
0000
0001
0000
0000
1000
0000
0010
0000
0000
0000
0110
0000
0000
0000
,
0100
0000
0001
0010
0000
0100
1000
0000
,
0010
0100
0010
0000
1001
0000
0001
0000
,
0020
0000
0000
0230
0000
0000
1300
0000
,
0001
0000
0000
0100
0000
0000
0001
0000
0000
0000
0000
0000
1000
0000
0000
0000
,
0020
0000
0000
0230
0000
0000
0301
0000
,
1000
1000
0001
0100
0000
0010
1000
0000
,
0001
0010
0000
0100
1100
0000
1000
0001
,
1000
0010
0000
0100
0101
0000
0001
0010
,
0100
0000
1001
0000
1000
0010
0100
0001
,
1000
0000
1000
0000
0100
0010
0001
0000
,
0100
0010
1000
0001
0010
0100
1000
0000
,
0100
0010
0001
0100
0010
1000
0001
0000
,
0010
0100
1000
0001
0100
0010
1000
0000
,
0001
0001
0001
0000
1000
1000
1000
0000
,
0110
0000
0001
1000
0010
0000
0100
0001
,
1000
0000
0000
0100
0000
0000
1000
0000
0010
0000
0000
0000
0100
0000
0000
0000
,
0011
0000
0001
0100
0000
1000
0100
0000
,
0010
1000
0010
0000
0100
0001
1000
0000
,
0220
0000
0000
0330
0000
1000
0001
0000
,
0100
0010
1000
0001
0000
0010
0100
1000
,
0001
0100
0010
1000
0000
0001
0010
0100
,
0010
0000
0001
1000
0010
1000
0001
0000
,
0010
0100
1000
0000
0001
0001
0100
0000
,
0110
0000
0010
1000
0001
0000
0010
0100
,
2000
3020
0230
0302
,
0013
0100
1000
0010
0100
0001
1000
0200
,
0000
0000
0000
0000
0000
0000
0000
0300
;

//--------------- dance-single - forcednature ----------------
#NOTEDATA:;
#STEPSTYPE:dance-single;
#DESCRIPTION:forcednature;
#DIFFICULTY:Hard;
#METER:14;
#RADARVALUES:0,0,0,0,0;
#CREDIT:forcednature;
#NOTES:
0000
0000
0000
0000
,
0000
0000
0000
0000
,
0000
0000
0000
0000
,
0000
0000
0000
0000
,
0000
0000
0000
0000
,
0000
0000
0000
0000
,
0000
0000
0000
0000
,
1000
0000
0001
0000
1000
0000
0100
0010
0002
0000
0000
0000
0000
0000
0103
0000
,
0001
0000
1000
0000
0100
0010
0100
0000
1000
0000
1000
0000
0010
0000
0100
0000
,
0001
0000
0010
0100
0010
0000
0001
0000
0100
0010
0100
0000
1000
0000
0100
0000
,
0001
0000
1000
0000
0100
0010
0100
0000
1000
0000
0010
0100
0010
0000
1000
0000
,
1001
0000
0001
0000
0010
0100
0000
1000
,
0000
0000
0001
0000
0000
0000
0100
0000
0010
0000
0000
1000
0000
0000
0001
0000
,
1000
0000
0100
0010
0000
0001
0001
0100
,
0000
0010
1000
0001
0000
0010
0100
1000
,
0010
0000
0100
0001
0100
0010
0000
1000
,
0000
0001
0010
0000
0100
0000
1000
0000
,
0001
0100
0010
1000
0010
0100
0001
1000
,
0200
0000
0310
0001
1000
2002
0000
3003
,
0110
0000
0001
0100
1000
0100
0010
1000
,
0001
0000
0000
0010
0000
0000
0100
0000
1000
0000
0000
0000
0001
0000
0000
0000
,
0100
0000
0000
0010
0000
0000
1000
0000
0000
0000
0001
0000
0010
0000
0100
0000
,
0000
0000
1000
0000
0001
0000
0101
0000
0000
0000
0010
0000
1000
0000
0001
0010
,
0001
0000
0100
0010
1000
0001
0010
0110
,
0000
0100
1000
0001
0100
0100
0010
1000
,
0001
0000
0010
1000
0000
0010
0100
1100
,
0000
1010
0000
0102
0000
0013
0001
0100
,
0010
0000
1000
0010
1000
0000
0100
0000
0000
0000
0010
0000
0001
0000
0010
0000
,
0100
0000
1000
0000
0001
0000
0100
0000
0010
0000
0000
0010
1000
0000
0001
0010
,
0001
1000
0010
0100
0000
0001
0010
0110
,
0000
0000
1000
0000
0010
0000
0110
0000
0000
0000
0001
0000
1000
0100
1000
0100
,
0010
0000
0000
0010
0001
0000
0100
0000
0001
0000
0010
0000
0001
0000
1000
0010
,
1000
0000
0000
1000
0100
0000
0010
0001
0010
0000
0100
1000
0001
0000
0000
0001
,
0100
0000
1000
0000
1000
0000
0100
0000
0001
0000
0001
0000
0010
0100
1000
0000
,
0010
0001
0010
1000
0200
0000
0320
0000
,
0031
0000
0000
0001
0100
0000
0010
0000
1000
0000
0100
0010
0100
0000
1000
0000
,
0010
0000
0000
0010
0100
0000
0001
0000
0010
0000
0100
1000
0100
0000
0010
0000
,
0001
0000
0000
0001
1000
0000
0010
0000
0100
0000
0001
1000
0001
0000
0010
0100
,
1000
0000
0100
0000
1100
0000
0000
1000
0010
0000
0100
0001
1000
0000
0100
0010
,
0001
0001
1000
0010
0100
0100
0001
1000
,
0100
0000
0000
0010
0001
0000
1000
0000
1010
0000
0000
0000
1000
0000
0100
0000
,
0010
0000
0001
0010
0001
0000
0100
0000
0010
0000
1000
0000
0100
0000
0001
0000
,
0100
0000
0010
0001
1000
0000
0010
0000
0100
0001
0100
0001
1000
0000
0000
0000
,
0200
0000
0000
0320
0000
0000
0032
0000
2003
0000
0000
3020
0000
0000
0230
0000
,
0000
0301
0010
0001
0100
1000
0100
0010
,
2000
0000
3002
0000
0013
0100
1000
0020
,
0000
0000
0100
0000
1030
0000
0002
0000
0000
0000
0013
0100
1000
0000
0000
0000
,
0020
0000
0000
0000
0130
0000
0001
1000
0001
0000
0010
0000
0100
0000
2000
0000
,
0000
0000
3010
0000
0100
0000
0110
0000
0000
0000
1000
0000
0001
0010
0001
0010
,
0100
0000
0001
0000
0100
0000
1000
0000
0001
0000
0100
0010
1000
0000
0000
0000
,
1100
0000
0000
0000
0000
0000
0000
0000
0000
0000
0000
0000
1010
0000
0000
0000
0000
0000
0000
0000
0000
0000
0000
0000
0100
0000
0000
0000
0000
0000
0000
0000
0101
0000
0000
0000
0000
0000
0000
0000
0000
0000
0000
0000
0011
0000
0000
0000
0000
0000
0000
0000
0000
0000
0000
0000
2002
3003
0000
0000
0000
0000
0000
0000
,
0110
0000
0000
0000
0001
0000
1000
0000
0010
0000
0000
0010
0100
0000
0001
0000
,
1000
0000
0000
0100
0000
0000
0001
0000
0100
0000
0000
0100
1000
0000
0010
0000
,
0100
0000
0000
0100
1000
0000
0100
0000
0001
0000
0000
0010
0000
0000
0110
0000
,
0000
0000
1000
0000
0010
0000
0110
0000
0000
0000
0100
0000
0001
0000
1000
0100
,
0010
0000
0001
0000
0100
0000
0001
0000
1000
0000
0010
0000
1000
0000
0100
0010
,
0001
0000
0000
0001
0100
0000
0010
0000
1000
0000
0001
0010
0100
0000
1000
0000
,
0010
0100
1000
0001
0010
0100
0001
1000
,
0100
0000
0010
0001
1000
0000
0010
0000
0200
0000
0000
0000
0302
0000
0000
0000
,
1003
0000
0100
0010
0000
0001
0100
0010
,
1010
0000
0000
1000
0000
0000
0001
0000
0000
0000
0010
0000
0100
0000
1000
0000
,
0001
0000
0100
1000
0000
0100
0001
0010
,
0100
0000
0100
0000
1000
0001
0100
0000
0000
0000
0010
0000
0010
0000
0010
0000
,
0100
0000
0001
0000
0000
0000
1000
0100
0010
0000
0001
0000
0010
0000
1000
0000
,
0010
0000
0001
0000
0000
0000
1000
0010
0100
0000
0001
0000
0100
0000
1000
0000
,
0100
0001
0000
0000
0001
0010
0000
0000
0100
0000
1000
0000
0010
0000
0100
0000
,
0001
0010
0001
0000
1000
0000
0010
0000
0100
0000
0001
0000
1000
0100
1000
0100
,
0010
0000
0000
0010
0001
0000
1000
0000
0010
0000
0100
0001
0010
0000
0100
1000
,
0100
0000
0000
0010
0001
0000
1000
0000
0010
0000
0100
0001
1000
0000
0100
0010
,
0100
0000
0000
0100
1000
0000
0010
0000
0100
0000
0001
1000
0010
0000
1000
0100
,
1000
0000
1000
0000
0010
0000
0001
0000
0010
0000
0100
0000
0001
0000
1000
0100
,
0010
0000
0001
0000
0010
0000
1000
0000
0001
0000
0100
0000
1000
0000
0010
1000
,
0010
0000
0000
0010
0100
0000
0001
0000
0010
0000
0100
0000
1000
0000
0001
0100
,
0001
0000
0010
0000
1000
0000
0001
0000
0100
0000
1000
0000
0001
0010
0001
0010
,
0100
0000
1000
0000
0010
0000
0010
0000
0100
0001
1000
0000
0100
1000
0100
1000
,
0020
0000
0000
0000
0230
0000
0000
0000
0301
0000
1000
0100
0010
0000
0001
0000
,
0100
0000
0010
0000
1000
0000
0001
0000
0010
0000
0100
1000
0100
0000
0010
0001
,
0020
0000
0000
0000
0130
0000
1000
0000
0001
0000
0100
0000
0010
1000
0010
1000
,
0001
0000
0000
0001
0010
0000
0100
0000
1000
0000
0001
0100
0001
0000
0010
0000
,
0100
1000
0000
0000
1010
0000
0000
0000
0010
0000
0100
0001
1000
0000
0100
0000
,
0010
0000
0011
0000
0000
0000
0001
0100
0010
0000
2000
0000
0000
0000
3001
0000
,
0020
0000
0000
0000
2030
0000
0000
0000
3001
0000
0100
0000
1000
0010
1000
0000
,
0001
0000
0100
0010
0100
0000
1000
0000
0100
0010
0100
0000
0001
0000
2002
0000
,
0000
0000
0000
0000
0000
0000
0000
0000
0000
3003
0000
1000
0001
0010
0001
0000
;

//--------------- dance-double - forcednature ----------------
#NOTEDATA:;
#STEPSTYPE:dance-double;
#DESCRIPTION:forcednature;
#DIFFICULTY:Easy;
#METER:6;
#RADARVALUES:0,0,0,0,0;
#CREDIT:forcednature;
#NOTES:
00000000
00000000
00000000
00000000
,
00000000
00000000
00000000
00000000
,
00000000
00000000
00000000
00000000
,
00000000
00000000
00000000
00000000
,
00000000
00000000
00000000
00000000
,
00000000
00000000
00000000
00000000
,
00000000
00000000
00000000
00000000
,
00001000
00000000
00010000
00000000
,
00001000
01000000
00010000
01000000
,
00100000
00000000
00100000
00000000
,
10000000
01000000
00100000
00000000
,
00002000
00000000
00000000
00003000
,
00020000
00000000
00000000
00030000
,
00000020
00000000
00000000
00000030
,
00002000
00000000
00000000
00003000
00000002
00000000
00000000
00000003
,
00000010
00000000
00000010
00000000
,
00000100
00000000
00010000
00000000
,
00001000
01000000
00010000
01000000
,
00100000
10000000
00010000
00000000
,
10010000
00000000
10000000
01000000
,
10000000
00000000
00010000
01000000
,
00010000
00000000
00100000
00001000
,
00010000
00000010
00010000
00000100
,
00001000
00000000
00000010
00000100
,
00000001
00001000
00000001
00000010
,
00000100
00000000
00000000
00000000
00010000
00000000
00000000
00011000
,
00000000
00000000
00000000
02002000
00000000
00000000
03003000
00000000
,
01000000
00010000
10000000
00000000
,
01000000
00100000
00001000
00000000
,
00010000
00000100
00001000
00000000
,
00000010
00000100
00000001
00000000
,
00001001
00000000
00001000
00000100
,
00010000
00001000
01000000
00010000
,
00100000
00000000
00000000
01000000
00000000
00000000
00100000
00000000
,
00010000
00000000
20000000
00000000
,
30100000
01000000
00010000
01000000
,
00001000
00010000
00000100
00001000
,
00000100
00000010
00000001
00001000
,
00000010
00000010
00010000
00001000
,
00100000
00000000
01000000
10000000
,
00100000
10000000
00010000
00000000
,
00100000
00001000
00010000
00001000
,
00000100
00000001
00001000
00000001
,
00000010
00000000
00000100
00010000
,
00001000
00000000
01000000
00001000
,
00010000
00000000
00100000
00000000
,
10000000
00010000
10000000
00000000
,
01000000
00100000
00010000
00000000
,
01000000
00001000
00010000
00000000
,
00000100
00001000
00000010
00000000
,
00000100
00000000
00000000
00000000
00000000
00000000
00000000
00000000
00000000
00000000
00000000
00000000
00000000
00000000
00000000
00000000
00000000
00000000
00000000
00000000
00000000
00000000
00000000
00000000
00000000
00000000
00000000
00000000
00000000
00000000
00000000
00000000
00000002
00000000
00000000
00000000
00000000
00000000
00000000
00000000
00000000
00000000
00000000
00000000
00000000
00000000
00000000
00000000
00000000
00000000
00000000
00000000
00000000
00000000
00000000
00000000
00000000
00000003
00000000
00000000
00000000
00000000
00000000
00000000
,
00000000
00000010
00000100
00010000
,
00000000
00001000
01000000
00010000
,
01000000
00000000
00100000
10000000
,
00010000
00000000
00100000
00000000
,
01100000
00000000
01000000
10000000
,
01000000
00000000
00100000
00001000
,
00010000
00000000
00000000
00010000
00000000
00000000
00000000
00000000
,
00000010
00000010
00001000
00000100
,
00000020
00000000
00000000
00000030
,
00000002
00000000
00000000
00000003
,
00002000
00000000
00000000
00003000
,
00000100
00000100
00010000
00000000
,
00001000
00000000
01001000
00000000
,
01000000
00000000
01100000
00000000
,
00100000
10000000
00010000
10000000
,
01000000
01000000
01000000
00000000
,
01100000
00000000
00100000
00010000
,
00100000
00001000
00010000
00000010
,
00001000
00000000
00000100
00000010
,
00000100
00001000
00000001
00000100
,
00000001
00000000
00001000
00000010
,
00010000
00001000
00100000
00010000
,
00100000
00000000
01000000
10000000
,
00010000
01000000
00001000
00010000
,
00022000
00000000
00033000
00000000
,
00000100
00001000
00000010
00001000
,
00000100
00010000
00001000
01000000
,
00010000
00100000
00010000
10000000
,
01000000
00000000
00100000
00000000
,
00001000
00000000
00011000
00000000
,
00010000
00000000
00010010
00000000
,
00000010
00000000
00000000
00000100
00000000
00000000
00002002
00000000
,
00000000
00000000
00000000
00000000
00000000
00000000
00000000
00003003
;

//--------------- dance-double - forcednature ----------------
#NOTEDATA:;
#STEPSTYPE:dance-double;
#DESCRIPTION:forcednature;
#DIFFICULTY:Medium;
#METER:11;
#RADARVALUES:0,0,0,0,0;
#CREDIT:forcednature;
#NOTES:
00000000
00000000
00000000
00000000
,
00000000
00000000
00000000
00000000
,
00000000
00000000
00000000
00000000
,
00000000
00000000
00000000
00000000
,
00000000
00000000
00000000
00000000
,
00000000
00000000
00000000
00000000
,
00000000
00000000
00000000
00000000
,
01001000
00000000
00010100
00000000
,
00000100
00001000
00000010
00000100
,
00000001
00000010
00000100
00001000
00000010
00010000
00001000
00100000
,
00000000
01000000
10000000
01000000
00010000
00001000
00010000
00000000
,
00000020
00000000
00000000
00000030
,
00002000
00000000
00000000
00003000
,
00000200
00000000
00000000
00020300
,
00000000
00000000
00032000
00000000
00000000
01003000
00000000
00000000
,
01100000
00100000
10000000
10000000
,
00010000
00100000
00001000
00010000
,
00000010
00000000
00001000
00000100
00000000
00000100
00000010
00000000
,
00000002
00000000
00000000
00000000
00000203
00000000
00000000
00000000
00002300
00000000
00023000
00000000
00000000
00030000
00000000
00000000
,
00011000
00000000
00000000
00000000
01000000
00000000
00000000
00000000
00010000
00000000
00000000
00100000
00000000
00000000
00010000
00000000
,
10000000
00000000
00000000
00100000
00000000
00000000
10000000
00000000
00000000
00000000
01000000
00000000
00100000
00000000
00000000
00000000
,
00001000
00000000
00000000
00010000
00000000
00000000
00001000
00000000
00000000
00000000
00000100
00000000
00000010
00000000
00000010
00000000
,
00000000
00001000
00000001
00000020
00000000
00000230
00020300
00000000
,
00031000
00000000
01000000
00010000
01000000
00000000
00100000
10000000
,
00000000
00000000
01000000
00000000
10000000
00000000
00000000
00000000
00010000
00000000
00000000
01000000
00000000
00000000
00001000
00000000
,
00010000
00000000
00000100
00001000
00000000
00000010
00000001
00000010
,
00000000
00001000
00000000
00002200
00000000
00000000
00003300
00000000
,
00010100
00000000
00010000
00001000
00000000
01000000
00000000
00010000
,
00100000
00000000
00000000
00000000
01000000
00000000
00000000
00000000
00100000
00000000
00000000
00001000
00000000
00000000
00010000
00000000
,
00000010
00000000
00000100
00000000
00001000
00000100
00000000
00000001
,
00000000
00000010
00000100
00010000
00000000
00001000
00100000
00000000
,
01100000
00000000
01000000
10000000
01000000
00010000
00001000
00000000
,
00101000
00000000
00000000
00100000
00000000
00000000
00010000
00000000
01000000
00000000
00000000
00000000
01001000
00000000
00000000
00000000
,
00010100
00000000
00000100
00000010
00000000
00001000
00000010
00000000
,
00000001
00000100
00000010
00000000
00020000
00000000
00032000
00000000
,
00103000
00000000
00010000
01000000
00100000
10000000
01000000
00100000
,
00010000
00000000
01000000
00001000
00010000
00000100
00001000
00000010
,
00010000
00000000
00001000
00000010
00000100
00000010
00000001
00001000
,
00000010
00001000
00000100
00000000
00010000
00001000
01000000
00000000
,
01100000
00000000
00100000
10000000
00010000
10000000
01000000
00000000
,
00100000
00000000
00000000
00001000
00000000
00000000
00010000
00000000
00000100
00000000
00000000
00000000
00001000
00000000
00000010
00000000
,
00010000
00000000
00001000
00000010
00000000
00000001
00000010
00000000
,
00000100
00010000
00001000
01000000
00010000
00100000
01000000
00000000
,
00100000
00000000
00000000
00001000
00000000
00000000
00010000
00000000
00000010
00000000
00000000
00001000
00000000
00000000
00000100
00000000
,
00000000
00000010
00000001
00000010
00000000
00000100
00010000
00000000
,
00002000
00000000
02003000
00000000
03010000
00100000
01000000
00100000
,
00000000
00010000
10000000
00100000
00000000
00100000
00000000
00000000
,
01100000
00000000
01000000
00010000
01000000
00001000
00010000
00000100
,
00000000
00001000
00000010
00001000
00000000
00000100
00000010
00000000
,
00000001
00000100
00000001
00000100
00000010
00010000
00001000
00000000
,
00100000
00000000
00000000
00000000
00000000
00000000
00000000
00000000
00000000
00000000
00000000
00000000
00010000
00000000
00000000
00000000
00000000
00000000
00000000
00000000
00000000
00000000
00000000
00000000
00100000
00000000
00000000
00000000
00000000
00000000
00000000
00000000
01000000
00000000
00000000
00000000
00000000
00000000
00000000
00000000
00000000
00000000
00000000
00000000
10000000
00000000
00000000
00000000
00000000
00000000
00000000
00000000
00000000
00000000
00000000
00000000
02000000
03000000
00000000
00000000
00000000
00000000
00000000
00000000
,
00100000
00000000
00001000
00010000
00000010
00000000
00001000
00000000
,
00000100
00000000
00000010
00000001
00001000
00000000
00000010
00000010
,
00010000
00000000
00001000
00100000
00010000
00000000
01000000
00010000
,
00000000
00100000
01000000
00100000
00000000
00010000
00010000
00000000
,
10010000
11000000
10100000
01000000
,
01010000
00000000
00000000
00010000
00000000
00000000
00100000
00000000
00001000
00000000
00000000
00000000
00011000
00000000
00000000
00000000
,
00010000
00000000
00000010
00000100
00000000
00001000
00000100
00000000
,
00000001
00000010
00000001
00000000
00002000
00000000
00003200
00000000
,
00020300
00000000
00000000
00032000
00000000
00000000
01003000
00000000
,
00100000
00000000
00000000
00100000
00000000
00000000
00100000
00000000
00000000
00000000
00000000
00000000
10000000
00000000
00000000
00000000
,
00020000
00000000
00000000
02030000
00000000
00000000
03001000
00000000
,
00010000
00010000
00000100
00001000
00000000
00000010
00000100
00000000
,
00000001
00000010
00000000
00000100
00010100
00000000
00010000
00001000
,
01000000
00010000
00000000
00100000
01100000
00000000
01000000
10000000
,
00010000
00000000
01010000
00000000
01000000
00001000
00010000
00000100
,
00001000
00000000
00001000
00000000
00000010
00000100
00000001
00000000
,
00000010
00000100
00001000
00000100
00010000
00001000
01000000
00000000
,
00100000
00010000
00100000
10000000
00010000
01000000
00010000
00000000
,
00100000
00001000
00010000
00000010
00010000
00001000
00000010
00000000
,
00000100
00000100
00000100
00000000
00010000
00010000
00010000
00000000
,
00011000
00000000
00001000
01000000
00010000
00000000
00100000
01000000
,
10000000
00000000
00000000
00100000
00000000
00000000
10000000
00000000
00010000
00000000
00000000
00000000
00100000
00000000
00000000
00000000
,
00011000
00000000
00000010
00001000
00000000
00000100
00000001
00000000
,
00000100
00000010
00000100
00000000
00010000
00001000
00010000
00000000
,
02002000
00000000
00000000
03003000
00000000
10000000
00010000
00000000
,
00100000
01000000
00100000
00001000
00000000
00010000
00000010
00001000
,
00000100
00000010
00000001
00001000
00000000
00000010
00010000
00001000
,
00100000
00000000
00010000
01000000
00100000
01000000
00010000
00000000
,
10000000
01000000
00010000
00000000
00001000
00000100
00000001
00000000
,
00000110
00000000
00001000
00000010
00010000
00000000
00001000
00100000
,
00020000
20030000
30200000
20300000
,
31000000
00010000
00001000
00000100
00001000
00010000
00000010
00000200
,
00000000
00000000
00000000
00000000
00000000
00000000
00000000
00000300
;

//--------------- dance-double - forcednature ----------------
#NOTEDATA:;
#STEPSTYPE:dance-double;
#DESCRIPTION:forcednature;
#DIFFICULTY:Hard;
#METER:15;
#RADARVALUES:0,0,0,0,0;
#CREDIT:forcednature;
#NOTES:
00000000
00000000
00000000
00000000
,
00000000
00000000
00000000
00000000
,
00000000
00000000
00000000
00000000
,
00000000
00000000
00000000
00000000
,
00000000
00000000
00000000
00000000
,
00000000
00000000
00000000
00000000
,
00000000
00000000
00000000
00000000
,
00002000
00000000
00013000
00100000
20000000
00000000
31000000
00100000
,
00001000
00000000
00010000
00000000
00000100
00000010
00000100
00000000
00001000
00000000
00001000
00000000
00000002
00000000
00000000
00000000
,
00000103
00000000
00001000
00010000
00001000
00000000
00100000
00000000
00001000
00010000
00001000
00000000
01000000
00000000
00010000
00000000
,
00100000
00000000
01000000
00000000
10000000
00100000
10000000
00000000
01000000
00000000
00010000
00000000
00001000
00000000
00000010
00000000
,
00000110
00000000
00000100
00000000
00010000
00001000
00000000
01000000
,
00000000
00000000
00010000
00000000
00000000
00000000
00100000
00000000
01000000
00000000
00000000
10000000
00000000
00000000
00100000
00000000
,
10000000
00000000
01000000
00010000
00000000
00001000
00000010
00000001
,
00000000
00000100
00001000
00001100
00000000
00000100
00000010
00001000
,
00010000
00000000
01000000
00010000
01000000
00100000
00000000
10000000
,
00000000
01000000
00010000
00000000
00001000
00000000
00000100
00000000
,
00000001
00000010
00000100
00010000
00001000
00100000
01000000
10000000
,
00200000
00000000
01300000
00001000
00010000
00022000
00000000
00033000
,
00010100
00000000
00000100
00000010
00000100
00010000
00001000
00000100
,
00000001
00000000
00000000
00000010
00000000
00000000
00000002
00000000
00000000
00000000
00000103
00000000
00001000
00000000
00000000
00000000
,
00010000
00000000
00000000
01000000
00000000
00000000
00100000
00000000
00000000
00000000
00010000
00000000
10000000
00000000
00100000
00000000
,
00000000
00000000
01000000
00000000
00001000
00000000
00011000
00000000
00000000
00000000
00010000
00000000
00000100
00000000
00001000
00000100
,
00001000
00000000
00000001
00000010
00000001
00000100
00001000
00011000
,
00000000
00010000
00100000
10000000
00010000
00100000
00010000
01000000
,
00200000
00000000
10300000
02000000
00000000
03010000
00001000
00000010
,
00000000
00001100
00000000
00001020
00000000
00000031
00000010
00000100
,
00000001
00000000
00001000
00000010
00001000
00000000
00000100
00000000
00000000
00000000
00010000
00000000
00001000
00000000
01000000
00000000
,
00010000
00000000
00100000
00000000
01000000
00000000
00100000
00000000
00010000
00000000
00000000
10000000
00000000
00000000
00100000
01000000
,
00100000
10000000
00010000
00100000
00000000
01000000
00010000
00011000
,
00000000
00000000
00000100
00000000
00001000
00000000
00001010
00000000
00000000
00000000
00000010
00000000
00000100
00000001
00000100
00000001
,
00001000
00000000
00000000
00001000
00000100
00000000
00010000
00000000
00001000
00000000
00100000
00000000
00010000
00000000
10000000
00000000
,
00010000
00000000
00000000
00010000
01000000
00000000
00001000
00010000
00001000
00000000
00010000
00000000
00000100
00000000
00000000
00000100
,
00000010
00000000
00000001
00000000
00000001
00000000
00000100
00000000
00000001
00000000
00000001
00000000
00000010
00000100
00001000
00000000
,
00000010
00010000
00001000
00010000
02000000
00000000
03200000
00000000
,
00310000
00000000
00000000
00010000
10000000
00000000
00100000
00000000
10000000
00000000
01000000
00100000
01000000
00000000
00010000
00000000
,
00001000
00000000
00000000
00001000
00100000
00000000
00010000
00000000
01000000
00000000
00001000
00010000
00001000
00000000
00000100
00000000
,
00000010
00000000
00000000
00000010
00001000
00000000
00000001
00000000
00000010
00000000
00000001
00000100
00000001
00000000
00000010
00000000
,
00001000
00000000
00010000
00000000
00011000
00000000
00000000
00000000
01000000
00000000
00010000
10000000
00010000
00000000
00100000
00000000
,
01100000
00000000
01000000
10000000
01000000
01000000
00010000
00001000
,
00000010
00000000
00000000
00000010
00000100
00000000
00001000
00000000
00001001
00000000
00000000
00000000
00000001
00000000
00000100
00000000
,
00001000
00000000
00010000
00001000
00010000
00000000
00100000
00000000
01000000
00000000
00010000
00000000
10000000
00000000
00010000
00000000
,
00100000
00000000
01000000
10000000
00010000
00000000
01000000
00000000
00001000
00010000
00001000
00010000
00000020
00000000
00000000
00000000
,
00000230
00000000
00000000
00002300
00000000
00000000
00003200
00000000
00000302
00000000
00000000
00000023
00000000
00000000
00000230
00000000
,
00000000
00010300
00001000
00010000
00100000
01000000
00100000
10000000
,
00020000
00000000
00230000
00000000
01300000
00010000
00001000
00000200
,
00000000
00000000
00001000
00000000
00000010
00000000
00000302
00000000
00000000
00000000
00000013
00000100
00000010
00000000
00000000
00000000
,
00000002
00000000
00000000
00000000
00001003
00000000
00000010
00001000
00000010
00000000
00010000
00000000
00001000
00000000
00200000
00000000
,
00000000
00000000
01300000
00000000
10000000
00000000
10100000
00000000
00000000
00000000
00100000
00000000
01000000
00010000
01000000
00010000
,
10000000
01000000
00010000
00001000
00000100
00000001
00000011
00000000
,
00000010
00000000
00000000
00000000
00000000
00000000
00000000
00000000
00000000
00000000
00000000
00000000
00000100
00000000
00000000
00000000
00000000
00000000
00000000
00000000
00000000
00000000
00000000
00000000
00010000
00000000
00000000
00000000
00000000
00000000
00000000
00000000
00001000
00000000
00000000
00000000
00000000
00000000
00000000
00000000
00000000
00000000
00000000
00000000
00100000
00000000
00000000
00000000
00000000
00000000
00000000
00000000
00000000
00000000
00000000
00000000
02200000
03300000
00000000
00000000
00000000
00000000
00000000
00000000
,
10010000
00000000
00000000
00000000
00010000
00000000
01000000
00000000
00001000
00000000
00000000
00001000
00010000
00000000
00000100
00000000
,
00001000
00000000
00000000
00000010
00000000
00000000
00000001
00000000
00000010
00000000
00000000
00000010
00000100
00000000
00000001
00000000
,
00001000
00000000
00000000
00000100
00000000
00000000
00010000
00000000
00001000
00000000
00000000
00001000
01000000
00000000
01100000
00000000
,
00000000
00000000
00100000
00000000
10000000
00000000
11000000
00000000
00000000
00000000
01000000
00000000
00010000
00000000
00001000
00010000
,
00001000
00000000
00100000
00000000
00001000
00000000
00010000
00000000
00000010
00000000
00001000
00000000
00000010
00000000
00000100
00000001
,
00000100
00000000
00000000
00000100
00000010
00000000
00010000
00000000
00001000
00000000
00100000
00010000
00100000
00000000
01000000
00000000
,
10000000
00100000
00010000
00001000
00000010
00000001
00000100
00000100
,
00000010
00000000
00010000
00001000
00010000
00000000
00001000
00000000
02000000
00000000
00000000
00000000
03020000
00000000
00000000
00000000
,
00130000
00000000
01000000
10000000
00000000
00100000
01000000
00001000
,
00010000
00000000
00000000
00000100
00000000
00000000
00001000
00000000
00000000
00000000
00000010
00000000
00000100
00000000
00000001
00000000
,
00000010
00000000
00000100
00010000
00000000
01000000
00100000
00010000
,
01000000
00000000
01000000
00000000
00010000
10000000
00010000
00000000
00000000
00000000
00100000
00000000
00100000
00000000
00100000
00000000
,
01000000
00000000
10000000
00000000
00000000
00000000
01000000
10000000
00020000
00000000
00000000
00000000
00130000
00000000
00001000
00000000
,
00010000
00000000
00000010
00000000
00000000
00000000
00010000
00000010
00002000
00000000
00000001
00000000
00003001
00000000
00001000
00000000
,
00001100
00000000
00011000
00000000
00100000
00010000
10000000
00010000
,
01000000
00100000
01000000
00000000
00010000
00000000
00100000
00000000
00001000
00000000
00010000
00000000
00000010
00001000
00000010
00001000
,
00000100
00000000
00000000
00000100
00000010
00000000
00000001
00000000
00000100
00000000
00000010
00001000
00000010
00000000
00010000
00001000
,
00010000
00000000
00000000
00010000
00001000
00000000
00100000
00000000
00010000
00000000
10000000
01000000
10000000
00000000
01000000
00100000
,
01000000
00000000
00000000
01000000
00010000
00000000
00001000
00000000
00010000
00000000
00000100
00001000
00000100
00000000
00000010
00000100
,
00000010
00000000
00000010
00000000
00000001
00000000
00000100
00000000
00001000
00000000
00010000
00000000
01000000
00000000
00100000
01000000
,
00200000
00000000
00310000
10000000
00010000
01000000
00100000
00010000
,
00001000
00000000
00000000
00000010
00000000
00000000
00000100
00000000
00001100
00000000
00000000
00000000
00001000
00000000
00000010
00000100
,
00000001
00000000
00000010
00000000
00001000
00000000
00010000
00000000
01000000
00000000
10000000
00000000
00100000
01000000
00100000
01000000
,
00010000
00000000
00100000
00000000
00001000
00000000
00001000
00000000
00010000
00000000
00000010
00000000
00001000
00000100
00001000
00000100
,
00000020
00000000
00000000
00000000
00000032
00000000
00000000
00000000
00000103
00000000
00001000
00010000
00001000
00000000
00000000
00000000
,
01000000
00000000
00010000
00000000
10000000
00000000
00010000
00000000
00100000
00000000
01000000
10000000
01000000
00000000
00100000
00010000
,
00200000
00000000
00000000
00000000
00301000
00000000
00010000
00000000
00000010
00000000
00001000
00000000
00000001
00000100
00000001
00000100
,
00000010
00000000
00000000
00000010
00010000
00000000
00001000
00000000
00100000
00000000
00010000
01000000
00010000
00000000
00100000
00000000
,
01000000
10000000
00000000
00000000
10100000
00000000
00000000
00000000
00100000
00000000
01000000
00001000
00010000
00000000
00000100
00000000
,
00001000
00000000
00001010
00000000
00000000
00000000
00000010
00000100
00000001
00000000
00000020
00000000
00000000
00000000
00000130
00000000
,
00020000
00000000
00000000
00000000
00032000
00000000
00000000
00000000
01003000
00000000
00010000
00000000
10000000
00100000
10000000
00000000
,
01000000
00000000
00010000
00001000
00010000
00000000
00000100
00000000
00010000
00001000
00010000
00000000
00000010
00000000
00000220
00000000
,
00000000
00000000
00000000
00000000
00000000
00000000
00000000
00000000
00000000
00000330
00000000
00001000
00000001
00000100
00000001
00000000
;
