#VERSION:0.83;
#TITLE:HYPER BOUNDARY GATE;
#SUBTITLE:;
#ARTIST:L.E.D.LIGHT;
#TITLETRANSLIT:;
#SUBTITLETRANSLIT:;
#ARTISTTRANSLIT:;
#GENRE:GOA TRANCE;
#CREDIT:;
#MUSIC:HYPER BOUNDARY GATE.ogg;
#BANNER:HYPER BOUNDARY GATE.png;
#BACKGROUND:HYPER BOUNDARY GATE-bg.png;
#CDTITLE:./CDTitles/bm IIDX 8th style.png;
#SAMPLESTART:90.333;
#SAMPLELENGTH:15.000;
#SELECTABLE:YES;
#OFFSET:1.221;
#BPMS:0.000=152.000;
#STOPS:;
#TIMESIGNATURES:0.000=4=4;
#BGCHANGES:4.000=HYPER BOUNDARY GATE.mp4=1.000=0=0=0=StretchNoLoop====,
99999.000=-nosongbg-=1.000=0=0=0=StretchNoLoop====
;
#FGCHANGES:;

//--------------- dance-single - forcednature ----------------
#NOTEDATA:;
#STEPSTYPE:dance-single;
#DESCRIPTION:forcednature;
#DIFFICULTY:Beginner;
#METER:3;
#RADARVALUES:0,0,0,0,0;
#CREDIT:forcednature;
#NOTES:
0000
0000
0000
0000
,
0000
0000
0000
0000
,
0000
0000
0000
0000
,
0000
0000
0000
0000
,
0000
0000
0000
0000
,
0000
0000
0000
0000
,
1000
0000
0000
0000
,
0000
0000
0000
0000
,
0001
0000
0000
0000
,
0100
0000
0000
0000
,
0010
0000
0000
0000
,
0000
0000
0000
0000
,
1000
0000
0000
0000
,
0001
0000
0000
0000
,
0010
0000
0000
0000
,
0000
0000
0000
0000
,
0100
0000
0000
0000
,
1001
0000
0000
0000
,
0110
0000
0000
0000
,
0001
0000
0000
0000
,
0010
0000
0000
0000
,
1000
0000
0000
0000
,
0100
0000
0000
0000
,
1000
0000
0000
0000
,
0001
0000
0000
0000
,
0100
0000
0000
0000
,
1001
0000
0000
0000
,
0001
0000
0000
0000
,
0010
0000
0000
0000
,
0100
0000
0000
0000
,
1001
0000
0000
0000
,
0110
0000
0000
0000
,
1000
0000
0001
0000
,
0100
0000
0000
0000
,
0010
0000
0000
0000
,
0010
0000
0000
0000
,
1000
0000
0000
0000
,
0001
0000
0000
0000
,
0010
0000
0000
0000
,
0010
0000
0000
0000
,
0100
0000
0000
0000
,
1001
0000
0000
0000
,
0000
0001
0000
0001
,
0000
1000
0000
1000
,
0000
0010
0000
0010
,
0000
0100
0000
0100
,
0000
0001
0000
0001
,
0000
1000
0000
1000
,
0000
0100
0000
0100
,
0000
0000
0000
0000
,
0110
0000
0000
0000
,
0000
0000
0000
0000
,
1001
0000
0000
0000
,
0000
0000
0000
0000
,
0001
0000
0000
0000
,
0100
0000
0000
0000
,
0010
0000
0010
0000
,
1000
0000
0000
0000
,
0001
0000
0010
0000
,
0001
0000
1000
0000
,
0010
0000
1000
0000
,
0001
0000
0000
0000
,
0100
0000
0010
0000
,
1000
0000
0001
0000
,
0010
0000
0100
0000
,
1000
0000
0000
0000
,
0001
0000
0100
0000
,
0001
0000
0000
0000
,
1000
0000
0010
0000
,
1000
0000
0000
0000
,
0001
0000
0010
0000
,
0100
0000
1000
0000
,
0010
0000
0100
0000
,
0001
0000
1000
0000
;

//--------------- dance-single - forcednature ----------------
#NOTEDATA:;
#STEPSTYPE:dance-single;
#DESCRIPTION:forcednature;
#DIFFICULTY:Easy;
#METER:9;
#RADARVALUES:0,0,0,0,0;
#CREDIT:forcednature;
#NOTES:
0000
0000
0000
0000
,
0000
0000
0000
0000
,
0000
0000
0000
0000
,
0000
0000
0000
0000
,
0000
0000
0000
0000
,
0000
0000
0000
0000
,
1000
0100
1000
0100
,
0001
0100
0001
0100
,
0010
0001
1000
0010
,
0100
0000
0000
0100
0000
0000
0100
0000
0000
0200
0000
0000
0000
0000
0300
0000
,
0010
1000
0001
1000
,
0100
0000
0010
0000
0001
0000
0100
0010
,
1000
0001
0010
0100
,
0010
0000
0001
0000
0100
0000
0010
1000
,
0001
0010
1000
0010
,
0100
0000
1000
0000
0001
0000
0100
0010
,
1000
0001
0010
0100
,
2002
0000
0000
3003
,
0001
0000
0100
0000
0010
1000
0010
0000
,
0100
0001
1000
0100
,
0010
0000
0100
0000
1000
0001
1000
0000
,
0010
0100
0001
0010
,
0100
0000
1000
0000
0001
0100
0001
0000
,
1000
0100
1000
0010
,
0100
0000
0001
0000
0010
0100
0010
0000
,
0001
1000
0010
0100
,
0110
0000
0001
0000
1000
0100
1000
0000
,
0010
0100
0001
0010
,
0110
0000
1000
0000
0001
0010
0001
0000
,
1000
0010
0100
0001
,
1001
0000
1000
0000
0100
0010
0100
0000
,
1001
0000
0001
0000
0100
0010
0100
0000
,
1001
0100
1001
0010
,
1000
0001
1000
0001
1000
0001
1000
0001
,
1000
1000
1000
1000
,
1000
1000
1000
1000
,
0001
0001
0001
0001
,
0100
0100
0100
0100
,
0010
0010
0010
0010
,
0010
0010
0010
0010
,
1000
1000
1000
1000
,
2002
0000
0000
3003
,
0000
0101
0000
0101
,
0000
1100
0000
1100
,
0000
0011
0000
0011
,
0000
1010
0000
1010
,
0000
1001
0000
1001
,
0000
0110
0000
0110
,
0000
1001
0000
1001
,
0000
0110
0000
0110
,
2002
0000
0000
0000
,
0000
0000
0000
0000
,
0000
0000
0000
0000
,
0000
0000
0000
3003
,
1000
1000
0100
0100
,
0001
0001
0100
0100
,
1000
0001
1000
0001
1000
0001
1000
0001
,
0200
0000
0000
0300
,
0010
0000
1000
0001
0010
0100
1000
0000
,
0001
0100
0001
0000
1000
0100
1000
0000
,
0010
0000
0100
0001
1000
0001
0010
0000
,
0100
1000
0010
0000
0100
0001
0010
0000
,
0110
0000
0010
0001
1000
0010
0100
0000
,
0001
1000
0100
0000
1000
0001
0100
0000
,
0010
0000
1000
0100
0010
0100
1000
0000
,
0010
0100
0001
0000
0010
0100
1000
0000
,
0110
0000
0001
1000
0010
1000
0001
0000
,
0100
0001
1000
0001
0010
0100
1000
0000
,
1001
0000
0001
0100
0010
1000
0001
0000
,
1000
0100
0010
0100
1000
0010
0100
0000
,
0110
0000
0100
0001
0010
0100
1000
0000
,
1001
0000
0001
0100
0010
1000
0100
0000
,
1000
0100
1000
0100
0010
0001
0010
0001
,
0100
0010
0100
0010
1000
0001
1000
0001
,
0020
0000
0000
0000
,
0000
0000
0000
0000
,
0030
0000
0000
0000
;

//--------------- dance-single - forcednature ----------------
#NOTEDATA:;
#STEPSTYPE:dance-single;
#DESCRIPTION:forcednature;
#DIFFICULTY:Medium;
#METER:13;
#RADARVALUES:0,0,0,0,0;
#CREDIT:forcednature;
#NOTES:
0000
0000
0000
0000
,
0000
0000
0000
0000
,
0000
0000
0000
0000
,
0000
0000
0000
0000
,
0000
0000
0000
0000
,
0000
0000
0000
0000
,
0101
0100
0001
0001
,
1000
0000
0000
0000
1000
0000
0000
0000
0100
0000
0000
0000
0100
0000
0000
0100
,
0010
0010
0001
0001
,
1000
0000
0000
0001
0000
0000
1000
0000
0000
0020
0000
0000
0130
0000
0100
0000
,
0100
0000
0001
1000
0000
0100
0000
0010
,
0000
0010
0000
0001
0000
0001
0000
0100
,
0010
0000
1000
0001
0000
0010
0000
0100
,
0000
0100
0000
1000
0000
1000
0000
0010
,
0100
0000
0001
1000
0000
0100
0000
0010
,
0000
0010
0000
0001
0000
0001
0000
1000
,
0010
0000
0100
0001
0000
1000
0000
0100
,
0220
0000
0000
0330
,
1000
0000
0000
0001
0000
0000
0100
0000
0010
0000
1000
0000
0001
0010
0000
0000
,
0100
0000
0000
1000
0000
0000
0010
0100
0000
0000
0000
0001
0000
1000
0000
0001
,
0100
0000
0000
0010
0000
0000
1000
0000
0001
0000
0010
0000
0100
1000
0000
0000
,
0010
0000
0000
0100
0000
0000
0001
1000
0000
0000
0000
0100
0000
0010
0000
0100
,
0010
0000
0000
0001
0000
0000
1000
0000
0010
0000
0100
0000
0001
1000
0000
0000
,
0100
0000
0000
0010
0000
0000
0001
0100
0000
0000
0000
0010
0000
1000
0000
0010
,
1000
0000
0000
0001
0000
0000
1000
0000
0100
0000
0010
0000
0001
1000
0000
0000
,
0001
0000
0000
0100
0000
0000
0010
1000
0000
0000
1000
0100
0000
0010
0000
0010
,
0100
0000
0000
1000
0000
0000
0001
0000
0100
0000
0010
0000
1000
0001
0000
0000
,
0010
0000
0100
0000
0010
0000
0001
1000
0000
0001
0000
0100
0000
0001
0000
0000
,
1000
0010
0000
1000
0000
0000
0001
0000
1000
0000
0100
0000
0010
0100
0000
0000
,
1000
0000
0000
0001
0000
0100
0010
0000
1000
0000
0001
0010
0000
0001
0000
0100
,
0010
0000
0000
1000
0000
0000
0001
0000
0010
0000
0100
0000
1000
0001
0000
0000
,
0100
0000
0000
0010
0000
0000
1000
0000
0001
0000
1000
0000
0100
0010
0000
0010
,
0100
0100
1000
1000
0001
0001
0100
0100
,
0010
1000
0001
0010
0100
1000
0001
0100
,
0010
0010
1000
1000
,
0100
0000
0000
0000
0100
0000
0000
0000
0010
0000
0000
0000
0010
0000
0000
0010
,
0001
0001
0100
0100
,
0010
0000
0000
0000
0010
0000
0000
0000
1000
0000
0000
0000
1000
0000
0000
1000
,
0001
0001
0010
0010
,
0100
0000
0000
0000
0100
0000
0000
0000
1000
0000
0000
0000
1000
0000
0000
1000
,
0010
0010
0100
0100
,
2002
0000
0000
3003
,
1000
0101
1000
0101
,
0001
1100
0001
1100
,
1000
0011
1000
0011
,
0001
1010
0001
1010
,
1001
0110
1000
0110
,
0100
1001
0100
1001
,
0011
1010
0001
1010
,
2002
0000
0000
3003
,
0220
0000
0000
0000
,
0000
0000
0000
0330
,
0220
0000
0000
0000
,
0000
0000
0000
0330
,
1000
0001
1000
0001
,
0100
0010
0100
0010
,
1001
0100
0010
0100
,
2002
0000
0000
3003
,
1000
0001
0000
1000
0000
0001
0100
0000
0010
0000
1000
0000
0001
0010
0000
0000
,
0100
0010
0000
0001
0000
1000
0001
0000
0100
0000
0010
1000
0000
0001
0000
1000
,
0100
0010
0000
0100
0000
1000
0001
0000
1000
0000
0010
0000
0100
0001
0000
0000
,
0010
0001
0000
0100
0000
0010
1000
0000
0100
0000
0010
0100
0000
1000
0000
0001
,
1000
0010
0000
1000
0000
0001
0100
0000
0001
0000
0010
0000
0100
0010
0000
0000
,
0001
1000
0000
0010
0000
1000
0001
0000
0010
0000
0001
0100
0000
0010
0000
1000
,
0100
0010
0000
0100
0000
1000
0001
0000
0100
0000
0010
0000
1000
0001
0000
0000
,
0010
0001
0000
0100
0000
0010
1000
0000
0001
0000
0010
0001
0000
0100
0000
0010
,
1000
0100
0000
0010
0000
0001
1000
0000
0001
0000
0100
0000
0010
1000
0000
0000
,
0001
0010
0000
0100
0000
1000
0010
1000
0000
0001
0010
0001
0000
1000
0000
0010
,
1000
0001
0000
0100
0000
0010
1000
0000
0001
0000
0010
0000
0100
0010
0000
0000
,
0001
1000
0000
0010
0000
0100
0001
0000
0100
0000
0010
1000
0000
0001
0000
0010
,
0100
1000
0000
0010
0000
0100
0001
0000
1000
0000
0100
0000
0010
0001
0000
0000
,
1000
0010
0000
1000
0000
0001
0100
0001
0000
1000
0100
1000
0000
0010
0000
0100
,
0001
0001
0011
0100
1001
1000
1010
0100
,
1000
0000
0100
0000
0001
0000
0100
0000
1000
0001
1000
0001
1000
0001
1000
0001
,
0200
0000
0000
0000
,
0000
0000
0000
0000
,
0300
0000
0000
0000
;

//--------------- dance-single - forcednature ----------------
#NOTEDATA:;
#STEPSTYPE:dance-single;
#DESCRIPTION:forcednature;
#DIFFICULTY:Hard;
#METER:16;
#RADARVALUES:0,0,0,0,0;
#CREDIT:forcednature;
#NOTES:
0000
0000
0000
0000
,
0000
0000
0000
0000
,
0000
0000
0000
0000
,
0000
0000
0000
0000
,
0000
0000
0000
0000
,
0000
0000
0000
0000
,
0001
0100
1000
0100
,
0001
0000
0000
0000
0010
0000
0000
0000
0100
0000
0000
0000
1000
0000
0000
0010
,
0100
0001
0010
0100
,
1000
0000
0000
1000
0000
0000
1000
0000
0000
0001
0100
0001
0100
0010
1000
0001
,
1000
0100
0010
0100
0000
1000
0000
0001
,
0000
0100
0000
0010
0000
1000
0000
0001
,
0010
0100
0010
0001
0000
0100
0000
0010
,
0000
0000
1000
0000
0000
0000
0001
0000
0000
0000
1000
0000
0000
0000
0100
0010
,
0001
0100
0010
1000
0000
0001
0000
0100
,
0000
1000
0000
0100
0000
0010
0000
1000
,
0001
0010
0100
0010
0000
0001
0000
1000
,
2002
0000
0000
3003
,
0001
0100
0000
0001
0000
1000
0010
0000
1000
0000
0100
0000
0010
0100
0000
0000
,
1000
0001
0000
0100
0000
0001
1000
0010
0000
0000
1000
0100
0000
0010
0000
0100
,
1000
0001
0000
0010
0000
0001
1000
0000
0001
0000
0100
0000
0010
1000
0000
0000
,
0100
0010
0000
0100
0000
1000
0001
1000
0000
0000
0010
0100
0000
0001
0000
0010
,
0100
0010
0000
0001
0000
0100
0010
0000
1000
0000
0001
0000
1000
0010
0000
0000
,
1000
0100
0000
0001
0000
0100
0010
0001
0000
0000
1000
0010
0000
1000
0000
0001
,
0100
0010
0000
1000
0000
0100
0010
0000
0001
0000
1000
0000
0001
0100
0000
0000
,
0010
1000
0000
0001
0000
1000
0100
0010
0000
0000
0100
1000
0000
0010
0000
1000
,
0001
1000
0000
0010
0100
0001
0100
0000
0010
0000
1000
0000
0001
0010
0000
0000
,
0100
0010
0001
0010
0100
1000
0001
1000
0000
0000
0010
1000
0000
0001
0000
0100
,
0001
1000
0000
0100
0010
0001
1000
0000
0010
0000
1000
0000
0001
0100
0000
0000
,
0010
1000
0001
1000
0100
0010
0001
0000
0100
0000
0010
1000
0000
0001
0000
0010
,
0100
0010
0001
1000
0001
0100
0010
0000
1000
0000
0100
0000
0010
0100
0000
0000
,
1000
0010
1000
0010
0100
0001
0100
0001
0000
0010
0100
0010
0001
1000
0000
0001
,
0100
0100
0101
1000
0100
0100
1100
0001
,
0100
0001
0100
0001
1000
0001
1000
0001
1000
0100
1000
0100
1000
0001
1000
0001
,
2000
0100
0001
0010
,
0001
0000
0000
0000
0100
0000
0000
0000
0001
0000
0000
0000
3010
0000
0000
1000
,
0002
0100
1000
0010
,
1000
0000
0000
0000
0100
0000
0000
0000
1000
0000
0000
0000
0013
0000
0000
0001
,
2000
0100
0001
0010
,
0001
0000
0000
0000
0100
0000
0000
0000
0001
0000
0000
0000
3010
0000
0000
1000
,
0002
0100
1000
0013
,
2002
0000
0000
3003
,
0001
0100
0010
1000
0001
0100
1000
0100
,
0001
0010
0100
1000
0001
0010
1000
0010
,
0100
1000
0001
1000
0010
0100
0001
1000
,
0001
0010
1000
0010
0100
1000
0001
0000
,
1001
0001
1000
0010
0001
0010
0100
1000
,
0100
0010
1000
0100
0010
0001
0100
0010
,
0110
0100
0001
0010
0100
1000
0001
0000
,
0220
0000
0000
0330
,
2002
0000
0000
0000
,
0000
0000
0000
3003
,
2002
0000
0000
0000
,
0000
0000
0000
3003
,
0201
0001
0010
0010
,
1000
1000
0010
0310
,
1001
0001
1000
1000
0100
0100
0010
0010
,
2002
0000
0000
3003
,
0001
0100
0010
1000
0000
0001
1000
0000
0100
0000
0010
0100
1000
0001
0000
0000
,
0010
0001
1000
0001
0000
0100
0010
1000
0100
0000
0010
0100
0000
1000
0000
0001
,
0100
0010
1000
0001
0000
0010
0001
0000
0100
0000
0010
1000
0100
0010
0000
0000
,
0100
1000
0001
0010
0000
0001
1000
0010
0100
0000
0001
0010
0000
0100
0000
0010
,
0001
0100
0010
1000
0000
0100
0010
0000
0100
0000
1000
0001
0010
0001
0000
0000
,
1000
0010
0100
0001
1000
0100
0010
0001
0100
0000
0010
1000
0000
0001
0000
1000
,
0100
0010
0100
1000
0000
0001
0100
0000
0010
0000
1000
0001
1000
0100
0000
0000
,
0010
0001
1000
0001
0100
0010
1000
0001
1000
0000
0100
0010
0000
0100
0000
1000
,
0010
0100
0001
0100
0010
1000
0001
1000
0100
0000
0010
0001
1000
0001
0000
0000
,
1000
0010
1000
0010
0100
0001
0100
0001
1000
0001
1000
0001
1000
0100
0000
0100
,
0010
0001
1000
0010
1000
0001
0010
0100
1000
0000
0001
0100
0010
1000
0000
0000
,
0001
0010
0001
0010
0100
1000
0100
1000
0010
0100
0010
0100
0001
1000
0000
0001
,
1000
0010
0100
0010
1000
0001
1000
0100
0010
0001
1000
0010
0100
0001
0000
0000
,
0010
0001
0100
0010
1000
0100
1000
0010
0100
0001
0010
0001
0100
0010
0000
1000
,
0001
1000
0100
0010
0001
1000
0001
0000
1000
0001
0100
0010
1000
0001
1000
0000
,
0001
0100
0010
1000
0100
0010
0001
0100
0010
1000
0100
0010
0001
0100
0010
1000
,
0200
0000
0000
0000
,
0000
0000
0000
0000
,
0300
0000
0000
0000
;

//--------------- dance-double - forcednature ----------------
#NOTEDATA:;
#STEPSTYPE:dance-double;
#DESCRIPTION:forcednature;
#DIFFICULTY:Easy;
#METER:9;
#RADARVALUES:0,0,0,0,0;
#CREDIT:forcednature;
#NOTES:
00000000
00000000
00000000
00000000
,
00000000
00000000
00000000
00000000
,
00000000
00000000
00000000
00000000
,
00000000
00000000
00000000
00000000
,
00000000
00000000
00000000
00000000
,
00000000
00000000
00000000
00000000
,
00001000
00010000
01000000
00100000
,
00001000
00010000
00100000
01000000
,
00001000
00010000
01000000
00100000
,
00010000
00000000
00000000
10000000
00000000
00000000
00010000
00000000
00000000
10000000
00000000
00000000
00010000
00000000
00000000
00000000
,
01000000
00001000
00010000
00000100
,
00001000
00000100
00001000
00000000
00000001
00000010
00000001
00000000
,
00000100
00001000
00010000
00000100
,
00000010
00000001
00000010
00000000
00000100
00001000
00000100
00000000
,
00000010
00001000
00010000
00100000
,
00010000
00001000
00010000
00000000
00100000
01000000
00100000
00000000
,
10000000
01000000
00010000
00001000
,
00022000
00000000
00000000
00033000
,
00010000
00000000
00000100
00000000
00001000
00000010
00001000
00000000
,
00000001
00000100
00000010
00010000
,
00001000
00000000
00000010
00000000
00000100
00010000
00000100
00000000
,
00001000
00000010
00000100
00001000
,
00010000
00000000
01000000
00000000
00100000
00010000
00100000
00000000
,
00001000
00010000
00100000
10000000
,
01000000
00000000
00100000
00000000
00001000
00010000
00001000
00000000
,
00000010
00000100
00001000
00000001
,
00000100
00000000
00001000
00000000
00010000
00100000
00010000
00000000
,
00001000
00010000
01000000
00100000
,
00010000
00000000
10000000
00000000
00100000
01000000
00100000
00000000
,
10000000
01000000
00010000
00001000
,
00011000
00000000
00010000
00000000
00000100
00001000
00000100
00000000
,
00000110
00000000
00000010
00000000
00000001
00001000
00000001
00000000
,
00001001
00001010
00010100
00011000
,
00010000
00001000
00010000
00000000
00001000
00010000
00001000
00000000
,
01000000
01000000
01000000
01000000
,
01000000
01000000
01000000
01000000
,
00001000
00001000
00001000
00001000
,
00001000
00001000
00001000
00001000
,
00010000
00010000
00010000
00010000
,
00010000
00010000
00010000
00010000
,
00000100
00000100
00000100
00000100
,
00000220
00000000
00000000
00000330
,
00000010
00000011
00000000
00000101
,
00000000
00001010
00000000
00011000
,
00000000
00110000
00000000
11000000
,
00000000
10100000
00000000
01010000
,
00110000
00101000
00000000
00010100
,
00000000
00001010
00000000
00001001
,
00001100
00010100
00000000
00011000
,
02002000
00000000
00000000
03003000
,
00022000
00000000
00000000
00000000
,
00000000
00000000
00000000
00033000
,
00022000
00000000
00000000
00000000
,
00000000
00000000
00000000
00033000
,
00001000
00001000
00010000
00010000
,
01000000
01000000
00100000
00100000
,
00001000
00010000
00100000
10000000
,
20020000
00000000
00000000
30030000
,
10010000
00000000
10000000
00000000
01000000
00100000
00010000
00000000
,
01000000
00001000
00010000
00000000
00000100
00001000
00000010
00000000
,
00000100
00000000
00000001
00000000
00000010
00000100
00001000
00000000
,
00000010
00010000
00001000
00000000
00100000
00010000
01000000
00000000
,
01100000
00000000
00100000
00000000
10000000
01000000
00010000
00000000
,
01000000
00100000
00001000
00000000
00010000
00100000
01000000
00000000
,
00001000
00000000
00010000
00000000
00000100
00000010
00001000
00000000
,
00000010
00000001
00000100
00000000
00000010
00010000
00001000
00000000
,
00011000
00000000
00010000
00000000
00000100
00001000
00000010
00000000
,
00000100
00000001
00001000
00000001
00000010
00000100
00001000
00000000
,
00001001
00000000
00000001
00000000
00000100
00001000
00010000
00000000
,
00100000
01000000
00010000
10000000
01000000
00100000
00010000
00000000
,
10010000
00000000
10000000
00000000
00100000
10000000
01000000
00000000
,
01100000
00000000
00100000
00000000
00001000
00010000
00100000
00000000
,
10000000
00010000
10000000
00010000
01000000
00001000
01000000
00001000
,
00010000
00000100
00001000
00000100
00000010
00000001
00000100
00000010
,
00002000
00000000
00000000
00000000
,
00000000
00000000
00000000
00000000
,
00003000
00000000
00000000
00000000
;

//--------------- dance-double - forcednature ----------------
#NOTEDATA:;
#STEPSTYPE:dance-double;
#DESCRIPTION:forcednature;
#DIFFICULTY:Medium;
#METER:13;
#RADARVALUES:0,0,0,0,0;
#CREDIT:forcednature;
#NOTES:
00000000
00000000
00000000
00000000
,
00000000
00000000
00000000
00000000
,
00000000
00000000
00000000
00000000
,
00000000
00000000
00000000
00000000
,
00000000
00000000
00000000
00000000
,
00000000
00000000
00000000
00000000
,
00001000
00010000
00001000
00000100
,
00000001
00000000
00000000
00000000
00000010
00000000
00000000
00000000
00000100
00000000
00000000
00000000
00010000
00000000
00000000
00001000
,
01000000
00100000
10000000
00010000
,
10000000
00000000
00000000
01000000
00000000
00000000
00010000
00000000
00000000
00001000
00000000
00000000
00000010
00000000
00000001
00000000
,
00001000
00000001
00000100
00000001
00000000
00000010
00000000
00001000
,
00000000
00010000
00000000
00100000
00000000
01000000
00000000
00010000
,
10000000
01000000
10000000
00100000
00000000
01000000
00000000
10000000
,
00000000
01000000
00000000
00010000
00000000
00100000
00000000
00001000
,
00010000
00000100
00010000
00001000
00000000
00000100
00000000
00000001
,
00000000
00000010
00000000
00000100
00000000
00001000
00000000
00000010
,
00000100
00001000
00010000
01000000
00000000
00100000
00000000
00010000
,
20020000
00000000
00000000
30030000
,
10000000
00000000
00000000
01000000
00000000
00000000
00100000
00000000
00001000
00000000
00010000
00000000
00100000
00000000
00000000
00000000
,
01000000
00000000
00001000
00000000
00010000
00000000
00000100
00000000
00001000
00000000
00000000
00000010
00000000
00000100
00000000
00000000
,
00000001
00000000
00000000
00000010
00000000
00000000
00000100
00000000
00001000
00000000
00000010
00000000
00000100
00000000
00000000
00000000
,
00001000
00000000
00000000
00010000
00000000
00000000
01000000
00000000
00100000
00000000
00000000
00010000
00000000
10000000
00000000
00000000
,
00010000
00000000
00000000
01000000
00000000
00000000
00100000
00000000
10000000
00000000
01000000
00000000
00010000
00000000
00000000
00000000
,
00001000
00000000
00000000
00000010
00000000
00000000
00000001
00000000
00001000
00000000
00000000
00000001
00000000
00000100
00000000
00000000
,
00000010
00000000
00000000
00010000
00000000
00000000
00001000
00000000
00000010
00000000
00000100
00000000
00001000
00000000
00000000
00000000
,
00000001
00000000
00000000
00000100
00000000
00000000
00001000
00000000
00010000
00000000
00000000
00100000
00000000
10000000
00000000
00000000
,
10010000
00000000
00000000
10000000
00000000
00000000
01000000
00000000
00100000
00000000
00010000
00000000
01000000
00000000
00000000
00000000
,
00001000
00010000
00000100
00010000
00001000
00000100
00000010
00000000
,
00000110
00000000
00000000
00000100
00000000
00000000
00000001
00000000
00000010
00000000
00000100
00000000
00001000
00000000
00000000
00000000
,
00000010
00010000
00001000
00100000
00001000
00010000
00100000
00000000
,
01100000
00000000
00000000
01000000
00000000
00000000
00010000
00000000
10000000
00000000
01000000
00000000
00100000
00000000
00000000
00000000
,
01100000
00000000
01000000
00010000
00001000
00000100
00000010
00000000
,
00000110
00000000
00000100
00000001
00001001
00000000
00001000
00000000
,
00000100
00000010
00000100
00010000
00001000
01000000
00100000
01000000
,
00010000
00010000
10000000
10000000
,
01000000
00000000
00000000
00000000
01000000
00000000
00000000
00000000
00010000
00000000
00000000
00000000
00010000
00000000
00000000
00010000
,
00001000
00001000
00000010
00000010
,
00000001
00000000
00000000
00000000
00000001
00000000
00000000
00000000
00000100
00000000
00000000
00000000
00000100
00000000
00000000
00000100
,
00001000
00001000
00010000
00010000
,
00100000
00000000
00000000
00000000
00100000
00000000
00000000
00000000
10000000
00000000
00000000
00000000
10000000
00000000
00000000
10000000
,
01000000
01000000
00010000
00010000
,
00022000
00000000
00000000
00033000
,
00001000
01000000
00010000
01000000
00100000
01000000
00010000
01000000
,
00001000
01000000
00010000
01000000
00100000
01000000
00010000
01000000
,
00001000
00010000
00000100
00001000
00000100
00010000
00000100
00001000
,
00000100
00010000
00001000
00010000
00000100
00001000
00000100
00010000
,
00001000
00000100
00000001
00000010
00000100
00001000
00000010
00000100
,
00001000
00010000
01000000
00100000
00010000
10000000
00100000
00010000
,
00001000
00000010
00000001
00000100
00000010
00001000
00010000
01000000
,
02200000
00000000
00000000
03300000
,
00022000
00000000
00000000
00000000
,
00000000
00000000
00000000
00033000
,
00022000
00000000
00000000
00000000
,
00000000
00000000
00000000
00033000
,
00000100
00010000
00001000
00000100
,
00001000
00010000
01000000
00100000
,
00010000
10000000
00100000
00010000
00001000
00000010
00000001
00000100
,
00000220
00000000
00000000
00000330
,
00000100
00000001
00000000
00001000
00000000
00000000
00000100
00000000
00000010
00000000
00000100
00000000
00001000
00000001
00000000
00000000
,
00000100
00001000
00000000
00010000
00000000
00000000
00100000
00000000
01000000
00000000
00000000
00010000
00000000
10000000
00000000
00000000
,
01000000
00100000
00000000
01000000
00000000
00000000
10000000
00000000
00010000
00000000
01000000
00000000
00001000
00010000
00000000
00000000
,
00000100
00001000
00000000
00000001
00000000
00000100
00000010
00000000
00001000
00000000
00000000
00000100
00000000
00000010
00000000
00000000
,
00000100
00010000
00000000
00001000
00000000
00000000
00000100
00000000
00001000
00000000
00010000
00000000
00100000
01000000
00000000
00000000
,
00010000
10000000
00000000
01000000
00000000
00000000
00100000
00000000
00001000
00000000
00000000
00010000
00000000
00100000
00000000
00000000
,
01000000
00010000
00000000
10000000
00000000
00000000
01000000
00000000
00010000
00000000
00001000
00000000
00000010
00000001
00000000
00000000
,
00001000
00000001
00000000
00000100
00000000
00000010
00001000
00000000
00000100
00000000
00000010
00000100
00000000
00010000
00000000
00000000
,
00001000
01000000
00000000
00010000
00000000
00000000
10000000
00000000
01000000
00000000
00100000
00000000
01000000
10000000
00000000
00000000
,
00010000
00100000
00010000
00000000
01000000
00000000
00001000
00000000
00010000
00000000
00000100
00000000
00001000
00000000
00000000
00000000
,
00000001
00000100
00000000
00000001
00000000
00000000
00001000
00000000
00000010
00000000
00001000
00000000
00000100
00000010
00000000
00000000
,
00000100
00001000
00000000
00000010
00000000
00000000
00010000
00000000
00001000
00000000
00100000
00010000
00000000
01000000
00000000
00100000
,
10000000
01000000
00000000
00100000
00000000
00000000
00010000
00000000
01000000
00000000
00001000
00000000
00010000
00000100
00000000
00000000
,
00001000
00000001
00000000
00000000
00000100
00000000
00000010
00000000
00000100
00000000
00001000
00000000
00010000
00000000
01000000
00000000
,
00100000
00100000
00010000
00010000
10000000
10000000
00100000
00100000
,
00010000
00001000
00010000
00000000
00000100
00001000
00000100
00000000
00010000
00001000
00010000
00000000
00000010
00001000
00000010
00000000
,
00000200
00000000
00000000
00000000
,
00000000
00000000
00000000
00000000
,
00000300
00000000
00000000
00000000
;

//--------------- dance-double - forcednature ----------------
#NOTEDATA:;
#STEPSTYPE:dance-double;
#DESCRIPTION:forcednature;
#DIFFICULTY:Hard;
#METER:16;
#RADARVALUES:0,0,0,0,0;
#CREDIT:forcednature;
#NOTES:
00000000
00000000
00000000
00000000
,
00000000
00000000
00000000
00000000
,
00000000
00000000
00000000
00000000
,
00000000
00000000
00000000
00000000
,
00000000
00000000
00000000
00000000
,
00000000
00000000
00000000
00000000
,
00001000
00010000
01000000
10000000
,
00100000
00000000
00000000
00000000
00010000
00000000
00000000
00000000
00001000
00000000
00000000
00000000
00000010
00000000
00000000
00000001
,
00000001
00000100
00000010
00010000
,
00001000
00000000
00000000
00100000
00000000
00000000
01000000
00000000
00000000
00010000
00001000
00010000
00001000
00010000
00001000
00010000
,
00000100
00010000
00001000
00000100
00001000
00010000
01000000
00100000
,
00001000
00010000
00100000
10000000
01000000
00010000
00001000
00000010
,
00000001
00000100
00001000
00000100
00000001
00000010
00001000
00010000
,
00100000
10000000
01000000
00010000
01000000
10000000
00100000
00010000
,
00001000
00010000
01000000
00100000
00001000
00010000
00100000
00010000
,
00001000
00000010
00000100
00001000
00000001
00000100
00001000
00010000
,
00000100
00010000
00100000
01000000
00001000
00010000
01000000
00100000
,
02200000
00000000
00000000
03300000
,
01000000
10000000
00000000
00010000
00000000
00100000
00001000
00000000
00010000
00000000
00000100
00000000
00001000
00000001
00000000
00000000
,
00000100
00000010
00000000
00001000
00000000
00000100
00000010
00000000
00000100
00000000
00001000
00000001
00000000
00000100
00000000
00000010
,
00010000
00001000
00000000
00100000
00000000
00001000
00010000
00000000
00100000
00000000
01000000
00000000
00010000
10000000
00000000
00000000
,
01000000
00100000
00000000
01000000
00000000
10000000
00010000
10000000
00100000
00000000
01000000
00001000
00000000
00010000
00000000
00000100
,
00001000
00000001
00000000
00000100
00000000
00000010
00001000
00000000
00000100
00000000
00000010
00000000
00000100
00001000
00000000
00000000
,
00000001
00000100
00000000
00001000
00000000
00010000
00100000
00000000
01000000
00000000
00010000
10000000
00000000
01000000
00000000
00100000
,
01000000
10000000
00000000
00010000
00000000
01000000
00001000
00000000
00010000
00000000
00000100
00000000
00001000
00000010
00000000
00000000
,
00000100
00001000
00000000
00000100
00000000
00000001
00000010
00000100
00001000
00000000
00000001
00000100
00000000
00000010
00000000
00010000
,
00001000
00010000
00000000
00100000
00000000
01000000
00010000
00000000
10000000
00000000
01000000
00000000
00100000
01000000
00000000
00000000
,
10000000
00010000
10000000
00000000
00010000
01000000
00010000
00000000
00100000
00001000
00100000
00001000
00000000
00010000
00000000
00000100
,
00001000
00000001
00000000
00000100
00000000
00000010
00001000
00000000
00000100
00000000
00000010
00000000
00000100
00010000
00000000
00000000
,
00001000
01000000
00001000
01000000
00010000
10000000
00010000
00000000
10000000
00000000
01000000
00100000
00000000
00001000
00000000
00010000
,
00100000
01000000
00000000
00010000
00000000
10000000
01000000
00000000
00100000
00000000
00001000
00000000
00010000
00100000
00000000
00000000
,
00010000
00001000
00010000
00001000
00010000
00000100
00010000
00000100
00001000
00000100
00001000
00000100
00000000
00000010
00000000
00000001
,
00000100
00001000
00010000
00100000
01000000
00010000
00001000
00000010
,
00000110
00011000
01100000
00011000
,
00000100
00010000
01000000
00010000
,
00000100
00010000
01000000
00010000
,
00000010
00001000
00100000
00001000
,
00000010
00001000
00100000
00001000
,
00000100
00010000
00100000
00010000
,
00000100
00010000
00100000
00010000
,
00000010
00001000
01000000
00001000
,
00002002
00000000
00000000
00003003
,
00000001
00000100
00001000
00010000
00000100
00001000
00000010
00010000
,
00001000
00000010
00001000
00010000
00100000
01000000
00010000
10000000
,
01000000
00010000
01000000
00100000
00001000
00010000
00100000
01000000
,
00001000
00000010
00000100
00001000
00000001
00000100
00010000
00001000
,
00000010
00001000
00000100
00010000
00100000
00010000
00001000
00010000
,
01000000
00100000
00001000
00010000
00100000
10000000
01000000
10000000
,
00100000
00010000
00001000
00000010
00000001
00000100
00001000
00010000
,
00022000
00000000
00000000
00033000
,
00022000
00000000
00000000
00000000
,
00000000
00000000
00000000
00033000
,
00022000
00000000
00000000
00000000
,
00000000
00000000
00000000
00033000
,
00000100
00010000
01000000
00010000
,
00001000
00000100
00001000
01000000
,
00100000
10000000
01000000
00010000
00001000
00000100
00000001
00000010
,
00000220
00000000
00000000
00000330
,
00000001
00000100
00000010
00001000
00000000
00000100
00010000
00000000
00001000
00000000
01000000
00100000
10000000
00010000
00000000
00000000
,
10000000
01000000
00100000
00010000
00000000
01000000
00001000
00010000
00001000
00000000
00000010
00000100
00000000
00001000
00000000
00000001
,
00000100
00000010
00001000
00000100
00000000
00010000
00001000
00000000
01000000
00000000
00100000
10000000
01000000
00100000
00000000
00000000
,
00010000
01000000
00010000
00100000
00000000
01000000
10000000
00010000
01000000
00000000
00001000
00010000
00000000
00000100
00000000
00000010
,
00000001
00001000
00000001
00000100
00000000
00001000
00010000
00000000
00100000
00000000
10000000
00010000
10000000
01000000
00000000
00000000
,
00100000
00001000
00010000
00000100
00010000
00001000
01000000
00001000
00010000
00000000
00000010
00001000
00000000
00000100
00000000
00010000
,
00001000
01000000
00001000
00010000
00000000
00100000
10000000
00000000
01000000
00000000
00100000
00001000
00010000
00001000
00000000
00000000
,
00000010
00000100
00001000
00000100
00000010
00000001
00001000
00000001
00000100
00000000
00000010
00001000
00000000
00010000
00000000
01000000
,
00100000
10000000
00010000
10000000
01000000
00100000
00010000
10000000
00010000
00000000
01000000
00001000
00010000
00000100
00000000
00000000
,
00001000
00000001
00000100
00000010
00001000
00000010
00010000
00001000
01000000
00010000
10000000
00100000
10000000
01000000
00000000
00100000
,
00001000
00010000
00001000
01000000
00010000
10000000
00100000
10000000
01000000
00000000
00100000
00001000
00010000
00000100
00000000
00000000
,
00001000
00000001
00000100
00000001
00000010
00000100
00001000
00000100
00010000
00001000
01000000
00001000
00010000
00100000
00000000
10000000
,
00010000
10000000
01000000
00100000
00001000
00010000
00000100
00000010
00000001
00000100
00000010
00010000
00001000
01000000
00000000
00000000
,
00100000
10000000
00010000
10000000
01000000
00100000
00010000
00100000
00001000
00010000
00000010
00001000
00000010
00000100
00000000
00000001
,
00001000
00000100
00010000
00000100
00001000
00000010
00010000
00000000
00001000
00100000
00010000
00100000
01000000
10000000
00010000
00000000
,
01000000
00001000
00010000
00000100
00010000
00001000
00000100
00000001
00001000
00000100
00000010
00000001
00000100
00000010
00000100
00001000
,
00020000
00000000
00000000
00000000
,
00000000
00000000
00000000
00000000
,
00030000
00000000
00000000
00000000
;
