#VERSION:0.83;
#TITLE:HELL SCAPER -Last Escape Remix-;
#SUBTITLE:;
#ARTIST:Remixed by DJ TECHNORCH fw.GUHROOVY;
#TITLETRANSLIT:;
#SUBTITLETRANSLIT:;
#ARTISTTRANSLIT:;
#GENRE:GABBAH;
#CREDIT:;
#MUSIC:HELL SCAPER -Last Escape Remix-.ogg;
#BANNER:HELL SCAPER -Last Escape Remix-.png;
#BACKGROUND:HELL SCAPER -Last Escape Remix--bg.png;
#CDTITLE:./CDTitles/bm IIDX 22 PENDUAL.png;
#SAMPLESTART:94.322;
#SAMPLELENGTH:14.597;
#SELECTABLE:YES;
#OFFSET:0.331;
#BPMS:0.000=180.000;
#STOPS:;
#TIMESIGNATURES:0.000=4=4;
#BGCHANGES:0.000=../BGAs/06cl.mp4=1.000=0=0=0=StretchNoLoop====,
99999.000=-nosongbg-=1.000=0=0=0=StretchNoLoop====
;
#FGCHANGES:;

//--------------- dance-single - forcednature ----------------
#NOTEDATA:;
#STEPSTYPE:dance-single;
#DESCRIPTION:forcednature;
#CREDIT:forcednature;
#DIFFICULTY:Beginner;
#METER:5;
#RADARVALUES:0,0,0,0,0;
#NOTES:
0000
0000
0000
0000
,
0000
0000
0000
0000
,
0000
0000
0000
0000
,
0000
0000
0000
0000
,
0000
0000
0000
0000
,
0000
0000
0000
0000
,
0000
0000
0000
0000
,
0000
0000
0000
0000
,
0000
0000
0000
0000
,
1001
0000
0000
0000
,
1000
0000
0100
0000
,
1000
0000
0000
0000
,
0001
0000
0100
0000
,
0001
0000
0000
0000
,
1000
0000
0010
0000
,
1000
0000
0000
0000
,
0001
0000
0000
0000
,
1001
0000
0000
0000
,
0010
0000
0100
0000
,
0010
0000
0000
0000
,
0001
0000
1000
0000
,
0001
0000
0000
0000
,
0100
0000
0010
0000
,
0100
0000
0000
0000
,
0001
0000
0000
0000
,
1000
0000
0100
0000
,
1000
0000
0000
0000
,
0100
0000
0010
0000
,
0100
0000
0000
0000
,
0010
0000
0001
0000
,
0010
0000
0001
0000
,
0100
0000
0001
0000
,
0100
0000
0000
0000
,
0010
0000
1000
0000
,
0010
0000
0000
0000
,
1000
0000
0001
0000
,
1000
0000
0000
0000
,
0100
0000
1000
0000
,
0100
0000
1000
0000
,
0010
0000
1000
0000
,
0010
0000
0000
0000
,
1001
0000
0000
0000
,
0001
0000
0000
0000
,
0010
0000
0000
0000
,
0100
0000
0000
0000
,
1000
0000
1000
0000
,
0010
0000
0010
0000
,
0100
0000
0001
0000
,
1000
0000
0001
0000
,
2002
0000
0000
0000
,
3003
0000
0000
0000
,
0000
0000
0000
0000
,
0000
0000
0000
0000
,
0000
0000
0000
0000
,
0000
0000
0000
0000
,
1001
0000
0000
0000
,
1000
0000
0100
0000
,
1000
0000
0000
0000
,
0001
0000
0100
0000
,
0001
0000
0000
0000
,
1000
0000
0010
0000
,
1000
0000
0000
0000
,
0001
0000
0010
0000
,
0001
0000
0001
0000
,
0100
0000
0000
0000
,
0010
0000
0010
0000
,
1000
0000
0000
0000
,
1000
0000
1000
0000
,
0100
0000
0100
0000
,
0010
0000
0010
0000
,
0001
0000
0000
0000
,
1001
0000
1000
0000
,
0010
0000
1000
0000
,
0001
0000
0010
0000
,
0001
0000
0000
0000
,
0100
0000
0001
0000
,
1000
0000
0100
0000
,
1000
0000
0001
0000
,
1001
0000
0000
0000
,
0110
0000
0001
0000
,
1000
0000
0010
0000
,
1000
0000
0001
0000
,
0010
0000
0000
0000
,
0100
0000
1000
0000
,
0001
0000
1000
0000
,
0010
0000
0100
0000
,
0110
0000
0000
0000
,
0001
0001
0001
0000
,
0001
0000
0001
0000
,
1000
1000
1000
0000
,
1000
0000
1000
0000
,
0010
0000
0100
0000
,
1001
0000
0000
0000
,
1000
0000
0100
0000
,
1000
0000
0010
0000
,
0100
0000
0001
0000
,
0010
0000
0001
0000
,
0100
0000
0010
0000
,
1000
0000
0001
0000
,
0010
0000
0010
0000
,
0100
0100
0100
0000
,
1001
0000
0000
0000
,
0000
0000
0000
0000
,
0000
0000
0000
0000
,
0000
0000
0000
0000
,
1001
0000
0000
0000
;

//--------------- dance-single - forcednature ----------------
#NOTEDATA:;
#STEPSTYPE:dance-single;
#DESCRIPTION:forcednature;
#CREDIT:forcednature;
#DIFFICULTY:Easy;
#METER:10;
#RADARVALUES:0,0,0,0,0;
#NOTES:
0000
0000
0000
0000
,
0000
0000
0000
0000
,
0000
0000
0000
0000
,
0000
0000
0000
0000
,
0000
0000
0000
0000
,
0000
0000
0000
0000
,
0000
0000
0000
0000
,
0000
0000
0000
0000
,
0000
0000
0000
0000
,
1001
0001
0100
0010
,
1000
0010
1000
0000
0100
1000
0100
0000
,
0110
0010
0001
1000
,
0001
0100
0001
0000
0010
0001
0010
0000
,
0110
0100
1000
0001
,
0100
0001
0100
0000
0010
1000
0010
0000
,
1001
0001
1000
0100
,
0010
0001
0000
0001
0000
0001
0100
0000
,
0110
0010
1000
0001
,
0010
0100
0010
0100
1000
0000
1000
0000
,
1001
0001
0100
0010
,
1000
0000
1000
1000
0001
0000
0001
0000
,
1001
0001
0010
0100
,
1000
0010
1000
0010
0100
0000
0100
0000
,
1001
1000
0100
0010
,
0002
0000
0100
0000
1000
0000
0013
0001
,
0000
0100
0000
0100
0000
0010
1000
0010
,
0000
0100
0000
0100
0000
0001
1000
0001
,
0000
0010
0000
0010
0000
0100
1000
0100
,
0000
0010
0000
0010
0000
0001
1000
0010
,
0000
0100
0000
0100
0000
0001
0000
0001
,
0000
1000
0000
1000
0100
0000
0100
0010
,
0000
0001
0000
0001
0000
0100
0000
0100
,
0000
0020
0000
1000
0000
1030
0010
0000
,
0000
0100
0000
0100
0000
0001
1000
0001
,
0000
0010
0000
0010
0100
0000
1000
0000
,
0000
0001
0000
0001
0000
0100
0001
0100
,
0000
0010
0000
0010
0000
1000
0010
1000
,
0000
0100
0000
0100
0000
0010
0000
0010
,
0000
0001
0000
0001
1000
0000
1000
0010
,
0000
0100
0000
0100
0000
0001
0000
0001
,
2000
3200
0320
0032
,
0103
0100
0001
0001
,
1000
1000
0100
0100
,
0010
0010
0001
0001
,
1000
1000
0010
0010
,
0100
0001
0010
0001
,
1000
0010
1000
0100
,
0020
0032
0203
0302
,
2003
3200
2300
3010
,
2002
0000
0000
0000
,
3003
0000
0000
0000
,
0000
0000
0000
0000
,
0000
0000
0000
0000
,
0000
0000
0000
0000
,
0000
0000
0000
0000
,
1001
0000
0001
0000
0010
0100
0010
0000
,
0001
0000
0001
0100
0000
0100
0000
0000
,
0010
0000
1000
0000
0010
1000
0010
0000
,
1000
0000
1000
0100
0000
0100
0000
0000
,
0010
0000
0001
0000
0010
0001
0010
0000
,
0001
0000
0001
0100
0000
0100
0000
0000
,
0010
0000
1000
0000
0001
0010
0001
0000
,
0200
0001
0010
0301
,
1001
0000
1000
0000
0100
1000
0100
0000
,
0010
0100
0010
0001
,
1000
0000
0001
0000
0100
0001
0100
0000
,
0010
1000
0001
0010
,
0100
0000
0100
0000
1000
0010
1000
0000
,
0001
0001
0010
0010
,
0001
0100
0001
0000
1000
0100
1000
0000
,
2002
0000
0000
3003
,
0001
0000
0100
0000
0010
1000
0010
0000
,
0100
1001
0010
1001
,
1000
0000
0100
0000
0010
0001
0010
0000
,
0100
1001
0010
1001
,
0001
0000
0100
0000
0010
1000
0010
0000
,
1000
0110
0001
0110
,
1000
0000
0001
0000
0010
0100
0010
0000
,
2002
0000
0000
0000
0000
3003
0000
0000
,
1000
0100
1000
0000
0100
0010
0100
0000
,
0010
0001
1000
0001
,
0100
0001
0100
0000
0010
0100
0010
0000
,
1000
0010
1000
0001
,
0010
0001
0010
0000
0100
0010
0100
0000
,
1000
0100
1000
0001
,
0100
1001
0010
1001
,
0220
0000
0000
0330
,
0001
1000
0001
1000
0001
0000
0000
0001
,
0000
0001
0000
0001
1000
0001
1000
0000
,
1000
0001
1000
0001
1000
0000
1000
0001
,
0000
0001
0000
1000
0001
1000
0001
0000
,
1001
0000
0110
0000
,
2002
0000
3003
0000
,
1001
0000
0001
0000
0100
0001
0100
0000
,
0010
0000
1000
0000
0001
0020
0000
0030
,
0100
0000
1000
0000
0001
1000
0001
0000
,
0100
0000
0001
0000
1000
0020
0000
0030
,
0100
0000
0001
0000
0010
0001
0010
0000
,
0100
0000
1000
0000
0010
2000
0000
3000
,
1001
0000
0110
0000
1000
0001
1000
0000
,
0010
0000
0010
0100
0000
0100
0001
0000
,
1001
0000
0000
0000
,
0000
0000
0000
0000
,
0000
0000
0000
0000
,
0000
0000
0000
0000
,
1001
0000
0000
0000
;

//--------------- dance-single - forcednature ----------------
#NOTEDATA:;
#STEPSTYPE:dance-single;
#DESCRIPTION:forcednature;
#CREDIT:forcednature;
#DIFFICULTY:Medium;
#METER:14;
#RADARVALUES:0,0,0,0,0;
#NOTES:
0000
0000
0000
0000
,
0000
0000
0000
0000
,
0000
0000
0000
0000
,
0000
0000
0000
0000
,
0000
0000
0000
0000
,
0000
0000
0000
0000
,
0000
0000
0000
0000
,
0000
0000
0000
0000
,
0200
0000
0300
0000
,
1001
0001
0100
0010
,
1000
0000
0100
0010
0100
0000
1000
0000
0001
0000
0100
0000
0010
0000
0000
0000
,
1010
1000
0001
0010
,
0100
0000
1000
0000
0001
0100
0001
0000
1000
0100
1000
0000
0010
0000
0000
0000
,
0101
0001
1000
0100
,
0010
0000
0001
1000
0001
0000
0100
0000
0010
0000
1000
0000
0100
0000
0000
0000
,
1010
0010
0100
0001
,
0010
0000
0100
0000
1000
0001
1000
0000
0001
0100
0001
0000
1000
0000
0000
0000
,
0110
0001
1000
0010
,
1000
0000
0100
0010
0100
0010
0100
0010
0100
0000
0000
0000
0100
0000
0000
0000
,
1001
0001
0100
0010
,
1000
0000
0001
0010
0000
0001
0000
1000
0010
0000
0000
0000
0100
0000
0000
0000
,
0101
0001
1000
0100
,
0010
0001
0010
0001
0010
0000
0100
0000
0100
0000
0000
0000
0100
0000
0000
0000
,
1001
1000
0010
0100
,
0001
0000
0000
0000
0000
0000
0010
0100
,
0000
1001
0000
1100
0000
0001
0100
1000
,
0000
0110
0000
0001
1000
0010
0100
0001
,
0000
1100
0000
0011
0000
1000
0100
0001
,
0000
0101
0000
1010
0000
0001
0100
1000
,
0000
1001
0000
0010
0000
1100
0000
0001
,
0000
0000
0101
0000
0000
0000
1000
0000
0010
0000
0000
0100
0000
0000
0001
0000
,
0000
1100
0000
0001
0000
0101
0000
1000
,
0020
0001
0000
0100
0000
1030
0010
0000
,
1001
0001
0000
0100
0000
1000
0100
0010
,
0000
1010
0000
0100
0001
0010
0100
1000
,
0000
1010
0000
0001
0000
1000
0100
0001
,
0000
0110
0000
1000
0000
0001
0100
1000
,
0000
0101
0000
1000
0000
1100
0000
0001
,
0000
0000
0110
0000
0000
0000
1000
0000
0001
0000
0000
0010
0000
0000
1000
0000
,
0000
0110
0000
1000
0000
0001
0000
0100
,
0020
0000
0001
0100
1000
0030
0010
0000
,
0100
1000
0100
1000
0100
0001
0100
0001
,
1000
0010
1000
0010
0001
0010
0001
0010
,
0100
0001
0100
0001
0010
1000
0010
1000
,
0010
0001
0010
0001
1000
0100
1000
0100
,
1000
0000
0010
1000
0000
0000
1000
0001
0000
0000
0001
0100
0000
0000
0100
0001
,
0000
0000
0001
0010
0000
0000
0010
0100
0000
0000
0100
1000
0000
0000
1000
0010
,
1000
0100
0001
0100
0010
1000
0010
0001
,
0100
0010
0001
0010
0100
1000
0100
0001
,
2002
0000
0000
0000
,
3003
0000
0000
0000
,
0000
0000
0000
0000
,
0000
0000
0000
0000
,
0000
0000
0000
0000
,
0000
0000
0000
0000
,
1000
0000
0010
0000
0100
0000
0001
0000
1000
0100
0000
1000
0100
0000
0010
0000
,
0001
0000
0100
0000
0010
0000
1000
0000
0000
0001
0000
0000
1000
0000
0000
0000
,
0100
0000
0010
0000
0001
0000
0100
0000
0010
1000
0000
0010
1000
0000
0001
0000
,
0010
0000
0100
0000
0010
0000
0001
0000
0000
0100
0000
0000
0001
0000
0000
0000
,
1000
0000
0100
0000
0010
0000
0100
0000
1000
0010
0000
1000
0010
0000
0100
0000
,
0001
0000
1000
0000
0100
0000
0010
0000
0000
0100
0000
0000
0010
0000
0000
0000
,
0001
0000
1000
0000
0001
0000
0100
0000
0010
1000
0000
0010
1000
0000
0001
0000
,
0010
0000
0100
0000
1000
0000
0001
0100
0001
0000
0010
0000
0100
0000
0000
0000
,
0010
0000
0001
0000
0100
0000
0010
0000
1000
0001
0000
1000
0001
0000
0100
0000
,
0010
0000
0100
0000
1000
0000
0100
0000
0000
0001
0000
0000
1000
0000
0000
0000
,
0100
0000
0010
0000
0001
0000
1000
0000
0010
0100
0000
0010
0100
0000
0001
0000
,
1000
0000
0100
0000
0010
0000
0001
0000
0000
1000
0000
0000
0010
0000
0000
0000
,
1000
0000
0100
0000
0001
0000
0100
0000
0010
0001
0000
0010
0001
0000
0100
0000
,
1000
0000
0100
0000
0010
0000
1000
0000
0000
0001
0000
0000
1000
0000
0000
0000
,
0001
0100
0001
0000
1000
0100
1000
0000
0001
0010
0001
0000
1000
0010
1000
0000
,
0200
0000
0000
0000
0000
0000
0000
0000
0000
0000
0000
0000
0310
0001
0010
0001
,
0010
0000
0100
0000
1000
0000
0001
0000
1000
0010
0000
0100
0001
0000
1000
0000
,
0100
0000
0010
0000
0100
0000
1000
0000
0000
0001
0000
0000
0100
0000
0000
0000
,
0010
0000
0001
0000
0010
0000
0100
0000
0001
1000
0000
0100
0010
0000
1000
0000
,
0010
0000
0001
0000
1000
0000
0001
0000
0000
0100
0000
0000
0010
0000
0000
0000
,
0001
0000
0010
0000
0100
0000
0001
0000
1000
0010
0000
0100
0001
0000
1000
0000
,
0100
0000
0001
0000
0100
0000
0010
0000
0000
0001
0000
0000
1000
0000
0000
0000
,
0001
0000
0100
0000
1000
0000
0100
0000
0010
1000
0000
0001
0010
0000
0100
0000
,
0110
0000
0000
0000
0000
0000
1001
0000
0000
0000
0100
0010
0100
0000
0000
0000
,
1001
0001
0100
0010
0001
0010
0100
0000
,
0001
0100
0001
0000
1000
0000
0010
0000
1000
0100
1000
0000
0010
0000
0000
0000
,
1000
0100
0001
0100
0010
0001
1000
0000
,
0001
0010
0001
0000
1000
0000
0010
0000
0100
0001
0100
0000
0010
0000
0000
0000
,
1000
0100
0001
0100
0010
0001
1000
0000
,
0010
0100
0010
0000
1000
0000
0001
0000
0010
0100
0010
0000
0001
0000
0000
0000
,
0101
1100
1010
0011
,
2002
0000
0000
3003
,
0001
0001
0001
0001
0001
0000
0000
1001
,
0000
0110
0000
1000
1000
1000
1000
1000
,
0010
0010
0010
0010
0010
0000
0100
0010
,
0000
1001
0000
0100
0100
0100
0100
0100
,
0110
1000
0110
0001
,
2002
0000
3003
0000
,
1000
0000
0100
0000
0010
0000
1000
0000
0010
0001
0000
0010
0100
0000
1000
0000
,
0001
0000
0100
0000
1000
0000
0100
0000
0000
0110
0000
0000
0001
0000
0000
0000
,
1000
0000
0010
0000
0001
0000
0010
0000
0100
0001
0000
1000
0100
0000
0010
0000
,
1000
0000
0010
0000
0100
0000
1000
0000
0000
1001
0000
0000
0001
0000
0000
0000
,
0100
0000
1000
0000
0100
0000
0010
0000
1000
0100
0000
0010
0001
0000
0100
0000
,
0010
0000
0001
0000
0010
0000
0100
0000
0000
0101
0000
0000
1000
0000
0000
0000
,
1010
0000
0000
0000
0011
0000
0000
0000
1000
0001
1000
0001
1000
0001
1000
0001
,
1000
0000
0100
0000
0001
0000
0100
0000
0000
0010
0000
0000
0001
1000
0001
1000
,
0001
0000
0000
0000
,
0000
0000
0000
0000
,
0000
0000
0000
0000
,
0000
0000
0000
0000
,
1001
0000
0000
0000
;

//--------------- dance-single - forcednature ----------------
#NOTEDATA:;
#STEPSTYPE:dance-single;
#DESCRIPTION:forcednature;
#CREDIT:forcednature;
#DIFFICULTY:Hard;
#METER:16;
#RADARVALUES:0,0,0,0,0;
#NOTES:
0000
0000
0000
0000
,
0000
0000
0000
0000
,
0000
0000
0000
0000
,
0000
0000
0000
0000
,
0000
0000
0000
0000
,
0000
0000
0000
0000
,
0000
0000
0000
0000
,
0000
0000
0000
0000
,
2002
0000
3003
0000
,
0101
1010
0101
1010
,
1000
0000
0100
0010
0001
0000
0100
0000
1000
0000
0100
0000
0001
0000
0000
0000
,
0011
1100
0011
1100
,
1000
0000
0010
0000
0100
0001
0100
0001
1000
0100
1000
0100
0010
0000
0000
0000
,
0110
1001
0110
1001
,
0001
0000
0100
0010
1000
0000
0100
0000
0010
0000
0100
0000
1000
0000
0000
0000
,
1010
1100
0011
0101
,
1000
0000
0001
0000
0100
0010
1000
0100
0010
0001
0100
0010
1000
0000
0000
0000
,
1100
0101
1100
0101
,
1000
0000
0001
0100
0001
0100
0001
0100
0001
0000
0000
0000
0001
0000
0000
0000
,
0101
0011
1100
1010
,
0001
0000
0100
0010
0000
1000
0000
0100
0010
0000
0000
0000
0001
0000
0000
0000
,
0101
1010
1100
0011
,
0100
0010
0100
0010
0100
0000
0100
0000
0100
0000
0000
0000
0100
0000
0000
0000
,
1001
1010
1001
0011
,
0200
0000
0000
0000
0000
0000
0010
0310
,
0100
1001
0000
1100
0000
0010
0001
0100
,
0000
0101
0000
0001
0100
1000
0100
0010
,
0000
1010
0000
0101
0000
1000
0100
0001
,
0000
0101
0000
0110
0000
0001
1000
0010
,
0000
1100
0000
0100
0010
0001
0000
0100
,
0010
0000
1000
0000
0000
0000
0001
0000
0010
0000
0000
0110
0000
0000
1001
0000
,
0000
0001
0100
1000
0000
0100
0010
1000
,
0000
0100
0010
0001
0100
0010
1000
0001
,
0000
1000
0000
1010
0000
0001
0010
0100
,
0000
0101
0000
0100
1000
0001
1000
0010
,
0000
0100
0000
0101
0000
0001
0010
0100
,
0000
1000
0000
1010
0000
0001
1000
0100
,
0000
0010
0100
1000
0000
0010
0001
0010
,
0000
0000
0100
0000
0001
0000
0010
0000
0100
0000
0000
0110
0000
0000
1001
0000
,
0000
0001
0100
1000
0000
0100
0010
1000
,
0200
0000
0001
0010
1300
0000
1001
0000
,
1000
0010
1000
0010
0001
0010
0001
0010
,
1000
0100
1000
0100
0001
0100
0001
0100
,
1000
0010
1000
0010
1000
0100
1000
0100
,
0010
0001
0010
0001
0100
0001
0100
0001
,
1000
0000
0010
1000
0010
0000
0100
0001
0100
0000
0001
0010
0001
0000
1000
0100
,
1000
0000
0010
0100
0010
0000
1000
0001
1000
0000
0100
0010
0100
0000
1000
0001
,
1000
0100
1000
0100
0010
0001
0010
0001
1000
0010
1000
0010
0100
0001
0100
0001
,
1000
0001
1000
0001
0010
0100
0010
0100
1000
0001
1000
0001
0100
0010
0100
0010
,
2000
0000
0000
0000
,
3000
0000
0000
0000
,
0000
0000
0000
0000
,
0000
0000
0000
0000
,
0000
0000
0000
0000
,
0000
0000
0000
0000
,
0101
0000
0001
0000
1000
0000
0010
0000
1000
0100
0000
0010
0001
0000
0100
0000
,
0010
0000
1000
0000
0001
0000
0010
0000
0000
0100
0000
0000
0010
0000
0000
0000
,
0001
0000
0100
0000
1000
0000
0100
0000
0010
1000
0000
0001
0100
0000
0001
0000
,
0010
0000
1000
0000
0010
0000
0100
0000
0000
1000
0000
0000
0001
0000
0000
0000
,
1001
0000
1000
0000
0010
0000
0001
0000
0010
0100
0000
0001
1000
0000
0100
0000
,
0010
0000
1000
0000
0010
0000
0001
0000
0000
1000
0000
0000
0001
0000
0000
0000
,
0100
0000
1000
0000
0100
0000
0010
0000
0100
0001
0000
1000
0010
0000
1000
0000
,
0100
0000
0001
0000
0100
0010
0001
0010
0100
1000
0001
1000
0010
0000
0000
0000
,
0101
0000
0001
0000
0100
0000
1000
0000
0100
0001
0000
1000
0010
0000
1000
0000
,
0100
0000
0010
0000
0001
0000
0010
0000
0000
0100
0000
0000
1000
0000
0000
0000
,
0001
0000
0100
0000
0001
0000
1000
0000
0010
0001
0000
0010
0100
0000
0001
0000
,
1000
0000
0100
0000
0010
0000
1000
0000
0000
0010
0000
0000
0001
0000
0000
0000
,
1000
0000
0010
0000
0100
0000
0001
0000
1000
0100
0000
1000
0100
0000
0010
0000
,
0001
0000
0100
0000
0001
0000
1000
0000
0000
1000
0000
0000
1000
0000
0000
0000
,
0001
0100
0001
0100
0010
1000
0010
1000
0001
0010
0001
0010
0100
1000
0100
1000
,
0010
0000
0010
0000
0010
0000
0010
0000
0000
0000
0000
0000
1000
0001
1000
0001
,
1000
0000
0100
0010
0100
0000
1000
0000
0010
0100
0000
0001
1000
0000
0010
0000
,
1000
0000
0100
0000
0010
0000
0011
0000
0000
1100
0000
0000
0011
0000
0000
0000
,
0001
0000
1000
0000
0010
0000
0100
0000
0001
1000
0000
0001
1000
0000
0100
0000
,
0010
0000
0100
0000
1000
0000
1010
0000
0000
0101
0000
0000
1010
0000
0000
0000
,
0001
0000
0100
0000
1000
0000
0100
0000
0010
1000
0000
0001
0010
0000
1000
0000
,
0010
0000
0001
0000
0100
0000
0110
0000
0000
1001
0000
0000
0110
0000
0000
0000
,
1000
0000
0100
0000
0001
0000
0100
0000
0010
0001
0000
1000
0010
0000
0100
0000
,
0001
0100
0001
0100
0001
0100
0010
1000
0010
1000
0010
1000
0100
0000
0000
0000
,
0010
0001
0010
0000
0100
1000
0100
0000
0010
0000
0001
0000
1000
0000
0010
0000
,
0100
0010
0100
0000
0001
1000
0001
0000
1000
0100
1000
0000
0001
0100
0001
0000
,
1000
0100
0010
0000
0001
0100
0010
0000
1000
0000
0001
0000
0100
0000
0010
0000
,
1000
0100
1000
0000
0001
0100
0001
0000
1000
0010
1000
0000
0001
0010
0001
0000
,
0100
0010
1000
0000
0100
0010
0001
0000
1000
0000
0010
0000
0001
0000
0010
0000
,
0100
0001
1000
0000
0100
1000
0001
0000
0010
0001
1000
0000
0010
1000
0001
0000
,
1001
1100
1001
0101
,
2002
0000
0000
3003
,
1100
0010
0101
0010
1001
0000
0000
1100
,
0000
0101
0000
0010
1100
0001
0101
1000
,
1010
0100
0011
0100
1001
0000
1010
0101
,
0000
0110
0000
0001
0110
1000
0110
0001
,
0110
1000
0101
0001
,
2200
0000
3300
0000
,
1000
0000
0100
0010
0001
0000
0100
0010
1000
0001
0000
0010
0001
0000
0100
0000
,
0010
0000
1000
0000
0001
0000
1100
0000
0000
0101
0000
0000
1100
0000
0000
0000
,
0010
0000
1000
0001
0010
0000
0001
0100
0010
1000
0000
0100
0010
0000
0001
0000
,
0100
0000
0010
0000
1000
0000
0011
0000
0000
1100
0000
0000
1010
0000
0000
0000
,
1000
0000
0001
0100
0010
0000
1000
0100
0010
0001
0000
0100
0010
0000
1000
0000
,
0010
0000
0001
0000
0010
0000
0110
0000
0000
0101
0000
0000
1100
0000
0000
0000
,
1001
0000
0000
0000
0110
0000
0000
0000
1000
0100
0010
0001
0100
0010
1000
0001
,
0010
0000
0000
0000
0000
0000
0100
0000
0000
0000
0000
0000
1000
0000
0000
0000
0000
0000
0101
0000
0000
0000
0000
0000
0000
0000
0000
1100
0000
0000
0000
0000
0000
0000
0000
0000
0001
0000
1000
0000
0001
0000
1000
0000
0001
0000
1000
0000
,
0001
0000
0000
0000
,
0000
0000
0000
0000
,
0000
0000
0000
0000
,
0000
0000
0000
0000
,
1001
0000
0000
0000
;

//--------------- dance-single - forcednature ----------------
#NOTEDATA:;
#STEPSTYPE:dance-single;
#DESCRIPTION:forcednature;
#CREDIT:forcednature;
#DIFFICULTY:Challenge;
#METER:18;
#RADARVALUES:0,0,0,0,0;
#NOTES:
0000
0000
0000
0000
,
0000
0000
0000
0000
,
0000
0000
0000
0000
,
0000
0000
0000
0000
,
0000
0000
0000
0000
,
0000
0000
0000
0000
,
0000
0000
0000
0000
,
0000
0000
0000
0000
,
0200
0000
0010
0010
0310
0000
0000
0000
,
1001
1100
1001
0101
,
0001
0000
0010
0100
1000
0000
0010
0000
0001
0000
0010
0000
0100
0000
0000
0000
,
0101
1001
1100
0110
,
1000
0000
0001
0000
0100
0010
1000
0100
0010
0001
0100
0010
1000
0000
0000
0000
,
0101
1001
1100
0110
,
0001
0000
0100
0010
1000
0000
0100
0000
1000
0000
0010
0000
0100
0000
0000
0000
,
1001
1100
0101
1001
,
1000
0010
0100
0001
1000
0001
1000
0100
0010
0001
0100
0010
1000
0000
0000
0000
,
1001
0101
1001
1100
,
0001
0000
0100
0010
0100
1000
0100
0010
0100
0000
0000
0000
0100
0000
0000
0000
,
0110
1010
0011
1001
,
1000
0000
0100
0010
0100
1000
0001
0100
0010
0000
0000
0000
0010
0000
0000
0000
,
1001
0110
1100
0101
,
1000
0100
0010
0100
1000
0000
0001
0000
0100
0000
0000
0000
0100
0000
0000
0000
,
1001
0011
0110
1010
,
0200
0000
0000
0000
0000
0000
0310
0010
,
1001
0000
0001
0100
0010
0000
1000
0100
0010
0000
0100
0000
1000
0000
0001
0000
,
0100
0000
1000
0100
0010
0000
1000
0100
0010
0000
0001
0000
0100
0000
0010
0000
,
1000
0000
0001
0100
0010
0000
0001
0010
0100
0000
0001
0000
1000
0000
0100
0000
,
0001
0000
0100
0010
0001
0000
1000
0010
0100
0000
1000
0000
0100
0000
0001
0000
,
1000
0000
0010
1000
0100
0000
0010
0100
1000
0000
0001
0100
0010
0000
1000
0001
,
0010
0000
0001
0100
0010
0000
1000
0100
0010
0000
0000
0110
0000
0000
1001
0000
,
0001
0100
1000
0100
0010
1000
0001
1000
,
0200
0001
0000
0010
0000
1300
1001
0000
,
0110
0000
0001
0010
0100
0000
1000
0001
0100
0000
0010
0000
0001
0000
0010
0000
,
1000
0000
0100
0010
1000
0000
0010
0001
1000
0000
0010
0000
0001
0000
0010
0000
,
0100
0000
0001
1000
0100
0000
0010
0100
1000
0000
0001
0000
0100
0000
0010
0000
,
0001
0000
0010
0100
0001
0000
1000
0100
0010
0000
0100
0000
0001
0000
0100
0000
,
1000
0000
0010
1000
0001
0000
0010
0001
0100
0000
0010
1000
0100
0000
1000
0001
,
0100
0000
0010
1000
0001
0000
1000
0100
0010
0000
0000
0110
0000
0000
1001
0000
,
1000
0100
0001
0100
0010
1000
0010
0001
,
0200
0000
1000
0010
0001
0310
0110
0000
,
0101
0001
0001
0001
1100
1000
1000
1000
,
0011
0001
0001
0001
1010
1000
1000
1000
,
0110
0100
0100
0100
1001
0001
0001
0001
,
0110
0010
0010
0010
1001
1000
1000
1000
,
0001
0000
1000
0100
0010
0000
0100
1000
0001
0000
0010
1000
0001
0000
0010
0001
,
0100
0000
0010
1000
0100
0000
1000
0001
0100
0000
0010
1000
0001
0000
0010
0001
,
1000
0100
1000
0100
0010
0001
0010
0001
0100
0010
0100
0010
1000
0001
1000
0001
,
1000
0100
0010
0001
0100
0010
1000
0100
0010
0001
0100
0010
1000
0100
0010
0001
,
0200
0000
0000
0000
,
0300
0000
0000
0000
,
0000
0000
0000
0000
,
0000
0000
0000
0000
,
0000
0000
0000
0000
,
0000
0000
0000
0000
,
1001
0000
0001
0000
0100
0000
0010
0000
1000
0100
0000
1000
0100
0000
0010
0000
,
0001
0000
0100
0000
0010
0000
1000
0000
0000
1000
0000
0000
1000
0000
0000
0000
,
0001
0000
0100
0000
0010
0000
1000
0000
0100
0010
0000
0100
0010
0000
0001
0000
,
1000
0000
0010
0000
1000
0000
0100
0000
0000
0100
0000
0000
0100
0000
0000
0000
,
0011
0000
0001
0000
1000
0000
0010
0000
0100
0001
0000
0100
0001
0000
1000
0000
,
0100
0000
0010
0000
0100
0000
1000
0000
0000
0010
0000
0000
0100
0000
0000
0000
,
0001
0000
0010
0000
0001
0000
0100
0000
0010
1000
0000
0100
1000
0000
0010
0000
,
0100
0000
0001
1000
0100
0010
0001
1000
0010
0100
0001
1000
0100
0000
0000
0000
,
0011
0000
0001
0100
0010
0000
1000
0001
1000
0100
0000
0010
0100
0000
1000
0000
,
0001
0000
0100
0000
0010
0000
1000
0000
0000
0001
0000
0000
1000
0000
0000
0000
,
0100
0000
0010
0100
1000
0000
0001
0100
0010
1000
0100
0010
0001
0000
0100
0001
,
1000
0000
0010
0000
1000
0000
0100
0000
0000
0010
0000
0000
0001
0000
0000
0000
,
0100
0000
0010
0000
0100
0000
1000
0000
0100
0001
0000
0100
0001
0000
0010
0000
,
0100
0000
1000
0000
0001
0000
0100
0000
0010
1000
0000
0001
0100
0000
0000
0000
,
0010
1000
0001
0010
0100
0010
0001
0100
0010
1000
0100
0010
0100
1000
0001
0100
,
0020
0000
0100
0000
0100
0000
0130
0000
0000
0000
0000
0000
0100
0001
1000
0100
,
0010
0000
0100
1000
0001
0000
0100
0001
1000
0010
1000
0100
0010
0000
0100
1000
,
0001
0000
0100
0000
0010
0000
1010
0000
0000
0101
0000
0000
1001
0000
0000
0000
,
1000
0000
0100
0010
0001
0000
0100
0010
1000
0001
0010
0100
1000
0000
0001
0100
,
0010
0000
1000
0000
0100
0000
0110
0000
0000
1010
0000
0000
0011
0000
0000
0000
,
1000
0000
0010
0100
0001
0000
1000
0100
0010
0100
1000
0001
0100
0000
0010
1000
,
0001
0000
0010
0000
0100
0000
1100
0000
0000
0101
0000
0000
1001
0000
0000
0000
,
0001
0000
0100
0010
1000
0000
0100
0010
0100
1000
0001
0100
0010
0000
1000
0001
,
0010
0000
0000
0001
0000
0000
1000
0000
0000
0010
0000
0000
1000
0000
0000
0001
0000
0000
1000
0000
0000
0100
0000
0000
0010
0000
0000
0001
0000
0000
1000
0000
0001
0000
1000
0000
0001
0000
0000
0000
0000
0000
0000
0000
0000
0000
0000
0000
,
0100
0001
0100
0000
0010
1000
0010
0000
1000
0100
1000
0000
0001
0010
0001
0000
,
0100
0010
1000
0100
0010
0001
0100
0010
1000
0001
0010
0100
0010
0001
0100
0000
,
0010
1000
0100
0000
1000
0001
0100
0000
0010
1000
0001
0000
1000
0100
0010
0000
,
0001
0100
0010
1000
0001
0010
0001
0100
0001
0010
0100
1000
0010
0100
0001
0000
,
1000
0100
0010
0000
0100
1000
0010
0000
0100
0001
0010
0000
0001
0010
0100
0000
,
1000
0001
0100
0001
0010
0100
0010
0001
0100
0010
1000
0100
1000
0010
0100
0000
,
0001
0100
0001
0100
0001
1000
0001
1000
0100
1000
0100
1000
0001
1000
0001
1000
,
0020
0100
0200
0330
,
0101
1001
1100
1001
0110
0000
0000
1001
,
0000
0110
0000
1100
1010
0101
0011
0110
,
1001
0101
1100
1001
0110
0000
1010
0011
,
0000
0110
0000
1100
0101
0011
1010
0110
,
1001
0100
1001
0010
,
2002
0000
3003
0000
,
0001
0000
0100
0010
1000
0000
0100
0001
0100
0010
0001
1000
0010
0000
0100
0001
,
0100
0000
0010
0000
1000
0000
0100
1000
0010
0100
1000
0100
0001
0000
0000
0000
,
1000
0000
0100
0010
0001
0000
1000
0001
0100
1000
0100
0001
1000
0000
0100
0010
,
0001
0000
0100
0000
0010
0000
1000
0100
0010
0100
1000
0001
0100
0000
0000
0000
,
0010
0000
0001
0010
1000
0000
0100
0010
0100
1000
0010
0100
0001
0000
0010
0100
,
1000
0000
0001
0000
0100
0000
1000
0100
0010
1000
0100
0010
0001
0000
0000
0000
,
0101
0000
1000
0000
1100
0000
0001
0000
1000
0100
1000
0010
0100
0001
0010
0001
,
0100
0000
0000
0000
0000
0000
0101
0000
0000
0000
0000
0000
1100
0000
0000
0000
0000
0000
1001
0000
0000
0000
0000
0000
0000
0000
0000
0110
0000
0000
0000
0000
0000
0000
0000
0000
1000
0000
0100
0000
0010
0000
0001
0000
0100
0000
0010
0000
,
1000
0000
0000
0000
,
0000
0000
0000
0000
,
0000
0000
0000
0000
,
0000
0000
0000
0000
,
1001
0000
0000
0000
;

//--------------- dance-double - forcednature ----------------
#NOTEDATA:;
#STEPSTYPE:dance-double;
#DESCRIPTION:forcednature;
#CREDIT:forcednature;
#DIFFICULTY:Easy;
#METER:10;
#RADARVALUES:0,0,0,0,0;
#NOTES:
00000000
00000000
00000000
00000000
,
00000000
00000000
00000000
00000000
,
00000000
00000000
00000000
00000000
,
00000000
00000000
00000000
00000000
,
00000000
00000000
00000000
00000000
,
00000000
00000000
00000000
00000000
,
00000000
00000000
00000000
00000000
,
00000000
00000000
00000000
00000000
,
00000000
00000000
00000000
00000000
,
00011000
00010000
00000100
00001000
,
00000100
00000010
00000100
00000000
00000010
00000001
00000010
00000000
,
00001001
00001000
00000010
00010000
,
00001000
01000000
00001000
00000000
01000000
00010000
01000000
00000000
,
01100000
00100000
10000000
00100000
,
01000000
00010000
01000000
00000000
00001000
00010000
00001000
00000000
,
00011000
00010000
00000100
00001000
,
00000001
00000100
00000000
00000100
00000000
00000100
00000010
00000000
,
00000110
00000100
00000001
00000100
,
00000010
00001000
00000010
00001000
00000100
00000000
00010000
00000000
,
00011000
00001000
01000000
00010000
,
10000000
00000000
10000000
10000000
01000000
00000000
01000000
00000000
,
01100000
00100000
00010000
00100000
,
00001000
00010000
00001000
00010000
00000010
00000000
00000010
00000000
,
00000110
00000100
00000001
00001000
,
00000200
00000000
00000010
00000000
00001000
00000000
00010300
00001000
,
00000000
01000000
00000000
01000000
00000000
00010000
10000000
00010000
,
00000000
00100000
00000000
00100000
00000000
00001000
00010000
00001000
,
00000000
00010000
00000000
00010000
00000000
00000010
00001000
00000010
,
00000000
00000100
00000000
00000100
00000000
00000001
00001000
00000100
,
00000000
00010000
00000000
00010000
00000000
00001000
00000000
00001000
,
00000000
01000000
00000000
01000000
00010000
00000000
00010000
00100000
,
00000000
01000000
00000000
01000000
00000000
10000000
00000000
10000000
,
00000000
00200000
00000000
10000000
00000000
10300000
00100000
00000000
,
00000000
01000000
00000000
01000000
00000000
00001000
00010000
00001000
,
00000000
00100000
00000000
00100000
00010000
00000000
01000000
00000000
,
00000000
00001000
00000000
00001000
00000000
00010000
00000010
00010000
,
00000000
00000010
00000000
00000010
00000000
00001000
00000100
00001000
,
00000000
00000001
00000000
00000001
00000000
00000100
00000000
00000100
,
00000000
00000010
00000000
00000010
00010000
00000000
00010000
00001000
,
00000000
00100000
00000000
00100000
00000000
00010000
00000000
00010000
,
20000000
30200000
02300000
03002000
,
00013000
00010000
00000100
00000100
,
00001000
00001000
00000001
00000001
,
00000100
00000100
00000010
00000010
,
00010000
00010000
00001000
00001000
,
00100000
00010000
01000000
00010000
,
00100000
00001000
00010000
00000010
,
00002000
00003200
00020300
00032000
,
02003000
03020000
20030000
31000000
,
02200000
00000000
00000000
00000000
,
03300000
00000000
00000000
00000000
,
00000000
00000000
00000000
00000000
,
00000000
00000000
00000000
00000000
,
00000000
00000000
00000000
00000000
,
00000000
00000000
00000000
00000000
,
10010000
00000000
00010000
00000000
01000000
00001000
01000000
00000000
,
00001000
00000000
00001000
00010000
00000000
00010000
00000000
00000000
,
00000100
00000000
00001000
00000000
00000100
00000010
00000100
00000000
,
00000010
00000000
00000010
00000001
00000000
00000001
00000000
00000000
,
00000100
00000000
00000001
00000000
00001000
00000010
00001000
00000000
,
00000010
00000000
00000010
00010000
00000000
00010000
00000000
00000000
,
00001000
00000000
00100000
00000000
00010000
00100000
00010000
00000000
,
02000000
00100000
00010000
03001000
,
00011000
00000000
00010000
00000000
00000100
00001000
00000100
00000000
,
00000010
00000001
00001000
00000001
,
00000100
00000000
00000010
00000000
00001000
00000010
00001000
00000000
,
00000100
00010000
00001000
01000000
,
00010000
00000000
00010000
00000000
10000000
00100000
10000000
00000000
,
01000000
01000000
00100000
00100000
,
00010000
00100000
00010000
00000000
00100000
00001000
00100000
00000000
,
00022000
00000000
00000000
00033000
,
00010000
00000000
00000010
00000000
00001000
00000010
00001000
00000000
,
00000100
00001001
00000010
00001001
,
00001000
00000000
00000100
00000000
00010000
00001000
00010000
00000000
,
00001000
00010100
00001000
00010100
,
00010000
00000000
00001000
00000000
01000000
00010000
01000000
00000000
,
00100000
10010000
01000000
10010000
,
00100000
00000000
10000000
00000000
01000000
00100000
00010000
00000000
,
20020000
00000000
00000000
00000000
00000000
30030000
00000000
00000000
,
00010000
01000000
00010000
00000000
01000000
00001000
01000000
00000000
,
00001000
00010000
00000100
00010000
,
00000100
00001000
00000100
00000000
00000010
00000100
00000010
00000000
,
00000001
00001000
00000001
00000100
,
00000010
00000100
00000010
00000000
00001000
00000010
00001000
00000000
,
00000100
00010000
00001000
01000000
,
00100000
10010000
01000000
10010000
,
02200000
00000000
00000000
03300000
,
00010000
10000000
00010000
10000000
00010000
00000000
00000000
00010000
,
00000000
00010000
00000000
00010000
01000000
00010000
01000000
00000000
,
00001000
00010000
00001000
00010000
00001000
00000000
00010000
00000100
,
00000000
00000100
00000000
00001000
00000001
00001000
00000001
00000000
,
00001001
00000000
00000110
00000000
,
00002002
00000000
00003003
00000000
,
00001001
00000000
00001000
00000000
00000100
00010000
00000100
00000000
,
00010000
00000000
00001000
00000000
01000000
00020000
00000000
00030000
,
00100000
00000000
00010000
00000000
10000000
00100000
10000000
00000000
,
00010000
00000000
00100000
00000000
01000000
20000000
00000000
30000000
,
00010000
00000000
01000000
00000000
00001000
00010000
00001000
00000000
,
00010000
00000000
00000100
00000000
00001000
00000002
00000000
00000003
,
00001001
00000000
00000110
00000000
00001000
00000001
00001000
00000000
,
00000100
00000000
00000100
00010000
00000000
00010000
00001000
00000000
,
00011000
00000000
00000000
00000000
,
00000000
00000000
00000000
00000000
,
00000000
00000000
00000000
00000000
,
00000000
00000000
00000000
00000000
,
00011000
00000000
00000000
00000000
;

//--------------- dance-double - forcednature ----------------
#NOTEDATA:;
#STEPSTYPE:dance-double;
#DESCRIPTION:forcednature;
#CREDIT:forcednature;
#DIFFICULTY:Medium;
#METER:15;
#RADARVALUES:0,0,0,0,0;
#NOTES:
00000000
00000000
00000000
00000000
,
00000000
00000000
00000000
00000000
,
00000000
00000000
00000000
00000000
,
00000000
00000000
00000000
00000000
,
00000000
00000000
00000000
00000000
,
00000000
00000000
00000000
00000000
,
00000000
00000000
00000000
00000000
,
00000000
00000000
00000000
00000000
,
00022000
00000000
00033000
00000000
,
01001000
01010000
10010000
11000000
,
10000000
00000000
01000000
00100000
01000000
00000000
10000000
00000000
00010000
00000000
01000000
00000000
00001000
00000000
00000000
00000000
,
00011000
00010100
00001100
00001001
,
00000001
00000000
00000100
00000000
00000010
00001000
00000010
00001000
00000001
00000010
00000001
00000010
00000100
00000000
00000000
00000000
,
00001100
00010100
00011000
01001000
,
01000000
00000000
00010000
00100000
00010000
00000000
10000000
00000000
01000000
00000000
00100000
00000000
00010000
00000000
00000000
00000000
,
01010000
01001000
00011000
00010100
,
00000100
00000000
00010000
00000000
00001000
01000000
00001000
01000000
00010000
10000000
00010000
10000000
01000000
00000000
00000000
00000000
,
01100000
00110000
00101000
00011000
,
00000100
00000000
00001000
00000100
00001000
00000100
00001000
00000100
00001000
00000000
00000000
00000000
00001000
00000000
00000000
00000000
,
00001001
00000101
00001100
00011000
,
00001000
00000000
00100000
00001000
00000000
00010000
00000000
00100000
00010000
00000000
00000000
00000000
00001000
00000000
00000000
00000000
,
00011000
01001000
01010000
00110000
,
01000000
10000000
01000000
10000000
01000000
00000000
00100000
00000000
00001000
00000000
00000000
00000000
00010000
00000000
00000000
00000000
,
00011000
00010100
00001100
00001001
,
00000200
00000000
00001000
00000000
00000001
00000000
00000010
00000310
,
00000110
00000001
00001000
00000100
00000010
00000100
00010000
00001000
,
00000000
00000100
00001000
00010000
01000000
00100000
00010000
10000000
,
00000000
00100000
00010000
00100000
01000000
00001000
00010000
01000000
,
00000000
00100000
00001000
00010000
00000100
00010000
00001000
00000100
,
00000000
00000001
00000100
00001000
00000000
00010000
01000000
10000000
,
00000000
00000000
00100000
00000000
01000000
00000000
00010000
00000000
00110000
00000000
00000000
11000000
00000000
00000000
00110000
00000000
,
00000000
01000000
00001000
00010000
00000000
00000100
00010000
00001000
,
00000000
00000100
00000001
00000010
00000100
00001000
00000010
00010000
,
00000000
00001000
00000010
00001000
00010000
00100000
00010000
00001000
,
00000000
00010000
01000000
00100000
00001000
00010000
00100000
10000000
,
00000000
00010000
10000000
01000000
00010000
00001000
00000010
00000001
,
00000000
00001000
00000001
00000100
00001000
00010000
00100000
10000000
,
00000000
01000000
00010000
01000000
00000000
00100000
00001000
00010000
,
00000000
00000000
00100000
00000000
01000000
00000000
00001000
00000000
00010000
00000000
00000000
00010000
00000000
00000000
00010000
00000000
,
00000000
00000100
00001000
00000010
00000000
00000100
00000001
00000010
,
00000200
00000000
00000001
00000010
00001000
00000000
00010300
00000000
,
00001000
00010000
00001000
00010000
01000000
10000000
01000000
10000000
,
00010000
00100000
00010000
00100000
00001000
01000000
00001000
01000000
,
00100000
00010000
00100000
00010000
00001000
00000010
00001000
00000010
,
00000001
00001000
00000001
00001000
00000100
00010000
00000100
00010000
,
00001000
00000000
00000100
00000001
00000000
00000000
00000001
00000010
00000000
00000000
00000010
00001000
00000000
00000000
00001000
00010000
,
00000000
00000000
00010000
00100000
00000000
00000000
00100000
10000000
00000000
00000000
10000000
01000000
00000000
00000000
01000000
00100000
,
00010000
01000000
00001000
00010000
00100000
01000000
00001000
00010000
,
00000100
00000001
00000100
00001000
00000010
00010000
00001000
00100000
,
00022000
00000000
00000000
00000000
,
00033000
00000000
00000000
00000000
,
00000000
00000000
00000000
00000000
,
00000000
00000000
00000000
00000000
,
00000000
00000000
00000000
00000000
,
00000000
00000000
00000000
00000000
,
00001000
00000000
01000000
00000000
00010000
00000000
10000000
00000000
01000000
00100000
00000000
01000000
00100000
00000000
01000000
00000000
,
10000000
00000000
00010000
00000000
01000000
00000000
00001000
00000000
00000000
00010000
00000000
00000000
00001000
00000000
00000000
00000000
,
00000100
00000000
00000001
00000000
00001000
00000000
00000010
00000000
00001000
00000100
00000000
00001000
00000100
00000000
00000010
00000000
,
00000001
00000000
00000100
00000000
00000010
00000000
00010000
00000000
00000000
00001000
00000000
00000000
00010000
00000000
00000000
00000000
,
00100000
00000000
01000000
00000000
00010000
00000000
10000000
00000000
01000000
00100000
00000000
01000000
00100000
00000000
01000000
00000000
,
10000000
00000000
00010000
00000000
01000000
00000000
00001000
00000000
00000000
00010000
00000000
00000000
00001000
00000000
00000000
00000000
,
00000100
00000000
00000001
00000000
00001000
00000000
00000100
00000000
00000010
00000001
00000000
00000010
00000001
00000000
00000100
00000000
,
00000010
00000100
00001000
00010000
01000000
00100000
00010000
00000000
,
10000000
00000000
00100000
00000000
00010000
00000000
00100000
00000000
01000000
00010000
00000000
01000000
00010000
00000000
00100000
00000000
,
00001000
00000000
00010000
00000000
00000100
00000000
00010000
00000000
00000000
00010000
00000000
00000000
00010000
00000000
00000000
00000000
,
00001000
00000000
00000100
00000000
00000001
00000000
00001000
00000000
00000100
00000010
00000000
00000100
00000010
00000000
00000100
00000000
,
00010000
00000000
00001000
00000000
00000100
00000000
00001000
00000000
00000000
00001000
00000000
00000000
00001000
00000000
00000000
00000000
,
00010000
00000000
01000000
00000000
00100000
00000000
00010000
00000000
10000000
00100000
00000000
10000000
00100000
00000000
01000000
00000000
,
00001000
00000000
00010000
00000000
00000100
00000000
00000010
00000000
00000000
00000010
00000000
00000000
00000010
00000000
00000000
00000000
,
00000100
00001000
00000100
00001000
00000100
00010000
00000100
00010000
00001000
01000000
00001000
01000000
00010000
01000000
00010000
01000000
,
00100000
00000000
10000000
00000000
00010000
00000000
00100000
00000000
00000000
00000000
00000000
00000000
00001000
00010000
00001000
00010000
,
00001000
00000000
00000100
00000000
00000001
00000000
00001000
00000000
00000100
00000010
00000000
00000100
00000010
00000000
00000100
00000000
,
00010000
00000000
00001000
00000000
00000100
00000000
00001000
00000000
00000000
00001000
00000000
00000000
00001000
00000000
00000000
00000000
,
00010000
00000000
01000000
00000000
00100000
00000000
00001000
00000000
00010000
00100000
00000000
00010000
00100000
00000000
10000000
00000000
,
00010000
00000000
10000000
00000000
01000000
00000000
00100000
00000000
00000000
00100000
00000000
00000000
00100000
00000000
00000000
00000000
,
00001000
00000000
00010000
00000000
00100000
00000000
00010000
00000000
00001000
00010000
00000000
00001000
00010000
00000000
00000100
00000000
,
00001000
00000000
00000001
00000000
00000100
00000000
00000010
00000000
00000000
00000010
00000000
00000000
00000010
00000000
00000000
00000000
,
00010000
00000000
00001000
00000000
00000010
00000000
00000100
00000000
00001000
00000001
00000000
00001000
00000001
00000000
00000100
00000000
,
00000110
00000000
00000000
00000000
00000000
00000000
00011000
00000000
00000000
00000000
00010000
00001000
00010000
00000000
00000000
00000000
,
00001000
01000000
00010000
00100000
00010000
00001000
00000100
00010000
,
00001000
01000000
00010000
10000000
01000000
00100000
01000000
10000000
,
00010000
01000000
00001000
00010000
00000100
00000010
00001000
00000010
,
00000001
00001000
00000001
00000100
00001000
00010000
01000000
10000000
,
00010000
10000000
00100000
10000000
01000000
00010000
01000000
00100000
,
00001000
00010000
00100000
00010000
00001000
00000100
00000010
00010000
,
00001000
00000010
00000100
00001000
00000001
00000100
00001000
00010000
,
00022000
00000000
00000000
00033000
,
00000100
00010000
01000000
00010000
00000100
00000000
00000000
00011000
,
00000000
00011000
00000000
01000000
00001000
00000100
00001000
01000000
,
00010000
00100000
00010000
00000010
00010000
00000000
00100000
00001000
,
00000000
00011000
00000000
00000100
00010000
00001000
00000100
00000001
,
00000011
00000100
00011000
00100000
,
20020000
00000000
30030000
00000000
,
10000000
00000000
01000000
00000000
00010000
00000000
00001000
00000000
01000000
00010000
00000000
01000000
00010000
00000000
00100000
00000000
,
00001000
00000000
00010000
00000000
00100000
00000000
01000000
00000000
00000000
00001000
00000000
00000000
00010000
00000000
00000000
00000000
,
00000100
00000000
00010000
00000000
00001000
00000000
00000100
00000000
00000001
00001000
00000000
00000001
00001000
00000000
00000100
00000000
,
00000010
00000000
00000100
00000000
00010000
00000000
00001000
00000000
00000000
00000100
00000000
00000000
00001000
00000000
00000000
00000000
,
00010000
00000000
01000000
00000000
00010000
00000000
00001000
00000000
00100000
00010000
00000000
00100000
00010000
00000000
10000000
00000000
,
00100000
00000000
00010000
00000000
00100000
00000000
01000000
00000000
00000000
00001000
00000000
00000000
00010000
00000000
00000000
00000000
,
00010100
00000000
00000000
00000000
01001000
00000000
00000000
00000000
00001000
00010000
00001000
00010000
00000010
00010000
00000010
00010000
,
00001000
00000000
00000010
00000000
00000001
00000000
00000100
00000000
00000000
00001000
00000000
00000000
00010000
00001000
00010000
00001000
,
00010000
00000000
00000000
00000000
,
00000000
00000000
00000000
00000000
,
00000000
00000000
00000000
00000000
,
00000000
00000000
00000000
00000000
,
00011000
00000000
00000000
00000000
;

//--------------- dance-double - forcednature ----------------
#NOTEDATA:;
#STEPSTYPE:dance-double;
#DESCRIPTION:forcednature;
#CREDIT:forcednature;
#DIFFICULTY:Hard;
#METER:17;
#RADARVALUES:0,0,0,0,0;
#NOTES:
00000000
00000000
00000000
00000000
,
00000000
00000000
00000000
00000000
,
00000000
00000000
00000000
00000000
,
00000000
00000000
00000000
00000000
,
00000000
00000000
00000000
00000000
,
00000000
00000000
00000000
00000000
,
00000000
00000000
00000000
00000000
,
00000000
00000000
00000000
00000000
,
00022000
00000000
00033000
00000000
,
00001000
01000000
00010000
00100000
01000000
10000000
00010000
01000000
,
00001000
00000000
00010000
00000100
00001000
00000000
00000001
00000000
00000100
00000000
00001000
00000000
00010000
00000000
00000000
00000000
,
00000100
00010000
00001000
00000010
00000100
00010000
00001000
01000000
,
00010000
00000000
10000000
00000000
01000000
00100000
00010000
01000000
00100000
10000000
01000000
00100000
00010000
00000000
00000000
00000000
,
01000000
00001000
00010000
00000100
00010000
00001000
00000100
00000001
,
00001000
00000000
00000100
00000010
00000001
00000000
00000100
00000000
00000010
00000000
00000001
00000000
00000010
00000000
00000000
00000000
,
00001000
00000001
00001000
00000100
00000010
00001000
00010000
00100000
,
00010000
00000000
00001000
00000000
01000000
00001000
00010000
00001000
00100000
00010000
00100000
00001000
00010000
00000000
00000000
00000000
,
01010000
10010000
11000000
10010000
,
01000000
00000000
00001000
00010000
00001000
00010000
00001000
00010000
00001000
00000000
00000000
00000000
00001000
00000000
00000000
00000000
,
00010100
00001001
00010010
00101000
,
00001000
00000000
00010000
00000100
00000000
00010000
00000000
00001000
01000000
00000000
00000000
00000000
00001000
00000000
00000000
00000000
,
00011000
01010000
00011000
00001100
,
00010000
00001000
00010000
00001000
00010000
00000000
00010000
00000000
00010000
00000000
00000000
00000000
00010000
00000000
00000000
00000000
,
00110000
00011000
00001010
00011000
,
00000200
00000000
00000010
00000000
00000001
00000000
00001000
00001300
,
00000100
00010000
00001000
00010000
00100000
01000000
10000000
01000000
,
00010000
10000000
01000000
00010000
00001000
01000000
00010000
00100000
,
00001000
00010000
00000010
00010000
00001000
00000010
00000001
00001000
,
00000010
00000001
00000010
00000100
00000001
00001000
00000100
00000010
,
00000100
00010000
00001000
01000000
00100000
00010000
00001000
00000010
,
00000100
00000000
00001000
00000000
00000001
00000000
00000100
00000000
00001010
00000000
00000000
00000101
00000000
00000000
00001010
00000000
,
00000010
00010000
00001000
00000010
00001000
00010000
00100000
01000000
,
00020000
10000000
00000000
01000000
00000000
00130000
00010000
00000000
,
10010000
00000000
10000000
00000000
00010000
00000000
01000000
00000000
00001000
00000000
00010000
00000100
00010000
00000000
00000000
00000000
,
00001000
00000100
00000001
00000010
00000100
00001000
00000010
00010000
,
00001000
00000000
00000010
00000000
00000100
00000000
00010000
00000000
00001000
00000000
01000000
00010000
01000000
00000000
00000000
00000000
,
00100000
00001000
00100000
10000000
01000000
00100000
00010000
01000000
,
00001000
00000000
00010000
00000100
00010000
00000000
00001000
00000000
00000100
00000000
00000001
00000000
00001000
00000000
00000100
00000000
,
00000010
00000000
00000100
00001000
00000100
00000000
00010000
00000000
00010100
00000000
00000000
00011000
00000000
00000000
01001000
00000000
,
00001000
00010000
00100000
10000000
00100000
00010000
00001000
00000010
,
00000200
00000000
00000001
00000010
00001000
00000000
00010300
00000000
,
00010100
00010000
00000100
00010000
00001000
00000100
00001000
00000100
,
00000001
00000010
00000001
00000010
00001000
00010000
00001000
00010000
,
00100000
10000000
00100000
10000000
01000000
00010000
01000000
00010000
,
00001000
00000100
00001000
00000100
00000001
00001000
00000001
00001000
,
00000100
00000000
00000010
00000001
00000010
00000000
00000100
00001000
00000100
00000000
00010000
00001000
00010000
00000000
00001000
01000000
,
00001000
00000000
10000000
00010000
10000000
00000000
01000000
00100000
01000000
00000000
10000000
00010000
10000000
00000000
00010000
01000000
,
00001000
00010000
00001000
00010000
00000100
00001000
00000100
00001000
00000001
00000100
00000001
00000100
00000010
00001000
00000010
00001000
,
00000100
00010000
00001000
00100000
00001000
00010000
00000100
00010000
00001000
01000000
00001000
00010000
00000010
00010000
00001000
00100000
,
00002000
00000000
00000000
00000000
,
00003000
00000000
00000000
00000000
,
00000000
00000000
00000000
00000000
,
00000000
00000000
00000000
00000000
,
00000000
00000000
00000000
00000000
,
00000000
00000000
00000000
00000000
,
00011000
00000000
00001000
00000000
01000000
00000000
00010000
00000000
10000000
01000000
00000000
10000000
01000000
00000000
00100000
00000000
,
00001000
00000000
00010000
00000000
00100000
00000000
01000000
00000000
00000000
01000000
00000000
00000000
01000000
00000000
00000000
00000000
,
00001000
00000000
00010000
00000000
00000100
00000000
00010000
00000000
00001000
00000100
00000000
00001000
00000100
00000000
00000001
00000000
,
00001000
00000000
00000100
00000000
00000010
00000000
00001000
00000000
00000000
00001000
00000000
00000000
00001000
00000000
00000000
00000000
,
00010000
00000000
00100000
00000000
00010000
00000000
00001000
00000000
00100000
00010000
00000000
00100000
00010000
00000000
01000000
00000000
,
00100000
00000000
00010000
00000000
00100000
00000000
01000000
00000000
00000000
01000000
00000000
00000000
01000000
00000000
00000000
00000000
,
00001000
00000000
01000000
00000000
00010000
00000000
10000000
00000000
01000000
00100000
00000000
01000000
00100000
00000000
00010000
00000000
,
01000000
00000000
00001000
00010000
00001000
00000000
00010000
00000100
00001000
00000000
00000001
00000100
00000001
00000000
00000000
00000000
,
00001001
00000000
00000001
00000000
00000100
00000000
00000010
00000000
00001000
00000100
00000000
00001000
00000100
00000000
00001000
00000000
,
00000010
00000000
00010000
00000000
00001000
00000000
00100000
00000000
00000000
00100000
00000000
00000000
00100000
00000000
00000000
00000000
,
00001000
00000000
00010000
00000000
00100000
00000000
01000000
00000000
00010000
10000000
00000000
00010000
10000000
00000000
01000000
00000000
,
00010000
00000000
00001000
00000000
00000010
00000000
00000001
00000000
00000000
00001000
00000000
00000000
00000001
00000000
00000000
00000000
,
00000100
00000000
00000001
00000000
00000100
00000000
00001000
00000000
00010000
00001000
00000000
00010000
00001000
00000000
00100000
00000000
,
00010000
00000000
00100000
00000000
00001000
00000000
00010000
00000000
00000000
00010000
00000000
00000000
00010000
00000000
00000000
00000000
,
00100000
01000000
00100000
01000000
00010000
10000000
00010000
10000000
01000000
00100000
01000000
00100000
00010000
01000000
00010000
01000000
,
00002000
00010000
00010000
00020000
00000000
00000000
00033000
00000000
,
00000100
00000000
00010000
00001000
00010000
00000000
00000100
00000000
00001000
00000010
00000000
00001000
00000010
00000000
00000100
00000000
,
00000001
00000000
00000010
00000000
00000100
00000000
00001000
00000000
00000000
00000010
00000000
00000000
00010000
00000000
00000000
00000000
,
00001000
00000000
00100000
00010000
00100000
00000000
00001000
00000000
00010000
00100000
00000000
00010000
00100000
00000000
01000000
00000000
,
00010000
00000000
10000000
00000000
01000000
00000000
00100000
00000000
00000000
00010000
00000000
00000000
00100000
00000000
00000000
00000000
,
00001000
00000000
00010000
00000100
00010000
00000000
00001000
00000000
00000100
00000001
00000000
00000100
00000001
00000000
00001000
00000000
,
00000010
00000000
00010000
00000000
00001000
00000000
00000010
00000000
00000000
00000001
00000000
00000000
00000100
00000000
00000000
00000000
,
00000010
00000000
00010000
00001000
00010000
00000000
00100000
00000000
01000000
00010000
00000000
10000000
01000000
00000000
00100000
00000000
,
01000000
10000000
01000000
10000000
01000000
10000000
00010000
00100000
00010000
00100000
00001000
00010000
00001000
00000000
00000000
00000000
,
00000100
00000000
00000001
00000100
00000001
00000000
00001000
00000010
00001000
00000000
00000100
00001000
00000100
00000000
00000000
00000000
,
00010000
00001000
00010000
00001000
01000000
00010000
01000000
00010000
10000000
00100000
10000000
00100000
10000000
01000000
10000000
01000000
,
00100000
00000000
00010000
01000000
00010000
00000000
00100000
00010000
00100000
00000000
00001000
00010000
00001000
00000000
00000000
00000000
,
00000100
00000001
00000100
00000001
00001000
00000100
00001000
00000100
00000010
00000001
00000010
00000001
00000100
00000010
00000100
00000010
,
00001000
00000000
00000100
00010000
00000100
00000000
00010000
00001000
00010000
00000000
00000100
00001000
00000100
00000000
00000000
00000000
,
00010000
00001000
00010000
00001000
01000000
00010000
01000000
00010000
00100000
00001000
00100000
00001000
00010000
00100000
00010000
00100000
,
10000000
01000000
00010000
00001000
,
00022000
00000000
00000000
00033000
,
00000100
00010000
00100000
00010000
00000100
00000000
00000000
00010100
,
00000000
01001000
00000000
01000000
00001000
00000010
00001000
01000000
,
00100000
10000000
00100000
00001000
00100000
00000000
00010000
00001000
,
00000000
00001100
00000000
00000100
00000001
00000100
00010000
00001000
,
00010100
00001000
01001000
00010000
,
00022000
00000000
00033000
00000000
,
00001000
00000000
01000000
00010000
01000000
00000000
00100000
10000000
01000000
00100000
00010000
01000000
00001000
00000000
00010000
00000100
,
00010000
00000000
00001000
00000000
00000100
00000000
00000001
00000000
00000000
00000110
00000000
00000000
00001000
00000000
00000000
00000000
,
00000001
00000000
00000100
00000010
00000100
00000000
00001000
00010000
00000100
00010000
00001000
01000000
00001000
00000000
00010000
00100000
,
01000000
00000000
00010000
00000000
10000000
00000000
01000000
00000000
00000000
00110000
00000000
00000000
00001000
00000000
00000000
00000000
,
00010000
00000000
00000100
00010000
00001000
00000000
00000100
00000010
00001000
00000001
00000010
00000100
00001000
00000000
00000010
00010000
,
00001000
00000000
00000010
00000000
00000100
00000000
00001000
00000000
00000000
00011000
00000000
00000000
01000000
00000000
00000000
00000000
,
01001000
00000000
00000000
00000000
00010100
00000000
00000000
00000000
00010000
00001000
00100000
00001000
00010000
00100000
01000000
00010000
,
10000000
00000000
00000000
00000000
00000000
00000000
01000000
00000000
00000000
00000000
00000000
00000000
00010000
00000000
00000000
00000000
00000000
00000000
00001000
00000000
00000000
00000000
00000000
00000000
00000000
00000000
00000000
00000010
00000000
00000000
00000000
00000000
00000000
00000000
00000000
00000000
00000001
00000000
00001000
00000000
00000001
00000000
00001000
00000000
00000001
00000000
00001000
00000000
,
00000001
00000000
00000000
00000000
,
00000000
00000000
00000000
00000000
,
00000000
00000000
00000000
00000000
,
00000000
00000000
00000000
00000000
,
00001001
00000000
00000000
00000000
;

//--------------- dance-double - forcednature ----------------
#NOTEDATA:;
#STEPSTYPE:dance-double;
#DESCRIPTION:forcednature;
#CREDIT:forcednature;
#DIFFICULTY:Challenge;
#METER:18;
#RADARVALUES:0,0,0,0,0;
#NOTES:
00000000
00000000
00000000
00000000
,
00000000
00000000
00000000
00000000
,
00000000
00000000
00000000
00000000
,
00000000
00000000
00000000
00000000
,
00000000
00000000
00000000
00000000
,
00000000
00000000
00000000
00000000
,
00000000
00000000
00000000
00000000
,
00000000
00000000
00000000
00000000
,
00002000
00000000
00010000
00010000
00013000
00000000
00000000
00000000
,
01001000
00010010
01001000
00010010
,
00010000
00000000
00001000
00000100
00000010
00000000
00001000
00000000
00000100
00000000
00000001
00000000
00000100
00000000
00000000
00000000
,
00010100
01001000
00101000
00010010
,
00010000
00000000
00001000
00000000
01000000
00010000
10000000
01000000
00100000
00001000
00010000
00000100
00001000
00000000
00000000
00000000
,
00001100
00001001
00000101
00000110
,
00000010
00000000
00010000
00001000
01000000
00000000
00010000
00000000
00100000
00000000
10000000
00000000
00100000
00000000
00000000
00000000
,
00110000
11000000
10010000
01100000
,
10000000
01000000
00100000
00010000
01000000
00001000
00010000
00001000
00100000
00010000
01000000
00001000
00010000
00000000
00000000
00000000
,
00010100
01001000
00010100
01001000
,
00001000
00000000
00000100
00000001
00000010
00000001
00000100
00000001
00000010
00000000
00000000
00000000
00000010
00000000
00000000
00000000
,
00000110
00001100
00011000
01010000
,
00001000
00000000
01000000
00010000
10000000
01000000
00100000
00001000
00010000
00000000
00000000
00000000
00100000
00000000
00000000
00000000
,
01010000
01001000
00011000
00010100
,
00000100
00000010
00001000
00000010
00000100
00000000
00001000
00000000
00000001
00000000
00000000
00000000
00000001
00000000
00000000
00000000
,
00000101
00001100
00011000
00110000
,
02000000
00000000
00000000
00000000
00000000
00000000
03100000
00100000
,
10010000
00000000
10000000
01000000
00100000
00000000
00010000
01000000
00001000
00000000
00000100
00000000
00001000
00000000
00010000
00000000
,
00000100
00000000
00001000
00000100
00000010
00000000
00000001
00000100
00000010
00000000
00000001
00000000
00000010
00000000
00001000
00000000
,
00010000
00000000
01000000
00100000
10000000
00000000
01000000
00100000
00010000
00000000
01000000
00000000
00001000
00000000
00010000
00000000
,
00000100
00000000
00001000
00000100
00000010
00000000
00000001
00000100
00000010
00000000
00000001
00000000
00000010
00000000
00001000
00000000
,
00000100
00000000
00010000
00001000
01000000
00000000
00001000
00010000
00100000
00000000
10000000
01000000
00100000
00000000
00001000
00010000
,
00000100
00000000
00001000
00000001
00000100
00000000
00000010
00001000
00000100
00000000
00000000
00010100
00000000
00000000
01001000
00000000
,
00001000
00100000
10000000
00100000
00010000
01000000
00001000
00000100
,
00000020
00000001
00000000
00000100
00000000
00001030
00001001
00000000
,
00001100
00000000
00000100
00010000
00001000
00000000
00100000
00001000
00010000
00000000
00100000
00000000
10000000
00000000
00100000
00000000
,
00010000
00000000
00001000
01000000
00010000
00000000
00100000
00001000
00010000
00000000
00000010
00000000
00000001
00000000
00000010
00000000
,
00000100
00000000
00000001
00001000
00000100
00000000
00000010
00000100
00010000
00000000
00001000
00000000
01000000
00000000
00100000
00000000
,
00010000
00000000
00100000
10000000
00010000
00000000
10000000
01000000
00100000
00000000
00010000
00000000
00001000
00000000
00000100
00000000
,
00000010
00000000
00000001
00000100
00000010
00000000
00000001
00000010
00000100
00000000
00000001
00001000
00000100
00000000
00010000
00001000
,
00000100
00000000
00001000
00010000
00001000
00000000
01000000
00001000
00010000
00000000
00000000
01001000
00000000
00000000
10100000
00000000
,
10000000
01000000
00001000
00010000
00000010
00000001
00000100
00000010
,
00002000
00000000
00000100
00000001
00000010
00003000
00011000
00000000
,
10000000
10000000
10000000
10000000
00010000
00010000
00010000
00010000
,
00001000
00001000
00001000
00001000
00000001
00000001
00000001
00000001
,
00000100
00000100
00000100
00000100
00000010
00000010
00000010
00000010
,
00100000
00100000
00100000
00100000
01000000
01000000
01000000
01000000
,
10000000
00000000
00010000
01000000
00100000
00000000
01000000
00001000
00010000
00000000
00000100
00010000
00001000
00000000
00000100
00000010
,
00001000
00000000
00000100
00000010
00000001
00000000
00000100
00001000
00010000
00000000
00000100
00010000
00001000
00000000
01000000
00001000
,
00010000
01000000
10010000
01000000
10000000
00010000
10000000
00010000
01000000
00001000
01000000
00001000
00010000
00000100
00010000
00000100
,
00001000
00000100
00000010
00000001
00000100
00000010
00001000
00000010
00010000
00001000
00100000
00001000
00010000
00100000
10000000
00010000
,
02000000
00000000
00000000
00000000
,
03000000
00000000
00000000
00000000
,
00000000
00000000
00000000
00000000
,
00000000
00000000
00000000
00000000
,
00000000
00000000
00000000
00000000
,
00000000
00000000
00000000
00000000
,
00011000
00000000
00010000
00000000
00000100
00000000
00000010
00000000
00000001
00000100
00000000
00000001
00000100
00000000
00000010
00000000
,
00000001
00000000
00000010
00000000
00001000
00000000
00010000
00000000
00000000
00010000
00000000
00000000
00010000
00000000
00000000
00000000
,
01000000
00000000
00001000
00000000
00010000
00000000
00000100
00000000
00000010
00001000
00000000
00000010
00001000
00000000
00010000
00000000
,
00000100
00000000
00000010
00000000
00000001
00000000
00000100
00000000
00000000
00000100
00000000
00000000
00000100
00000000
00000000
00000000
,
00000110
00000000
00000010
00000000
00010000
00000000
00001000
00000000
00100000
00010000
00000000
00100000
00010000
00000000
01000000
00000000
,
10000000
00000000
01000000
00000000
00001000
00000000
00010000
00000000
00000000
01000000
00000000
00000000
10000000
00000000
00000000
00000000
,
00010000
00000000
01000000
00000000
00001000
00000000
00010000
00000000
00000100
00001000
00000000
00000100
00001000
00000000
00000010
00000000
,
00000100
00000000
00000001
00000010
00000100
00000010
00000001
00000100
00000010
00010000
00001000
00010000
00000100
00000000
00000000
00000000
,
00011000
00000000
00010000
00000100
00001000
00000000
00000010
00000100
00000001
00000010
00000000
00000100
00001000
00000000
00010000
00000000
,
01000000
00000000
00100000
00000000
00010000
00000000
00100000
00000000
00000000
10000000
00000000
00000000
00010000
00000000
00000000
00000000
,
10000000
00000000
01000000
00010000
00001000
00000000
01000000
00010000
00100000
00001000
00010000
00100000
01000000
00000000
00001000
00010000
,
00000100
00000000
00000010
00000000
00001000
00000000
00000010
00000000
00000000
00000001
00000000
00000000
00000100
00000000
00000000
00000000
,
00001000
00000000
00010000
00000000
00001000
00000000
00000100
00000000
00001000
00010000
00000000
00001000
00010000
00000000
01000000
00000000
,
10000000
00000000
00010000
00000000
01000000
00000000
10000000
00000000
01000000
00010000
00000000
00100000
00010000
00000000
00000000
00000000
,
01000000
00001000
00010000
00100000
01000000
00100000
00010000
00001000
00010000
00000100
00000010
00000100
00001000
00000001
00000100
00001000
,
00020000
00000000
00100000
00000000
00100000
00000000
00130000
00000000
00000000
00000000
00000000
00000000
00010000
00001000
00010000
00001000
,
00010000
00000000
01000000
10000000
00100000
00000000
01000000
00001000
00010000
00001000
00100000
00010000
01000000
00000000
00001000
00010000
,
00000100
00000000
00000010
00000000
00000001
00000000
00000101
00000000
00000000
00001010
00000000
00000000
00000101
00000000
00000000
00000000
,
00000001
00000000
00000010
00001000
00010000
00000000
00000100
00010000
00001000
00000100
00001000
00010000
00000100
00000000
00010000
00001000
,
01000000
00000000
00100000
00000000
00010000
00000000
00011000
00000000
00000000
00101000
00000000
00000000
00010100
00000000
00000000
00000000
,
00010000
00000000
00001000
01000000
00010000
00000000
10000000
01000000
00100000
00010000
00100000
00001000
00010000
00000000
00100000
01000000
,
00001000
00000000
00010000
00000000
00000100
00000000
00001100
00000000
00000000
00000011
00000000
00000000
00001001
00000000
00000000
00000000
,
00000001
00000000
00000100
00001000
00010000
00000000
00000100
00001000
00000010
00000100
00000010
00010000
00001000
00000000
00000010
00000001
,
00000100
00000000
00000000
00000010
00000000
00000000
00000100
00000000
00000000
00001000
00000000
00000000
00010000
00000000
00000000
00000100
00000000
00000000
00010000
00000000
00000000
00001000
00000000
00000000
01000000
00000000
00000000
00010000
00000000
00000000
10000000
00000000
00010000
00000000
10000000
00000000
00010000
00000000
00000000
00000000
00000000
00000000
00000000
00000000
00000000
00000000
00000000
00000000
,
10000000
01000000
00100000
00000000
01000000
10000000
00100000
00000000
10000000
00010000
01000000
00000000
00100000
01000000
00010000
00000000
,
00100000
00001000
00010000
00000100
00010000
00001000
00000100
00000010
00010000
00001000
00000010
00000001
00000100
00000010
00000100
00000000
,
00001000
00010000
00000100
00000000
00010000
00001000
00000100
00000000
00000010
00001000
00000100
00000000
00000010
00001000
00010000
00000000
,
00001000
01000000
00010000
00100000
01000000
00100000
00010000
01000000
00001000
00010000
00100000
00010000
00001000
00010000
00000100
00000000
,
00001000
00000100
00000010
00000000
00001000
00000010
00000001
00000000
00000100
00000010
00001000
00000000
00000100
00000010
00000001
00000000
,
00000100
00000010
00000100
00001000
00010000
00000100
00010000
00001000
00000010
00001000
00010000
00000100
00010000
00001000
01000000
00000000
,
00100000
10000000
00100000
10000000
01000000
00010000
01000000
00010000
00001000
00000100
00001000
00000100
00000001
00000010
00000001
00000010
,
00002000
00010000
00020000
00033000
,
01001000
00110000
01001000
00110000
01001000
00000000
00000000
00011000
,
00000000
00010100
00000000
00001100
00010010
00001100
00010010
00101000
,
01010000
00101000
00010010
00001100
00010010
00000000
00010100
01001000
,
00000000
01100000
00000000
11000000
01010000
00011000
00001100
00000101
,
00000110
00001000
01100000
00010000
,
00022000
00000000
00033000
00000000
,
00001000
00000000
00010000
01000000
10000000
00000000
00100000
01000000
00100000
00010000
00001000
00010000
00000100
00000000
00001000
00000001
,
00000100
00000000
00010000
00000000
00001000
00000000
00000010
00000001
00000010
00000100
00000001
00000100
00001000
00000000
00000000
00000000
,
00010000
00000000
01000000
10000000
00100000
00000000
00010000
00100000
01000000
00001000
00010000
00000100
00010000
00000000
00001000
00000100
,
00000001
00000000
00000010
00000000
00000100
00000000
00000001
00000100
00000010
00000100
00010000
00001000
00010000
00000000
00000000
00000000
,
00100000
00000000
00010000
00100000
01000000
00000000
00001000
00010000
01000000
00010000
00001000
00100000
00010000
00000000
01000000
00001000
,
00010000
00000000
00000100
00000000
00000010
00000000
00001000
00000010
00000100
00000010
00000001
00001000
00000001
00000000
00000000
00000000
,
00000101
00000000
00000100
00000000
00011000
00000000
00001000
00000000
01000000
00010000
00100000
01000000
10000000
00100000
00010000
00001000
,
01000000
00000000
00000000
00000000
00000000
00000000
01001000
00000000
00000000
00000000
00000000
00000000
00011000
00000000
00000000
00000000
00000000
00000000
00010100
00000000
00000000
00000000
00000000
00000000
00000000
00000000
00000000
00011000
00000000
00000000
00000000
00000000
00000000
00000000
00000000
00000000
00000100
00000000
00010000
00000000
00001000
00000000
01000000
00000000
00001000
00000000
00010000
00000000
,
00000100
00000000
00000000
00000000
,
00000000
00000000
00000000
00000000
,
00000000
00000000
00000000
00000000
,
00000000
00000000
00000000
00000000
,
00011000
00000000
00000000
00000000
;
