#VERSION:0.83;
#TITLE:HELL FLAME;
#SUBTITLE:;
#ARTIST:DJ Myosuke;
#TITLETRANSLIT:;
#SUBTITLETRANSLIT:;
#ARTISTTRANSLIT:;
#GENRE:;
#CREDIT:;
#MUSIC:HELL FLAME.ogg;
#BANNER:HELL FLAME.png;
#BACKGROUND:HELL FLAME-bg.png;
#CDTITLE:;
#SAMPLESTART:88.944;
#SAMPLELENGTH:15.000;
#SELECTABLE:YES;
#OFFSET:-0.150;
#BPMS:0.000=199.985
,200.000=99.992
,216.000=199.985
;
#STOPS:;
#DISPLAYBPM:200.000;
#BGCHANGES:0.000=../BGAs/21he.mp4=1.000=0=0=0=StretchNoLoop====,
99999.000=-nosongbg-=1.000=0=0=0=StretchNoLoop====
;
#FGCHANGES:;

//--------------- dance-single - forcednature & NOWHERE Dance Club ----------------
#NOTEDATA:;
#STEPSTYPE:dance-single;
#DESCRIPTION:forcednature & NOWHERE Dance Club;
#DIFFICULTY:Beginner;
#METER:5;
#RADARVALUES:0,0,0,0,0;
#CREDIT:FORCEDNATURE & NDC;
#NOTES:
0000
0000
0000
0000
,
0000
0000
0000
0000
,
0000
0000
0000
0000
,
0000
0000
0000
0000
,
0000
0000
0000
0000
,
0000
0000
0000
0000
,
1000
0000
1000
0000
,
0100
0000
0100
0000
,
0010
0000
0001
0000
,
0100
0000
0000
0000
,
1001
0000
0000
0000
,
0001
0000
0100
0000
,
0001
0000
0000
0000
,
1000
0000
0100
0000
,
0000
1000
0000
0000
,
0010
0000
0100
0000
,
0010
0000
1000
0000
,
0001
0000
0000
0000
,
1001
0000
0000
0000
,
1000
0000
0010
0010
,
1000
0000
0000
0000
,
0001
0000
0010
0010
,
0001
0000
0000
0000
,
1000
0000
0100
0100
,
1000
0000
0000
0000
,
1001
0000
0000
0000
,
0001
0000
0000
0000
,
0100
0000
0000
0000
,
0001
0000
0010
0000
,
0001
0000
0001
0000
,
1000
0000
0000
0000
,
0100
0000
0000
0000
,
1000
0000
1000
0000
,
0020
0000
0000
0030
,
0000
0100
0000
0100
,
0000
0001
0000
0010
,
0000
0100
0000
0100
,
0000
1000
0000
0000
,
0000
0010
0000
0010
,
0000
0100
0000
0001
,
0000
1000
0000
1000
,
0200
0000
0000
0300
,
0010
0000
0010
0000
,
0001
0001
0001
0000
,
0100
0000
0100
0000
,
0010
0010
0010
0000
,
1000
0000
1000
0000
,
0100
0100
0100
0000
,
1000
0000
0001
0000
,
0010
0010
0010
0000
,
1001
0000
0000
0000
,
1000
0000
0100
0000
,
1001
0000
0000
0000
,
0001
0000
0100
0000
,
2002
0000
0000
0000
,
3003
0000
0000
0000
,
1000
0000
0000
0000
,
0010
0000
0000
0000
,
2002
0000
0000
0000
,
3003
0000
0000
0000
,
0001
0000
0000
0000
,
0010
0000
0000
0000
,
1001
0000
0000
0000
,
1000
0000
0000
0000
,
0010
0000
0000
0000
,
0100
0000
0001
0000
,
0001
0000
0000
0000
,
0010
0000
0010
0000
,
0100
0000
0100
0000
,
1000
0000
0000
0000
,
0001
0000
0100
0000
,
0001
0000
0100
0000
,
0010
0000
1000
0000
,
0010
0010
0000
0000
,
1000
0000
0100
0000
,
1000
0000
0100
0000
,
0010
0000
0001
0000
,
0100
0100
0000
0000
,
0001
0000
0001
0000
,
1000
1000
0000
0000
,
0010
0000
0100
0000
,
0001
0001
0000
0000
,
1000
0000
0100
0000
,
0010
0010
0100
0000
,
1000
0000
1000
0001
,
0001
0000
1000
0000
,
2002
0000
0000
0000
,
0000
0000
0000
0000
,
3003
0000
0000
0000
;

//--------------- dance-single - forcednature & NOWHERE Dance Club ----------------
#NOTEDATA:;
#STEPSTYPE:dance-single;
#DESCRIPTION:forcednature & NOWHERE Dance Club;
#DIFFICULTY:Easy;
#METER:9;
#RADARVALUES:0,0,0,0,0;
#CREDIT:FORCEDNATURE & NDC;
#NOTES:
0000
0000
0000
0000
,
0000
0000
0000
0000
,
0000
0000
0000
0000
,
0000
0000
0000
0000
,
0000
0000
0000
0000
,
0000
0000
0000
0000
,
1000
1000
0100
1000
,
0001
0001
0100
0001
,
0010
0100
0010
0000
0100
0000
0010
0000
,
2002
0000
0000
3003
,
1000
0100
0010
0100
,
1000
0000
0010
0000
0100
0001
0100
0000
,
0001
0010
0100
0010
,
0001
2000
0100
3010
,
0000
1000
0100
0010
,
0100
0000
1000
0000
0001
0010
0001
0000
,
2000
3020
0230
0302
,
2003
0000
0001
3001
,
1001
1000
0100
0010
,
0001
0000
1000
0000
0100
0010
0100
0000
,
1000
0001
0100
0010
,
1000
0000
0001
0000
0100
0010
0100
0000
,
0001
0010
0100
1000
,
0001
0000
0010
0000
0100
0010
0100
0000
,
1000
0010
0100
0001
,
2002
0000
0000
3003
,
1000
0100
0000
1000
,
0000
0010
1000
0100
,
0000
0010
0000
0001
,
0000
0100
0001
0010
,
0000
0100
0000
1000
,
0000
0001
0100
0010
,
0000
1000
1000
0001
,
0020
0000
0000
0030
,
1001
1000
0100
0010
,
0100
0000
1000
0000
0010
1000
0010
0000
,
0100
0001
0010
0100
,
0010
0000
0001
0000
1000
0001
1000
0000
,
0010
0100
0001
0010
,
0100
0000
1000
0001
1000
0000
0010
0000
,
0100
0001
0010
0001
,
2000
3020
0230
0301
,
1000
0100
1001
0000
,
0001
0100
1001
0000
,
0010
0100
0110
0000
,
1000
1001
0001
0001
,
1000
0010
0110
0000
,
0001
0010
0110
0100
,
1000
1001
0001
1001
,
2000
3200
0320
0031
,
1001
0000
0000
0000
0000
0000
0000
1000
,
0100
0000
0000
0000
0000
0000
1000
0100
1000
0100
0000
0000
,
1001
0000
0000
0000
0000
0000
0000
0001
,
0100
0000
0000
0000
0000
0000
0001
0100
0001
0100
0000
0000
,
2001
0000
0100
0000
,
0001
0000
0010
0000
,
3001
0000
0100
0010
,
1000
0000
0010
0000
,
1002
0000
0100
0000
,
1000
0000
0010
0000
,
1003
0000
0100
0010
,
0002
2003
3010
0110
,
0100
0001
0010
0010
,
0100
1000
0010
1000
,
0001
0010
0100
0100
,
1000
0001
0100
0010
,
0110
1000
0100
0010
,
0001
1000
0010
0100
,
0001
0000
1000
0000
0001
1000
0001
0000
,
0020
0000
0000
0130
,
1001
1000
0100
0010
,
0100
1000
0100
0000
0010
0000
0001
0000
,
1000
0010
0100
0001
,
0010
0100
0010
0000
0001
0000
1001
0000
,
0000
1000
0010
0100
,
0001
1000
0001
0000
0010
0000
0100
0000
,
1001
0010
0110
0100
,
1000
0000
0001
0000
0000
0000
0100
0000
0000
0100
0000
0000
0100
0000
0000
0000
,
0010
1000
0100
1000
,
0001
0000
0010
0000
0100
0010
0100
0000
,
1000
0001
0100
0010
,
1000
0000
0100
0000
1000
0001
1000
0000
,
0010
0100
0001
0010
,
0110
0000
0100
0000
1000
0001
1000
0000
,
0010
0000
0000
0010
0000
0000
0010
0000
0000
0010
0000
0000
0010
0000
0000
0000
,
1000
0000
0000
0001
0000
0000
1000
0000
0000
0001
0000
0000
0100
0000
0000
0000
,
2002
0000
0000
0000
,
0000
0000
0000
0000
,
3003
0000
0000
0000
;

//--------------- dance-single - forcednature & NOWHERE Dance Club ----------------
#NOTEDATA:;
#STEPSTYPE:dance-single;
#DESCRIPTION:forcednature & NOWHERE Dance Club;
#DIFFICULTY:Medium;
#METER:13;
#RADARVALUES:0,0,0,0,0;
#CREDIT:FORCEDNATURE & NDC;
#NOTES:
0000
0000
0000
0000
,
0000
0000
0000
0000
,
0000
0000
0000
0000
,
0000
0000
0000
0000
,
0000
0000
0000
0000
,
0000
0000
0000
0000
,
1000
0100
1000
0000
1000
0010
1000
0000
,
0001
0100
0001
0000
0001
0010
0001
0000
,
0100
0010
0100
0010
1000
0001
1000
0001
,
0020
0000
0000
0130
,
1001
0000
1000
0100
0000
0010
0100
0000
,
0010
0001
0000
1000
0010
0000
0110
0000
,
1001
0000
0001
0100
0000
0010
0100
0000
,
0010
1000
0000
0001
0020
0000
0130
1000
,
0000
0000
1000
0010
0000
0100
0010
0000
,
0100
0001
0000
1000
0100
1000
0010
0000
,
0100
0002
0000
0023
0000
0230
0000
1300
,
0020
0100
1000
1030
,
1001
0000
1000
0100
1000
0000
0100
0010
,
0100
0000
0010
0001
1000
0100
0010
0000
,
1001
0000
0001
0100
0001
0000
0100
0010
,
0100
0000
0010
1000
0001
0100
0010
0000
,
0110
0000
1000
0001
1000
0000
0100
0010
,
0100
0000
1000
0001
0010
0100
1000
0000
,
0010
0100
0010
0000
0001
1000
0001
0000
,
0020
0000
0000
0130
,
1001
0000
1000
0010
0100
0000
0010
0000
,
1000
0100
0010
0000
0100
0000
1000
0000
,
0000
0001
0100
0000
0010
1000
0000
0100
,
0010
0000
0001
1000
0000
0010
0100
0010
,
0000
0000
0100
0001
0000
0010
0100
0000
,
0010
0001
0000
1000
0010
1000
0001
0100
,
0000
0001
0010
0000
0100
0010
0100
1000
,
0002
0000
0000
0013
,
0001
1000
0010
0000
1010
0000
0110
0000
,
1010
0000
0101
0000
1000
0001
1000
0000
,
1001
0011
0110
0011
,
1000
0010
1000
0000
0001
0100
2000
0000
,
3100
0101
0011
0101
,
0110
0000
0010
1000
0010
0000
1001
0000
,
1100
1010
0101
0011
,
2000
3200
0320
0031
,
1000
0000
0010
0000
0100
0100
0100
0000
,
0001
0010
0100
0000
1000
1000
1000
0000
,
0010
0000
0100
0000
0001
0001
0001
0000
,
0010
0100
1000
0000
0001
0010
1000
0000
,
0110
0000
0001
0000
1000
1000
1000
0000
,
0010
0100
0001
1000
0010
0010
0010
0000
,
0101
0000
0011
0000
0010
0100
1000
0000
,
0002
0203
0320
1030
,
1001
0000
0000
0000
0000
0000
0000
1000
,
1100
0000
0000
0000
0000
0000
1000
0100
1000
0100
0010
0001
,
1000
0000
0000
0000
0000
0000
0000
0001
,
0101
0000
0000
0000
0000
0000
0001
0100
0001
0100
0010
1000
,
0002
0000
0010
0010
,
1000
1000
0100
0103
,
0001
0000
0010
0000
0100
0010
0100
0000
,
1000
0000
0010
0000
0100
0010
0100
0000
,
2001
0000
0100
0100
,
0001
0001
0010
3010
,
1000
0000
0010
0000
0100
0000
0010
0100
,
0002
0000
2003
0000
3100
0010
0001
0000
,
1000
0010
1000
0000
0001
0010
0100
0000
,
0010
0001
0010
0000
0001
1000
0010
0000
,
0100
0001
0100
0000
0001
1000
0100
0000
,
0010
0000
0001
0010
0002
0000
0203
0000
,
0320
1000
0100
1000
,
0230
0001
0010
0001
,
0310
1000
0010
0000
0100
0001
1000
0001
,
0020
0000
0000
0130
,
1001
0000
1000
0100
0010
0100
1000
0001
,
0010
0001
1000
0000
0010
0100
0001
0010
,
0100
1000
0001
0000
0100
0010
0100
0001
,
1000
1000
1000
0000
0001
0100
1000
0000
,
0110
0000
0001
1000
0010
1000
0001
0010
,
0100
0010
0001
0000
1000
0010
0100
0100
,
0002
0000
0013
0100
2000
0000
3010
0010
,
1000
0000
0100
0000
0000
0000
0110
0000
0000
0010
0000
0000
1001
0000
0000
0000
,
0110
0000
0001
1000
0100
0010
0001
0100
,
0010
1000
0001
0000
1000
0100
0001
0000
,
0100
1000
0010
1000
0001
0010
0001
0100
,
0010
0000
0100
0001
1000
0010
0001
0000
,
0110
0000
1000
0001
0100
0001
1000
0010
,
1000
0100
0010
0000
0001
1000
1001
0000
,
0001
0000
0000
0101
0000
0000
1000
0000
0000
1010
0000
0000
0001
0000
0000
0000
,
1000
0000
0000
1100
0000
0000
0001
0000
0000
0011
0000
0000
0100
0000
0000
0000
,
2002
0000
0000
0000
,
0000
0000
0000
0000
,
3003
0000
0000
0000
;

//--------------- dance-single - forcednature & NOWHERE Dance Club ----------------
#NOTEDATA:;
#STEPSTYPE:dance-single;
#DESCRIPTION:forcednature & NOWHERE Dance Club;
#DIFFICULTY:Hard;
#METER:16;
#RADARVALUES:0,0,0,0,0;
#CREDIT:FORCEDNATURE & NDC;
#NOTES:
0000
0000
0000
0000
,
0000
0000
0000
0000
,
0000
0000
0000
0000
,
0000
0000
0000
0000
,
0000
0000
0000
0000
,
0000
0000
0000
0000
,
1000
0100
1000
0010
0100
0001
2000
0000
,
3001
0100
0001
0010
0100
1000
0002
0000
,
0103
0000
0001
0000
0100
0001
0100
0000
0010
0100
0010
0000
1000
0001
1000
0001
,
0200
0000
0000
0300
,
0010
1000
0100
0002
0000
0103
2000
0000
,
3010
0000
0200
0000
0000
0000
0301
0000
1000
0000
0100
0010
0001
0000
0000
0000
,
0020
0000
0031
0200
0000
0310
0002
0000
,
0013
1000
1010
0000
2000
3002
0203
2300
,
3000
0100
0001
1000
0001
0010
2000
0000
,
3010
0000
0002
0000
0000
0000
0103
0000
0001
1000
0001
1000
0010
0000
0000
0000
,
1000
0100
1000
0010
0100
0001
0010
0001
,
0200
0000
0001
0001
0301
0000
0110
0000
,
2001
0000
0000
0000
3001
0000
0001
0000
0100
0010
0100
0000
0010
0000
1000
0000
,
1000
0000
0001
0000
1000
0001
1000
0000
0001
0000
0010
0000
0100
0000
0000
0000
,
1100
0000
0000
0000
1000
0000
1000
0000
0100
0010
0100
0000
0010
0000
0001
0000
,
0001
0000
1000
0000
0001
1000
0001
0000
1000
0000
0010
0000
0001
0000
0000
0000
,
0110
0000
0000
0000
1000
0000
1000
0000
0010
0100
0010
0000
0100
0000
0001
0000
,
0001
0000
1000
0000
0001
1000
0001
0000
0010
0000
0100
0000
0110
0000
0000
0000
,
0001
0010
0001
0000
1000
0000
0100
0000
1000
0010
1000
0000
0001
0000
0100
0000
,
0020
0000
0000
1030
,
1001
0000
0001
0100
1000
0100
0001
0000
,
1000
0010
0001
0010
1000
0001
0100
0100
,
0000
0001
0010
1000
0010
0001
0000
1000
,
0100
0001
0100
1000
0000
0010
0100
0100
,
0000
0001
1000
0010
0001
0010
1000
0000
,
0001
0100
1000
0100
0001
0000
0010
0100
,
0000
0000
1000
0000
0010
0000
0001
0000
0010
0000
1000
0000
0001
1000
0001
1000
,
0002
0000
0003
0101
,
0100
0000
0010
0000
1000
0100
1000
0000
0010
0000
0100
0000
0001
0010
0001
0000
,
0100
0000
0010
0000
1000
0100
1000
0000
0010
0000
0100
0000
0101
0000
0000
0000
,
0001
0000
0010
0000
0100
1000
0100
0000
1000
0000
0010
0000
0100
0001
0100
0000
,
0001
0000
0010
0000
0001
1000
0001
0000
0200
0000
0320
0000
2030
0000
0000
0000
,
3100
0000
0010
0000
0001
0100
0001
0000
0010
0000
0100
0000
1000
0010
1000
0000
,
0100
0000
0010
0000
0001
0100
0001
0000
0010
0000
0000
0000
1001
0000
0000
0000
,
1000
0000
0100
0000
0010
0001
0010
0000
0001
0000
0100
0000
0010
1000
0010
0000
,
2000
0000
0100
0100
3100
0000
1002
0000
,
0103
0000
0101
0000
0001
0010
0011
0000
,
0001
0000
0100
0000
0010
0000
1000
0000
0100
0010
0100
0010
0001
0000
0000
0000
,
1002
0000
0103
0000
0001
0100
0010
0000
,
1000
0010
0100
0001
2000
0100
3001
0000
,
1000
0000
1001
0000
1000
0010
1010
0000
,
1000
0000
0100
0000
0010
0000
0001
0000
0100
0010
0100
0010
2000
0000
0000
0000
,
3001
0010
0100
0010
0001
1000
0010
1000
,
0200
0302
0203
2300
3200
0000
0310
0000
,
1001
0000
0000
0000
0000
0000
0000
1000
,
1100
0000
0000
0000
0000
0000
1000
0100
1000
0001
0010
0001
,
1001
0000
0000
0000
0000
0000
0000
0001
,
0101
0000
0000
0000
0000
0000
0001
0100
0001
1000
0010
1000
,
1002
0000
0000
0000
0010
0000
0013
0001
,
2000
0000
0001
0000
0010
0000
3010
1000
,
0002
0000
0100
0000
1003
0001
0100
0010
,
2000
0000
0100
0000
3001
1000
0100
0010
,
0001
0000
0000
0000
0100
0000
0001
0000
1000
0000
0000
0001
0000
0000
0010
0000
,
0100
0000
1000
0000
0000
0000
0100
0000
0010
0000
0000
0001
0000
0000
1000
0000
,
0010
0000
0100
0000
0000
0000
0001
0000
0010
0000
0000
0000
0001
1000
0001
1000
,
0002
0000
0000
0000
0203
0000
0000
0000
0310
1000
0010
1000
0002
0000
0000
0000
,
1003
0000
1010
0000
1000
0100
1100
0000
,
1000
0000
0010
0000
0100
0000
0001
0000
0010
0001
0010
0001
1000
0000
0000
0000
,
2010
0000
3010
0000
0010
0100
0001
0000
,
0020
1000
0031
2000
,
3100
0100
0020
0000
0031
0001
0200
0000
,
0310
0010
2000
0000
3100
0100
0020
0000
,
0031
0000
0001
0000
0100
0000
0100
0000
0010
0000
0010
0000
1000
0001
1000
0001
,
2000
0000
0000
3001
,
1000
0000
0100
0000
0010
0000
0100
0000
1000
0000
0001
0010
0000
0100
0010
0000
,
0001
0000
0001
0000
0001
0000
1000
0000
0010
0000
0100
0001
0000
0100
0010
0000
,
1000
0000
0001
0000
0010
0000
0100
0000
1000
0000
0001
0100
0000
0001
1000
0000
,
0010
0000
0010
0000
0010
0000
0000
0000
1000
0000
0100
0010
0002
0000
0000
0000
,
1003
0000
0010
0000
1000
0000
0100
0000
0010
0000
0001
0100
0000
0010
0100
0000
,
0001
0000
0001
0000
0001
0000
1000
0000
0100
0000
0000
0000
1000
0001
1000
0001
,
0200
0000
0000
0000
0310
0000
1000
0000
1200
0000
0000
0000
0310
0001
0010
0001
,
1000
0000
0010
0000
0000
0000
0110
0000
0000
0101
0000
0000
0001
0000
1000
0100
,
0010
0000
0000
0000
0001
0000
0100
0000
0010
0000
0100
0001
1000
0001
0100
0000
,
0010
0000
1000
0000
0001
0000
0010
0000
0100
1000
0100
1000
0002
0000
0000
0000
,
0103
0000
0010
0000
1000
0000
0010
0000
0100
0000
0001
0010
0100
1000
0001
0000
,
0100
0000
0010
0000
1000
0000
0100
0000
1000
0000
0001
0100
0010
0100
0001
0000
,
1000
0000
0000
0000
0001
0000
0010
0000
0100
0000
1000
0001
0010
0001
1000
0000
,
0010
0000
0100
0000
0001
0000
0010
0000
0001
0100
0010
1000
0001
0000
0000
0000
,
0011
0000
0000
0110
0000
0000
1100
0000
0000
1001
0000
0000
1000
0010
1000
0000
,
0001
0100
0000
0010
0100
0000
0010
1000
0000
0001
0010
0000
0100
1000
0001
0000
,
0200
0000
0000
0000
,
0000
0000
0000
0000
,
0300
0000
0000
0000
;

//--------------- dance-single - forcednature & NOWHERE Dance Club ----------------
#NOTEDATA:;
#STEPSTYPE:dance-single;
#DESCRIPTION:forcednature & NOWHERE Dance Club;
#DIFFICULTY:Challenge;
#METER:17;
#RADARVALUES:0,0,0,0,0;
#CREDIT:FORCEDNATURE & NDC;
#NOTES:
0000
0000
0000
0000
,
0000
0000
0000
0000
,
0000
0000
0000
0000
,
0000
0000
0000
0000
,
0000
0000
0000
0000
,
0000
0000
0000
0000
,
2001
0000
3100
0000
1000
0010
1010
0000
,
1000
0100
0010
0100
1000
0001
0011
0000
,
0001
0100
0001
0100
0010
1000
0010
1000
0001
0010
0100
1000
0001
0000
0000
0000
,
2002
0000
0000
3003
,
2000
0000
3001
0101
0000
0100
0020
0000
,
1030
0000
2010
0000
0000
0000
3001
0000
0010
0000
0001
0100
0010
0000
0000
0000
,
2000
0000
3001
0011
0000
0010
0200
0000
,
1300
2100
0000
3001
0100
1000
0100
0002
,
0010
0000
1003
1010
0000
0010
0200
0000
,
0301
0000
0102
0000
0000
0000
1003
0000
0100
1000
0100
1000
0010
0000
0000
0000
,
0100
1000
0100
0001
1000
0100
0010
0001
,
0200
1000
0001
0301
,
1002
0000
0000
0000
1003
0100
1000
0000
0100
0010
0100
0000
0010
0001
0010
0000
,
0001
1000
0100
0000
1000
0001
0010
0000
0001
1000
0100
0010
0001
0000
0000
0000
,
2001
0000
0000
0000
3001
0100
0001
0000
0100
0010
0100
0000
0010
1000
0010
0000
,
1000
0001
0100
0000
0010
1000
0001
0000
0100
0010
1000
0001
0010
0000
0000
0000
,
1002
0000
0000
0000
1003
0010
1000
0000
0010
0100
0010
0000
0100
0001
0100
0000
,
0010
1000
0001
0000
0100
0001
1000
0000
0010
1000
0001
0100
0010
0000
0000
0000
,
1000
0010
0100
0001
1000
0000
1000
0000
0001
0010
0100
0010
0001
1000
0010
0000
,
0200
0000
0000
0310
,
0001
0000
1000
0000
0100
0000
0001
0000
0100
0000
1000
0000
0001
0000
0010
0100
,
1000
0001
0010
1000
0010
0001
1000
1000
,
0000
0000
0001
0000
0100
0000
1000
0000
0100
0000
0001
0000
1000
0000
0010
1000
,
0010
0100
0001
0000
1000
0000
0010
0000
0001
0000
0010
0000
1000
0000
0100
0000
,
0000
0000
0001
0000
0100
0000
1000
0000
0001
0000
0010
0000
0001
0000
1000
0100
,
0010
0000
0001
0000
0010
0000
1000
0000
0010
0000
0001
0000
1000
0100
0000
0100
,
1000
0000
0001
0000
0100
0000
1000
0000
0100
0000
0001
0000
1000
0010
1000
0001
,
0200
0000
1000
0301
,
0100
0000
0010
0100
0001
0000
0010
0000
0100
0010
0001
0000
0100
0000
0010
0100
,
0001
0000
0010
0000
0100
0000
0010
0000
0001
1000
0100
0000
0020
0000
0000
0000
,
0130
0000
1000
0010
0100
0000
0010
0000
1000
0100
0010
0000
0100
0000
1000
0010
,
0100
0000
0100
0000
0001
0000
0100
0000
0010
1000
0001
0100
0020
0000
0000
0000
,
1030
0000
0100
0010
0001
0000
0100
0000
0001
0010
0100
0000
0010
0000
0001
0100
,
0010
1000
0001
0010
0012
0000
0103
0000
,
0001
0000
0010
0100
1000
0000
0001
0000
1000
0100
0010
0000
0001
0000
1000
0010
,
0200
2300
3200
0301
,
0101
0001
0010
0100
1100
1000
1010
0000
,
0110
0000
0100
0000
0101
0000
0001
0000
1000
0000
0100
0010
0001
0000
0001
0000
,
0011
0000
1000
0010
0110
0100
0101
0000
,
0110
0010
1001
0000
1100
0001
0101
0000
,
1010
1000
0100
0010
0011
0001
0101
0000
,
1000
0000
0010
1000
0100
0000
0100
0000
0010
0000
0110
0000
1001
0000
0000
0000
,
1000
0010
0100
0010
1000
0001
0100
0000
0001
0010
0100
0010
0001
1000
0100
0000
,
2000
0000
3010
0100
0002
0000
0013
0000
,
1001
0000
0000
0000
0000
0000
0000
1000
,
1100
0000
0000
0000
0000
0000
1000
0100
0010
0100
1000
0010
,
0110
0000
0000
0000
0000
0000
0000
0001
,
0101
0000
0000
0000
0000
0000
0001
0100
0010
0100
0001
1000
,
1002
0000
0000
0000
0203
0000
0000
0000
0320
0000
0000
0000
1030
0000
0000
0010
,
1000
0000
0001
0000
0010
0000
0001
0000
1000
0000
0010
0000
0100
0000
0001
0100
,
0002
0000
0000
0000
0023
0000
0000
0000
0230
0000
0000
0000
1300
0000
0000
0100
,
1000
0000
0001
0000
0010
0000
0001
0000
1000
0000
0010
1000
0000
0010
0100
0000
,
0102
0000
0000
0000
0023
0000
0000
0000
0130
0000
0010
0000
0100
0000
1000
0100
,
1000
0000
0010
0000
0100
0000
0001
0000
0010
0000
0001
0000
0100
0000
0001
0100
,
0001
0000
0010
0000
0100
0000
1000
0000
0010
0000
1000
0000
0001
1000
0001
1000
,
0002
0203
2300
3200
0302
1003
2002
3003
,
0101
0001
0010
0100
1100
1000
1010
0000
,
0110
0000
0100
0000
0101
0000
0001
0000
1000
0000
0100
0010
0001
0000
0001
0000
,
0011
1000
0010
0100
0110
0100
0101
0000
,
1010
0001
0011
0010
0110
0000
1001
0000
,
1000
0000
0100
0000
1000
0000
0010
0000
0100
0000
0001
0000
0010
0000
0100
0010
,
0001
0000
1000
0000
0010
0000
0100
0010
0000
0100
0001
0000
1000
0010
0000
1000
,
0100
0000
0010
0100
0000
0010
0001
0000
1000
0010
0000
1000
0001
0010
0100
1000
,
0002
0000
0000
0000
0000
0000
0000
0000
0103
0010
0100
0010
1000
0000
0000
0000
,
0001
0000
0010
0001
0010
0000
0100
0000
1000
0000
0010
0100
0000
0001
0100
0000
,
0010
0000
0010
1000
0010
0000
0100
0000
0001
0000
1000
0100
0000
0010
0100
0000
,
1000
0000
0001
0100
0001
0000
1000
0000
0010
0000
0100
0001
0000
1000
0100
1000
,
0001
0000
0010
0001
0010
0000
0001
0000
1000
0000
0001
0100
2000
0000
0000
0000
,
3100
0000
0001
0100
0001
0000
1000
0000
0100
0000
0010
0001
0000
0010
0100
0000
,
1000
0000
1000
0010
1000
0000
0001
0000
0100
0000
0001
0000
1000
0100
1000
0100
,
0020
0000
0000
0000
0031
0000
1000
0000
1020
0000
0000
0000
0130
0001
0100
0001
,
1000
0000
1100
0000
0000
0000
0011
0000
0000
0101
0000
0000
0100
0010
1000
0000
,
0001
0000
0010
0100
1000
0000
0001
0000
0100
0000
0010
1000
0000
0001
0100
0001
,
1000
0000
0100
0010
0001
0000
1000
0000
0010
0000
0100
0001
0020
0000
0000
0000
,
0130
0000
1000
0001
0100
0000
0010
0000
1000
0000
0001
0010
0000
0100
1000
0100
,
0010
0000
0001
1000
0010
0000
0100
0000
0001
0000
1000
0100
0010
0001
0010
0100
,
2000
0000
0000
0000
3001
0100
0001
0000
1000
0000
0010
0100
0000
0010
1000
0001
,
0100
0000
0001
0010
0100
0000
0010
0000
0001
0100
0010
1000
0001
0000
0000
0000
,
1100
0000
0000
0101
0000
0000
0011
0000
0000
1010
0000
0000
1000
0001
0010
0000
,
0100
1000
0000
0010
0100
0000
0001
0010
0000
0001
0100
0000
0010
1000
0001
0100
,
0020
0000
0000
0000
,
0000
0000
0000
0000
,
0030
0000
0000
0000
;

//--------------- dance-double - forcednature & NOWHERE Dance Club ----------------
#NOTEDATA:;
#STEPSTYPE:dance-double;
#DESCRIPTION:forcednature & NOWHERE Dance Club;
#DIFFICULTY:Easy;
#METER:9;
#RADARVALUES:0,0,0,0,0;
#CREDIT:FORCEDNATURE & NDC;
#NOTES:
00000000
00000000
00000000
00000000
,
00000000
00000000
00000000
00000000
,
00000000
00000000
00000000
00000000
,
00000000
00000000
00000000
00000000
,
00000000
00000000
00000000
00000000
,
00000000
00000000
00000000
00000000
,
00001000
00010000
00000100
00000000
,
00010000
00001000
00100000
00000000
,
00001000
00010000
00000010
00001000
,
00002002
00000000
00000000
00003003
,
00000001
00000010
00000100
00000010
,
00000100
00010000
00001000
00000000
,
00010000
00001000
01000000
00010000
,
10000000
00200000
01000000
10300000
,
00000000
00100000
01000000
00010000
,
00100000
00001000
00010000
00000000
,
00000020
00002030
00003002
00000203
,
00000320
00000000
00001000
00001030
,
00001001
00000000
00000001
00000010
,
00000100
00010000
00001000
00100000
,
00010000
00000000
10000000
00100000
,
01000000
00001000
00010000
00000010
,
00001000
00000000
00000001
00000010
,
00000100
00010000
00001000
00100000
,
00010000
00000000
10000000
00100000
,
20020000
00000000
00000000
30030000
,
10000000
01000000
00000000
10000000
,
00000000
00010000
00100000
00001000
,
00000000
00010000
00000000
00000010
,
00000000
00001000
00000001
00000100
,
00000000
00000001
00000000
00001000
,
00000000
00000010
00010000
00001000
,
00000000
01000000
00010000
10000000
,
00200000
00000000
00000000
00300000
,
10010000
10000000
01000000
00100000
,
01000000
10000000
00010000
00100000
,
00001000
00010000
00000100
00001000
,
00000100
00010000
00002000
00013000
,
00000010
00001000
00000001
00000100
,
00000001
00001000
00000010
00001001
,
00001000
00000100
00010000
00001000
,
00200000
00320000
20030000
30010000
,
10000000
10000000
10000000
00000000
,
01000000
01000000
01000000
00000000
,
00010000
00010000
00010000
00000000
,
00001000
00011000
00010000
00000000
,
00001000
00001000
00001000
00000000
,
00010000
00010000
00010000
00000000
,
00000100
00000100
00001000
00001000
,
00000200
00020300
00032000
00103000
,
00010000
00000000
00000000
00000000
00000000
00000000
00000000
10000000
,
01000000
00000000
00010000
00001000
,
00011000
00000000
00000000
00000000
00000000
00000000
00000000
00000001
,
00000100
00000000
00001000
00010000
,
00011000
00000000
00001000
00000000
,
01000000
00000000
00010000
00000000
,
01000000
00000000
00100000
00000000
,
10000000
00000000
00000000
00000000
,
10010000
00000000
00010000
00000000
,
01000000
00000000
00001000
00000000
,
00010000
00000000
00000010
00001000
,
00000020
00000000
00000200
00000330
,
00001000
00000001
00000010
00000000
,
00000001
00001000
00000100
00000000
,
00010000
00001000
00100000
00000000
,
00010000
01000000
00100000
00000000
,
10010000
00000000
10000000
00000000
,
01000000
00010000
00001000
00000000
,
00010000
00001000
00001000
00010000
,
00000200
00000000
00000000
00000300
,
00001001
00000000
00001000
00000100
,
00010000
00001000
00010000
00000000
00001000
00000000
00000000
00000000
,
01000000
00010000
10000000
00100000
,
10000000
00010000
10000000
00000000
01000000
00000000
00000000
00000000
,
01100000
00000000
00100000
00010000
,
00100000
00010000
00100000
00000000
00001000
00000000
00000000
00000000
,
00011000
00000000
00011000
00000000
,
00001000
00000000
00010000
00000000
00000000
00000000
00000100
00000000
00000000
00000100
00000000
00000000
00000100
00000000
00000000
00000000
,
00001000
00000000
00000001
00000100
,
00000001
00000000
00001000
00000000
00000010
00001000
00000010
00000000
,
00000100
00000000
00000001
00000010
,
00000100
00001000
00000100
00010000
,
00011000
00000000
00010000
00001000
,
00011000
00000000
00000000
00000000
01000000
00010000
01000000
00000000
,
00100000
00000000
00000000
00100000
00000000
00000000
00100000
00000000
00000000
00100000
00000000
00000000
00100000
00000000
00000000
00000000
,
01000000
00000000
00000000
00010000
00000000
00000000
01000000
00000000
00000000
00001000
00000000
00000000
00010000
00000000
00000000
00000000
,
00022000
00000000
00000000
00000000
,
00000000
00000000
00000000
00000000
,
00033000
00000000
00000000
00000000
;

//--------------- dance-double - forcednature & NOWHERE Dance Club ----------------
#NOTEDATA:;
#STEPSTYPE:dance-double;
#DESCRIPTION:forcednature & NOWHERE Dance Club;
#DIFFICULTY:Medium;
#METER:13;
#RADARVALUES:0,0,0,0,0;
#CREDIT:FORCEDNATURE & NDC;
#NOTES:
00000000
00000000
00000000
00000000
,
00000000
00000000
00000000
00000000
,
00000000
00000000
00000000
00000000
,
00000000
00000000
00000000
00000000
,
00000000
00000000
00000000
00000000
,
00000000
00000000
00000000
00000000
,
00001000
00000000
01000000
00000000
00010000
00100000
00001000
00000000
,
00010000
00000000
00000100
00000000
00001000
00000010
00010000
00000000
,
00001000
00100000
00010000
00100000
00001000
00010000
00001000
00000000
,
00022000
00000000
00000000
00033000
,
00010000
00000000
00000100
00001000
00000000
00000100
00010000
00000000
,
00001000
00100000
00000000
00010000
00100000
00000000
00110000
00000000
,
00001000
00000000
01000000
00010000
00000000
01000000
00001000
00000000
,
00010000
00000010
00000000
00001000
00000020
00000000
00000130
00000100
,
00000000
00000000
00000001
00000010
00000000
00000100
00000010
00000000
,
00000100
00010000
00000000
00001000
00010000
00000000
00011000
00000000
,
01000000
00020000
00000000
00230000
00000000
02300000
00000000
13000000
,
00020000
01000000
10000000
10030000
,
10010000
10000000
01000000
00010000
,
00001000
00000000
00000010
00000100
00001000
00000001
00000010
00000000
,
00001001
00000001
00000100
00001000
,
00010000
00000000
00100000
10000000
00010000
01000000
00100000
00000000
,
10010000
10000000
01000000
00010000
,
00001000
00000000
00000010
00000100
00001000
00000001
00000010
00000000
,
00000001
00000100
00001000
00000000
00010000
00001000
00100000
00001000
,
00020000
00000000
00000000
00030100
,
00011000
00000000
00001000
00100000
00000000
00010000
00100000
00000000
,
00001000
00010000
00000000
00000010
00001000
00000000
00000010
00000010
,
00000000
00000100
00000001
00000000
00000010
00000001
00000000
00000010
,
00000100
00000000
00001000
00000100
00000000
00010000
00001000
00010000
,
00000000
00000000
00001000
00100000
00000000
00010000
00100000
00000000
,
00010000
01000000
00000000
00100000
10000000
00000000
00010000
00010000
,
00000000
00100000
01000000
00000000
10000000
01000000
00100000
00000000
,
20020000
00000000
00000000
30030000
,
10000000
01000000
00010000
00000000
00001000
00000000
00011000
00000000
,
00010100
00000000
00101000
00000000
00001000
00010000
00001000
00000000
,
00011000
00010010
01001000
01010000
,
00010000
10000000
00010000
00000000
00200000
00000000
00302000
00000000
,
00013000
00010100
00001100
00001010
,
00000101
00000000
00000001
00001000
00000001
00000000
00000011
00000000
,
00001000
00001100
00011000
00110000
,
20000000
32000000
03200000
00310000
,
01000000
00000000
00001000
00000000
00010000
00010000
00010000
00000000
,
00000100
00001000
00000010
00000000
00000100
00000100
00000100
00000000
,
00000001
00000000
00000010
00000000
00001000
00001000
00001000
00000000
,
00000010
00000100
00010000
00000000
00001000
00000000
00000010
00000000
,
00000110
00000000
00000001
00000000
00000100
00000100
00000100
00000000
,
00000010
00010000
00001000
00000000
01000000
01000000
01000000
00000000
,
01010000
00000000
00110000
00000000
00100000
00010000
10000000
00000000
,
00200000
02300000
03020000
10030000
,
10010000
00000000
00000000
00000000
00000000
00000000
00000000
10000000
,
11000000
00000000
00000000
00000000
00000000
00000000
10000000
00010000
00100000
00001000
00010000
00000100
,
00001000
00000000
00000000
00000000
00000000
00000000
00000000
00000001
,
00000101
00000000
00000000
00000000
00000000
00000000
00001000
00000010
00010000
00001000
01000000
00010000
,
00200000
00000000
00010000
00010000
,
00001000
00001000
00310000
00000000
,
00100000
00000000
00001000
00000000
00010000
00001000
00010000
00000000
,
00000010
00010000
00001000
00000000
,
00012000
00000000
00100000
00100000
,
00010000
00010000
01003000
00000000
,
00001000
00000000
00010000
00000000
00000010
00000000
00001000
00001000
,
00002000
00003002
00000013
00001001
,
00001000
00000100
00001000
00000000
00000100
00010000
00001000
00000000
,
00100000
00010000
00100000
00000000
00001000
00000000
00010000
00000000
,
00000010
00001000
00000010
00000000
00010000
00001000
01000000
00000000
,
00010000
00000000
00100000
01000000
00200000
00000000
00320000
00000000
,
20030000
00100000
00010000
00100000
,
32000000
00100000
10000000
00100000
,
13000000
00000000
00010000
00000000
01000000
00001000
00010000
00000010
,
00002000
00000000
00000000
00003100
,
00001001
00000000
00000001
00000000
00000010
00000100
00001000
00000100
,
00010000
00001000
00100000
00000000
00001000
01000000
00010000
01000000
,
00001000
00100000
00010000
00000000
10000000
00100000
10000000
00010000
,
00100000
00100000
00100000
00000000
01000000
00010000
00001000
00000000
,
00011000
00000000
00010000
00000000
00000100
00001000
00000100
00000010
,
00000001
00001000
00000010
00000000
00011000
00000000
01000000
01000000
,
02000000
00000000
03010000
10000000
00020000
00000000
00130000
00100000
,
01000000
00000000
00100000
00000000
00000000
00000000
01000000
00000000
00000000
10000000
00000000
00000000
00100000
00000000
00000000
00000000
,
10010000
00000000
10000000
00000000
00010000
01000000
00001000
00010000
,
00001000
00100000
00010000
00000000
10000000
01000000
00010000
00000000
,
00011000
00000000
00001000
00000000
00010000
00000100
00001000
00000100
,
00010000
00000010
00001000
00000000
00000001
00000010
00001000
00000000
,
00000110
00000000
00000001
00000000
00001000
00000010
00010000
00001000
,
01000000
00010000
10000000
00000000
01000000
01000000
00100000
00000000
,
00010000
00000000
00000000
00010000
00000000
00000000
01000000
00000000
00000000
00001000
00000000
00000000
00010000
00000000
00000000
00000000
,
00011000
00000000
00000000
00000100
00000000
00000000
00001100
00000000
00000000
00001000
00000000
00000000
00000010
00000000
00000000
00000000
,
00002002
00000000
00000000
00000000
,
00000000
00000000
00000000
00000000
,
00003003
00000000
00000000
00000000
;

//--------------- dance-double - forcednature & NOWHERE Dance Club ----------------
#NOTEDATA:;
#STEPSTYPE:dance-double;
#DESCRIPTION:forcednature & NOWHERE Dance Club;
#DIFFICULTY:Hard;
#METER:16;
#RADARVALUES:0,0,0,0,0;
#CREDIT:FORCEDNATURE & NDC;
#NOTES:
00000000
00000000
00000000
00000000
,
00000000
00000000
00000000
00000000
,
00000000
00000000
00000000
00000000
,
00000000
00000000
00000000
00000000
,
00000000
00000000
00000000
00000000
,
00000000
00000000
00000000
00000000
,
00001000
01000000
00010000
00000000
00100000
00100000
00100000
00000000
,
00011000
00000000
00010000
00000000
00000010
00000010
00000020
00000000
,
00000130
00000000
00000001
00000000
00000100
00000010
00000100
00000000
00000010
00001000
00000010
00000000
00010000
00000000
00001000
00000000
,
00022000
00000000
00000000
00033000
,
00001000
00010000
00001000
02000000
00000000
03010000
20000000
00000000
,
30100000
02000000
00000000
03010000
10000000
01000000
00010000
00000000
,
00002000
00000000
00003010
00000200
00000000
00001300
00000002
00000000
,
00000103
00001000
00000200
00000000
00000302
00000000
00000023
00002030
,
00003000
00000000
00010000
00001000
00100000
00010000
00200000
00000000
,
01300000
00000000
20000000
00000000
00000000
00000000
30100000
00000000
10000000
00010000
10000000
00010000
10000000
00000000
00000000
00000000
,
01000000
00010000
00000000
00001000
00010000
00001000
00000000
00000010
,
00000002
00000000
00000100
00000100
00000103
00000000
00000110
00000000
,
00002001
00000000
00003001
00000100
00000010
00000100
00001000
00010000
,
00010000
00000000
00001000
00000000
01000000
00010000
01000000
00000000
00010000
00000000
10000000
00000000
00100000
00000000
00000000
00000000
,
10020000
00000000
10030000
01000000
00100000
01000000
00010000
00001000
,
00001000
00000000
00010000
00000000
00000100
00001000
00000100
00000000
00000020
00000000
00000032
00000000
00000103
00000000
00000000
00000000
,
00002001
00000000
00003001
00000100
00000010
00000100
00001000
00010000
,
00010000
00000000
00001000
00000000
01000000
00010000
01000000
00000000
00010000
00000000
10000000
00000000
00100000
00000000
00000000
00000000
,
10000000
00010000
10000000
00000000
01000000
00000000
10000000
00000000
01000000
00100000
01000000
00000000
00100000
00000000
00001000
00000000
,
00020000
00000000
00000000
00030010
,
00011000
00000000
00001000
00000010
00000100
00000010
00001000
00000000
,
00010000
01000000
00100000
01000000
00010000
00000000
00001000
00001000
,
00000000
00010000
00100000
10000000
00100000
00010000
00000000
00001000
,
00000100
00000001
00000100
00001000
00000000
00010000
00001000
00000000
,
00011000
00000000
00010000
00100000
01000000
00100000
00010000
00000000
,
00001000
00000100
00000010
00000100
00001000
00000000
00010000
00001000
,
00000000
00000000
00010000
00000000
01000000
00000000
10000000
00000000
01000000
00000000
00010000
00000000
00001000
00000000
00010000
00001000
,
00020000
00000000
00000000
00030010
,
00010000
00000000
00001000
00000000
00010000
00001000
00010000
00000000
00000100
00000000
00001000
00000000
00000100
00001000
00000100
00000000
,
00000010
00000000
00000001
00000000
00000010
00000001
00000010
00000000
00000100
00000000
00000000
00000000
00011000
00000000
00000000
00000000
,
00001000
00000000
00010000
00000000
00001000
00010000
00001000
00000000
01000000
00000000
00010000
00000000
01000000
00010000
01000000
00000000
,
00100000
00000000
10000000
00000000
00100000
10000000
00100000
00000000
20000000
00000000
32000000
00000000
03020000
00000000
00000000
00000000
,
00031000
00000000
00000000
00000000
00010000
00001000
00010000
00000000
00000010
00000000
00001000
00000000
00000010
00001000
00000010
00000000
,
00000100
00000000
00000001
00000000
00000100
00000001
00000100
00000000
00000010
00000000
00000000
00000000
00011000
00000000
00000000
00000000
,
00001000
00000000
00010000
00000000
00001000
00010000
00001000
00000000
00100000
00000000
00010000
00000000
00100000
00010000
00100000
00000000
,
02000000
23000000
30200000
01300000
,
10010000
00000000
10000000
00000000
01000000
00010000
00002000
00000000
,
00003010
00000000
00000000
00000000
00000100
00000000
00010000
00000000
00001000
00000000
00010000
00001000
00010000
00000000
00001000
00000000
,
00200000
00000000
00310000
00000000
10000000
00010000
00100000
00000000
,
00001000
00010000
00011000
00000000
00000200
00002300
00003020
00000000
,
00000130
00000000
00001001
00000000
00000001
00000100
00001000
00000000
,
00010000
00000000
00010000
00000000
00100000
00000000
00010000
00000000
00100000
00000000
01000000
00100000
02000000
00000000
00000000
00000000
,
03010000
10000000
00100000
10000000
01000000
00010000
00001000
00000000
,
00200000
00302000
00023000
02030000
03200000
00000000
00310000
00000000
,
10010000
00000000
00000000
00000000
00000000
00000000
00000000
10000000
,
11000000
00000000
00000000
00000000
00000000
00000000
10000000
01000000
00010000
00001000
00000010
00000001
,
00000011
00000000
00000000
00000000
00000000
00000000
00000000
00000001
,
00000101
00000000
00000000
00000000
00000000
00000000
00000001
00000100
00001000
00010000
00100000
10000000
,
20100000
00000000
00100000
00100000
,
30200000
00000000
01000000
00000000
01000000
00000000
01300000
00010000
,
00200000
00000000
00010000
00000000
00310000
00100000
00001000
00010000
,
00000200
00000000
00001000
00000000
00001300
00000001
00000010
00000001
,
00002000
00000010
00000010
00000001
,
00003200
00000000
00000000
00000000
00001300
00000000
00000100
00000000
00010000
00000000
00000000
00010000
00000000
00000000
00001000
00000000
,
00100000
00000000
00000000
00000000
00010000
00000000
10000000
00000000
00100000
00000000
00000000
00000000
10000000
00010000
10000000
00010000
,
20000000
00000000
32000000
00000000
03010000
00001000
00011000
00000000
,
00000100
00001000
00000010
00000000
00010000
00001000
00000010
00000000
,
00000100
00010000
00001000
00000010
00000001
00001000
00000100
00000000
,
00011000
00000000
00001000
00010000
00100000
01000000
00010000
00000000
,
00200000
00001000
00010000
01300000
,
00100000
00100000
00002000
00000000
00013000
00010000
00000200
00000000
,
00001300
00001000
00000020
00000000
00010030
00010000
00002000
00000000
,
01003000
00000000
01000000
00000000
00010000
00000000
00010000
00000000
10000000
00000000
10000000
00000000
00100000
01000000
00100000
01000000
,
00200000
00000000
00000000
10300000
,
00100000
00000000
01000000
00000000
00010000
00000000
01000000
00000000
00001000
00000000
00010000
00001000
00000000
00010000
00001000
00000000
,
00010000
00000000
00010000
00000000
00010000
00000000
00000000
00000000
00000100
00000000
00001000
00000100
00000000
00000010
00000100
00000000
,
00000010
00000000
00000001
00000000
00001000
00000000
00000000
00000000
00000010
00000000
00000100
00000010
00000000
00000100
00000001
00000000
,
00001000
00001000
00001000
00000000
00000001
00000100
00002000
00000000
,
00013000
00000000
00001000
00000000
01000000
00000000
00010000
00000000
01000000
00000000
00100000
10000000
00000000
00010000
10000000
00000000
,
01000000
00000000
01000000
00000000
01000000
00000000
00000000
00000000
00010000
00000000
00001000
00000000
00010000
00001000
00010000
00001000
,
00020000
00000000
00000000
00000000
00030100
00000000
00001000
00000000
00000200
00000000
00000000
00000000
00000310
00000100
00000010
00000100
,
00000010
00000000
00000001
00000000
00000000
00000000
00001001
00000000
00000000
00001001
00000000
00000000
00000001
00000000
00000010
00000000
,
00000000
00000000
00000100
00000000
00010000
00000000
00001000
00000000
00010000
00000000
00001000
00100000
00000000
00010000
00100000
00000000
,
00010000
00000000
10000000
00000000
01000000
00000000
10000000
00000000
01000000
00100000
01000000
00100000
00020000
00000000
00000000
00000000
,
01030000
00000000
00010000
00000000
01000000
00000000
00001000
00000000
00010000
00000000
00000010
00001000
00000000
00000010
00000100
00000000
,
00000001
00000000
00001000
00000000
00000100
00000000
00001000
00000000
00000001
00000000
00000010
00000100
00002000
00000000
00000000
00000000
,
00003010
00000000
00000000
00000000
00001000
00000000
00000010
00000000
00010000
00000000
00001000
00100000
00000000
00010000
00100000
00000000
,
01000000
00000000
10000000
00000000
00010000
00000000
10000000
00000000
00100000
01000000
00100000
01000000
00010000
00000000
00000000
00000000
,
00110000
00000000
00000000
00101000
00000000
00000000
00011000
00000000
00000000
00010100
00000000
00000000
00000100
00001000
00000100
00000000
,
00000010
00000001
00000000
00000010
00000100
00000000
00001000
00000010
00000000
00001000
00000001
00000000
00000100
00000000
00000010
00000000
,
00002002
00000000
00000000
00000000
,
00000000
00000000
00000000
00000000
,
00003003
00000000
00000000
00000000
;

//--------------- dance-double - forcednature & NOWHERE Dance Club ----------------
#NOTEDATA:;
#STEPSTYPE:dance-double;
#DESCRIPTION:forcednature & NOWHERE Dance Club;
#DIFFICULTY:Challenge;
#METER:17;
#RADARVALUES:0,0,0,0,0;
#CREDIT:FORCEDNATURE & NDC;
#NOTES:
00000000
00000000
00000000
00000000
,
00000000
00000000
00000000
00000000
,
00000000
00000000
00000000
00000000
,
00000000
00000000
00000000
00000000
,
00000000
00000000
00000000
00000000
,
00000000
00000000
00000000
00000000
,
00011000
00000000
01000000
00010000
10000000
00010000
00100000
00000000
,
00011000
00000000
00000100
00001000
00000001
00001000
00000010
00000000
,
00010000
00001000
00010000
00001000
00010000
00000000
00000100
00000000
00001000
00000100
00001000
00000100
00000010
00000000
00000000
00000000
,
00002002
00000000
00000000
00003003
,
00000002
00000000
00000103
00001000
00000000
00010000
00002000
00000000
,
00013000
00000000
00100000
00000000
00000000
00000000
10000000
00000000
00100000
00000000
10000000
00010000
01000000
00000000
00000000
00000000
,
20010000
00000000
31000000
00010000
00000000
00001000
00020000
00000000
,
00031000
00000010
00000002
00000000
00000103
00001000
00000100
00000002
,
00000010
00000000
00000103
00001000
00000000
00010000
00002000
00000000
,
00013000
00000000
00100000
00000000
00000000
00000000
10000000
00000000
00100000
01000000
00100000
01000000
00010000
00000000
00000000
00000000
,
10000000
00010000
00100000
01000000
00010000
00001000
00000010
00000001
,
00000020
00000100
00000001
00000031
,
00002100
00000000
00003001
00000100
00000010
00001000
00000100
00000010
,
00001000
00000000
00010000
00000000
01000000
00000000
00100000
00000000
00010000
10000000
01000000
00100000
00010000
00000000
00000000
00000000
,
01020000
00000000
10030000
01000000
00100000
00010000
01000000
00100000
,
00010000
00000000
00001000
00000000
00000100
00000000
00000010
00000000
00001000
00000001
00000100
00000010
00001000
00000000
00000000
00000000
,
00002001
00000000
00003001
00000010
00000100
00001000
00000010
00000100
,
00001000
00000000
00010000
00000000
00100000
00000000
01000000
00000000
00010000
10000000
00100000
01000000
00010000
00000000
00000000
00000000
,
10000000
01000000
10000000
01000000
10000000
00000000
00010000
00000000
00100000
00010000
00100000
00001000
00010000
00000000
00000000
00000000
,
00012000
00000000
00000000
00103000
,
00001000
00000000
00010000
00000000
01000000
00000000
00010000
00000000
00000000
00000000
00001000
00000000
00100000
00000000
00010000
00100000
,
00001000
00010000
00000100
00010000
00001000
00000010
00000001
00000001
,
00000000
00000000
00000100
00000000
00001000
00000000
00000100
00000000
00000001
00000000
00001000
00000000
00000010
00000000
00010000
00001000
,
00010000
00000010
00001000
00000000
00000001
00000000
00000100
00000000
00000001
00000000
00000010
00000000
00001000
00000000
00010000
00000000
,
00000000
00000000
01000000
00000000
00010000
00000000
00001000
00000000
00100000
00000000
00010000
00000000
00100000
00000000
00001000
00010000
,
00000100
00000000
00001000
00000000
00000001
00000000
00000010
00000000
00000001
00000000
00000100
00000000
00000010
00001000
00000000
00000010
,
00000100
00000000
00000001
00000000
00001000
00000000
00000010
00000000
00010000
00000000
00001000
00000000
01000000
00010000
01000000
00010000
,
20000000
00000000
31000000
10010000
,
00010000
00000000
01000000
00010000
01000000
00000000
00001000
00000000
00010000
00001000
00010000
00000000
00000100
00000000
00001000
00000100
,
00001000
00000000
00000001
00000000
00000010
00000000
00000001
00000000
00001000
00000100
00010000
00000000
00002000
00000000
00000000
00000000
,
00103000
00000000
00010000
00100000
00010000
00000000
01000000
00000000
00010000
01000000
00010000
00000000
10000000
00000000
00100000
10000000
,
00100000
00000000
00100000
00000000
01000000
00000000
00100000
00000000
01000000
00010000
01000000
00001000
00020000
00000000
00000000
00000000
,
00030010
00000000
00001000
00000010
00001000
00000000
00000001
00000000
00000010
00000001
00000010
00000000
00000100
00000000
00001000
00000100
,
00001000
00000010
00000100
00010000
02000000
00000000
03100000
00000000
,
01000000
00000000
00010000
01000000
00010000
00000000
00100000
00000000
00001000
00100000
00001000
00000000
00010000
00000000
00001000
00010000
,
00000200
00002300
00003020
00000130
,
00000001
00000010
00000001
00000100
00001000
01000000
00010000
00000000
,
00100000
00000000
01000000
00000000
00010000
00000000
01000000
00000000
10000000
00000000
00010000
00100000
01000000
00000000
10000000
00000000
,
10100000
00000000
10000000
01000000
00010000
00000100
00001000
00000000
,
00000010
00000100
00000110
00000000
00000001
00001000
00010000
00000000
,
01000000
00010000
00100000
00001000
00000010
00000100
00001000
00000000
,
00000100
00000000
00010000
00001000
00000010
00000000
00000010
00000000
00000100
00000000
00000010
00000000
00001001
00000000
00000000
00000000
,
00000001
00000100
00000001
00000100
00000010
00000000
00001000
00000000
00000010
00001000
00000010
00010000
00001000
00000000
00000000
00000000
,
00020000
00000000
00130000
10000000
02000000
00000000
03100000
00000000
,
10010000
00000000
00000000
00000000
00000000
00000000
00000000
10000000
,
11000000
00000000
00000000
00000000
00000000
00000000
10000000
01000000
00010000
00001000
00000100
00000001
,
00000011
00000000
00000000
00000000
00000000
00000000
00000000
00000001
,
00000101
00000000
00000000
00000000
00000000
00000000
00000001
00000100
00001000
00010000
01000000
10000000
,
10020000
00000000
00000000
00000000
02030000
00000000
00000000
00000000
03200000
00000000
00000000
00000000
10300000
00000000
00000000
00100000
,
10000000
00000000
01000000
00000000
00000000
00000000
00010000
00000000
01000000
00000000
00100000
00000000
00001000
00000000
00010000
00001000
,
00020000
00000000
00000000
00000000
00032000
00000000
00000000
00000000
00003020
00000000
00000000
00000000
00000130
00000000
00000000
00001000
,
00000100
00000000
00000010
00000000
00000000
00000000
00000001
00000000
00000100
00000000
00000010
00000100
00000000
00000010
00001000
00000000
,
00001002
00000000
00000000
00000000
00000023
00000000
00000000
00000000
00000130
00000000
00001000
00000000
00000100
00000000
00001000
00000100
,
00010000
00000000
00001000
00000000
00000000
00000000
01000000
00000000
00010000
00000000
01000000
00100000
00000000
10000000
00100000
00000000
,
10000000
00000000
01000000
00000000
00000000
00000000
00100000
00000000
01000000
00000000
00100000
00000000
00010000
00100000
00010000
00100000
,
00002000
00000000
00000000
00000000
00003020
00000000
00000000
00000000
00000130
00001000
00000100
00001000
00000001
00000000
00000000
00000000
,
00000100
00001000
00010000
00100000
00010000
00001000
01000000
00000000
,
00010000
00100000
01000000
00010000
00001000
00000010
00000010
00000100
,
00000110
00000000
00000001
00000100
00001000
00010000
00100000
00000000
,
01000000
00001000
00100000
01000000
01100000
00000000
10010000
00000000
,
10000000
00000000
01000000
00000000
00100000
00000000
01000000
00000000
00100000
00000000
00001000
00000000
00010000
00000000
00001000
00010000
,
00000010
00001000
00000010
00000100
00000001
00000100
00000010
00010000
,
00001000
00000000
00100000
00010000
00000000
00100000
01000000
00000000
10000000
01000000
00000000
00100000
00010000
00100000
00001000
00010000
,
00002000
00000000
01003000
00011000
,
00010000
00000000
00001000
00010000
00001000
00000000
00100000
00000000
00010000
00000000
10000000
00100000
00000000
01000000
00100000
00000000
,
01000000
00000000
01000000
00010000
01000000
00000000
00001000
00000000
00010000
00000000
00000010
00001000
00000000
00000010
00000100
00000000
,
00000001
00000000
00001000
00000010
00001000
00000000
00000010
00000000
00010000
00000000
00001000
00010000
00000000
00001000
00100000
00010000
,
00100000
00000000
01000000
00100000
01000000
00000000
10000000
00000000
01000000
00000000
00010000
00001000
00200000
00000000
00000000
00000000
,
00310000
00000000
00100000
00010000
00100000
00000000
00001000
00000000
00010000
00000000
00000010
00001000
00000000
00000010
00000100
00000000
,
00000001
00000000
00000001
00000100
00000001
00000000
00001000
00000000
00000010
00000000
00010000
00000000
00001000
00010000
00001000
00010000
,
00000020
00000000
00000000
00000000
00010030
00000000
00001000
00000000
00200000
00000000
00000000
00000000
00301000
00010000
00001000
00010000
,
00000100
00000000
00001000
00000000
00000000
00000000
00001100
00000000
00000000
00000110
00000000
00000000
00000011
00000000
00000000
00000000
,
00000001
00000000
00000100
00000001
00000100
00000000
00000010
00000000
00001000
00000000
00000010
00010000
00000000
00001000
00010000
00001000
,
00010000
00000000
00001000
01000000
00010000
00000000
10000000
00000000
00100000
00000000
10000000
01000000
00200000
00000000
00000000
00000000
,
00310000
00000000
00100000
00010000
00100000
00000000
00001000
00000000
00010000
00000000
00000010
00001000
00000000
00000010
00000100
00000001
,
00000100
00000000
00000010
00001000
00000010
00000000
00001000
00000000
00000001
00000000
00000010
00000100
00001000
00000100
00000010
00000000
,
00000002
00000000
00000000
00000000
00000103
00000000
00001000
00000000
00010000
00000000
00001000
00010000
00000000
00001000
01000000
00010000
,
01000000
00000000
00100000
01000000
00100000
00000000
10000000
00000000
00010000
01000000
00100000
10000000
00010000
00000000
00000000
00000000
,
11000000
00000000
00000000
01100000
00000000
00000000
00110000
00000000
00000000
00101000
00000000
00000000
00010000
00001000
00010000
00000000
,
00000100
00001000
00000000
00000010
00000100
00000000
00000001
00000010
00000000
00000100
00000010
00000000
00000100
00010000
00001000
00000000
,
00022000
00000000
00000000
00000000
,
00000000
00000000
00000000
00000000
,
00033000
00000000
00000000
00000000
;
