#VERSION:0.83;
#TITLE:HEAVENLY MOON;
#SUBTITLE:;
#ARTIST:Tatsh;
#TITLETRANSLIT:;
#SUBTITLETRANSLIT:;
#ARTISTTRANSLIT:;
#GENRE:MOON CORE;
#CREDIT:;
#MUSIC:HEAVENLY MOON.ogg;
#BANNER:HEAVENLY MOON.png;
#BACKGROUND:HEAVENLY MOON-bg.png;
#CDTITLE:./CDTitles/jubeat copious.png;
#SAMPLESTART:69.754;
#SAMPLELENGTH:15.000;
#SELECTABLE:YES;
#OFFSET:1.591;
#BPMS:0.000=185.000;
#STOPS:76.000=0.973;
#TIMESIGNATURES:0.000=4=4,
76.000=1=4,
77.000=4=4
;
#BGCHANGES:0.000=../BGAs/20te.mp4=1.000=0=0=0=StretchNoLoop====,
99999.000=-nosongbg-=1.000=0=0=0=StretchNoLoop====
;
#FGCHANGES:;

//--------------- dance-single - forcednature ----------------
#NOTEDATA:;
#STEPSTYPE:dance-single;
#DESCRIPTION:forcednature;
#DIFFICULTY:Beginner;
#METER:3;
#RADARVALUES:0,0,0,0,0;
#CREDIT:forcednature;
#NOTES:
0000
0000
0000
0000
,
0000
0000
0000
0000
,
0000
0000
0000
0000
,
0000
0000
0000
0000
,
0000
0000
0000
0000
,
0000
0000
0000
0000
,
1000
0000
0000
0000
,
0000
0000
0000
0000
,
0001
0000
0000
0000
,
0100
0000
0000
0000
,
1001
0000
0000
0000
,
0000
0000
0000
0000
,
1000
0000
0000
0000
,
0000
0000
0000
0000
,
0100
0000
0000
0000
,
0000
0000
0000
0000
,
0010
0000
0000
0000
,
0000
0000
0000
0000
,
0002
0000
0000
0000
,
0000
0003
0000
0000
0000
0000
0000
0000
0000
0000
0000
0000
0000
0000
0000
0000
,
0000
1000
0000
0000
,
0000
0010
0000
0000
,
0000
0100
0000
0000
,
0000
0001
0000
0000
,
0000
1000
0000
0000
,
0000
0001
0000
0000
,
0000
0010
0000
0010
,
0000
0100
0000
0000
,
0000
1000
0000
0000
,
0000
0010
0000
0000
,
0000
1000
0000
1000
,
0000
0001
0000
0000
,
0000
0100
0000
0000
,
0000
0001
0000
0000
,
0000
0010
0000
0010
,
0000
0000
0000
0000
,
0000
1001
0000
0000
,
0001
0000
0000
0000
,
1000
0000
0000
0000
,
0001
0000
0000
0000
,
0100
0000
0000
0000
,
0010
0000
0000
0000
,
1000
0000
0000
0000
,
0001
0000
0000
0000
,
0000
1001
0000
0000
,
0000
0000
0000
0000
,
0000
1000
0000
0000
,
0000
0001
0000
0000
,
0000
0100
0000
0100
,
0000
0010
0000
0000
,
0000
1000
0000
1000
,
0000
0001
0000
0000
,
0000
0001
1000
0001
,
1000
0000
0000
0000
,
0000
0001
0000
0000
,
0000
0100
0000
0001
,
0000
0100
0000
0000
,
0000
0010
0000
0100
,
0000
0010
0000
0000
,
0000
1000
0000
0010
,
0000
1000
0000
0000
,
0000
0001
0000
1000
,
0000
0001
0000
0000
,
0000
0010
0000
0010
,
0000
0001
0000
0000
,
0000
1000
0000
1000
,
0000
0001
0000
0000
,
0000
1000
0000
1000
,
0000
0010
0000
0000
,
0000
0010
0000
0010
,
0000
0000
1001
0000
,
0000
1000
0000
0100
,
0000
1000
0000
0000
,
0000
0001
0000
0100
,
0000
0000
0110
0000
,
0000
0010
0000
1000
,
0000
0001
0000
0000
,
0000
0010
0000
0000
,
0000
0001
1000
0001
,
1000
0001
1000
0001
,
1000
0001
1000
0001
,
1000
0001
1000
0001
,
1000
0100
0000
0000
,
0110
0000
0000
0000
,
0000
0010
0000
0000
,
1001
0000
0000
0000
,
0000
1000
0000
0001
,
0000
0010
0000
0100
,
0100
0000
0000
0000
;

//--------------- dance-single - forcednature ----------------
#NOTEDATA:;
#STEPSTYPE:dance-single;
#DESCRIPTION:forcednature;
#DIFFICULTY:Easy;
#METER:9;
#RADARVALUES:0,0,0,0,0;
#CREDIT:forcednature;
#NOTES:
0000
0000
0000
0000
,
0000
0000
0000
0000
,
0000
0000
0000
0000
,
0000
0000
0000
0000
,
0000
0000
0000
0000
,
0000
0000
0000
0000
,
1000
1000
0001
0001
,
1000
1000
0000
0000
,
0001
0000
0100
0000
,
0010
0010
1000
0001
,
0020
0000
0000
0000
,
0000
0000
0030
0000
,
0200
0000
0000
0300
,
2000
0000
3002
0000
,
0203
0000
0000
0300
,
0020
0000
0000
0030
,
2000
0000
0000
3000
,
0002
0000
0000
0003
,
2002
0000
0000
0000
,
0000
3003
0000
0000
1000
0000
0000
0000
0100
0000
0000
0000
1000
0000
0000
0000
,
0100
0010
0100
0010
,
0100
0010
0001
0010
,
0001
1000
1000
0001
,
0001
0100
0001
0100
,
0001
0100
0010
0100
,
0010
1000
1000
0010
,
0010
1000
0100
0010
,
0001
0000
0100
0000
0000
0010
0000
0000
,
1000
0000
0010
0000
0000
0100
0000
0000
,
0001
0000
1000
0000
0000
0100
0000
0000
,
0010
0001
0001
1000
,
1000
0000
0001
0000
0000
0100
0000
0000
,
0010
0000
1000
0000
0000
1000
0000
0000
,
0001
0010
0200
0000
,
0300
0100
0000
1000
,
1000
0001
0000
0000
0000
0000
0000
0000
,
0000
0000
0100
0000
0000
0100
0000
0000
,
0001
0000
1000
0000
0000
1000
0000
0000
,
0001
0000
0010
0000
0000
0010
0000
0000
,
0001
1000
0010
0000
,
0010
0000
1000
0000
0000
1000
0000
0000
,
0100
0000
0010
0000
0000
0010
0000
0000
,
0100
0000
1000
0000
0000
1000
0000
0000
,
0001
0100
0010
0000
,
0010
0000
2000
0000
0000
3002
0000
0000
,
0023
0000
0000
0000
,
0030
0200
0000
0000
,
0300
2000
0000
0000
,
3000
0001
0001
0100
,
0100
0010
0010
1000
,
1000
0100
0010
0100
,
0010
0001
1000
0001
,
1000
0000
0001
1000
0001
1000
0001
1000
,
0001
1000
0000
0000
0000
0000
0000
0000
,
0000
0100
0001
0010
,
0001
0000
1000
0000
0010
0000
1000
0100
,
1000
0001
0010
0001
,
0100
0000
0010
0000
1000
0000
0001
1000
,
0001
0010
0100
1000
,
0100
0000
0010
0000
0001
0000
1000
0001
,
1000
0010
0000
0010
,
0000
0100
0100
0001
,
0001
0000
1000
0000
0000
0100
0000
0000
,
1000
0000
0000
0100
0000
0000
0010
0000
,
0001
0000
0100
0000
0000
0001
0000
0000
,
0100
0000
0000
0001
0000
0000
1000
0000
,
0010
1000
1000
0100
,
0100
0010
0010
0001
,
1000
0001
0000
0100
,
0010
0000
1000
0000
1000
0000
0001
1000
,
0001
1000
0000
0000
1001
0000
0001
0000
,
0100
0001
1000
0100
,
1000
0010
1000
0001
,
0010
0100
0010
0001
,
0100
0000
1001
1000
,
0010
1000
0001
0010
,
0100
2000
0000
0000
,
3000
0000
0002
0000
0000
0003
0200
0000
,
0000
0300
0001
1000
0001
1000
0001
1000
,
0001
1000
0001
1000
0001
1000
0001
1000
,
0001
1000
0001
1000
0001
1000
0001
1000
,
0001
1000
0001
1000
0001
1000
0001
1000
,
0001
1000
0001
0000
0000
0010
0000
0000
,
0200
0000
0000
0000
,
0300
0000
1000
0000
0000
0010
0000
0000
,
0200
0000
0000
0000
,
0300
0001
0001
1000
,
1000
0000
0010
0000
0010
0000
0100
0100
,
0001
0000
0000
0000
;

//--------------- dance-single - forcednature ----------------
#NOTEDATA:;
#STEPSTYPE:dance-single;
#DESCRIPTION:forcednature;
#DIFFICULTY:Medium;
#METER:12;
#RADARVALUES:0,0,0,0,0;
#CREDIT:forcednature;
#NOTES:
0000
0000
0000
0000
,
0000
0000
0000
0000
,
0000
0000
0000
0000
,
0000
0000
0000
0000
,
0000
0000
0000
0000
,
0000
0000
0000
0000
,
1001
0001
1000
1000
,
0001
0001
0000
0000
,
0100
0000
0010
0000
0100
0000
0010
1000
,
0001
0000
0000
0001
0000
0000
0000
0000
1000
0000
0100
0000
1000
0000
0000
0000
,
1001
0001
0010
0100
,
2000
0000
0000
0000
,
3000
0001
0100
0010
,
2000
0000
3100
0010
,
0002
0000
0000
0103
,
0020
0000
0000
2030
0000
0000
0000
0000
,
3200
0000
0000
0000
0000
0000
0310
0001
,
0020
0000
0030
0000
,
0220
0000
0000
0000
,
0000
0330
0000
0000
1000
0000
0000
0001
0000
0000
0100
0000
0001
0000
0000
1000
,
0000
0000
0100
0000
1000
0000
0000
0001
0000
0000
0010
0000
0001
0000
0000
1000
,
0000
0000
0010
0000
0100
0000
0000
0001
0000
0000
0010
0000
0100
0000
0000
1000
,
0000
0010
1000
0100
1000
0000
0001
0100
,
0001
0000
0000
0000
0010
0000
0000
0100
0000
0000
1000
0000
0010
0000
0000
0100
,
0000
0000
0001
0000
1000
0000
0000
0001
0000
0000
0010
0000
0001
0000
0000
1000
,
0000
0010
0100
0001
0100
0000
0010
1000
,
0010
1000
0100
1000
0100
0000
0010
0001
,
0010
0010
0100
0000
1000
0001
0000
0100
,
0010
0000
0100
0000
0001
1000
0000
0100
,
0010
0000
0100
0000
1000
0001
0000
0100
,
0010
0000
1000
1000
1000
0000
0001
0001
,
0001
0000
0010
0000
0100
1000
0000
0001
,
1000
0000
0010
0000
0000
0100
0000
0000
,
0001
0010
0200
0000
1000
0000
1000
1000
,
1300
0000
0100
0010
0001
0000
1000
1000
,
0001
0001
0000
0000
0000
0000
0000
0000
,
0000
0000
1001
0000
1000
0010
0000
0100
,
0001
0000
1000
0000
0001
0010
0000
0100
,
1000
0000
0001
0000
1000
0010
0000
0100
,
0001
0000
1000
0100
0010
0100
0000
0010
,
0001
0000
1001
0000
0001
0100
0000
1000
,
0100
0000
0001
0000
1000
0100
0000
0001
,
0100
0000
1000
0000
0001
0010
0000
1000
,
0010
0000
0001
1000
0001
0100
0000
0000
,
0010
0000
2001
0000
0000
3200
0000
0000
,
0320
0000
0000
0000
,
0030
0002
0100
0000
,
0100
2003
0100
0000
,
3100
0000
1000
0000
1000
0010
0000
0010
,
0100
0000
0100
0001
0000
0001
0010
0000
,
0010
0100
1000
0100
1000
0000
0001
0100
,
0001
0000
1000
0010
1000
0000
0001
0010
,
0001
0000
0100
0010
0100
0010
0100
0010
,
0100
0010
1000
0000
0000
0000
0000
0000
,
0000
0000
0000
0000
0001
0000
0010
0000
0100
0000
0010
0000
0001
0000
0000
1000
,
0000
0000
0100
0000
1000
0000
0000
0000
0001
0000
0100
0000
0001
0000
0000
1000
,
0000
0000
0010
0000
1000
0000
0000
0000
0001
0000
0010
0000
0100
0000
0000
0010
,
0000
0001
0100
0000
0010
1000
0001
0010
,
0001
0000
0010
0000
0100
0000
0000
0000
1000
0000
0001
0000
0100
0000
0000
0010
,
0000
1000
0001
0000
1000
0100
1000
0001
,
1000
0001
0100
0100
0010
0000
0010
0010
,
0100
0000
0001
1000
0100
1000
0001
0100
,
0001
0000
0010
0100
1000
0010
0100
0001
,
1000
0000
0100
0010
0001
0000
1000
0001
,
0100
0000
0010
1000
0001
1000
0100
0010
,
0001
0000
1000
0010
1000
0000
0001
0010
,
0001
0000
0100
0010
1000
0100
0010
0100
,
1000
0000
0001
0100
0010
0000
1000
0001
,
0010
0000
0100
1000
0000
1000
0001
0100
,
0001
0000
0010
0100
0010
0100
1000
0001
,
0100
0010
0000
0000
1001
0000
1000
0010
,
0100
0001
0000
0010
0100
0010
0001
0000
,
1000
0010
0100
0000
0001
1000
0100
1000
,
0001
0000
0010
1000
0010
0000
0100
0001
,
0010
0010
0000
0000
0110
0000
0100
1000
,
0001
1000
0010
0100
0001
0000
0010
0001
,
0100
0020
1000
0000
,
1000
0230
0010
0302
,
0010
0000
1003
0001
1000
0001
1000
0001
,
1000
0001
1000
0001
1000
0001
1000
0001
,
1000
0001
0010
0100
0010
0100
0010
0100
,
0010
0100
1000
0001
1000
0001
1000
0001
,
1000
0000
0001
0000
0200
0000
0000
0300
0000
0000
0220
0000
0000
0330
0000
0000
,
2002
0000
0000
0000
,
3003
0000
0000
0000
0020
0000
0000
0030
0000
0000
0220
0000
0000
0330
0000
0000
,
2002
0000
0000
0000
,
0000
0000
0000
0000
,
0000
0000
0000
0000
3003
0000
0100
0010
,
1001
0000
0000
0000
;

//--------------- dance-single - forcednature ----------------
#NOTEDATA:;
#STEPSTYPE:dance-single;
#DESCRIPTION:forcednature;
#DIFFICULTY:Hard;
#METER:16;
#RADARVALUES:0,0,0,0,0;
#CREDIT:forcednature;
#NOTES:
0000
0000
0000
0000
,
0000
0000
0000
0000
,
0000
0000
0000
0000
,
0000
0000
0000
0000
,
0000
0000
0000
0000
,
0000
0000
0000
0000
,
1001
1000
0001
0001
,
0100
0100
0000
0000
,
0001
0010
1000
0000
0010
0000
0001
0100
,
0010
0000
0000
0110
0000
0000
0100
0000
0001
0000
1000
0000
0100
0010
0100
0010
,
0001
0200
0320
2030
,
3002
0000
0000
0000
,
0003
0020
0230
2300
,
3020
0000
0230
0302
,
2003
0000
0000
3200
,
0320
0001
0000
0000
0000
0000
0030
0000
,
0200
0000
0000
0000
0300
0000
1000
0001
,
0200
0000
0000
0300
,
0002
0000
0000
0000
,
2000
3003
0000
0000
1000
0000
0000
1000
0100
0000
0010
0000
0001
0000
0000
0001
,
0100
0000
0010
0000
1000
0000
0000
1000
0001
0000
0010
0000
0001
0000
0000
0001
,
0100
0000
0010
0000
1000
0000
0000
1000
0100
0000
0001
0000
0100
0000
0000
0100
,
0010
0001
0100
0001
0101
0000
0010
1000
,
1010
0000
0010
0100
0001
0000
0000
0001
0010
0000
0100
0000
1000
0000
0000
1000
,
0010
0000
0100
0000
0001
0000
0000
0001
1000
0000
0100
0000
1000
0000
0000
1000
,
0010
0100
0001
0010
0011
0000
1000
0010
,
0100
0001
0100
0001
1000
0000
0100
0000
0110
0000
0000
0000
1001
0000
0000
0000
,
0001
0100
0010
1000
0001
0000
0000
0000
1000
0000
0100
0000
0001
0000
0000
0000
,
0110
0000
1001
0000
0001
0100
1000
0000
,
0110
0000
1001
0000
1000
0010
0001
0000
,
0110
0000
0001
0010
1010
0000
1000
0010
,
0011
0000
1000
0001
0100
0000
0000
0000
1000
0000
0100
0000
0001
0000
0000
0000
,
0110
0000
1001
0000
0000
0100
0000
0000
,
0010
0010
0210
0000
0001
0000
1000
1000
,
0010
0000
0310
0000
0100
0000
0000
0000
0110
0000
0000
0000
1000
0100
1000
0100
,
0010
0001
1000
0001
0000
0000
0000
0000
0000
0000
0000
0000
0000
0000
0000
0000
,
0000
0000
2100
0000
3010
0002
0000
0013
,
1010
0000
0102
0000
0013
2000
0000
3010
,
0011
0000
2100
0000
3010
0002
0000
0013
,
1010
0000
0001
0100
1000
0200
0000
0310
,
1001
0000
0012
0000
0103
2000
0000
3100
,
0101
0000
2010
0000
3100
0002
0000
0103
,
1100
0000
0012
0000
0103
0002
0000
0013
,
0110
0000
0100
1000
0001
0200
0000
0310
,
1001
0000
1200
0000
0000
0320
0000
0000
,
0032
0000
0100
0000
0000
0100
0000
0000
,
1000
0013
0100
0000
,
0100
0000
1000
0010
0100
0001
0000
0000
,
0001
0000
1000
0010
0001
1000
0100
0001
,
1000
0100
0001
1000
0010
0001
0100
0001
,
0010
1000
0001
0100
1000
0001
0100
1000
,
0001
0010
1000
0100
0010
0001
0100
0010
,
1000
0001
0010
0010
0010
0010
0010
0010
,
0100
0000
0010
0100
0010
0000
0000
0000
0000
0000
0000
0000
0000
0000
0000
0000
,
0000
0000
0000
0000
1001
0000
0001
0000
0100
0000
0010
0000
1000
0000
0100
0010
,
0000
0001
0010
0000
0100
0000
1000
0000
0001
0000
0100
0000
0010
0000
1000
0100
,
0010
0001
0010
0001
1000
0000
0001
0000
0100
0000
0010
0000
1000
0000
0100
1000
,
0000
0001
0100
0000
0010
0000
1000
0000
0001
0000
0010
0000
0001
0000
0100
0001
,
1000
0010
1000
0010
0100
0000
0001
0000
1000
0000
0001
0000
0010
0000
0100
1000
,
0000
0100
0010
0000
0001
0000
1000
0000
0010
0000
0100
0000
0001
0000
0100
0010
,
1000
0001
1000
0001
0010
0000
0100
0000
1100
0000
0000
0000
0010
0000
0100
0000
,
0101
0000
0000
0000
0001
0010
0001
0000
0010
0100
0010
0000
0100
1000
0100
1000
,
0001
0100
0001
0100
0010
0000
1000
0010
1000
0000
0001
0000
1000
0001
1000
0000
,
0100
0000
1000
0100
1000
0000
0001
0000
1000
0001
1000
0000
0100
0000
0100
0000
,
0001
0000
1000
0000
0010
0000
0001
0010
0001
0000
1000
0000
0001
1000
0001
0000
,
0100
0000
0001
0100
0001
0000
1000
0000
0001
1000
0001
0000
0100
0000
0100
0000
,
0010
1000
0001
0100
0010
0000
1000
0010
1000
0000
0100
0000
1000
0100
1000
0000
,
0001
0000
0010
0001
0010
0000
0001
0000
0100
0001
0100
0000
0010
0000
0001
0000
,
0010
1000
0010
1000
0001
0000
0000
0000
0010
0000
0000
0000
0100
0000
0100
0000
,
1000
0000
0000
0000
0001
0100
0001
0000
1000
0010
1000
0000
0001
0010
0001
0010
,
0100
1000
0100
1000
0000
0000
0000
0000
1001
0000
0001
0000
0100
0000
1000
0000
,
0100
0000
0010
1000
0010
0000
0100
0010
0100
0000
0001
0100
0001
0000
0010
0000
,
1000
1000
0001
0100
1000
0100
0010
0001
,
1000
0000
0010
0100
0010
0000
0100
0001
0100
0000
0001
0010
0001
0000
1000
0010
,
1000
0010
0100
0001
0000
0000
0000
0000
1001
0000
1000
0000
0100
0000
0001
0000
,
1000
0000
0010
0100
0010
0000
0001
0010
0001
0000
1000
0001
1000
0000
0010
0000
,
0001
0010
0200
0000
1000
0000
0000
0000
,
1000
0000
0302
0000
0010
0000
2003
0010
,
3010
0000
1000
0100
0010
0000
0010
0000
0010
0000
0010
0000
0010
0000
0010
0000
,
0010
0010
0010
0010
0010
0010
0010
0010
,
0010
0010
0001
0001
0001
0001
0001
0001
,
0001
0000
0001
0000
1000
0100
1000
0100
0010
0001
0010
0001
0100
0010
0100
0010
,
1000
0001
1000
0001
0020
0000
0000
0030
0000
0000
0220
0000
0000
0330
0000
0000
,
2002
0000
0000
3003
,
1000
0100
0010
0001
0200
0000
0000
0300
0000
0000
0220
0000
0000
0330
0000
0000
,
2002
0000
0000
0000
,
0000
0000
0000
0000
,
0000
0000
0000
0000
3003
0000
0110
0110
,
1001
0000
0000
0000
;

//--------------- dance-double - forcednature ----------------
#NOTEDATA:;
#STEPSTYPE:dance-double;
#DESCRIPTION:forcednature;
#DIFFICULTY:Easy;
#METER:10;
#RADARVALUES:0,0,0,0,0;
#CREDIT:forcednature;
#NOTES:
00000000
00000000
00000000
00000000
,
00000000
00000000
00000000
00000000
,
00000000
00000000
00000000
00000000
,
00000000
00000000
00000000
00000000
,
00000000
00000000
00000000
00000000
,
00000000
00000000
00000000
00000000
,
00000000
00001000
00000000
00001000
00000000
00010000
00000000
00010000
,
00000000
00001000
00000000
00001000
00000000
00000000
00000000
00000000
,
00100000
00010000
00100000
01000000
,
10000000
00010000
10010000
00000000
,
01100000
00000000
00000000
00000000
,
00000000
00000000
00000000
00000000
,
00001000
00000000
00000000
00000000
,
00010000
00000000
00000000
00000000
,
00000100
00000000
00000000
00000000
,
00001000
00000000
00000000
00000000
,
00000001
00000000
00000000
00000000
,
00000100
00000000
00000000
00000000
,
00000020
00000000
00000000
00000000
,
00000000
00000030
00000000
00000000
00001001
00000000
00000000
00000000
00001000
00000000
00000000
00000000
00000100
00000000
00000000
00000000
,
00010000
00001000
00010000
00000000
00001000
00000000
01000000
00000000
,
00010000
10000000
00010000
00000000
00100000
00000000
01000000
00000000
,
10000000
00100000
10000000
00000000
01000000
00000000
00010000
00000000
,
00001000
00100000
00001000
00000000
00010000
00000000
00000010
00000000
,
00001000
00000100
00001000
00000000
00000001
00000000
00000100
00000000
,
00000010
00001000
00000010
00000000
00010000
00000000
00001000
00000000
,
00100000
00010000
00100000
00000000
01000000
00000000
10000000
00000000
,
00010000
00010000
00010000
00000000
01000000
00001000
00000000
00010000
,
00001000
00000000
00100000
00000000
00001000
00010000
00000000
00000100
,
00010000
00000000
00001000
00000000
00000010
00000100
00000000
00000010
,
00000001
00001000
00001010
00000001
,
00000011
00000000
00000001
00000000
00000100
00000010
00000000
00000100
,
00000001
00000000
00001001
00000000
00000000
00000110
00000000
00000000
,
00001001
00002000
00000100
00000001
,
00003010
00000000
00001000
00000000
00000100
00000000
00010000
00001000
,
00010000
00001000
00000000
00000000
00000000
00000000
00000000
00000000
,
00000000
00000000
01000000
00000000
00010000
00000000
00000000
00100000
,
00010000
00000000
01000000
00000000
00010000
00000000
00000000
00100000
,
00010000
00000000
01000000
00000000
00010000
00000000
00000000
00100000
,
00010000
00001000
00000100
00010000
,
00000010
00000000
00001000
00000000
00000100
00000000
00000000
00001000
,
00000010
00000000
00001000
00000000
00000100
00000000
00000000
00001000
,
00000010
00000000
00001000
00000000
00000100
00000000
00000000
00001000
,
00000010
00010000
00001000
01000000
,
00010000
00000000
20010000
00000000
00000000
32000000
00000000
00000000
,
03020000
00000000
00000000
00000000
,
00030000
00001000
00000010
00000000
,
00000010
00000001
00000100
00000000
,
00000100
00001000
00010000
00100000
,
00010000
00001000
01000000
00010000
,
01000000
00001000
00010000
01000000
,
00010000
00001000
00100000
00010000
,
00100000
00000000
00010000
10000000
00010000
10000000
00010000
10000000
,
00010000
00000000
00000000
00000000
,
00000000
01100000
10000000
00010000
,
00100000
01000000
10000000
00000000
01000000
00000000
00010000
00000000
,
00001000
00100000
00010000
00000000
01000000
00000000
00001000
00000000
,
00010000
00000010
00001000
00000000
00000001
00000000
00000010
00000100
,
00001000
00000001
00000100
00000000
00000010
00000000
00010000
00000000
,
00001000
01000000
00010000
00000000
00100000
00000000
01000000
00000000
,
10000000
00010000
01000000
00000000
00001000
00000000
00010000
00000000
,
00000010
00001000
00000001
00000000
00001000
00000100
00001000
00000000
,
00000001
00000100
00000001
00000000
00000010
00000100
00000000
00001000
,
00000100
00000000
00010000
00001000
00000000
00100000
00010000
00000000
,
10000000
00000000
00100000
00000000
01000000
00010000
00000000
01000000
,
00001000
00000000
00010000
00000010
00000000
00001000
00000010
00000000
,
00000100
00000000
00000001
00000000
00000010
00000100
00000000
00001000
,
00000100
00000000
00010000
00001000
00000000
01000000
00010000
00000000
,
10000000
00000000
01000000
00000000
00100000
01000000
00100000
00000000
,
00001000
00000000
00010000
00001000
00010000
00001000
00010000
00001000
,
00010000
00001000
00000000
00000000
00011000
00000000
00010000
00000000
,
00000100
00001000
00000000
00000001
00000100
00000000
00000001
00000000
,
00000010
00000100
00000010
00000000
00000100
00000000
00010000
00000000
,
00001000
00100000
00001000
00000000
00010000
00100000
00000000
01000000
,
00100000
00000000
01100000
01000000
,
00010000
10000000
00000000
00010000
00100000
00000000
01000000
00000000
,
10000000
00010000
20000000
00000000
00000000
00000000
00000000
00000000
,
00000000
32000000
00000000
03020000
,
00000000
00000000
00031000
00010000
00001000
00010000
00001000
00010000
,
00001000
00010000
00001000
00010000
00001000
00010000
00001000
00010000
,
00001000
00010000
00000100
00001000
00000100
00001000
00000100
00001000
,
00000100
00001000
00000001
00000010
00000001
00000010
00000001
00000010
,
00000001
00000010
00000002
00000000
00000000
00000203
00000000
00000000
,
00002300
00000000
00000000
00000000
,
00013000
00001000
00020000
00000000
00000000
02030000
00000000
00000000
,
23000000
00000000
00000000
00000000
,
00000000
00100000
00010000
01000000
,
00010000
00000000
00100000
00000000
00010000
00000000
31000000
00010000
,
00001000
00000000
00000000
00000000
;

//--------------- dance-double - forcednature ----------------
#NOTEDATA:;
#STEPSTYPE:dance-double;
#DESCRIPTION:forcednature;
#DIFFICULTY:Medium;
#METER:13;
#RADARVALUES:0,0,0,0,0;
#CREDIT:forcednature;
#NOTES:
00000000
00000000
00000000
00000000
,
00000000
00000000
00000000
00000000
,
00000000
00000000
00000000
00000000
,
00000000
00000000
00000000
00000000
,
00000000
00000000
00000000
00000000
,
00000000
00000000
00000000
00000000
,
00000000
00010000
00000000
00000100
00000000
00010000
00000000
00001000
,
00000000
01000000
00000000
00001000
00000000
00000000
00000000
00000000
,
00010000
00000010
00010000
00000000
00001000
00000000
00000010
00000100
,
00000010
00000000
00000000
00000010
00000000
00000000
00000001
00000000
00001000
00000000
00000001
00000000
00000100
00000000
00000000
00000000
,
00000120
00000000
00000000
00000000
,
00000000
00000000
00000000
00000000
,
00020030
00000000
00000000
00000000
,
00032000
00000000
00000000
00000000
,
00203000
00000000
00000000
00000000
,
00320000
00000000
00000000
00000000
,
20030000
00000000
00000000
00000000
,
30200000
00000000
00000000
00000000
,
02000000
00000000
00000000
00000000
,
00000000
03300000
00000000
00000000
10100000
00000000
00000000
00000000
10000000
00000000
01000000
00000000
00010000
00000000
00000000
00000000
,
00001000
00000000
00100000
00000000
00001000
00010000
00000010
00000000
,
00001000
00000000
00000100
00000000
00000001
00000100
00001000
00000000
,
00000010
00000000
00010000
00000000
00001000
00000010
00000001
00000000
,
00000100
00000000
00000110
00000000
00000010
00010000
00001000
00000000
,
00000010
00000000
00000100
00000000
00010000
00001000
01000000
00000000
,
00100000
00000000
00010000
00100000
10000000
00000000
00100000
10000000
,
01000000
00000000
10000000
01000000
00010000
00000000
00011000
00000000
,
00001000
00000010
00000001
00000000
00000100
00000001
00000010
00000000
,
00000110
00000000
00001100
00000000
00001000
00000010
00010000
00000000
,
00011000
00000000
00101000
00000000
00100000
01000000
00010000
00000000
,
00011000
00000000
00001000
00000010
00001000
00000000
00010000
00100000
,
00010000
00000000
00011000
00000000
00001000
01000000
00010000
00000000
,
10000000
00000000
11000000
00000000
00000000
00110000
00000000
00000000
,
00001000
00021000
00000100
00001000
,
00030010
00000000
00010000
00000100
00010000
00001000
01000000
00001000
,
00010000
00100000
00000000
00000000
00000000
00000000
00000000
00000000
,
00000000
00000000
10000000
00000000
01000000
00010000
00000000
00001000
,
00000010
00000000
00000001
00000000
00000100
00001000
00000000
00010000
,
00100000
00000000
10000000
00000000
01000000
00010000
00000000
00001000
,
00000010
00000000
00000001
00000100
00000010
00000100
00000000
00000010
,
00001000
00000000
00000001
00000000
00000100
00001000
00000000
00010000
,
00100000
00000000
10000000
00000000
01000000
00010000
00000000
00001000
,
00000010
00000000
00000001
00000000
00000010
00001000
00000000
00010000
,
01000000
00000000
10000000
00010000
10000000
00100000
00000000
01000000
,
00010000
00000000
20010000
00000000
00000000
32000000
00000000
00000000
,
03020000
00000000
00000100
00000000
00000000
00001000
00000000
00000000
,
00030010
00000000
00011000
00000000
00001000
00000000
01000000
00010000
,
10000000
00000000
01000000
00000000
00010000
00000000
00001000
00100000
,
00010000
00000000
01000000
00001000
00010000
00000100
00010000
00001000
,
00100000
00001000
00010000
00000010
00010000
00001000
00000010
00000100
,
00001000
00000010
00000100
00000001
00000010
00000100
00010000
00001000
,
00100000
01000000
10000000
00010000
01000000
00001000
00010000
00001000
,
00100000
00010000
01000000
01000000
01000000
01000000
01000000
01000000
,
00100000
10010000
00000000
00000000
,
00000000
00000000
10000000
01000000
00010000
00001000
00100000
00010000
,
01000000
00100000
10000000
00000000
00010000
01000000
00001000
00010000
,
00000010
00000000
00001000
00000100
00000001
00000100
00001000
00000010
,
00010000
00001000
00000010
00000000
00000001
00000100
00000010
00001000
,
00000001
00000000
00000010
00000100
00010000
00000010
00000100
00001000
,
00010000
01000000
00100000
00000000
00001000
00010000
00100000
10000000
,
00010000
00000000
10000000
01000000
00010000
00001000
01000000
00010000
,
00100000
00000000
00001000
00010000
00100000
00010000
00001000
00000010
,
00001000
00000000
00010000
00000100
00001000
00000010
00010000
00001000
,
00000010
00000100
00001000
00000001
00000100
00000010
00010000
00001000
,
00100000
00000000
00001000
00010000
00100000
01000000
00010000
10000000
,
01000000
00010000
00001000
01000000
00010000
00100000
00001000
00010000
,
00100000
00000000
01000000
10000000
01000000
00010000
00100000
00010000
,
01000000
00001000
00010000
00000010
00010000
00001000
00000010
00000100
,
00001000
00000000
00001001
00000000
00000001
00000100
00001000
00000000
,
00011000
00000000
00010000
01000000
00100000
01000000
10000000
00010000
,
00100000
00010000
00100000
00010000
00000000
00000000
00000000
00000000
10000000
00000000
00100000
00000000
00010000
00000000
00001000
00000000
,
00100000
00010000
01000000
00001000
00010000
00000100
00001000
00000010
,
00010000
00001000
00000010
00000100
00001000
00000001
00000100
00000010
,
00010000
00001000
00000010
00000100
00001000
00000001
00000100
00001000
,
00010000
00001000
00010000
00001000
00000000
00000000
00000000
00000000
01000000
00000000
00010000
00000000
00100000
00000000
01000000
00000000
,
00010000
00001000
00000010
00000100
00010000
00000010
00001000
00000001
,
00000010
00001000
00020000
00000000
00000100
00000000
00000000
00000000
,
00000100
00032000
01000000
00023000
,
00000010
00000000
00031000
00100000
01000000
00010000
00001000
00100000
,
01000000
00010000
00001000
00100000
01000000
00010000
00001000
00100000
,
01000000
00010000
00001000
00000010
00000100
00010000
00001000
00000010
,
00000100
00010000
00001000
00000100
00000001
00000100
00001000
00010000
,
01000000
10000000
10100000
00000000
00000000
01001000
00000000
00000000
,
00020020
00000000
00000000
00030030
,
00000001
00001000
00000001
00001000
00000001
00000000
00000000
00000000
00000000
00000000
00010100
00000000
00000000
00000000
00000000
00000000
,
00202000
00000000
00000000
00003000
,
00000000
01000000
00010000
00001000
,
00010000
00000000
01000000
00000000
00010000
00000000
00301000
00010000
,
00011000
00000000
00000000
00000000
;

//--------------- dance-double - forcednature ----------------
#NOTEDATA:;
#STEPSTYPE:dance-double;
#DESCRIPTION:forcednature;
#DIFFICULTY:Hard;
#METER:16;
#RADARVALUES:0,0,0,0,0;
#CREDIT:forcednature;
#NOTES:
00000000
00000000
00000000
00000000
,
00000000
00000000
00000000
00000000
,
00000000
00000000
00000000
00000000
,
00000000
00000000
00000000
00000000
,
00000000
00000000
00000000
00000000
,
00000000
00000000
00000000
00000000
,
00000000
00001000
00000000
00010000
00000000
00100000
00000000
00010000
,
00000000
00001000
00000000
00100000
00000000
00000000
00000000
00000000
,
01000000
00010000
00002000
00000000
00003020
00000000
00001030
00010000
,
00000100
00000000
00000000
00000110
00000000
00000000
00000010
00000000
00000001
00000000
00000100
00000000
00000010
00001000
00000010
00010000
,
00001000
00200000
00320000
20030000
,
30200000
00000000
00000000
00000000
,
00300000
00020000
00032000
00003200
,
00000320
00000000
00002030
00003002
,
00000023
00000000
00000000
00002030
,
00013000
02000000
00000000
00000000
00000000
00000000
03000000
00000000
,
00200000
00000000
00000000
00000000
00300000
00000000
00001000
00010000
,
00200000
00000000
00000000
00300000
,
02000000
00000000
00000000
00000000
,
00000000
03000000
00000000
00000000
10010000
00000000
00000000
10000000
01000000
00000000
00100000
00000000
00001000
00000000
00000000
00001000
,
00010000
00000000
00000010
00000000
00001000
00000000
00000000
00000100
00000010
00000000
00000100
00000000
00001000
00000000
00000000
00001000
,
00000001
00000000
00000100
00000000
00000010
00000000
00000000
00010000
00001000
00000000
00100000
00000000
00010000
00000000
00000000
00010000
,
10000000
00000000
00100000
00000000
01000000
00000000
00010000
01000000
00001000
00000000
00010000
00000000
00000100
00000000
00001000
00000010
,
00001000
00000000
00000001
00000100
00000001
00000000
00000000
00000010
00000100
00000000
00001000
00000000
00000010
00000000
00000000
00000010
,
00010000
00000000
00001000
00000000
00100000
00000000
00000000
00010000
01000000
00000000
00100000
00000000
10000000
00000000
00000000
10000000
,
01000000
00000000
00010000
00000000
00001000
00100000
00010000
00100000
00001000
00000000
00000000
00000000
00010000
00000010
00001000
00000010
,
00010000
00001000
00010000
00001000
01000000
00000000
00010000
00000000
00110000
00000000
00000000
00000000
11000000
00000000
00000000
00000000
,
10000000
00100000
10000000
00100000
01000000
00000000
10000000
00000000
01000000
00000000
00010000
00000000
00100000
00000000
01000000
00000000
,
00010000
00000000
00001000
00000010
00000100
00010000
00000010
00001000
,
00000001
00000000
00000100
00001000
00010000
01000000
00100000
00001000
,
00010000
00000000
00100000
10000000
11000000
00000000
00100000
00010000
,
01010000
00000000
00001000
00010000
00000100
00010000
00001000
00000010
,
00000001
00000000
00001001
00000000
00000000
00011000
00000000
00000000
,
10010000
00000000
12000000
00000000
00100000
00000000
03010000
01000000
,
00010000
00000000
00001000
00000000
00200000
00000000
00000000
00000000
01000000
00000000
00000000
00000000
00310000
00100000
00001000
00010000
,
00000100
00001000
00000100
00000010
00000000
00000000
00000000
00000000
00000000
00000000
00000000
00000000
00000000
00000000
00000000
00000000
,
00000000
00000000
00000001
00000100
00001000
00010000
00000000
01000000
,
01100000
00000000
10000000
01000000
00010000
00001000
00000000
00000100
,
00000110
00000000
00000001
00000100
00001000
00010000
00000000
01000000
,
01100000
00000000
10000000
00100000
00010000
00001000
00010000
00100000
,
10000000
00000000
10000000
01000000
00010000
00001000
00000000
00000010
,
00000110
00000000
00000001
00000100
00001000
00010000
00000000
00100000
,
01100000
00000000
10000000
00100000
00010000
00001000
00000000
00000100
,
00000110
00000000
00000001
00000010
00001000
00000020
00000000
00000130
,
00010000
00001000
00200000
00000000
00000000
02300000
00000000
00000000
,
03020000
00000000
00000100
00000000
,
00031000
00000000
00011000
00000000
00010000
00100000
01000000
00100000
,
00010000
00000000
00001000
00100000
01000000
00010000
00001000
00000000
,
00000110
00000000
00000001
00000100
00001000
00010000
01000000
10000000
,
00100000
10000000
01000000
00010000
00001000
00000100
00000001
00000010
,
00001000
00000010
00000001
00000100
00001000
00010000
01000000
10000000
,
00100000
00010000
00100000
10000000
01000000
00010000
00001000
00000100
,
00000001
00000010
00001000
00010000
00001000
00010000
00001000
00010000
,
00001000
00010000
00000100
00001000
00000100
00000000
00000000
00000000
00000000
00000000
00000000
00000000
00000000
00000000
00000000
00000000
,
00000000
00000000
00000000
00000000
00000010
00000001
00000010
00000000
00000100
00000000
00001000
00000000
00000100
00000000
00010000
00001000
,
00000000
01000000
00001000
00000000
00010000
00000000
00100000
00000000
01000000
00000000
00100000
00000000
10000000
00000000
00010000
00100000
,
01000000
00100000
00010000
00100000
01000000
00000000
10000000
00000000
00010000
00000000
01000000
00000000
00001000
00000000
00010000
00000010
,
00000000
00010000
00001000
00000000
00000010
00000000
00000100
00000000
00001000
00000000
00000001
00000000
00000100
00000000
00000010
00001000
,
00000010
00010000
00001000
00010000
00000100
00000000
00001000
00000000
00000001
00000000
00000100
00000000
00001000
00000000
00010000
00001000
,
00000000
00100000
00001000
00000000
00010000
00000000
00100000
00000000
01000000
00000000
00001000
00000000
00010000
00000000
00000100
00001000
,
00000100
00000010
00000100
00001000
00000100
00000000
00000010
00000000
00000001
00000000
00001000
00000000
00000010
00000000
00000100
00001000
,
00000000
00010000
00001000
00000000
01000000
00010000
01000000
00010000
10000000
00010000
10000000
00010000
00100000
01000000
00100000
01000000
,
10000000
01000000
10000000
01000000
00100000
00000000
00001000
00000000
00010000
00000000
00100000
00000000
00010000
00000000
00001000
00000000
,
00000010
00001000
00010000
00000010
00010000
00001000
00000010
00000001
,
00000100
00000000
00000010
00001000
00000001
00000000
00000010
00000000
00001000
00000000
00010000
00000000
00001000
00000000
00000100
00000000
,
00000010
00010000
00001000
00100000
01000000
00010000
00001000
01000000
,
00010000
01000000
00100000
01000000
00010000
00000000
10000000
00000000
01000000
00000000
00010000
00000000
00001000
00000000
01000000
00000000
,
00100000
00010000
00001000
00000010
00000100
00010000
00000010
00001000
,
00000001
00000010
00000100
00001000
00000001
00000000
00000000
00000000
00000100
00000000
00001000
00000000
00010000
00001000
00010000
00001000
,
00010000
00000000
00100000
00000000
10000000
01000000
10000000
01000000
00100000
01000000
00100000
01000000
10000000
00010000
00100000
00010000
,
10000000
00010000
00100000
00010000
00000000
00000000
00000000
00000000
01000000
00000000
00001000
00000000
00010000
00000000
01000000
00000000
,
00100000
00001000
00000010
00000100
00010000
00000010
00001000
00000001
,
00000010
00001000
00010000
01000000
00100000
00001000
00010000
00100000
,
10000000
00010000
00100000
01000000
00010000
00000100
00010000
00001000
,
00010000
00000010
00001000
00000010
00000000
00000000
00000000
00000000
00000100
00000000
00001000
00000000
01000000
00000000
00010000
00000000
,
00100000
01000000
00010000
00001000
00000010
00000100
00010000
00000010
,
00001000
00000001
00000021
00000000
00000100
00000000
00000000
00000000
,
00000130
00000000
00001200
00000000
00010300
00000000
00001000
01000000
,
00010000
00000000
01000000
00000000
00001000
00010000
00001000
00010000
00001000
00010000
00001000
00010000
00001000
00010000
00001000
00010000
,
00001000
00010000
00001000
00010000
00001000
00010000
00001000
00010000
00001000
00010000
00001000
00010000
00001000
00010000
00001000
00010000
,
00001000
00010000
00001000
00010000
00000100
00001000
00000100
00001000
00000100
00001000
00000100
00001000
00000100
00001000
00000100
00001000
,
00000100
00001000
00000100
00001000
00000001
00000010
00000001
00000010
00000001
00000010
00000001
00000010
00000001
00000010
00000001
00000010
,
00000001
00000010
00000001
00000010
00001000
00000000
00000000
00000000
00000000
00000000
00011000
00000000
00000000
00000000
00000000
00000000
,
01002000
00000000
00000000
00000000
,
00103000
00010000
00100000
00001000
00010000
00000000
00000000
00000000
00000000
00000000
00011000
00000000
00000000
00000000
00000000
00000000
,
00010020
00000000
00000000
00000000
,
00000000
00000001
00000100
00001000
,
00000100
00000000
00000001
00000000
00000100
00000000
00001030
00010000
,
00011000
00000000
00000000
00000000
;
