#VERSION:0.83;
#TITLE:ギョギョっと人魚♨爆婚ブライダル;
#SUBTITLE:;
#ARTIST:海の底からマーメイド♨Prim by ARM×狐夢想;
#TITLETRANSLIT:Gyogyotto ningyo bakkon bridal;
#SUBTITLETRANSLIT:;
#ARTISTTRANSLIT:Prim by ARMxKomso;
#GENRE:Hi-RESORT電波;
#CREDIT:;
#MUSIC:Gyogyotto ningyo bakkon bridal.ogg;
#BANNER:Gyogyotto ningyo bakkon bridal.png;
#BACKGROUND:Gyogyotto ningyo bakkon bridal-bg.png;
#CDTITLE:./CDTitles/bm IIDX 23 copula.png;
#SAMPLESTART:65.366;
#SAMPLELENGTH:15.000;
#SELECTABLE:YES;
#OFFSET:2.075;
#BPMS:0.000=84.500
,9.000=169.000
,283.000=84.500
,296.000=169.000
;
#STOPS:9.000=0.710
,283.000=0.710
;
#TIMESIGNATURES:0.000=4=4,
8.000=3=4,
11.000=4=4,
283.000=1=4,
284.000=4=4
;
#BGCHANGES:3.000=Gyogyotto ningyo bakkon bridal.mp4=1.000=0=0=0=StretchNoLoop====,
99999.000=-nosongbg-=1.000=0=0=0=StretchNoLoop====
;
#FGCHANGES:;

//--------------- dance-single - forcednature ----------------
#NOTEDATA:;
#STEPSTYPE:dance-single;
#DESCRIPTION:forcednature;
#CREDIT:forcednature;
#DIFFICULTY:Beginner;
#METER:1;
#RADARVALUES:0,0,0,0,0;
#NOTES:
0000
0000
0000
0000
,
0000
0000
0000
0000
,
0000
0000
0000
1000
,
0000
0000
0000
0000
,
0000
0000
0000
0000
,
0000
0000
0000
0000
,
0000
0000
0000
0001
,
0000
0000
0000
0000
,
0000
0000
0000
0100
,
0000
0000
0000
0000
,
0000
0000
0000
0010
,
0000
0000
0000
0000
,
0000
0000
0000
1000
,
0000
0000
0000
0000
,
0000
0000
0000
0001
,
0000
0000
0000
0000
,
0000
0000
0000
0010
,
0000
0000
0000
0000
,
0000
0000
0000
0100
,
0000
0000
0000
0000
,
0000
0000
0000
1000
,
0000
0000
0000
0000
,
0000
0000
0000
0001
,
0000
0000
0000
0000
,
0000
0000
0000
0100
,
0000
0000
0000
0000
,
0000
0000
0000
0010
,
0000
0000
0000
0000
,
0000
0000
0000
1000
,
0000
0000
0000
0000
,
0000
0000
0000
0001
,
0000
0000
0000
0000
,
0000
0000
0000
0010
,
0000
0000
0000
0000
,
0000
0000
0000
0100
,
0000
0000
0000
0000
,
0000
0000
0000
1000
,
0000
0000
0000
0000
,
0000
0000
0000
0001
,
0000
0000
0000
0000
,
0000
0000
0000
0100
,
0000
0000
0000
0000
,
0000
0000
0000
0010
,
0000
0000
0000
0000
,
0000
0000
0000
1001
,
0000
0000
0000
0000
,
0000
0000
0000
1000
,
0000
0000
0000
0000
,
0000
0000
0000
0100
,
0000
0000
0000
0000
,
0000
0000
0000
0010
,
0000
0000
0000
0000
,
0000
0000
0000
0001
,
0000
0000
0000
0000
,
0000
0000
0000
0100
,
0000
0000
0000
0000
,
0000
0000
0000
0010
,
0000
0000
0000
0000
,
0000
0000
0000
1000
,
0000
0000
0000
0000
,
0000
0000
0000
0001
,
0000
0000
0000
0000
,
0000
0000
0000
1001
,
0000
0000
0000
0000
,
0000
0000
0000
1000
,
0000
0000
0000
0000
,
0000
0000
0000
0100
,
0000
0000
0000
0000
,
0000
0000
0000
0010
,
0000
0000
0000
0000
,
0000
0000
0000
0000
,
0001
0000
0000
0000
,
0000
0000
0000
0000
,
0100
0000
0000
0000
,
0000
0000
0000
0000
,
0000
0000
1001
0000
;

//--------------- dance-single - forcednature ----------------
#NOTEDATA:;
#STEPSTYPE:dance-single;
#DESCRIPTION:forcednature;
#CREDIT:forcednature;
#DIFFICULTY:Easy;
#METER:5;
#RADARVALUES:0,0,0,0,0;
#NOTES:
0000
0000
0000
0000
,
0000
0000
0000
0000
,
0000
0000
0000
2002
,
0000
0000
0000
0000
,
0000
0000
0000
0000
,
0000
0000
0000
0000
,
0000
3003
0000
0220
,
0000
0000
0000
0000
,
0000
0330
0000
0001
,
0001
1000
1000
0020
,
0000
0200
0330
0001
,
0000
0000
0001
0100
,
0000
0000
0100
0010
,
0000
0000
0010
1000
,
0000
0001
0000
1000
,
0000
0000
1000
0100
,
0000
0000
0100
0010
,
0000
0010
0000
0000
,
0000
2002
3003
0001
,
0000
0100
0000
0002
,
0000
0003
0000
1000
,
0000
0100
0000
2000
,
0000
3000
0000
0010
,
0000
0100
0000
0020
,
0000
0030
0000
1000
,
0000
0001
0000
2000
,
0000
3000
0000
0100
,
0000
0010
0000
0100
,
0010
0100
0000
1000
,
0000
0001
0000
1000
,
0001
1000
0000
0010
,
0000
0100
0000
0010
,
0100
0010
0000
0001
,
0000
1000
0000
0001
,
1000
0001
0000
2000
,
0000
0000
0000
3200
,
0000
0000
0000
0320
,
0000
0000
0000
0032
,
0000
0003
0000
1000
,
0000
0010
0000
0100
,
0000
0001
0000
2002
,
0000
3003
0000
0220
,
0000
0330
0000
1000
,
0000
0001
0000
0100
,
0100
0010
0010
0110
,
0000
0001
0000
1000
,
0001
1000
0000
0100
,
0010
0100
0000
1000
,
1000
1000
0000
0001
,
0000
0100
0001
0100
,
0000
0001
1000
0001
,
0000
0010
0000
0100
,
0100
0100
0000
1000
,
0001
1000
0000
0010
,
0100
0010
0000
1000
,
0001
1000
0000
0100
,
0100
0100
0000
0020
,
0000
0032
0000
2003
,
0000
3020
0000
0230
,
0000
0000
0000
0300
,
0000
0000
0000
0001
,
0001
1000
1000
2002
,
0000
0000
3003
0000
,
1000
0100
1000
0000
,
0001
0100
0001
0000
,
0010
0100
0010
0000
,
0001
0001
1000
0000
,
0010
0100
0001
0000
,
0100
0010
0000
1000
,
0000
1000
1000
0001
,
0000
0000
0000
0000
0001
0000
0000
0000
0001
0000
0000
0000
2002
3003
0000
0000
,
2000
3000
0002
0003
,
0200
0000
0000
0000
0000
0000
0000
0000
0000
0000
0000
0300
0000
0000
0000
0000
,
0002
0000
2003
0000
3020
0000
0000
0030
,
1000
0000
0001
0000
,
0100
0100
0010
2002
,
0000
0000
0000
3003
;

//--------------- dance-single - forcednature ----------------
#NOTEDATA:;
#STEPSTYPE:dance-single;
#DESCRIPTION:forcednature;
#CREDIT:forcednature;
#DIFFICULTY:Medium;
#METER:8;
#RADARVALUES:0,0,0,0,0;
#NOTES:
0000
0000
0000
0000
,
0000
0000
0000
0000
,
0000
0000
0000
2002
,
0000
0000
0000
0000
,
0000
0000
0000
0000
,
0000
0000
0000
0000
,
0000
0000
3003
0220
,
0000
0000
0000
0000
,
0000
0000
0330
0001
,
0001
1000
1000
2002
,
3003
0220
0330
1000
,
0100
0010
0110
0001
,
0100
0010
0110
1000
,
0001
0010
0110
0001
,
0001
1000
0001
0000
1000
0000
0010
0000
,
0100
0001
1001
0010
,
0100
1000
1001
0001
,
0010
0000
0000
1000
0000
0000
0010
0000
0000
0000
2002
0000
,
0000
3003
0000
2000
,
3020
0230
0302
0203
,
0320
2030
3000
0002
,
0023
0230
2300
3200
,
0320
0032
0003
0200
,
0320
2030
3002
0023
,
0230
2300
3000
0020
,
0230
0302
2003
3200
,
0320
0032
0003
1000
,
1010
0001
0011
0100
,
0110
0010
0000
1000
,
1001
0001
1001
0010
,
0110
1001
0000
1000
,
1100
0001
0101
0010
,
0110
1001
0000
1000
,
1001
0000
0000
0000
0001
0000
0000
0000
1001
0000
0000
0000
0010
0000
0000
0010
,
0000
0010
0200
0000
0300
0000
1000
0001
,
0000
0000
0000
0000
0000
0000
0001
1000
,
0000
0000
0000
0000
0000
0000
0010
0100
,
0000
0000
0000
0100
,
0010
0110
0000
2000
,
3200
2300
3020
0230
,
0302
0023
0030
2002
,
0000
3003
0000
0220
,
0000
0330
0000
1001
,
0000
0110
0000
2000
,
3200
0320
0032
0103
,
0010
1000
0010
0000
0100
0000
0001
0000
,
0010
0100
0010
0000
0001
0000
1000
0000
,
0100
0010
0100
0000
1000
0000
0010
0000
,
0110
1001
0000
1000
,
0100
1000
0100
0000
0010
0000
0001
0000
,
0100
0001
0100
0000
0010
0000
1000
0000
,
1000
0001
0000
0001
1000
0000
0010
0000
,
0100
0110
0000
0001
,
0010
0100
0010
0000
0001
0000
1000
0000
,
0010
0100
0010
0000
1000
0000
0100
0000
,
0010
0001
0010
0000
0100
0000
1000
0000
,
0001
1001
0000
2010
,
3001
0012
1003
2100
,
3001
0102
1003
2002
,
0000
0000
0000
3003
,
0000
0000
0000
0000
0000
0000
0000
0000
0000
0000
0000
0000
0100
0000
0000
0100
,
0000
0000
0100
0000
0010
0000
0000
0010
0000
0000
0010
0000
2000
0000
0000
0000
,
0000
0000
3000
1000
,
0001
0100
0110
0001
,
1000
0100
0110
1000
,
0001
0010
0110
0100
,
1000
0001
0100
0010
,
1000
0100
1001
0010
,
0001
0100
1001
1000
,
0000
1000
0000
0000
1000
0000
0001
0000
,
0000
0000
0001
0000
0000
0000
0000
0000
0001
0000
0000
0000
2002
3003
0000
0000
,
0002
0203
0320
2030
,
3200
0000
0000
0000
0000
0000
0000
0000
0000
0000
0000
0300
0000
0000
0000
0000
,
1000
0000
0001
0000
2002
0000
0000
3003
,
1000
1100
0001
0101
,
0010
0100
0110
2002
,
0000
0000
0000
3003
;

//--------------- dance-single - forcednature ----------------
#NOTEDATA:;
#STEPSTYPE:dance-single;
#DESCRIPTION:forcednature;
#CREDIT:forcednature;
#DIFFICULTY:Hard;
#METER:12;
#RADARVALUES:0,0,0,0,0;
#NOTES:
0000
0000
0000
0000
,
0000
0000
0000
0000
,
0000
0000
0000
2002
,
0000
0000
0000
0000
,
0000
0000
0000
0000
,
0000
0000
0000
0000
,
0000
0000
3003
0220
,
0000
0000
0000
0000
,
0000
0000
0000
0000
0000
0000
0000
0000
0330
0000
0000
0000
0001
0000
0000
0100
,
0000
0000
0001
0000
1000
0000
0000
0100
0000
0000
1000
0000
0020
0000
0000
0000
,
0000
0000
0200
0000
0330
0000
0001
0100
,
0001
1000
0010
0000
1010
0000
1000
0100
,
1000
0001
0010
0000
0011
0000
0001
1000
,
0010
0100
0010
0000
0110
0000
0100
0001
,
0010
0100
1000
0010
0100
0000
0010
1000
,
0100
0010
0001
0000
0011
0000
0010
0001
,
0100
0000
0010
0000
1000
0000
0000
0000
1010
0000
0000
0000
0001
0000
0000
0001
,
0000
0000
0000
0000
0000
0000
0001
0000
0000
0000
0000
0000
1000
0000
0000
0000
0000
0000
0000
0000
0000
1000
0000
0000
0000
0000
0000
0000
0000
0000
1000
0000
0000
0000
0000
0000
0000
0000
0000
0000
0010
0000
0000
0000
0100
0000
0000
0000
,
0010
0100
0010
0200
0000
0000
0300
0000
0000
0001
0000
0000
,
0011
1000
1010
0100
,
0110
2002
3003
1000
,
1100
0001
0101
0010
,
0110
1001
0110
1000
,
1010
0001
0011
0100
,
0101
0022
0033
1000
,
1010
0100
1100
0010
,
0110
0000
0000
0000
0000
0000
0000
0000
0000
0000
0000
0000
1000
0000
0000
0000
0001
0000
0000
0000
1000
0000
0000
0000
0001
0000
0000
0000
0000
0000
0000
0000
0000
0000
0000
0000
1000
0000
0000
0000
0000
0000
0000
0000
0000
0001
0000
0000
,
0000
0000
0100
0000
0001
0000
0000
1000
0000
0000
0100
0000
0010
0000
0000
0001
,
0000
0000
1000
0000
0020
0000
0000
0000
0030
0000
0000
0000
0100
0000
0000
0001
,
0000
0000
0010
0000
0100
0000
0000
1000
0000
0000
0010
0000
0100
0000
0000
0000
,
0110
0000
0000
0000
2002
0000
0000
0000
3003
0000
0000
0000
1000
0000
0000
0100
,
0000
0000
1000
0000
0001
0000
0000
0100
0000
0000
0001
0000
0010
0000
0000
0100
,
0000
0000
0010
0000
0220
0000
0000
0000
0330
0000
0000
0000
0001
0000
0000
1000
,
0000
0000
0010
0000
1000
0000
0000
0001
0000
0000
0010
0000
0100
0000
0000
0100
,
0000
0010
0220
0000
0330
0000
0001
1000
,
0000
0000
0000
0000
0000
0000
1000
0001
,
0000
0000
0000
0000
0000
0000
0010
0100
,
0000
0000
0000
0110
,
1001
0220
0330
0002
,
0203
2300
3002
0023
,
2030
3002
0003
1100
,
0000
0000
0000
0010
0010
0000
0101
0000
,
0000
0000
0000
0000
0000
0000
0010
0000
0010
0000
0000
0000
0001
0000
0000
1000
,
0000
0000
0100
0000
1000
0000
0000
0001
0000
0000
0100
0000
0010
0000
0000
0000
,
0101
0000
1100
0000
1001
0000
1000
0001
,
0100
0000
0001
0000
0010
0000
0100
0000
1000
0000
0010
0000
1000
0000
0000
0100
,
0000
0010
0022
0000
0033
0000
0001
0100
,
0010
0100
0001
1000
0010
1000
0100
0000
,
1100
0000
0000
0000
0202
0000
0000
0000
0303
0000
0000
0000
1000
0000
0000
0010
,
0000
0000
0001
0000
0011
0000
0000
0000
1010
0000
0000
0000
0001
0000
0000
0100
,
0000
1000
1100
0000
0101
0000
0001
0010
,
0001
0000
0010
0100
0000
0000
1000
0000
0100
0000
1000
0000
0010
0000
0000
0010
,
0000
0100
0002
0000
2003
0000
3100
0010
,
0100
0000
1000
0000
0001
0000
0100
0000
0010
0000
0100
0000
0001
0000
0000
0010
,
0000
0100
2200
0000
3300
0000
1000
0010
,
0100
0010
1000
0001
0100
0001
0011
0000
,
1010
0000
0000
0000
2002
0000
0000
0000
3003
0000
0000
0000
1000
0000
0000
0100
,
0000
0000
0001
0000
0101
0000
0000
0000
1100
0000
0000
0000
1000
0000
0000
0010
,
0000
0000
0001
0000
0011
0000
0000
0010
0000
0000
1000
0000
0002
0000
0000
0000
,
0010
0000
1000
0103
,
0001
0000
0000
0000
0010
0000
0000
0000
0110
0000
0000
0000
0200
0000
0000
2300
,
0000
0000
3020
0000
0230
0000
0000
0302
0000
0000
0013
0000
0220
0000
0000
0000
,
0000
0000
0000
0000
0330
0000
0100
1000
,
0001
0100
1000
0100
0010
0000
1000
0100
,
0010
0001
0100
0010
0001
0000
0010
1000
,
0100
1000
0001
0100
0010
0000
1000
0001
,
0100
0000
0000
1001
0000
0000
0001
0000
0010
0000
0100
0000
1000
0000
0010
0000
,
0100
0010
1000
0100
0001
0000
0100
0010
,
0001
0000
1000
0000
0010
0000
0001
0000
0010
0000
0000
0000
0100
0000
0000
0001
,
0000
0000
0010
0000
0000
1000
0000
0000
0010
0000
0010
0000
0100
0000
0000
1000
,
0000
0000
0010
0000
0000
0001
0000
0000
0010
0000
0010
0000
2002
3003
0000
0000
,
2000
3200
0320
0032
,
0203
0000
0000
0000
0000
0000
0000
0000
0000
0000
0000
0300
0000
0000
0000
0000
,
0001
0000
0000
1000
0000
0000
0001
0000
1000
0000
0000
0001
0000
0000
1000
0000
0020
0000
0000
0000
0000
0000
0000
0000
0000
0000
0000
0000
0000
0000
0000
0000
,
1030
0100
1000
0100
0000
0000
0010
0001
0010
0001
0000
0000
,
0100
0010
0100
0010
0100
0010
0100
0000
0000
2002
0000
0000
,
0000
0000
0000
3003
;

//--------------- dance-single - forcednature ----------------
#NOTEDATA:;
#STEPSTYPE:dance-single;
#DESCRIPTION:forcednature;
#CREDIT:forcednature;
#DIFFICULTY:Challenge;
#METER:14;
#RADARVALUES:0,0,0,0,0;
#NOTES:
0000
0000
0000
0000
,
0000
0000
0000
0000
,
0000
0000
0000
2002
,
0000
0000
0000
0000
,
0000
0000
0000
0000
,
0000
0000
0000
0000
,
0000
0000
3003
0220
,
0000
0000
0000
0000
,
0000
0000
0000
0000
0000
0000
0000
0000
0330
0000
0000
0000
1000
0000
0000
1010
,
0000
0000
0010
0000
0100
0000
0000
0101
0000
0000
0001
0000
0010
0000
0100
0000
,
0010
0000
0100
0000
1000
0001
1000
0002
0000
0000
0003
0000
0100
0000
0010
0000
,
1000
0000
0001
0100
0000
0100
0000
0001
1000
0000
1000
0000
0100
0000
0010
0000
,
0001
0000
1000
0100
0000
0100
0000
1000
0001
0000
0001
0000
0100
0000
0001
0000
,
1000
0000
0100
0010
0000
0010
0000
0001
0100
0000
0100
0000
0010
0000
1000
0000
,
0001
0010
0000
0210
0000
0000
0310
0000
0100
0000
1000
0000
0010
0000
0100
0000
,
0010
0000
1000
0001
0000
0001
0000
0010
0100
0000
0100
0000
0010
0000
0001
0000
,
0100
0000
0001
1000
0000
1000
0000
0010
0100
0000
0100
0000
0001
0000
0000
0011
,
0000
0000
0000
0000
0000
0000
0010
0000
0000
0000
0000
0000
0100
0000
0000
0000
0000
0000
0000
0000
0000
1100
0000
0000
0000
0000
0000
0000
0000
0000
1000
0000
0000
0000
0000
0000
0000
0000
0000
0000
0001
0000
0000
0000
1000
0000
0000
0000
,
0001
0000
0000
0000
1000
0000
0000
0000
0001
0000
0000
0000
0200
0000
0000
0000
0000
0000
0000
0000
0000
0000
0000
0000
0300
0000
0000
0000
0000
0000
0000
0000
0000
0000
0000
0000
0010
0000
0000
0000
0000
0000
0000
0000
0000
1000
0000
0000
,
0000
0000
0100
0000
0010
0000
0000
0001
0000
0000
0100
0000
0010
0000
0000
1000
,
0000
0000
0001
0000
0022
0000
0000
0000
0033
0000
0000
0000
1000
0000
0000
0100
,
0000
0000
1000
0000
0001
0000
0000
0100
0000
0000
0001
0000
0010
0000
0000
0100
,
0000
0000
0000
0000
1000
0000
0000
0000
0010
0000
0000
0000
0000
0000
0000
0000
1000
0001
0000
0000
0000
0000
0000
0000
0001
0000
0000
0000
0000
0000
0010
0000
,
0000
0000
0100
0000
1000
0000
0000
0010
0000
0000
0100
0000
0001
0000
0000
0010
,
0000
0000
1000
0000
0020
0000
0000
0000
0031
0000
0000
0000
0101
0000
0000
0001
,
0000
0000
1000
0000
1100
0000
0000
1000
0000
0000
0001
0000
0100
0000
0000
0110
,
0000
0000
0000
0000
0000
0000
0100
0000
0000
0000
0000
0000
0001
0000
0000
0000
1000
0000
0000
0000
0001
0000
0000
0000
1000
0000
0000
0000
0000
0000
0000
0000
0000
0000
0000
0000
0100
0000
0000
0000
0000
0000
0000
0000
0000
0100
0000
0000
,
1000
0000
0001
0000
0010
0000
0000
0010
0001
0000
1000
0000
0010
0000
0000
0010
,
0100
0000
0001
0000
2000
0000
3200
0000
0320
0000
0030
0000
0001
0000
0000
0001
,
1000
0000
0000
0000
0000
0000
0010
0000
0000
0000
0000
0000
0100
0000
0000
0000
0000
0000
0000
0000
0000
0100
0000
0000
0001
0000
0000
0000
0100
0000
0000
0000
0001
0000
0000
0000
1000
0000
0000
0000
0000
0000
0000
0000
0000
0000
0000
0000
,
1100
0000
0000
0000
0100
1000
0000
0010
0000
0010
0000
0010
1000
0000
0000
1000
,
0001
0000
0100
0000
0010
0000
0000
0010
0100
0000
0001
0000
1000
0000
0000
1000
,
0100
0000
0010
0000
0001
0000
0000
0000
2010
0000
0000
0000
3001
0000
0000
0100
,
0010
0000
0010
0000
1000
0000
0000
0100
0010
0000
0010
0000
0001
0000
0000
1001
,
0000
1000
0020
0000
0030
0000
0100
0200
,
0001
0000
0010
0000
1000
0000
0310
0020
,
0100
0000
1000
0000
0030
0000
1000
2000
,
0100
0000
0000
0000
0001
0000
0000
0000
3010
0000
0000
0000
1000
0100
0000
0000
,
0100
0010
0000
0000
0010
0001
0000
0001
0010
0000
0001
0000
1000
0010
0000
0000
,
0010
0100
0000
0000
0100
0001
0000
0000
0001
1000
0000
0000
1000
0100
0000
0000
,
0100
0010
0000
0000
0010
0000
0100
0000
0110
0000
0000
0000
2001
0000
0000
0000
,
0000
0000
0000
0010
3010
0000
1002
0000
,
0000
0000
0000
0000
0000
0000
0010
0000
0013
0000
0000
0000
0101
0000
0000
1000
,
0000
0000
0010
0000
1100
0000
0000
0001
0000
0000
0010
0000
0002
0100
0003
0000
,
2000
0010
3000
0000
0002
0010
0003
0000
2000
0100
3000
0000
1000
0000
0001
0000
,
1000
0000
0100
0000
0010
0001
0000
0001
1000
0000
0010
0000
1000
0100
0000
0100
,
0010
0000
0001
0000
0102
0000
0000
0100
0000
0000
1003
0000
0001
0010
0000
0100
,
0010
0000
0100
0000
1000
0001
0000
0100
0001
0000
1000
0000
0100
0010
0000
0000
,
0001
0100
0000
0000
0010
1000
0000
0000
1001
0000
0000
0000
1000
0100
0000
1000
,
0001
0000
0100
0000
0110
0000
0010
0000
1001
0000
0000
0000
0001
0100
0000
0001
,
1000
0000
0100
0000
0120
0000
0000
0001
0000
0000
0130
0000
0010
0000
0001
0000
,
0100
0000
0001
0020
0000
0000
0130
0000
0100
0000
1000
0000
0010
0000
0000
1001
,
0000
0000
0100
0000
0010
0100
0000
0000
1001
0000
0000
0000
1000
0010
0000
0100
,
0010
0000
1000
0000
0001
0010
0000
0100
0010
0000
0001
0000
1000
0100
0000
1000
,
0001
0000
0100
0000
0120
0000
0000
1000
0000
0000
1030
0000
0010
0100
0000
0001
,
0100
0000
0010
0000
1000
0001
0000
0010
0001
0000
0100
0000
0010
1000
0000
0000
,
0100
0010
0000
0000
0001
0100
0000
0000
1001
0000
0000
0000
0001
0010
0000
0100
,
0010
0000
0100
0000
1100
0000
0001
0000
0011
0000
0000
0000
1000
0010
0000
0100
,
0001
0000
1000
0000
0001
0010
0000
0100
1000
0000
0001
0000
0201
0000
0000
0000
,
0010
0000
1000
0000
0010
0000
0302
2003
,
3002
0000
2003
0000
3010
0000
0000
0000
2002
3003
0000
0000
0101
0000
0000
0101
,
0000
0000
1000
0000
1100
0000
0000
1100
0000
0000
0001
0000
2002
0000
0000
0000
,
0000
0000
0000
0000
3003
0000
1000
0100
,
0010
0000
0100
1000
0000
0001
0000
0010
0001
0000
1000
0000
0001
0000
0100
0000
,
0010
0000
0100
0001
0000
1000
0000
0010
1000
0000
0001
0000
0010
0000
0100
0000
,
1000
0000
0010
0100
0000
0001
0000
0100
0010
0000
1000
0000
0001
0000
0010
0000
,
0001
0100
0000
2000
0000
0000
3100
0000
0001
0000
0010
0000
0100
0000
1000
0000
,
0100
0000
0010
0001
0000
0100
0000
0001
0010
0000
0100
0000
1000
0000
0010
0000
,
1000
0000
0100
0010
0000
0001
0000
0100
0010
0000
1000
0000
0001
0000
0000
0011
,
0000
0000
1001
0000
0000
0101
0000
0000
1000
0000
0001
0000
1000
0000
0000
1010
,
0000
0000
1001
0000
0000
1100
0000
0000
0001
0000
1000
0000
2002
3003
0000
0000
,
0002
0000
0103
0010
2000
0000
3100
0010
,
2002
0000
0000
0000
0000
0000
0000
0000
0000
0000
0000
3003
0000
0000
0000
0000
,
1000
0000
0000
0100
0000
0000
1000
0000
0001
0000
0000
0100
0000
0000
0001
0000
0020
0000
0000
0000
0000
0000
0000
0000
0000
0000
0000
0000
0000
0000
0000
0000
,
0130
1000
0001
0100
0000
0000
0010
1000
0001
0010
0000
0000
,
0100
1000
0010
0100
0001
0010
0100
0000
0000
2002
0000
0000
,
0000
0000
0000
3003
;

//--------------- dance-double - forcednature ----------------
#NOTEDATA:;
#STEPSTYPE:dance-double;
#DESCRIPTION:forcednature;
#CREDIT:forcednature;
#DIFFICULTY:Easy;
#METER:7;
#RADARVALUES:0,0,0,0,0;
#NOTES:
00000000
00000000
00000000
00000000
,
00000000
00000000
00000000
00000000
,
00000000
00000000
00000000
00022000
,
00000000
00000000
00000000
00000000
,
00000000
00000000
00000000
00000000
,
00000000
00000000
00000000
00000000
,
00000000
00033000
00000000
00022000
,
00000000
00000000
00000000
00000000
,
00000000
00033000
00000000
00001000
,
00001000
00010000
00010000
00002000
,
00000000
00020000
00033000
00010000
,
00000000
00000000
00010000
00000100
,
00000000
00000000
00000100
00001000
,
00000000
00000000
00001000
00000001
,
00000000
00000100
00000000
00000010
,
00000000
00000000
00000010
00010000
,
00000000
00000000
00010000
00001000
,
00000000
00001000
00000000
00000000
,
00000000
00022000
00033000
00010000
,
00000000
00001000
00000000
01000000
,
00010000
01000000
00000000
00001000
,
00000000
00010000
00000000
00000100
,
00001000
00000100
00000000
00010000
,
00000000
00001000
00000000
00100000
,
00010000
00100000
00000000
00001000
,
00000000
00010000
00000000
00000010
,
00001000
00000010
00000000
00010000
,
00001000
00000000
00010000
00000100
,
00001000
00000100
00000000
00010000
,
00001000
00000000
00001000
01000000
,
00010000
01000000
00000000
00001000
,
00010000
00000000
00010000
00000010
,
00001000
00000010
00000000
00010000
,
00000000
00001000
00000000
00011000
,
00011000
00011000
00000000
02000000
,
00000000
00000000
00000000
03002000
,
00000000
00000000
00000000
00023000
,
00000000
00000000
00000000
00030200
,
00000000
00000300
00000000
00000010
,
00000000
00000001
00000000
00000100
,
00000000
00001000
00000000
00020020
,
00000000
00030030
00000000
00202000
,
00000000
00303000
00000000
00001000
,
00000000
00010000
00000000
00100000
,
00100000
01000000
01000000
01100000
,
00000000
00100000
00000000
10000000
,
00010000
10000000
00000000
01000000
,
00100000
01000000
00000000
00010000
,
00010000
00010000
00000000
00001000
,
00000000
00000010
00000100
00000010
,
00000000
00000001
00000100
00000001
,
00000000
00000010
00000000
00001000
,
00001000
00001000
00000000
00011000
,
00000000
00010000
00001000
00010000
,
00000000
00100000
01000000
00100000
,
00000000
10000000
00010000
00100000
,
00100000
00100000
00000000
00002000
,
00000000
00023000
00000000
00030020
,
00000000
00002030
00000000
00003002
,
00000000
00000000
00000000
00000003
,
00000000
00000000
00000000
00000010
,
00000010
00001000
00001000
00022000
,
00000000
00000000
00033000
00010000
,
00100000
01000000
00100000
10000000
,
00010000
10000000
00000000
01000000
,
00100000
01000000
00010000
00001000
,
00001000
00010000
00010000
00000100
,
00001000
00000100
00000010
00000001
,
00001000
00000001
00000000
00000100
,
00000000
00000100
00000000
00000000
00000100
00000000
00001000
00000000
,
00000000
00000000
00001000
00000000
00000000
00000000
00000000
00000000
00001000
00000000
00000000
00000000
00022000
00033000
00000000
00000000
,
02000000
03020000
00230000
00302000
,
00023000
00000000
00000000
00000000
00000000
00000000
00000000
00000000
00000000
00000000
00000000
00030000
00000000
00000000
00000000
00000000
,
00002000
00000000
00003020
00000000
00000230
00000000
00000000
00000300
,
00000100
00011000
01000000
00011000
,
00100000
00000010
00022000
00000000
,
00000000
00000000
00000000
00033000
;

//--------------- dance-double - forcednature ----------------
#NOTEDATA:;
#STEPSTYPE:dance-double;
#DESCRIPTION:forcednature;
#CREDIT:forcednature;
#DIFFICULTY:Medium;
#METER:10;
#RADARVALUES:0,0,0,0,0;
#NOTES:
00000000
00000000
00000000
00000000
,
00000000
00000000
00000000
00000000
,
00000000
00000000
00000000
00022000
,
00000000
00000000
00000000
00000000
,
00000000
00000000
00000000
00000000
,
00000000
00000000
00000000
00000000
,
00000000
00000000
00033000
00022000
,
00000000
00000000
00000000
00000000
,
00000000
00000000
00033000
00010000
,
00010000
00001000
00001000
02002000
,
03003000
00020200
00030300
00000100
,
00000010
00000001
00001001
00001000
,
00000010
00010000
00011000
00001000
,
01000000
00010000
10010000
10000000
,
10000000
00010000
10000000
00000000
01000000
00000000
00010000
00000000
,
00001000
00100000
01100000
01000000
,
00010000
00001000
00011000
00010000
,
00000100
00000000
00000000
00010000
00000000
00000000
00001000
00000000
00000000
00000000
00022000
00000000
,
00000000
00033000
00000000
00002000
,
00203000
00320000
02030000
03020000
,
00230000
00302000
00003000
00020000
,
00030020
00002030
00003200
00002300
,
00003020
00020030
00030000
00002000
,
00203000
02300000
03200000
00302000
,
00023000
00032000
00003000
00000020
,
00000230
00020300
00030020
00000230
,
00000302
00000023
00000030
00000100
,
00001100
00010000
00011000
01000000
,
01010000
00010000
00000000
10000000
,
10010000
00010000
01010000
00001000
,
00011000
00010100
00000000
00001000
,
00001001
00000010
00001010
00010000
,
00011000
01001000
00000000
10000000
,
11000000
00000000
00000000
00000000
00010000
00000000
00000000
00000000
01010000
00000000
00000000
00000000
00100000
00000000
00000000
00100000
,
00000000
00100000
02000000
00000000
03000000
00000000
10000000
00010000
,
00000000
00000000
00000000
00000000
00000000
00000000
00001000
00000001
,
00000000
00000000
00000000
00000000
00000000
00000000
00000001
00001000
,
00000000
00000000
00000000
00010000
,
10000000
10000000
00000000
20000000
,
32000000
03020000
00032000
00003020
,
00000032
00000203
00000300
00000220
,
00000000
00000330
00000000
00022000
,
00000000
00033000
00000000
01100000
,
00000000
10010000
00000000
20000000
,
32000000
03020000
00032000
00103000
,
00010000
10000000
00010000
00000000
01000000
00000000
00001000
00000000
,
00010000
00000010
00010000
00000000
00001000
00000000
00000010
00000000
,
00000100
00001000
00000100
00000000
00000010
00000000
00000001
00000000
,
00001001
00000110
00000000
00000001
,
00000100
00000010
00000100
00000000
00001000
00000000
00010000
00000000
,
00001000
01000000
00001000
00000000
00100000
00000000
00010000
00000000
,
00010000
10000000
00000000
10000000
00010000
00000000
00100000
00000000
,
01000000
02200000
03300000
10000000
,
00100000
01000000
00100000
00000000
10000000
00000000
01000000
00000000
,
00010000
00001000
00010000
00000000
00000100
00000000
00001000
00000000
,
00000001
00000100
00000001
00000000
00000010
00000000
00000100
00000000
,
00000110
00002002
00003003
00020200
,
00030300
02002000
03003000
00020020
,
00030030
00202000
00303000
20020000
,
00000000
00000000
00000000
30030000
,
00000000
00000000
00000000
00000000
00000000
00000000
00000000
00000000
00000000
00000000
00000000
00000000
00001000
00000000
00000000
00001000
,
00000000
00000000
00001000
00000000
00010000
00000000
00000000
00010000
00000000
00000000
00010000
00000000
00000200
00000000
00000000
00000000
,
00000000
00000000
00000300
00000010
,
00000001
00000100
00000110
00000010
,
00010000
00001000
00011000
00010000
,
00100000
01000000
01100000
00100000
,
10000000
00010000
00100000
01000000
,
00010000
00001000
00011000
00010000
,
00000100
00000010
00000110
00000100
,
00000000
00000100
00000000
00000000
00010000
00000000
00001000
00000000
,
00000000
00000000
00001000
00000000
00000000
00000000
00000000
00000000
01000000
00000000
00000000
00000000
02200000
03300000
00000000
00000000
,
00020000
02030000
03002000
00023000
,
00030020
00000000
00000000
00000000
00000000
00000000
00000000
00000000
00000000
00000000
00000000
00000030
00000000
00000000
00000000
00000000
,
00001000
00000000
00000001
00000000
00002102
00000000
00000000
00003003
,
00001000
00010100
00001000
00010010
,
00001000
00010000
00011000
02200000
,
00000000
00000000
00000000
03300000
;

//--------------- dance-double - forcednature ----------------
#NOTEDATA:;
#STEPSTYPE:dance-double;
#DESCRIPTION:forcednature;
#CREDIT:forcednature;
#DIFFICULTY:Hard;
#METER:13;
#RADARVALUES:0,0,0,0,0;
#NOTES:
00000000
00000000
00000000
00000000
,
00000000
00000000
00000000
00000000
,
00000000
00000000
00000000
00022000
,
00000000
00000000
00000000
00000000
,
00000000
00000000
00000000
00000000
,
00000000
00000000
00000000
00000000
,
00000000
00000000
00033000
00000220
,
00000000
00000000
00000000
00000000
,
00000000
00000000
00000000
00000000
00000000
00000000
00000000
00000000
00000330
00000000
00000000
00000000
00000001
00000000
00000000
00000100
,
00000000
00000000
00001000
00000000
00010000
00000000
00000000
00100000
00000000
00000000
10000000
00000000
02000000
00000000
00000000
00000000
,
00000000
00000000
00200000
00000000
03300000
00000000
01000000
10000000
,
01000000
00010000
00001000
00000000
00011000
00000000
00010000
00000010
,
00010000
00001000
00000010
00000000
00000110
00000000
00000100
00001000
,
00000001
00000100
00000001
00000000
00001001
00000000
00001000
00000010
,
00000100
00001000
00010000
00001000
00100000
00000000
01000000
10000000
,
01000000
00010000
00001000
00000000
00110000
00000000
00001000
00010000
,
00000010
00000000
00001000
00000000
00000100
00000000
00000000
00000000
00000011
00000000
00000000
00000000
00000001
00000000
00000000
00000100
,
00000000
00000000
00000000
00000000
00000000
00000000
00001000
00000000
00000000
00000000
00000000
00000000
00010000
00000000
00000000
00000000
00000000
00000000
00000000
00000000
00000000
00100000
00000000
00000000
00000000
00000000
00000000
00000000
00000000
00000000
10000000
00000000
00000000
00000000
00000000
00000000
00000000
00000000
00000000
00000000
01000000
00000000
00000000
00000000
00100000
00000000
00000000
00000000
,
01000000
00100000
01000000
00200000
00000000
00000000
00300000
00000000
00000000
00001000
00000000
00000000
,
00101000
00010000
00010010
00001000
,
01001000
00020200
00030300
00001000
,
00101000
00010000
00010010
00001000
,
01001000
00010100
00011000
00100000
,
00011000
00000010
00011000
01000000
,
01001000
00020200
00030300
00000100
,
00000110
00001000
00011000
01000000
,
01100000
00000000
00000000
00000000
00000000
00000000
00000000
00000000
00000000
00000000
00000000
00000000
00010000
00000000
00000000
00000000
10000000
00000000
00000000
00000000
00010000
00000000
00000000
00000000
10000000
00000000
00000000
00000000
00000000
00000000
00000000
00000000
00000000
00000000
00000000
00000000
01000000
00000000
00000000
00000000
00000000
00000000
00000000
00000000
00000000
00010000
00000000
00000000
,
00000000
00000000
00001000
00000000
00000100
00000000
00000000
00001000
00000000
00000000
00010000
00000000
00100000
00000000
00000000
01000000
,
00000000
00000000
00001000
00000000
00020000
00000000
00000000
00000000
00030000
00000000
00000000
00000000
00000010
00000000
00000000
00001000
,
00000000
00000000
00000100
00000000
00000010
00000000
00000000
00000001
00000000
00000000
00000100
00000000
00001000
00000000
00000000
00000000
,
00011000
00000000
00000000
00000000
20020000
00000000
00000000
00000000
30030000
00000000
00000000
00000000
10000000
00000000
00000000
01000000
,
00000000
00000000
00010000
00000000
00001000
00000000
00000000
00000010
00000000
00000000
00000001
00000000
00000100
00000000
00000000
00001000
,
00000000
00000000
00010000
00000000
00022000
00000000
00000000
00000000
00033000
00000000
00000000
00000000
00010000
00000000
00000000
00100000
,
00000000
00000000
00010000
00000000
00001000
00000000
00000000
00000010
00000000
00000000
00001000
00000000
00011000
00000000
00000000
00011000
,
00000000
00011000
00022000
00000000
00033000
00000000
00010000
10000000
,
00000000
00000000
00000000
00000000
00000000
00000000
00001000
00000001
,
00000000
00000000
00000000
00000000
00000000
00000000
00100000
01000000
,
00000000
00000000
00000000
00011000
,
00000110
00002002
00003003
00000002
,
00000023
00000230
00002300
00023000
,
00230000
02300000
03000000
10010000
,
00000000
00000000
00000000
00001000
00001000
00000000
00001001
00000000
,
00000000
00000000
00000000
00000000
00000000
00000000
00010000
00000000
00010000
00000000
00000000
00000000
00001000
00000000
00000000
01000000
,
00000000
00000000
00001000
00000000
00010000
00000000
00000000
00000100
00000000
00000000
00010000
00000000
00002000
00000000
00000000
00000000
,
00003020
00000000
00000032
00000000
00000203
00000000
00001300
00010000
,
00001000
00000000
01000000
00000000
00010000
00000000
00100000
00000000
01000000
00000000
00100000
00000000
00010000
00000000
00000000
10000000
,
00000000
00100000
02200000
00000000
03300000
00000000
01000000
00001000
,
00010000
00001000
00100000
01000000
00010000
00001000
00000010
00000000
,
00000110
00000000
00000000
00000000
00002002
00000000
00000000
00000000
00003003
00000000
00000000
00000000
00000001
00000000
00000000
00000100
,
00000000
00000000
00001000
00000000
00011000
00000000
00000000
00000000
01100000
00000000
00000000
00000000
10000000
00000000
00000000
01000000
,
00000000
00010000
00011000
00000000
00000110
00000000
00001000
00000001
,
00001000
00000000
00000001
00000100
00000000
00000000
00000010
00000000
00001000
00000000
00000010
00000000
00010000
00000000
00000000
00010000
,
00000000
00001000
00200000
00000000
02300000
00000000
13000000
00010000
,
10000000
00000000
00100000
00000000
00010000
00000000
00001000
00000000
00010000
00000000
00000100
00000000
00000010
00000000
00000000
00000001
,
00000000
00000100
00000220
00000000
00000330
00000000
00000010
00001000
,
00010000
01000000
00010000
00100000
01000000
00010000
00011000
00000000
,
00101000
00000000
00000000
00000000
00020020
00000000
00000000
00000000
00030030
00000000
00000000
00000000
00000010
00000000
00000000
00000100
,
00000000
00000000
00001000
00000000
00011000
00000000
00000000
00000000
00101000
00000000
00000000
00000000
00100000
00000000
00000000
01000000
,
00000000
00000000
00010000
00000000
00001000
00000000
00000000
00000010
00000000
00000000
00000100
00000000
00020000
00000000
00000000
00000000
,
00000010
00000000
00030010
00010000
,
00001000
00000000
00000000
00000000
00100000
00000000
00000000
00000000
01100000
00000000
00000000
00000000
02000000
00000000
00000000
23000000
,
00000000
00000000
32000000
00000000
03020000
00000000
00000000
00032000
00000000
00000000
00013000
00000000
00022000
00000000
00000000
00000000
,
00000000
00000000
00000000
00000000
00033000
00000000
00001000
00000010
,
00000001
00000100
00000001
00000010
00001000
00000000
00010000
01000000
,
00100000
00001000
00010000
00100000
10000000
00000000
01000000
00010000
,
00001000
00010000
00000100
00001000
00000010
00000000
00000100
00001000
,
00000100
00000000
00000000
00000101
00000000
00000000
00000001
00000000
00000010
00000000
00001000
00000000
00010000
00000000
01000000
00000000
,
00100000
01000000
10000000
00010000
00100000
00000000
00001000
00010000
,
00100000
00000000
01000000
00000000
00010000
00000000
10000000
00000000
01000000
00000000
00000000
00000000
00010000
00000000
00000000
00001000
,
00000000
00000000
00010000
00000000
00000000
00000100
00000000
00000000
00000010
00000000
00000010
00000000
00001000
00000000
00000000
00010000
,
00000000
00000000
00001000
00000000
00000000
01000000
00000000
00000000
00100000
00000000
00100000
00000000
20020000
30030000
00000000
00000000
,
20000000
30020000
00032000
00003002
,
00000203
00000000
00000000
00000000
00000000
00000000
00000000
00000000
00000000
00000000
00000000
00000300
00000000
00000000
00000000
00000000
,
00000001
00000000
00000000
00000100
00000000
00000000
00001000
00000000
00010000
00000000
00000000
00100000
00000000
00000000
10000000
00000000
00020000
00000000
00000000
00000000
00000000
00000000
00000000
00000000
00000000
00000000
00000000
00000000
00000000
00000000
00000000
00000000
,
00130000
00001000
00100000
00001000
00000000
00000000
00010000
00000100
00010000
00000100
00000000
00000000
,
00001000
00000010
00010000
00001000
01000000
00010000
00100000
00000000
00000000
00022000
00000000
00000000
,
00000000
00000000
00000000
00033000
;

//--------------- dance-double - forcednature ----------------
#NOTEDATA:;
#STEPSTYPE:dance-double;
#DESCRIPTION:forcednature;
#CREDIT:forcednature;
#DIFFICULTY:Challenge;
#METER:15;
#RADARVALUES:0,0,0,0,0;
#NOTES:
00000000
00000000
00000000
00000000
,
00000000
00000000
00000000
00000000
,
00000000
00000000
00000000
00022000
,
00000000
00000000
00000000
00000000
,
00000000
00000000
00000000
00000000
,
00000000
00000000
00000000
00000000
,
00000000
00000000
00033000
02200000
,
00000000
00000000
00000000
00000000
,
00000000
00000000
00000000
00000000
00000000
00000000
00000000
00000000
03300000
00000000
00000000
00000000
10000000
00000000
00000000
01000000
,
00000000
00000000
00010000
00000000
00001000
00000000
00000000
00000100
00000000
00000000
00000001
00000000
00000010
00000000
00000100
00000000
,
00000010
00000000
00000100
00000000
00001000
00000001
00001000
00000002
00000000
00000000
00000003
00000000
00000100
00000000
00001000
00000000
,
00010000
00000000
00001000
00010000
00000000
00010000
00000000
00001000
01000000
00000000
00010000
00000000
10000000
00000000
01000000
00000000
,
00010000
00000000
00001000
00010000
00000000
00010000
00000000
00000100
00001000
00000000
00000001
00000000
00000100
00000000
00001000
00000000
,
00010000
00000000
00100000
01000000
00000000
01000000
00000000
00100000
01000000
00000000
00010000
00000000
10000000
00000000
01000000
00000000
,
00010000
00001000
00000000
00021000
00000000
00000000
00031000
00000000
00000010
00000000
00000001
00000000
00000100
00000000
00001000
00000000
,
00000100
00000000
00000001
00000010
00000000
00000010
00000000
00000001
00000100
00000000
00001000
00000000
00010000
00000000
00001000
00000000
,
01000000
00000000
00010000
00100000
00000000
00100000
00000000
00010000
10000000
00000000
00100000
00000000
10000000
00000000
00000000
01000000
,
00000000
00000000
00000000
00000000
00000000
00000000
00010000
00000000
00000000
00000000
00000000
00000000
00001000
00000000
00000000
00000000
00000000
00000000
00000000
00000000
00000000
00000100
00000000
00000000
00000000
00000000
00000000
00000000
00000000
00000000
00000001
00000000
00000000
00000000
00000000
00000000
00000000
00000000
00000000
00000000
00000010
00000000
00000000
00000000
00000100
00000000
00000000
00000000
,
00000010
00000000
00000000
00000000
00000100
00000000
00000000
00000000
00000010
00000000
00000000
00000000
00000002
00000000
00000000
00000000
00000000
00000000
00000000
00000000
00000000
00000000
00000000
00000000
00000003
00000000
00000000
00000000
00000000
00000000
00000000
00000000
00000000
00000000
00000000
00000000
00000100
00000000
00000000
00000000
00000000
00000000
00000000
00000000
00000000
00001000
00000000
00000000
,
00000000
00000000
00010000
00000000
01000000
00000000
00000000
00010000
00000000
00000000
00001000
00000000
00000010
00000000
00000000
00001000
,
00000000
00000000
00010000
00000000
02000000
00000000
00000000
00000000
03000000
00000000
00000000
00000000
00100000
00000000
00000000
00001000
,
00000000
00000000
00010000
00000000
00000100
00000000
00000000
00010000
00000000
00000000
00001000
00000000
00000010
00000000
00000000
00000001
,
00000000
00000000
00000000
00000000
00000100
00000000
00000000
00000000
00001000
00000000
00000000
00000000
00000000
00000000
00000000
00000000
00010000
00001000
00000000
00000000
00000000
00000000
00000000
00000000
00010000
00000000
00000000
00000000
00000000
00000000
00100000
00000000
,
00000000
00000000
10000000
00000000
01000000
00000000
00000000
10000000
00000000
00000000
00100000
00000000
00010000
00000000
00000000
00001000
,
00000000
00000000
00000100
00000000
00000020
00000000
00000000
00000000
00001030
00000000
00000000
00000000
00000110
00000000
00000000
00000100
,
00000000
00000000
00001000
00000000
00011000
00000000
00000000
00010000
00000000
00000000
01000000
00000000
01100000
00000000
00000000
00100000
,
00000000
00000000
00000000
00000000
00000000
00000000
00010000
00000000
00000000
00000000
00000000
00000000
10000000
00000000
00000000
00000000
00010000
00000000
00000000
00000000
10000000
00000000
00000000
00000000
00010000
00000000
00000000
00000000
00000000
00000000
00000000
00000000
00000000
00000000
00000000
00000000
00100000
00000000
00000000
00000000
00000000
00000000
00000000
00000000
00000000
00100000
00000000
00000000
,
10000000
00000000
01000000
00000000
00100000
00000000
00000000
00100000
00001000
00000000
00010000
00000000
00000100
00000000
00000000
00000100
,
00000010
00000000
00000001
00000000
00000200
00000000
00002300
00000000
00023000
00000000
00030000
00000000
00100000
00000000
00000000
00100000
,
01000000
00000000
00000000
00000000
00000000
00000000
00010000
00000000
00000000
00000000
00000000
00000000
10000000
00000000
00000000
00000000
00000000
00000000
00000000
00000000
00000000
10000000
00000000
00000000
01000000
00000000
00000000
00000000
00010000
00000000
00000000
00000000
00001000
00000000
00000000
00000000
00100000
00000000
00000000
00000000
00000000
00000000
00000000
00000000
00000000
00000000
00000000
00000000
,
00011000
00000000
00000000
00000000
00000100
00001000
00000000
00000010
00000000
00000010
00000000
00000010
00000100
00000000
00000000
00000100
,
00000001
00000000
00000010
00000000
00000100
00000000
00000000
00000100
00010000
00000000
00001000
00000000
01000000
00000000
00000000
01000000
,
00010000
00000000
00100000
00000000
01000000
00000000
00000000
00000000
20010000
00000000
00000000
00000000
30100000
00000000
00000000
00010000
,
00001000
00000000
00010000
00000000
00000100
00000000
00000000
00010000
00001000
00000000
00010000
00000000
01000000
00000000
00000000
01100000
,
00000000
00100000
20020000
00000000
30030000
00000000
00020000
00000000
,
01000000
10000000
00100000
00032000
,
00000100
00000001
00000010
00023000
,
01000000
10000000
00100000
00031000
,
00000100
00000010
00000000
00000000
00000010
00000001
00000000
00000001
00000010
00000000
00000001
00000000
00000200
00000000
00000000
00000000
,
00002300
02003000
03020000
00230000
,
00302000
00000000
00003010
00000100
00000110
00000000
00002001
00000000
,
00000000
00000000
00000000
00010000
00013000
00000000
10020000
00000000
,
00000000
00000000
00000000
00000000
00000000
00000000
00001000
00000000
00031000
00000000
00000000
00000000
00011000
00000000
00000000
01000000
,
00000000
00000000
00001000
00000000
00011000
00000000
00000000
00000100
00000000
00000000
00010000
00000000
00010010
00000000
00000000
00000000
,
01001000
00000000
00010100
00000000
00101000
00000000
10000000
01000000
,
00010000
00000000
01000000
00000000
00100000
00001000
00000000
00001000
00010000
00000000
00000010
00000000
00001000
00000100
00000000
00000100
,
00000010
00000000
00000001
00000000
00000201
00000000
00000000
00000010
00000000
00000000
00001300
00000000
00000100
00000001
00000000
00000010
,
00000001
00000000
00001000
00000000
00000010
00010000
00000000
00001000
00010000
00000000
01000000
00000000
00200000
00000000
00000000
00000000
,
00320000
00000000
00000000
00000000
00030020
00000000
00000000
00000000
00002030
00000000
00000000
00000000
00013000
00000100
00000000
00010000
,
00001000
00000000
00100000
00000000
01100000
00000000
01000000
00000000
10010000
00000000
00000000
00000000
00010000
01000000
00000000
00001000
,
00010000
00000000
00000010
00000000
00000210
00000000
00000000
00001000
00000000
00000000
00000310
00000000
00000100
00000000
00000001
00000000
,
00000010
00000000
00000100
00020000
00000000
00000000
00001000
00000000
00031000
00000000
00100000
00000000
00010000
00000000
00000000
10010000
,
00000000
00000000
10000000
00000000
00100000
00010000
00000000
00000000
00011000
00000000
00000000
00000000
01000000
00010000
00000000
00100000
,
00001000
00000000
00010000
00000000
00000100
00001000
00000000
00000010
00010000
00000000
00001000
00000000
00100000
01000000
00000000
10000000
,
00010000
00000000
01000000
00000000
01002000
00000000
00000000
00010000
00000000
00000000
00103000
00000000
00001000
00010000
00000000
00000010
,
00001000
00000000
00000100
00000000
00010000
00001000
00000000
00100000
00010000
00000000
01000000
00000000
00200000
00000000
00000000
00000000
,
00302000
00000000
00000000
00000000
00003020
00000000
00000000
00000000
00020030
00000000
00000000
00000000
00130000
01000000
00000000
00010000
,
00100000
00000000
01000000
00000000
01100000
00000000
00000000
00000000
00011000
00000000
00000000
00000000
00000010
00000100
00000000
00001000
,
00000010
00000000
00000100
00000000
00001000
00010000
00000000
00001000
01000000
00000000
00010000
00000000
00210000
00000000
00000000
00000000
,
01000000
00000000
00000000
00000000
01000000
00000000
00302000
00023000
,
00032000
00000000
00023000
00000000
00030010
00000000
00000000
00000000
00002002
00003003
00000000
00000000
00010100
00000000
00000000
00010100
,
00000000
00000000
00010100
00000000
01001000
00000000
00000000
01001000
00000000
00000000
01001000
00000000
00022000
00000000
00000000
00000000
,
00000000
00000000
00000000
00000000
00033000
00000000
01000000
00010000
,
00100000
01000000
10000000
01000000
00000000
00100000
00000000
00001000
00010000
00000000
00000100
00000000
00001000
00000000
00000010
00000000
,
00000100
00000001
00001000
00000001
00000000
00000010
00000000
00000100
00001000
00000000
00000010
00000000
00010000
00000000
00001000
00000000
,
00100000
00010000
00100000
01000000
00000000
10000000
00000000
00010000
01000000
00000000
00001000
00000000
00011000
00000000
00010000
00000000
,
00000100
00000010
00000000
00000210
00000000
00000000
00001300
00000000
00000010
00000000
00000001
00000000
00000010
00000000
00000100
00000000
,
00000001
00001000
00000010
00001000
00000000
00000100
00000000
00010000
00001000
00000000
00100000
00000000
00010000
00000000
01000000
00000000
,
00100000
10000000
00010000
10000000
00000000
01000000
00000000
00010000
00001000
00000000
00100000
00000000
00020000
00000000
00000000
01000000
,
00000000
00000000
10000000
00000000
00000000
00100000
00000000
00000000
00031000
00000000
00010000
00000000
00002000
00000000
00000000
00000100
,
00000000
00000000
00000001
00000000
00000000
00000010
00000000
00000000
00013000
00000000
00001000
00000000
00022000
00033000
00000000
00000000
,
02000000
00000000
03001000
00010000
00000200
00000000
00010300
00001000
,
00022000
00000000
00000000
00000000
00000000
00000000
00000000
00000000
00000000
00000000
00000000
00033000
00000000
00000000
00000000
00000000
,
00100000
00000000
00000000
01000000
00000000
00000000
00010000
00000000
00001000
00000000
00000000
00000010
00000000
00000000
00000100
00000000
00002002
00000000
00000000
00000000
00000000
00000000
00000000
00000000
00003000
00000000
00000000
00000000
00000000
00000000
00000000
00000000
,
00000103
00001000
00010000
00100000
00000000
00000000
00001000
00010000
00100000
01000000
00000000
00000000
,
10000000
01000000
00010000
00100000
01000000
00010000
00001000
00000000
00000000
00000220
00000000
00000000
,
00000000
00000000
00000000
00000330
;
