#VERSION:0.83;
#TITLE:Gravigazer;
#SUBTITLE:;
#ARTIST:DJ TOTTO;
#TITLETRANSLIT:;
#SUBTITLETRANSLIT:;
#ARTISTTRANSLIT:;
#GENRE:PROGRESSIVE SCHRANZ;
#CREDIT:;
#MUSIC:Gravigazer.ogg;
#BANNER:Gravigazer.png;
#BACKGROUND:Gravigazer-bg.png;
#CDTITLE:./CDTitles/bm IIDX 22 PENDUAL.png;
#SAMPLESTART:73.500;
#SAMPLELENGTH:15.000;
#SELECTABLE:YES;
#OFFSET:0.000;
#BPMS:0.000=160.000;
#STOPS:;
#BGCHANGES:0.000=Gravigazer.mp4=1.000=0=0=0=StretchNoLoop====,
99999.000=-nosongbg-=1.000=0=0=0=StretchNoLoop====
;
#FGCHANGES:;

//--------------- dance-single - 47R ----------------
#NOTEDATA:;
#STEPSTYPE:dance-single;
#DESCRIPTION:47R;
#DIFFICULTY:Beginner;
#METER:5;
#RADARVALUES:0,0,0,0,0;
#CREDIT:47R;
#NOTES:
0000
0000
0000
0000
,
0000
0000
0000
0000
,
0000
0000
0000
0000
,
0000
0000
0000
0000
,
0000
0000
0000
0000
,
1001
0000
0000
0000
,
0000
0000
0000
0000
,
0010
0000
0010
0000
,
0110
0000
0000
0000
,
1000
0000
0000
0000
,
1000
0000
0000
0000
,
0001
0000
0000
0000
,
0001
0000
0100
0000
,
0001
0000
0000
0000
,
1000
0000
0000
0000
,
0010
0000
0100
0000
,
1001
0000
0000
0000
,
1000
0000
0001
0000
,
1000
0000
0001
0000
,
0100
0000
0100
0000
,
0010
0000
0010
0000
,
1001
0000
0000
0000
,
1000
0000
0001
0000
,
0010
0000
0100
0000
,
0110
0000
1001
0000
,
0001
0000
0001
0000
,
0100
0000
0100
0000
,
0010
0000
0010
0000
,
1000
0000
0000
0000
,
1001
0000
0000
0010
,
1001
0000
0100
0100
,
1001
0000
1000
0000
,
0001
0001
0001
0000
,
0020
0000
0000
0000
,
0030
0000
0000
0000
,
0002
0000
0003
0000
,
2000
0000
3000
0000
,
0002
0000
0000
0000
,
0000
0000
0000
0003
,
2000
0000
0000
0000
,
0000
0000
0000
3000
,
0010
0000
0000
0000
,
0010
0000
0000
0000
,
0100
0000
0000
0000
,
0100
0000
0000
0000
,
0000
1001
0000
1001
,
0000
0110
0000
0110
,
0000
0001
1000
0001
,
0020
0000
0030
0000
,
0001
0000
0001
0000
,
1000
0000
1000
0000
,
0010
0000
0010
0000
,
0100
0000
0100
0000
,
0001
0000
0100
0000
,
0001
0000
1000
0000
,
0100
0000
1000
0000
,
0010
0010
0010
0000
,
1000
0000
0100
0000
,
0010
0000
0001
0000
,
0100
0000
0010
0000
,
1000
0000
0001
0000
,
1001
0000
1000
0001
,
0010
0010
0010
0000
,
0110
0000
0100
0010
,
1001
0000
0000
0000
,
1000
1000
1000
0000
,
1000
0001
0000
0000
,
0001
0001
0001
1000
,
0000
0110
0000
0000
,
0010
0010
0010
0000
,
0100
0010
0000
0000
,
1000
0001
0100
0001
,
0010
0010
0100
0010
,
1001
0000
0000
0000
;

//--------------- dance-single - 47R ----------------
#NOTEDATA:;
#STEPSTYPE:dance-single;
#DESCRIPTION:47R;
#DIFFICULTY:Easy;
#METER:9;
#RADARVALUES:0,0,0,0,0;
#CREDIT:47R;
#NOTES:
0000
0000
0000
0000
,
0000
0000
0000
0000
,
0000
0000
0000
0000
,
0000
0000
0000
0000
,
0000
0000
0000
0000
,
2000
0100
0000
3001
,
0002
0100
0000
1003
,
2000
0010
0000
3001
,
0220
0000
0000
0330
,
1001
0001
0100
0100
,
0010
0010
1000
1000
,
0100
0001
0100
0010
,
0100
1000
0020
0030
,
0110
0010
1000
1000
,
0001
0010
0100
0100
,
1000
0010
0001
0010
,
2000
0000
0000
3100
,
1001
0000
0001
0100
0001
0000
0100
0000
,
0010
0000
1000
0100
1000
0000
0100
0000
,
0010
0000
0001
1000
0001
0000
0100
0000
,
0010
0000
0110
0000
0100
0000
0001
1000
,
0001
0000
0010
0001
0010
0000
0001
0000
,
1000
0000
0010
1000
0010
0000
1000
0000
,
0001
0000
0100
0001
0100
0000
0001
0000
,
2000
0100
3002
0103
,
1001
0000
1000
0100
1000
0000
0001
0100
,
0001
0000
1000
0100
1000
0000
0001
0100
,
0001
0010
0100
1000
,
0000
0000
0010
0010
0000
0000
0110
0000
,
1000
0000
0100
1000
0001
0000
0200
0000
,
0301
0000
0010
0001
2000
0000
3002
0000
,
1003
0000
0000
1000
0000
0000
0100
0000
0000
0100
0000
0000
0010
0000
0000
0000
,
0001
0000
0100
0010
1000
0000
0001
0000
,
1002
0000
0000
0000
,
0203
0000
0000
0000
,
0320
0000
0000
0000
,
2030
0000
0000
0000
,
3002
0000
0000
0000
,
0023
0000
0000
0000
,
0230
0000
0000
0000
,
2300
0000
3010
0100
,
1002
0000
0100
0100
,
2003
0000
0100
0100
,
3002
0000
0010
0010
,
2003
0000
0010
0010
,
3001
0101
0000
1100
,
0000
0011
0000
1010
,
1000
0000
1000
0000
0100
0010
0001
0000
,
2001
0000
0000
3010
,
1001
0000
0001
0100
0010
0000
1000
0000
,
0001
0000
0010
0100
1000
0000
0002
0000
,
0103
0000
0010
1000
0001
0000
0010
0000
,
0100
0000
1000
0001
0100
0000
0010
0010
,
1000
0000
0100
0010
0001
0000
1000
0000
,
0001
0000
0100
0010
1000
0000
0001
0000
,
0010
0000
0001
1000
0010
0000
0100
0000
,
0001
0000
0000
0001
0000
0000
1000
0000
0010
0000
0000
0000
0100
0000
0000
0000
,
1001
0000
0001
0100
0010
0000
1000
0001
,
0010
0000
0100
1000
0001
0000
0200
0000
,
0310
0000
1000
0001
0010
0000
0100
1000
,
0001
0000
0100
0010
1000
0000
0110
0000
,
1000
0000
0001
0010
0100
0000
1000
0000
,
0001
0001
0100
0100
,
0010
1000
0001
0000
0010
0001
1000
0000
,
0210
0000
0000
0301
,
1001
0000
1000
0001
1000
0001
0200
0000
,
0300
0000
1001
0000
0000
0010
0000
0000
0220
0000
0000
0000
0330
0000
0000
0000
,
0101
0000
0001
0010
0001
0010
0002
0000
,
0003
0000
1001
0000
0000
0100
0000
0100
0000
0000
0000
0000
0000
0000
0000
0000
,
1001
0000
0001
1000
0001
1000
0200
0000
,
0300
0000
1001
0000
0000
0010
0000
0000
0220
0000
0000
0000
0330
0000
0000
0000
,
1001
0000
1000
0100
1000
0100
2000
0000
,
3001
0110
1000
0110
,
2002
3003
0000
0000
;

//--------------- dance-single - 47R ----------------
#NOTEDATA:;
#STEPSTYPE:dance-single;
#DESCRIPTION:47R;
#DIFFICULTY:Medium;
#METER:13;
#RADARVALUES:0,0,0,0,0;
#CREDIT:47R;
#NOTES:
0000
0000
0000
0000
,
0000
0000
0000
0000
,
0000
0000
0000
0000
,
0000
0000
0000
0000
,
0000
0000
0000
0000
,
2000
0100
0001
0100
,
3002
0100
1000
0100
,
0023
0000
1000
0000
0100
0000
0031
0010
,
0210
0000
1300
1000
2000
0000
3002
0000
,
1003
0000
0000
0100
0010
0000
0001
0000
1000
0000
0000
0001
0100
0000
0010
0000
,
1000
0000
0000
0010
0100
0000
0001
0000
1000
0000
0000
0100
0010
0000
0100
0000
,
1000
0000
0000
0001
0010
0000
0100
0000
0010
0000
0000
0001
1000
0000
0010
0000
,
0100
0000
0001
1000
0000
0001
0100
0000
0010
0000
1000
0000
0002
0000
0000
0000
,
0013
0000
0000
0100
1000
0000
0001
0000
0100
0000
0000
0010
1000
0000
0001
0000
,
0010
0000
0000
0100
1000
0000
0000
0000
1010
0000
0000
0000
1001
0000
0000
0000
,
0001
0000
0010
0000
0100
0000
1000
0000
0001
0100
0001
0000
1000
0000
0010
0000
,
2002
0000
3000
0000
0013
0010
0100
0000
,
1000
0000
0000
0100
0010
0000
0100
0000
0000
0000
0000
1000
0100
0000
0010
0000
,
0000
0000
0000
0001
0100
0000
0010
0000
0000
0000
0000
1000
0001
0000
0100
0000
,
0001
0000
0000
0010
0100
0000
1000
0000
0001
0000
0000
0100
0010
0000
1000
0000
,
0001
0000
1000
1000
0100
0000
0010
0010
,
0001
0000
0000
0100
0010
0000
0001
0000
0010
0000
0000
0010
1000
0000
0001
0000
,
1000
0000
0000
0100
0010
0000
1000
0000
0010
0000
0000
0010
0001
0000
1000
0000
,
0001
0000
0000
0100
0010
0000
1000
0000
0001
0000
0000
0010
0100
0000
1000
0000
,
1002
0000
0000
0000
0103
0000
0010
0100
0010
0000
0000
0000
0110
0000
0000
0000
,
1000
0000
0000
1000
0100
0000
1000
0000
0001
0000
0000
0001
0100
0000
0001
0000
,
1000
0000
0000
1000
0010
0000
1000
0000
0001
0000
0000
0001
0010
0000
0001
0000
,
0100
0000
0000
0100
0010
0000
0000
0010
1000
0000
0000
1000
0001
0000
0000
0001
,
1000
0000
0100
0110
0000
0000
1001
0001
,
1000
0000
0000
1000
0100
0000
0010
0000
0001
0000
0000
0200
1000
0000
0000
0000
,
0301
0000
0000
0001
0100
0000
0010
0000
2000
0000
0100
0000
3002
0000
0100
0000
,
0023
0000
0000
0000
0130
0000
1000
0000
0001
0100
0000
0001
1000
0000
1000
0000
,
0001
0010
0001
0000
1000
0000
0100
0000
1000
0010
1000
0000
0001
0000
0000
0000
,
1002
0000
0000
0000
,
0023
0000
0000
0000
,
0230
0000
0000
0000
,
2300
0000
0000
0000
,
3002
0000
0000
0000
,
0203
0000
0000
0000
,
0320
0000
0000
0000
,
2030
0000
0000
3000
0002
0000
0000
0003
,
1001
0000
1000
0000
0100
0010
0001
0000
,
0100
0000
0010
0000
1000
0001
0010
0000
,
0001
0000
0100
0000
0010
1000
0001
0000
,
0010
0000
0100
0000
1000
0001
0100
0010
,
1000
0100
0000
0000
0011
0000
0000
0000
0001
0100
0000
0000
1010
0000
0000
0000
,
0001
0010
0000
0000
1100
0000
0000
0000
1000
0010
0000
0000
0101
0000
0000
0000
,
0001
0010
0001
0000
0010
0000
0100
0000
1000
0010
1000
0000
0010
0000
0100
0000
,
0210
0000
0000
0000
0000
0000
0301
0001
,
1000
0000
0000
0100
0010
0000
0001
0000
0100
0000
0010
0000
1000
0000
0000
0000
,
0001
0000
0000
0010
0100
0000
1000
0000
0010
0100
0000
0001
0000
0000
1000
0000
,
0001
0000
0000
0010
0001
0000
1000
0000
0010
0000
0100
0000
0001
0000
0000
0000
,
1000
0000
0000
0010
1000
0000
0001
0000
0010
0000
0100
0000
1000
0000
1000
0000
,
0001
0000
0100
0000
0010
1000
0000
0010
0000
0010
0000
0100
0000
0000
0001
0000
,
1000
0000
0100
0000
0010
0001
0000
0010
0000
0100
0000
1000
0000
0020
0000
0000
,
0130
0000
0001
0000
0010
0100
0000
1000
0000
0001
1000
0000
0010
0000
0100
0000
,
0001
0000
0000
0011
0000
0000
1001
0000
2000
0000
0000
0000
3020
0000
0000
0000
,
1030
0000
0000
0000
0000
0000
0000
0000
0100
0000
0000
0000
0000
0000
0000
0000
1000
0000
0000
0000
0001
0000
0000
0000
0000
0000
0000
0000
0200
0300
0000
0000
0000
0000
0000
0000
0200
0300
0000
0000
0000
0000
0000
0000
1000
0000
0000
0000
0000
0000
0000
0000
0000
0000
0000
0000
0001
0000
0000
0000
0000
0000
0000
0000
,
1000
0000
0000
0000
0000
0000
0000
0000
0010
0000
0000
0000
0000
0000
0000
0000
1000
0000
0000
0000
0001
0000
0000
0000
0000
0000
0000
0000
0020
0030
0000
0000
0000
0000
0000
0000
0020
0030
0000
0000
0000
0000
0000
0000
1000
0000
0000
0000
0000
0000
0000
0000
0001
0000
0000
0000
0010
0000
0000
0000
0000
0000
0000
0000
,
0001
0000
0000
0000
0000
0000
0000
0000
0100
0000
0000
0000
0000
0000
0000
0000
0001
0000
0000
0000
1000
0000
0000
0000
0000
0000
0000
0000
0200
0300
0000
0000
0000
0000
0000
0000
0200
0300
0000
0000
0000
0000
0000
0000
0001
0000
0000
0000
0000
0000
0000
0000
0000
0000
0000
0000
1000
0000
0000
0000
0000
0000
0000
0000
,
0001
0010
0001
1000
0010
0000
0210
0000
,
0301
0000
0100
0000
0010
0100
0000
0001
0000
0010
0000
0100
1000
0000
0001
0000
,
0201
0000
0000
0300
1200
0000
0000
0300
0201
0000
0000
0300
1200
0000
0000
0300
,
0001
0000
1000
0000
0100
1000
0100
0000
1000
0001
1000
0001
0010
0000
0100
0000
,
0120
0000
0000
0031
,
1001
0000
0000
0000
0000
0000
0000
0000
1000
0000
0000
0000
0001
0000
0000
0000
0000
0000
0000
0000
0020
0030
0000
0000
0000
0000
0000
0000
0020
0030
0000
0000
0000
0000
0000
0000
1000
0000
0000
0000
0000
0000
0000
0000
0001
0000
0000
0000
0200
0300
0000
0000
0000
0000
0000
0000
0200
0300
0000
0000
0000
0000
0000
0000
,
0000
0000
0000
0000
0000
0000
0000
0000
1001
0000
0000
0000
0000
0000
0000
0000
1000
0000
0000
0000
0200
0300
0000
0000
0000
0000
0000
0000
0200
0300
0000
0000
0001
0000
0000
0000
0000
0000
0000
0000
0000
0000
0000
0000
0000
0000
0000
0000
0020
0000
0000
0000
0000
0000
0000
0000
0000
0000
0000
0000
0000
0000
0000
0000
,
0031
0100
0000
0100
0000
0010
0000
0010
0000
1000
0000
1000
0002
0000
0000
0000
,
0003
0000
1000
0100
1000
0100
0000
0020
0000
0000
0000
0000
0000
0000
0030
0000
,
0011
0000
0000
0000
0000
0000
0000
0000
0001
0000
0000
0000
1000
0000
0000
0000
0000
0000
0000
0000
0200
0300
0000
0000
0000
0000
0000
0000
0200
0300
0000
0000
0000
0000
0000
0000
0010
0000
0000
0000
0000
0000
0000
0000
1000
0000
0000
0000
0200
0300
0000
0000
0000
0000
0000
0000
0200
0300
0000
0000
0000
0000
0000
0000
,
0000
0000
0000
0000
0000
0000
0000
0000
0001
0000
0000
0000
0000
0000
0000
0000
0010
0000
0000
0000
0200
0300
0000
0000
0000
0000
0000
0000
0200
0300
0000
0000
0001
0000
0000
0000
0000
0000
0000
0000
0000
0000
0000
0000
0000
0000
0000
0000
1000
0000
0000
0000
0000
0000
0000
0000
0002
0000
0000
0000
0000
0000
0000
0000
,
1003
0000
0001
0100
0000
0110
0000
0000
0001
0000
1000
0100
1000
0000
0001
0100
,
0001
0000
0000
0001
0010
0000
0100
0000
1000
0001
1000
0001
0100
0000
0010
0000
,
2002
3003
0000
0000
;

//--------------- dance-single - 47R ----------------
#NOTEDATA:;
#STEPSTYPE:dance-single;
#DESCRIPTION:47R;
#DIFFICULTY:Hard;
#METER:16;
#RADARVALUES:0,0,0,0,0;
#CREDIT:47R;
#NOTES:
0000
0000
0000
0000
,
0000
0000
0000
0000
,
0000
0000
0000
0000
,
0000
0000
0000
0000
,
0000
0000
0000
0000
,
2001
0100
0001
0010
,
3002
0100
1000
0010
,
1003
0000
0000
0100
0000
0000
0010
0000
0000
0100
0000
0000
0001
0000
0000
0100
0000
0000
0010
0000
0000
0100
1000
0001
,
1000
0000
0010
1000
0010
1000
0010
1000
0002
0000
0000
0000
0023
0000
0000
0000
,
0031
0000
0000
0001
0100
0000
1000
0000
0100
0000
0000
0001
0010
0000
0001
0000
,
1000
0000
0000
1000
0100
0000
0001
0000
0100
0000
0000
1000
0010
0000
1000
0000
,
0001
0100
0000
0010
0100
0000
0001
0000
1000
0100
0000
0010
0100
0000
1000
0000
,
0001
0100
0010
0100
0001
0000
1000
0100
2000
0000
0010
0000
3002
0000
0000
0000
,
1003
0000
0000
0100
0010
0000
0001
0000
0100
0000
0000
0010
1000
0000
0001
0000
,
0010
0000
0000
0100
1000
0000
0001
0000
0200
0000
0000
0000
0302
0000
0010
0000
,
1003
0100
1000
0000
0001
0000
0100
0000
0001
1000
0001
1000
0002
0000
0100
0000
,
1003
0000
0100
0010
0000
0010
0000
0001
0100
0001
1000
0001
1000
0000
0000
0000
,
1001
0000
0000
1000
0010
0000
0001
0000
0010
0000
0000
1000
0100
0000
0010
0000
,
0001
0000
0000
0001
0010
0000
1000
0000
0010
0000
0000
0001
0100
0000
0010
0000
,
1000
0100
0000
0010
0100
0000
1000
0000
0001
0100
0000
0010
0100
0000
0001
0000
,
0010
0000
0100
1000
0001
0000
0100
0001
1000
0000
0000
1000
0010
0000
0100
0000
,
0001
0000
0000
0010
0100
0000
0010
0000
0001
1000
0000
0001
0100
0000
0001
0000
,
1000
0000
0000
0010
0100
0000
0010
0000
1000
0000
0001
0100
0010
0000
1000
0100
,
0010
0000
0000
0100
1000
0000
0001
0000
0100
0000
0010
1000
0001
0000
1000
0000
,
1200
0000
0000
0000
0301
0100
1000
0010
0100
0000
0000
0000
0120
0000
0000
0000
,
1030
0000
0000
0100
0010
0000
0100
1000
0001
0000
0000
0100
0010
0000
0100
0001
,
1000
0000
0000
0010
0100
0000
0010
1000
0001
0000
0010
0100
0010
0100
1000
0000
,
0001
0100
0000
0010
0100
0000
0001
0000
1000
0100
0000
0010
0100
0000
1000
0020
,
0000
0000
0030
0000
0101
0000
0101
0000
0001
0010
0100
1000
0010
0000
0010
0000
,
0001
0000
0010
0100
0001
0000
0010
0100
0001
0100
0001
0100
2000
0000
0000
0000
,
3100
0000
0001
0100
0010
0000
0001
0100
0010
1000
0001
1000
0010
1000
0001
1000
,
0010
0000
0000
0000
0000
0000
0000
0000
1000
0000
0000
0000
0200
0300
0000
0000
0000
0000
0000
0000
0200
0300
0000
0000
0001
0000
0000
0000
0000
0000
0000
0000
1000
0000
0000
0000
0020
0030
0000
0000
0000
0000
0000
0000
0020
0030
0000
0000
0001
0000
0000
0000
0000
0000
0000
0000
1000
0000
0000
0000
0000
0000
0000
0000
,
0001
0010
0001
0010
0100
1000
0100
1000
0010
0100
0001
1000
0100
0000
0000
0000
,
1002
0000
0000
0000
,
0203
0000
0000
0000
,
0320
0000
0000
0000
,
2030
0000
0000
0000
,
3002
0010
1000
0100
,
2003
0010
0001
0100
,
3002
0100
1000
0010
,
0103
0000
0010
1000
0000
0001
0100
0000
0001
0000
0010
0100
1000
0000
0001
0000
,
2001
0000
0000
0000
0100
0000
3100
1000
0000
0001
0000
0010
0000
0001
0100
0000
,
0002
0000
0000
0000
0100
0000
0103
0001
0000
1000
0000
0010
0000
1000
0100
0000
,
0020
0000
0000
0000
0001
0000
0031
0010
0000
0100
0000
1000
0000
0001
0100
0000
,
0020
0000
1000
0000
0130
0001
0010
0001
,
0100
2010
3100
0012
,
0103
2001
3010
0102
,
0013
0000
0001
0100
0010
1000
0001
0000
1000
0010
0100
0001
1000
0100
0010
0001
,
2000
0000
0000
0000
0000
0000
0000
0000
0000
0000
0000
0000
0000
0000
0000
0000
0000
0000
0000
0000
0000
0000
0000
0000
0000
0000
0000
0000
0000
0000
0000
0000
3001
0000
0000
0000
0010
0000
0000
0000
0100
0000
0000
0000
1000
0000
0000
0000
0001
0000
0000
0000
0200
0300
0000
0000
0200
0300
0000
0000
1000
0000
0000
0000
,
0001
0000
0100
0000
0010
1000
0010
0100
0000
0001
0000
0010
0000
0100
1000
0001
,
0100
0000
0010
0000
1000
0100
0010
0100
0000
1000
0000
0010
0000
0100
0001
0010
,
0100
0000
0010
0000
0001
1000
0010
0100
0000
0001
0000
1000
0000
0100
0010
0001
,
1000
0000
0010
0000
0100
0001
1000
0100
0000
0010
0000
0001
0000
1000
0010
1000
,
0100
0000
1000
0000
0001
0010
0100
0010
0000
0001
1000
0001
0100
0010
1000
0000
,
0001
0000
0010
0000
0100
0010
0001
1000
0000
0010
0000
0001
0000
0010
1000
0001
,
1000
0000
0100
0000
0001
0100
0010
0100
0000
1000
0001
0100
0001
1000
0010
0100
,
0001
0000
0100
1000
0000
1000
0100
0000
0001
0010
0001
0000
1002
0000
0000
0000
,
1003
0000
0001
0100
0010
1000
0001
0100
0000
0001
1000
0100
0000
0010
0001
0100
,
0010
0000
1000
0100
0010
0100
1000
0001
0000
0011
0000
0101
0000
0100
0010
1000
,
0100
0000
0010
0001
1000
0010
0100
0001
0000
0010
0001
1000
0000
0001
0100
0001
,
0010
0000
0100
1000
0001
0100
0010
1000
0001
0000
1000
0100
0002
0000
0000
0000
,
0103
0000
0001
0100
0010
0000
0001
0100
0010
1000
0000
0001
1000
0001
0010
0001
,
0100
0000
1000
0100
0010
0000
1000
0100
0010
0001
0000
1000
0000
0010
0001
0000
,
0010
0000
0000
0000
0000
0000
0000
0000
2000
0000
0000
0000
0000
0000
0000
0000
3001
0000
0000
0000
0000
0000
0000
0000
0200
0000
0000
0000
0000
0000
0000
0000
1300
0000
0000
0000
0100
0000
0000
0000
0001
0000
0000
0000
0010
0000
0000
0000
0001
0000
0000
0000
0200
0300
0000
0000
0200
0300
0000
0000
1000
0000
0000
0000
,
0002
0000
0003
0110
,
1001
0000
0001
0100
0000
0101
0000
0011
0000
1010
0000
1000
0100
0010
0100
0010
,
0000
0000
0011
0000
0001
0100
0000
0010
1000
0000
0001
0100
1000
0000
0000
0000
,
0100
0010
0000
0100
0000
0101
0000
1001
0000
1100
0000
0100
0001
0100
1000
0001
,
0000
0000
0000
0000
0000
0000
0000
0000
1000
0000
0000
0000
0200
0300
0000
0000
0200
0300
0000
0000
0001
0000
0000
0000
0000
0000
0000
0000
0220
0000
0000
0000
0000
0000
0000
0000
0000
0000
0000
0000
0000
0000
0000
0000
0000
0000
0000
0000
0330
0000
0000
0000
0000
0000
0000
0000
0000
0000
0000
0000
0000
0000
0000
0000
,
1001
0000
1000
0100
0000
1100
0000
1010
0000
0011
0000
0001
0100
0010
0100
0010
,
0000
0000
1010
0000
1000
0100
0000
0010
0001
0000
1000
0100
0001
0100
0010
0100
,
1000
0000
0001
0100
0000
0101
0000
0001
1000
0000
0010
0100
0001
0010
0100
1000
,
0001
0000
0000
0000
0200
0300
0000
0000
0200
0300
0000
0000
1000
0000
0000
0000
0020
0000
0000
0000
0000
0000
0000
0000
0000
0000
0000
0000
0000
0000
0000
0000
1030
0000
0000
0000
0200
0300
0000
0000
0200
0300
0000
0000
0001
0000
0000
0000
0010
0000
0000
0000
0001
0000
0000
0000
0100
0000
0000
0000
0010
0000
0000
0000
,
2000
3000
0000
0000
;

//--------------- dance-double - 47R ----------------
#NOTEDATA:;
#STEPSTYPE:dance-double;
#DESCRIPTION:47R;
#DIFFICULTY:Easy;
#METER:9;
#RADARVALUES:0,0,0,0,0;
#CREDIT:47R;
#NOTES:
00000000
00000000
00000000
00000000
,
00000000
00000000
00000000
00000000
,
00000000
00000000
00000000
00000000
,
00000000
00000000
00000000
00000000
,
00000000
00000000
00000000
00000000
,
00020000
00000100
00000000
00031000
,
00002000
01000000
00000000
00013000
,
00020000
00000010
00000000
00031000
,
00022000
00000000
00000000
00033000
,
00011000
00001000
01000000
01000000
,
00010000
00010000
10000000
10000000
,
01000000
00010000
00001000
00010000
,
01000000
00010000
00002000
00003000
,
00011000
00010000
00001000
00001000
,
01000000
01000000
00010000
00010000
,
10000000
01000000
00100000
00001000
,
00021000
00000000
00000000
00030100
,
00001001
00000001
00000001
00000100
,
00000100
00001000
00001000
00010000
,
00100000
10000000
01000000
00010000
,
00001000
00000000
00000010
00000000
00000001
00000000
00001000
00000001
,
00000100
00000100
00001000
00001000
,
00010000
00010000
01000000
01000000
,
10000000
00000000
00100000
00000000
01000000
00000000
00001000
00010000
,
00001000
00000100
00001000
00010000
,
00011000
00000000
00001000
00010000
00001000
00000000
01000000
00000000
,
00100000
00000000
10000000
00010000
10000000
00000000
01000000
00000000
,
00010000
00001000
00000010
00001000
,
00000000
00000000
00010000
00010000
00000000
00000000
00011000
00000000
,
00001000
00000100
00000001
00002000
,
00003001
00000010
00002000
00023000
,
00031000
00000000
00000000
00001000
00000000
00000000
01000000
00000000
00000000
01000000
00000000
00000000
00100000
00000000
00000000
00000000
,
10000000
00000000
00100000
01000000
00010000
00000000
10000000
00000000
,
20010000
00000000
00000000
00000000
,
30020000
00000000
00000000
00000000
,
02030000
00000000
00000000
00000000
,
03002000
00000000
00000000
00000000
,
00023000
00000000
00000000
00000000
,
00032000
00000000
00000000
00000000
,
00003200
00000000
00000000
00000000
,
00000320
00000000
00010030
00001000
,
00012000
00000000
00010000
01000000
,
00023000
00000000
00001000
00000100
,
00032000
00000000
00010000
00100000
,
00023000
00000000
00001000
00000010
,
00031000
00011000
00000000
01001000
,
00000000
00011000
00000000
00010100
,
00010000
00001000
00000100
00000001
,
00000020
00000000
00000000
00000130
,
00001001
00000000
00000001
00001000
00000100
00000000
00001000
00000000
,
00000010
00000000
00010000
00001000
01000000
00000000
00020000
00000000
,
00130000
00000000
01000000
10000000
00010000
00000000
01000000
00000000
,
00001000
00000000
00010000
00000100
00001000
00000000
00000010
00000010
,
00000100
00000000
00000001
00000010
00000100
00000000
00001000
00000000
,
00010000
00000000
01000000
00100000
10000000
00000000
00010000
00000000
,
00100000
00000000
00001000
00010000
00001000
00000000
00000100
00000000
,
00000001
00000000
00000000
00000010
00000000
00000000
00000100
00000000
,
00011000
00000000
00001000
01000000
00010000
00000000
10000000
00000000
,
01000000
00000000
00100000
00010000
01000000
00000000
00002000
00000000
,
00013000
00000000
00000100
00001000
00000001
00000000
00000100
00000000
,
00000010
00000000
00001000
00000100
00010000
00000000
00011000
00000000
,
00001000
00000000
01000000
00000000
00010000
10000000
01000000
00000000
,
00100000
00000000
00001000
00010000
00001000
00000000
00000010
00000000
,
00000100
00010000
00001000
01000000
,
02100000
00000000
00000000
03100000
,
10010000
00000000
10000000
01000000
00010000
00000000
00002000
00000000
,
00003000
00000000
00000010
00000000
00000000
00000100
00000000
00000000
00000220
00000000
00000000
00000000
00000330
00000000
00000000
00000000
,
00001001
00000000
00000001
00000100
00001000
00000000
00020000
00000000
,
00030000
00000000
00000010
00000000
00000000
00000100
00000000
00000100
00000000
00000000
00000000
00000000
00000000
00000000
00000000
00000000
,
00001001
00000000
00000001
00000100
00001000
00000000
00020000
00000000
,
00030000
00000000
00100000
00000000
00000000
01000000
00000000
00000000
02200000
00000000
00000000
00000000
03300000
00000000
00000000
00000000
,
10010000
00000000
10000000
01000000
00010000
00000000
00001000
00000000
,
00000100
00001001
00000100
00011000
,
20020000
30030000
00000000
00000000
;

//--------------- dance-double - 47R ----------------
#NOTEDATA:;
#STEPSTYPE:dance-double;
#DESCRIPTION:47R;
#DIFFICULTY:Medium;
#METER:14;
#RADARVALUES:0,0,0,0,0;
#CREDIT:47R;
#NOTES:
00000000
00000000
00000000
00000000
,
00000000
00000000
00000000
00000000
,
00000000
00000000
00000000
00000000
,
00000000
00000000
00000000
00000000
,
00000000
00000000
00000000
00000000
,
00012000
01000000
00010000
00100000
,
00023000
00000100
00001000
00000010
,
00032000
00000000
00000100
00000000
00010000
00000000
00103000
01000000
,
00200000
00000000
00301000
00001000
00020000
00000000
00230000
00000000
,
10300000
00000000
00000000
01000000
00100000
00000000
00010000
00000000
10000000
00000000
00000000
00100000
01000000
00000000
00010000
00000000
,
00001000
00000000
00000000
00000100
00000010
00000000
00000001
00000000
00001000
00000000
00000000
00000001
00000100
00000000
00001000
00000000
,
00010000
00000000
00000000
00000100
00001000
00000000
00000001
00000000
00000010
00000000
00000000
00001000
00010000
00000000
00001000
00000000
,
01000000
00000000
00100000
10000000
00000000
00010000
10000000
00000000
00010000
00000000
00100000
00000000
00002000
00000000
00000000
00000000
,
00013000
00000000
00000000
00000100
00001000
00000000
00000010
00000000
00010000
00000000
00000000
00001000
01000000
00000000
00010000
00000000
,
00100000
00000000
00000000
01000000
10000000
00000000
00000000
00000000
00100000
00000000
00000000
00000000
00010000
00000000
00000000
00000000
,
00001000
00000100
00000001
00000100
00001000
00010000
01000000
10000000
,
00020000
00000000
00030000
10020000
,
10030000
00000000
00000000
01000000
10000000
00000000
01000000
00000000
00000000
00000000
00000000
00100000
00010000
00000000
00100000
00000000
,
00000000
00000000
00000000
00001000
00010000
00000000
00001000
00000000
00000000
00000000
00000000
00010000
00000100
00000000
00001000
00000000
,
00000001
00000000
00000000
00000100
00000010
00000000
00001000
00000000
00000000
00000000
00000000
00010000
00100000
00000000
01000000
00000000
,
10000000
10000000
00100000
00000000
01000000
01000000
00001000
00010000
,
00001000
00000000
00000000
00001000
01000000
00000000
00010000
00000000
10000000
00000000
00000000
10000000
01000000
00000000
00010000
00000000
,
00001000
00000000
00000000
00001000
00100000
00000000
00010000
00000000
01000000
00000000
00000000
01000000
00001000
00000000
00010000
00000000
,
00000100
00000000
00000000
00001000
00000001
00000000
00000100
00000000
00000010
00000000
00000000
00010000
00001000
00000000
00000000
00000000
,
01002000
00103000
00010200
00000310
,
00000001
00000000
00000000
00000001
00000010
00000000
00000100
00000000
00001000
00000000
00000000
00001000
00000001
00000000
00000100
00000000
,
00001000
00000000
00000000
00001000
00010000
00000000
00001000
00000000
01000000
00000000
00000000
01000000
00100000
00000000
10000000
00000000
,
01000000
00000000
00000000
01000000
00010000
00000000
00000000
00010000
00001000
00000000
00000000
00001000
00000100
00000000
00000000
00000100
,
00000010
00000000
00010000
00011000
00000000
00000000
01000000
01000000
,
00100000
00000000
00000000
10000000
00100000
00000000
00000000
00000000
01000000
00000000
00000000
00002000
00010000
00000000
00000000
00000000
,
00003010
00000000
00000000
00000001
00000010
00000000
00000000
00000000
00002000
00000000
00023000
00000000
02030000
00000000
03020000
00000000
,
00032000
00000000
00103000
00100000
02000000
00000000
13000000
10000000
,
01000000
00010000
00001000
00000010
00000001
00000100
00001000
00000000
,
00012000
00000000
00000000
00000000
,
02003000
00000000
00000000
00000000
,
03200000
00000000
00000000
00000000
,
20300000
00000000
00000000
00000000
,
32000000
00000000
00000000
00000000
,
03020000
00000000
00000000
00000000
,
00032000
00000000
00000000
00000000
,
02003000
00000000
00000000
03000000
00000200
00000000
00000000
00000300
,
00011000
00000000
01000000
00000000
00010000
10000000
01000000
00000000
,
00100000
00000000
00001000
00000000
00010000
00000100
00001000
00000000
,
00000010
00000000
00000100
00000000
00000001
00000010
00000100
00000000
,
00001000
00000000
00010000
00000000
00100000
00010000
10000000
00100000
,
01000000
00001010
00000100
00110000
,
01000000
00001010
00000100
00110000
,
10000000
01000000
00010000
00001000
00000100
00001000
00010000
01000000
,
00200000
00000000
00000000
00000000
00000000
00000000
00310000
00010000
,
10000000
00000000
00000000
01000000
00100000
00000000
00010000
00000000
10000000
00000000
00100000
00000000
00010000
00000000
00000000
00000000
,
00001000
00000000
00000000
00010000
00001000
00000000
00000010
00000000
00000100
00001000
00000000
00000001
00000000
00000000
00000100
00000000
,
00000001
00000000
00000000
00000010
00000100
00000000
00001000
00000000
00000001
00000000
00000100
00000000
00001000
00000000
00000000
00000000
,
00010000
00000000
00000000
01000000
00100000
00000000
01000000
00000000
10000000
00000000
00010000
00000000
00100000
00000000
00100000
00000000
,
01000000
00000000
10000000
00000000
01000000
00000000
00000000
00010000
00000000
00001000
00000000
00010000
00000000
00000000
00000100
00000000
,
00000010
00000000
00000001
00000000
00000100
00000000
00000000
00000010
00000000
00001000
00000000
00010000
00000000
02000000
00000000
00000000
,
03100000
00000000
00000000
00000000
10000000
01000000
00000000
00100000
00000000
01000000
10000000
00000000
00010000
00000000
00000000
00000000
,
01000000
00000000
00000000
00001000
00000000
00000000
00000020
00000000
00000000
00000000
00000030
00000000
00001001
00000000
00000000
00000000
,
00000001
00000000
00000000
00000000
00000000
00000000
00000000
00000000
00000010
00000000
00000000
00000000
00000000
00000000
00000000
00000000
00000001
00000000
00000000
00000000
00001000
00000000
00000000
00000000
00000000
00000000
00000000
00000000
00000200
00000300
00000000
00000000
00000000
00000000
00000000
00000000
00000200
00000300
00000000
00000000
00000000
00000000
00000000
00000000
00000001
00000000
00000000
00000000
00000000
00000000
00000000
00000000
00000100
00000000
00000000
00000000
00001000
00000000
00000000
00000000
00000000
00000000
00000000
00000000
,
00010000
00000000
00000000
00000000
00000000
00000000
00000000
00000000
00001000
00000000
00000000
00000000
00010000
00000000
00000000
00000000
00000000
00000000
00000000
00000000
02000000
03000000
00000000
00000000
00000000
00000000
00000000
00000000
02000000
03000000
00000000
00000000
00000000
00000000
00000000
00000000
00010000
00000000
00000000
00000000
00000000
00000000
00000000
00000000
10000000
00000000
00000000
00000000
00000000
00000000
00000000
00000000
00010000
00000000
00000000
00000000
00100000
00000000
00000000
00000000
00000000
00000000
00000000
00000000
,
00010000
00000000
00000000
00000000
00000000
00000000
00000000
00000000
01000000
00000000
00000000
00000000
00000000
00000000
00000000
00000000
00010000
00000000
00000000
00000000
10000000
00000000
00000000
00000000
00000000
00000000
00000000
00000000
02000000
03000000
00000000
00000000
00000000
00000000
00000000
00000000
02000000
03000000
00000000
00000000
00000000
00000000
00000000
00000000
00010000
00000000
00000000
00000000
00000000
00000000
00000000
00000000
00000000
00000000
00000000
00000000
00001000
00000000
00000000
00000000
00000000
00000000
00000000
00000000
,
00000010
00001000
00000001
00000010
00001000
00000000
00021000
00000000
,
00130000
00000000
01000000
00000000
00010000
00100000
00000000
00001000
00000000
00001000
00000000
01000000
00010000
00000000
00000000
00000000
,
20000000
00000000
00000000
30000000
00020000
00000000
00000000
00030000
00002000
00000000
00000000
00003000
00000002
00000000
00000000
00000003
,
00000010
00000000
00001000
00000000
00010000
00000000
01000000
00000000
10000000
00010000
10000000
00000000
00100000
00000000
00010000
00000000
,
00002000
00000000
00000000
00013000
,
00001001
00000000
00000000
00000000
00000000
00000000
00000000
00000000
00000001
00000000
00000000
00000000
00001000
00000000
00000000
00000000
00000000
00000000
00000000
00000000
00000020
00000030
00000000
00000000
00000000
00000000
00000000
00000000
00000020
00000030
00000000
00000000
00000000
00000000
00000000
00000000
00000001
00000000
00000000
00000000
00000000
00000000
00000000
00000000
00001000
00000000
00000000
00000000
00000100
00000000
00000000
00000000
00000000
00000000
00000000
00000000
00000100
00000000
00000000
00000000
00000000
00000000
00000000
00000000
,
00000000
00000000
00000000
00000000
00000000
00000000
00000000
00000000
00011000
00000000
00000000
00000000
00000000
00000000
00000000
00000000
00010000
00000000
00000000
00000000
01000000
00000000
00000000
00000000
00000000
00000000
00000000
00000000
10000000
00000000
00000000
00000000
00200000
00300000
00000000
00000000
00000000
00000000
00000000
00000000
00200000
00300000
00000000
00000000
00000000
00000000
00000000
00000000
00020000
00000000
00000000
00000000
00000000
00000000
00000000
00000000
00000000
00000000
00000000
00000000
00000000
00000000
00000000
00000000
,
10030000
01000000
00000000
00010000
00000000
00001000
00000000
00010000
00000000
00001000
00000000
00000010
00000002
00000000
00000000
00000000
,
00000003
00000000
00001000
00000100
00010000
00001000
00000000
02000000
00000000
00000000
00000000
00000000
00000000
00000000
03000000
00000000
,
10010000
00000000
00000000
00000000
00000000
00000000
00000000
00000000
10000000
00000000
00000000
00000000
00010000
00000000
00000000
00000000
00000000
00000000
00000000
00000000
00200000
00300000
00000000
00000000
00000000
00000000
00000000
00000000
00200000
00300000
00000000
00000000
00000000
00000000
00000000
00000000
01000000
00000000
00000000
00000000
00000000
00000000
00000000
00000000
00010000
00000000
00000000
00000000
00100000
00000000
00000000
00000000
00000000
00000000
00000000
00000000
00001000
00000000
00000000
00000000
00000000
00000000
00000000
00000000
,
00000000
00000000
00000000
00000000
00000000
00000000
00000000
00000000
00000100
00000000
00000000
00000000
00000000
00000000
00000000
00000000
00000001
00000000
00000000
00000000
00000020
00000030
00000000
00000000
00000000
00000000
00000000
00000000
00000020
00000030
00000000
00000000
00001000
00000000
00000000
00000000
00000000
00000000
00000000
00000000
00000000
00000000
00000000
00000000
00000000
00000000
00000000
00000000
00000002
00000000
00000000
00000000
00000000
00000000
00000000
00000000
00000000
00000000
00000000
00000000
00000000
00000000
00000000
00000000
,
00001003
00000000
00000100
00010000
00000000
00101000
00000000
00000000
01000000
00000000
00010000
00000000
10000000
01000000
10000000
01000000
,
00010000
00000000
00000000
00010000
00001000
00000000
00000010
00000000
00000100
00000000
00001000
00000001
00000100
00000000
00000000
00000000
,
00022000
00033000
00000000
00000000
;

//--------------- dance-double - 47R ----------------
#NOTEDATA:;
#STEPSTYPE:dance-double;
#DESCRIPTION:47R;
#DIFFICULTY:Hard;
#METER:17;
#RADARVALUES:0,0,0,0,0;
#CREDIT:47R;
#NOTES:
00000000
00000000
00000000
00000000
,
00000000
00000000
00000000
00000000
,
00000000
00000000
00000000
00000000
,
00000000
00000000
00000000
00000000
,
00000000
00000000
00000000
00000000
,
00021000
00000100
00001000
00030100
,
00002000
00000010
00003001
00000100
,
00001000
00000000
00000000
00010000
00000000
00000000
01000000
00000000
00000000
10000000
00000000
00000000
00010000
00000000
00000000
01000000
00000000
00000000
00100000
00000000
00000000
10000000
00010000
10000000
,
00010000
00000000
00100000
00001000
00100000
00001000
00010000
00001000
00020000
00000000
00000000
00000000
00032000
00000000
00000000
00000000
,
00003010
00000000
00000000
00000010
00000100
00000000
00010000
00000000
00001000
00000000
00000000
00001000
01000000
00000000
00010000
00000000
,
10000000
00000000
00000000
10000000
01000000
00000000
00010000
00000000
00001000
00000000
00000000
00001000
00000010
00000000
00000001
00000000
,
00000100
00000001
00000000
00000100
00000010
00000000
00001000
00000000
00000100
00010000
00000000
00001000
01000000
00000000
00010000
00000000
,
10000000
01000000
00100000
00000000
01000000
00100000
00001000
00000000
00020000
00000000
00000000
00000000
00230000
00000000
00000000
00000000
,
10300000
00000000
00000000
01000000
00100000
00000000
00010000
00000000
00001000
00000000
00000000
00000100
00000010
00000000
00000001
00000000
,
00001000
00000000
00000000
00000001
00000100
00000000
00001000
00000000
00010000
00000000
00100000
00000000
10000000
00000000
01000000
00000000
,
00010000
00001000
00010000
00000000
00000100
00000000
00010000
00000000
00001000
00100000
00001000
00100000
00020000
00000000
01000000
00000000
,
10030000
00000000
01000000
00010000
00000000
00010000
00000000
00001000
00000100
00000000
00000001
00000000
00002000
00000000
00000000
00000000
,
00013000
00000000
00000000
01000000
00100000
00000000
10000000
00000000
01000000
00000000
00000000
00010000
00001000
00000000
00000010
00000000
,
00000100
00000000
00000000
00001000
00000001
00000000
00000100
00000000
00000010
00000000
00000000
00010000
00001000
00000000
01000000
00000000
,
00010000
00100000
00000000
01000000
00010000
00000000
00001000
00000000
00000010
00000100
00000000
00001000
00000001
00000000
00000100
00000000
,
00001000
00000000
00010000
00001000
01000000
00000000
00010000
10000000
01000000
00000000
00000000
00010000
00001000
00000000
00000010
00000000
,
00000001
00000000
00000000
00000100
00000010
00000000
00001000
00000000
00000001
00000010
00000000
00000001
00001000
00000000
00000001
00000000
,
00000010
00000000
00000000
00000100
00001000
00000000
00010000
00000000
01000000
00000000
00100000
10000000
00010000
00000000
00100000
00010000
,
10000000
00000000
00000000
01000000
00100000
00000000
00010000
00000000
00001000
00000000
00000010
00000100
00000001
00000000
00000100
00000000
,
00002000
00000000
00000000
00000000
00013000
01000000
10000000
00100000
01000000
00000000
00000000
00000000
01200000
00000000
00000000
00000000
,
10300000
00000000
00000000
01000000
00010000
00000000
00001000
00010000
00000100
00000000
00000000
00000100
00001000
00000000
00000001
00000100
,
00000010
00000000
00000000
00000010
00010000
00000000
00001000
01000000
00010000
00000000
00100000
01000000
00100000
01000000
10000000
00000000
,
00100000
01000000
00000000
00100000
00010000
00000000
00001000
00000000
00000010
00000100
00000000
00000010
00001000
00000000
00010000
00000200
,
00000000
00000000
00000300
00000000
00000110
00000000
00000110
00000000
00000010
00000001
00000100
00001000
00010000
00000000
00010000
00000000
,
00001000
00000000
00000100
00000010
00001000
00000000
00000100
00000010
00001000
00000000
00000010
00000100
00020000
00000000
00000000
00000000
,
00031000
00000000
00010000
01000000
00100000
00000000
00010000
00000000
01000000
00100000
10000000
00010000
01000000
00100000
10000000
00010000
,
10000000
00000000
01000000
00010000
00000000
00010000
00001000
00000000
00000100
00000001
00000000
00000001
00001000
00000000
00000001
00000000
,
00000010
00000100
00000010
00000100
00010000
00000100
00010000
00000100
00010000
00001000
00010000
00001000
00010000
00000000
00000000
00000000
,
00020010
00000000
00000000
00000000
,
00032000
00000000
00000000
00000000
,
00003020
00000000
00000000
00000000
,
00000230
00000000
00000000
00000000
,
00020300
00001000
00000100
00001000
,
00032000
00010000
01000000
00010000
,
00023000
00001000
00000010
00001000
,
00031000
00000000
00010000
00100000
00000000
01000000
00000000
01000000
00010000
00000000
10000000
00000000
01000000
00100000
00010000
00000000
,
00002000
00000000
00000000
00000000
00003010
00000000
00000010
00000100
00000000
00001000
00000000
00010000
00000000
01000000
00100000
00000000
,
00020000
00000000
00000000
00000000
00130000
00000000
00100000
01000000
00000000
00010000
00000000
00001000
00000000
00000100
00000010
00000000
,
00002000
00000000
00000000
00000000
00003010
00000000
00000010
00000100
00000000
00001000
00000000
00010000
00000000
01000000
00100000
00000000
,
00020000
00030200
00002300
00203000
,
01300000
20100000
30010000
00021000
,
00030100
00000012
00001003
00012000
,
00013000
00000000
01000000
10000000
00010000
00000000
10000000
00000000
00100000
00000000
00010000
00001000
00010000
00001000
00010000
00000000
,
00021000
00000000
00000000
00000000
00000000
00000000
00000000
00000000
00000000
00000000
00000000
00000000
00000000
00000000
00000000
00000000
00000000
00000000
00000000
00000000
00000000
00000000
00000000
00000000
00000000
00000000
00000000
00000000
00000000
00000000
00000000
00000000
00030100
00000000
00000000
00000000
00010000
00000000
00000000
00000000
00000100
00000000
00000000
00000000
00010000
00000000
00000000
00000000
00001000
00000000
00000000
00000000
00020000
00030000
00000000
00000000
00020000
00030000
00000000
00000000
01000000
00000000
00000000
00000000
,
00010000
00000000
00100000
00000000
01000000
10000000
01000000
00100000
00000000
00001000
00000000
00010000
00000000
00000100
00001000
00000001
,
00000100
00000000
00000010
00000000
00010000
00001000
00100000
00001000
00000000
00010000
00000000
00100000
00000000
10000000
01000000
00010000
,
01000000
00000000
00100000
00000000
00001000
00010000
00000100
00001000
00000000
00000001
00000000
00000100
00000000
00000010
00010000
00001000
,
01000000
00000000
00010000
00000000
00100000
01000000
00010000
01000000
00000000
00100000
00000000
00001000
00000000
00010000
00000010
00001000
,
00000100
00000000
00001000
00000000
00000001
00000010
00000100
00000010
00000000
00000001
00001000
00000000
00000001
00000100
00000001
00000000
,
00000010
00000000
00001000
00000000
00010000
00000100
00010000
00001000
00000000
00010000
00000000
00100000
00000000
10000000
01000000
00000000
,
00100000
00000000
00001000
00000000
00010000
00001000
01000000
00010000
00000000
10000000
00100000
00000000
00010000
00001000
00010000
00000000
,
01000000
00000000
00010000
00001000
00000000
00001000
00000100
00000000
00000001
00000010
00000001
00000000
00001002
00000000
00000000
00000000
,
00001003
00000000
00000010
00010000
00001000
01000000
00010000
10000000
00000000
01000000
00100000
00010000
00000000
00001000
00000100
00010000
,
00001000
00000000
01000000
00010000
01000000
00001000
00010000
00000100
00000000
00001100
00000000
00001010
00000000
00000010
00000100
00001000
,
00010000
00000000
00000100
00010000
00001000
01000000
00010000
00100000
00000000
01000000
10000000
00010000
00000000
01000000
00001000
00010000
,
00000100
00000000
00001000
00000010
00000100
00001000
00010000
00001000
00100000
00000000
01000000
00010000
00002000
00000000
00000000
00000000
,
01003000
00000000
10000000
01000000
00100000
00000000
10000000
01000000
00100000
00010000
00000000
10000000
00010000
00100000
00001000
00010000
,
00000100
00000000
00000001
00000100
00000010
00000000
00000001
00000100
00000010
00001000
00000000
00010000
00000000
10000000
00100000
00000000
,
00010000
00000000
00000000
00000000
00000000
00000000
00000000
00000000
00002000
00000000
00000000
00000000
00000000
00000000
00000000
00000000
00003010
00000000
00000000
00000000
00000000
00000000
00000000
00000000
00000200
00000000
00000000
00000000
00000000
00000000
00000000
00000000
00000301
00000000
00000000
00000000
00000100
00000000
00000000
00000000
00001000
00000000
00000000
00000000
00000010
00000000
00000000
00000000
00001000
00000000
00000000
00000000
00020000
00030000
00000000
00000000
00020000
00030000
00000000
00000000
00001000
00000000
00000000
00000000
,
00200000
00000000
00300000
00011000
,
00010100
00000000
00000100
00000010
00000000
00000011
00000000
00000101
00000000
00000110
00000000
00000010
00000100
00001000
00010000
00001000
,
00000000
00000000
00101000
00000000
00100000
01000000
00000000
10000000
01000000
00000000
00010000
00000000
00000010
00000000
00000000
00000000
,
00001000
00000100
00000000
00001100
00000000
00001001
00000000
00000011
00000000
00000101
00000000
00000100
00001000
00010000
00001000
00010000
,
00000000
00000000
00000000
00000000
00000000
00000000
00000000
00000000
00001000
00000000
00000000
00000000
02000000
03000000
00000000
00000000
02000000
03000000
00000000
00000000
10000000
00000000
00000000
00000000
00000000
00000000
00000000
00000000
02200000
00000000
00000000
00000000
00000000
00000000
00000000
00000000
00000000
00000000
00000000
00000000
00000000
00000000
00000000
00000000
00000000
00000000
00000000
00000000
03300000
00000000
00000000
00000000
00000000
00000000
00000000
00000000
00000000
00000000
00000000
00000000
00000000
00000000
00000000
00000000
,
10010000
00000000
00010000
01000000
00000000
01001000
00000000
00011000
00000000
00010100
00000000
00000100
00000010
00000001
00000100
00000001
,
00000000
00000000
00011000
00000000
00001000
00100000
00000000
01000000
10000000
00000000
01000000
00010000
00001000
00000000
00000100
00000000
,
00000001
00000000
00000010
00001000
00000000
00010000
00000000
00100000
10000000
00000000
01000000
00100000
00001000
00010000
00001000
00000100
,
00000001
00000000
00000000
00000000
00000020
00000030
00000000
00000000
00000020
00000030
00000000
00000000
00001000
00000000
00000000
00000000
00000002
00000000
00000000
00000000
00000000
00000000
00000000
00000000
00000000
00000000
00000000
00000000
00000000
00000000
00000000
00000000
00000103
00000000
00000000
00000000
00002000
00003000
00000000
00000000
00002000
00003000
00000000
00000000
00000100
00000000
00000000
00000000
00010000
00000000
00000000
00000000
00000000
00000000
00000000
00000000
00001000
00000000
00000000
00000000
01000000
00000000
00000000
00000000
,
00020000
00030000
00000000
00000000
;
