#VERSION:0.83;
#TITLE:Gott;
#SUBTITLE:;
#ARTIST:Hommarju;
#TITLETRANSLIT:;
#SUBTITLETRANSLIT:;
#ARTISTTRANSLIT:;
#GENRE:;
#CREDIT:;
#MUSIC:Gott.ogg;
#BANNER:Gott.png;
#BACKGROUND:Gott-bg.png;
#CDTITLE:./CDTitles/SDVX BOOTH.png;
#SAMPLESTART:92.301;
#SAMPLELENGTH:15.000;
#SELECTABLE:YES;
#OFFSET:0.000;
#BPMS:0.000=195.000
,75.000=97.500
,78.000=195.000
,207.000=97.500
,214.000=195.000
,279.000=97.500
,282.000=195.000
;
#STOPS:10.000=0.038
,10.125=0.039
,10.250=0.038
,10.375=0.039
,10.500=0.038
,10.625=0.039
,10.750=0.038
,10.875=0.039
,78.000=0.038
,78.125=0.039
,78.250=0.038
,78.375=0.039
,78.500=0.038
,78.625=0.039
,78.750=0.038
,78.875=0.039
,214.000=0.038
,214.125=0.039
,214.250=0.038
,214.375=0.039
,214.500=0.038
,214.625=0.039
,214.750=0.038
,214.875=0.038
,282.000=0.038
,282.125=0.039
,282.250=0.038
,282.375=0.039
,282.500=0.038
,282.625=0.039
,282.750=0.038
,282.875=0.039
;
#TIMESIGNATURES:0.000=4=4,
8.000=3=4,
11.000=4=4
;
#DISPLAYBPM:195.000;
#BGCHANGES:0.000=../BGAs/21he.mp4=1.000=0=0=0=StretchNoLoop====,
99999.000=-nosongbg-=1.000=0=0=0=StretchNoLoop====
;
#FGCHANGES:;

//--------------- dance-single - forcednature ----------------
#NOTEDATA:;
#STEPSTYPE:dance-single;
#DESCRIPTION:forcednature;
#DIFFICULTY:Beginner;
#METER:5;
#RADARVALUES:0,0,0,0,0;
#CREDIT:forcednature;
#NOTES:
0000
0000
0000
0000
,
0000
0000
0000
0000
,
0000
0000
0000
0000
,
0000
0000
0000
0000
,
0000
0000
0000
0000
,
0000
0000
0000
0000
,
0000
0000
0000
0001
,
0000
0000
0000
0000
,
0000
0000
0000
1000
,
0000
0000
0000
0000
,
0000
0000
0000
0010
,
0000
0010
0000
0010
,
0000
0000
0000
0100
,
0000
0100
0000
0100
,
0000
0000
0000
0001
,
0000
0001
0000
0001
,
0000
0000
0000
1000
,
0000
1000
0000
1000
,
0000
0000
0000
2002
,
0000
0000
3003
1000
,
0000
0100
0000
1000
,
0000
0000
0000
0001
,
0000
0010
0000
0001
,
0000
0000
0000
1000
,
0000
0010
0000
1000
,
0000
0000
0000
0001
,
0000
0100
0000
0001
,
0000
0000
0000
0010
,
0000
0010
0001
0000
,
0001
0010
0000
0100
,
0000
1000
0100
0000
,
0100
1000
0000
0001
,
0000
0100
0001
0100
,
0000
0001
0100
0001
,
0000
1000
1000
1000
,
0000
0000
0000
1001
,
0000
0001
0000
0010
,
0000
0100
0000
1000
,
0000
0010
0000
0100
,
0000
0000
0000
1001
,
0000
1000
0000
0010
,
0000
0100
0000
0001
,
0000
0010
0000
0100
,
0000
0000
0000
1001
,
0000
0000
0000
0001
,
0000
0001
0000
0001
,
0000
0000
0000
0100
,
0000
0000
0000
0010
,
0000
0010
0000
1000
,
0000
1000
0000
0001
,
0000
0100
0000
0010
,
0000
1000
0000
2002
,
0000
0000
0000
0000
,
0000
0000
3003
0110
,
0000
0000
0000
0001
,
0000
0000
0000
1000
,
0000
0000
0000
0000
,
0000
0000
0000
0100
,
0000
0000
0000
0010
,
0000
0000
0000
0001
,
0000
0000
0000
0000
,
0000
0000
0000
1001
,
0000
0000
1000
1000
,
0000
0000
0001
0001
,
0000
0000
0100
0100
,
0000
0010
0000
1001
,
0000
0001
0000
0100
,
0000
0001
0000
1000
,
1000
1000
0000
0010
,
0000
0100
0000
2002
,
0000
0000
3003
0110
,
0000
0001
0000
1000
,
1000
1000
0000
0001
,
0000
0010
0000
0100
,
0010
0100
0000
1000
,
0000
0001
0000
0100
,
0100
0100
0000
0001
,
0000
1000
0000
0010
,
0100
0010
0000
1001
,
0000
1000
0000
0100
,
0100
0100
0000
1000
,
0000
0001
0000
0010
,
0100
0010
0000
0110
,
0000
1000
1000
1000
,
0000
0001
0001
0001
,
0000
0100
0100
0100
,
0000
0010
0000
1001
,
0000
0000
0110
0000
,
0000
0010
0100
2002
,
0000
0000
0000
0000
,
0000
0000
0000
0000
,
0000
0000
0000
0000
,
3003
0000
0000
0000
;

//--------------- dance-single - forcednature ----------------
#NOTEDATA:;
#STEPSTYPE:dance-single;
#DESCRIPTION:forcednature;
#DIFFICULTY:Easy;
#METER:9;
#RADARVALUES:0,0,0,0,0;
#CREDIT:forcednature;
#NOTES:
0000
0000
0000
0000
,
0000
0000
0000
0000
,
0000
0000
0000
0000
,
0000
0000
0000
0000
,
0000
0000
0000
0000
,
0000
0000
0000
0000
,
0000
0000
0000
0001
,
0000
0100
0000
0001
,
1000
0010
0000
1000
,
0000
0100
0000
1000
,
0001
0010
0000
0110
,
0100
1000
0100
0010
,
0100
1000
0100
0010
,
0001
1000
0001
0010
,
0001
1000
0001
0100
,
0010
1000
0010
0100
,
0010
1000
0010
0100
,
0100
0001
0001
1000
,
0010
0100
0001
2002
,
0000
0000
3003
0110
,
1000
0001
0100
0010
,
1000
0001
0010
0100
,
1000
0001
0100
0001
,
1000
0010
0100
0001
,
0010
0001
1000
0010
,
1000
0100
0010
0001
,
0100
0001
1000
0100
,
1000
0000
0010
0100
0000
0100
0010
0000
,
1000
0001
0011
0000
,
1000
0010
0110
0000
,
0001
1000
1100
0000
,
0001
0010
0011
0001
,
0100
0000
0010
1000
0000
1000
0010
0000
,
0100
0000
0001
1000
0000
1000
0001
0000
,
0010
0000
0010
0100
0000
0100
0020
0000
,
0000
0001
0031
1001
,
1000
0010
0100
0010
,
1000
0001
0100
0001
,
0010
0001
1000
0100
,
1000
0000
0010
0100
0010
0000
1000
0000
,
0001
0010
0001
1000
,
0010
0100
0001
1000
,
0100
1000
0001
0100
,
0001
0000
0010
0100
0000
0100
0020
0000
,
0000
0001
0000
0001
,
0001
0001
0000
0230
,
0000
1000
0000
1000
,
1000
1000
0000
0310
,
0001
0000
0010
0001
0010
0000
0100
0000
,
1000
0000
0100
1000
0100
0000
1000
0000
,
0001
0000
1000
0001
1000
0000
0010
0000
,
0100
0000
0010
0100
0010
0000
2002
0000
,
0000
0000
0000
0000
,
0000
0000
3003
2000
,
0000
0000
0000
3200
,
0000
0000
0000
0320
,
0000
0000
0000
0032
,
0000
2003
0000
3002
,
0000
0000
0000
0203
,
0000
0000
0000
0320
,
0000
0000
0000
2030
,
0000
3002
0003
1001
,
0000
0000
1000
0000
0100
0100
0000
0000
,
1000
0000
0001
0000
0010
0010
0000
0000
,
0001
0000
1000
0000
0010
0010
0000
0000
,
0100
0001
1000
1001
,
0001
0000
0010
0000
0100
0010
0000
0000
,
0100
0000
1000
0000
0010
1000
0000
0000
,
0001
0000
0010
0000
0001
1000
0000
0000
,
0001
0100
0010
2002
,
0000
0000
3003
1000
,
0100
0000
0010
0100
0010
0000
0001
0000
,
0100
0000
0010
0100
0010
0000
1000
0000
,
0001
0000
0010
0001
0010
0000
0100
0000
,
1100
0010
0011
1000
,
0010
0000
0100
0001
0100
0000
0001
0000
,
0010
0000
0100
1000
0100
0000
1000
0000
,
0001
0000
0100
0010
0100
0000
0001
0000
,
1010
1000
0101
1000
,
0001
0000
0010
0001
0010
0000
0001
0000
,
1000
0000
0100
1000
0100
0000
1000
0000
,
0010
0000
0100
0010
0100
0000
0001
0000
,
0011
1000
1100
0001
,
0100
0000
0010
0100
0010
0000
1000
0000
,
0100
0000
0010
0100
0010
0000
0001
0000
,
0100
0000
0001
1000
0001
0000
0010
0000
,
0100
0000
1000
0001
1000
0000
0010
0000
,
0000
1001
0000
0000
0100
0000
0000
1001
,
0000
0010
0110
2002
,
0000
0000
0000
0000
,
0000
0000
0000
0000
,
0000
0000
0000
0000
,
3003
0000
0000
0000
;

//--------------- dance-single - forcednature ----------------
#NOTEDATA:;
#STEPSTYPE:dance-single;
#DESCRIPTION:forcednature;
#DIFFICULTY:Medium;
#METER:13;
#RADARVALUES:0,0,0,0,0;
#CREDIT:forcednature;
#NOTES:
0000
0000
0000
0000
,
0000
0000
0000
0000
,
0000
0000
0000
0000
,
0000
0000
0000
0000
,
0000
0000
0000
0000
,
0000
0000
0000
0000
,
0000
0000
0000
0001
,
0100
0000
0001
0000
1000
0010
0000
0010
,
0100
0001
1000
0100
,
0010
0000
0100
0000
1000
0001
0000
0001
,
0010
0200
0300
2001
,
0100
0001
0010
0001
,
3100
0000
1000
0001
0010
0000
0002
0000
,
0100
1000
0010
1000
,
0103
0000
0001
1000
0010
0000
0100
0001
,
0100
0001
1000
0010
1000
0000
0100
1000
,
0100
1000
0001
0010
0001
0000
0100
0010
,
0100
0010
1000
0001
1000
0000
0100
0010
,
0100
0010
0001
1000
0001
0000
2001
0000
,
0000
0000
0000
0000
0000
0000
0000
0000
3010
0100
0010
0100
0001
0000
0000
0000
,
0010
0100
0010
0001
0100
0010
0100
0001
,
0010
0100
0010
0001
0100
0010
1000
0000
,
0010
0100
1000
0100
0010
1000
0100
0010
,
0100
1000
0010
0100
0010
1000
0100
0000
,
0010
0001
1000
0010
1000
0001
0010
1000
,
0010
0001
1000
0010
1000
0001
0010
0000
,
0100
1000
0001
0100
1000
0100
0001
1000
,
0100
0001
0100
0100
0000
0100
0010
0000
,
0001
0100
0001
1000
0020
0000
0031
0010
,
1000
0001
0100
0001
1000
0000
0100
0001
,
0100
1000
0001
0010
1000
0010
0000
0001
,
1000
0100
1000
0001
0100
0000
0110
0000
,
0010
1000
0001
0010
0000
0100
0110
0000
,
0010
0001
1000
0010
0000
0100
0110
0000
,
0010
1000
0100
1100
0000
0001
0021
0000
,
0100
0000
0031
1000
0001
0000
0110
0000
,
1010
0000
0001
0100
1000
0100
0000
0001
,
1000
0010
1000
0001
0010
0000
0110
0000
,
0011
0000
1000
0100
0001
0100
0000
1000
,
0001
0010
0001
1000
0010
0000
0110
0000
,
0101
0000
0001
0010
0100
0010
0000
0001
,
1000
0100
1000
0010
0100
0000
1010
0000
,
0110
0000
0010
1000
0001
0010
0000
0100
,
1000
0001
0100
0100
0000
0010
2001
0000
,
0100
0001
0010
0001
,
0100
0001
0010
3002
,
0100
1000
0010
1000
,
0100
0000
1000
0000
0010
0000
1003
0100
,
1000
0100
0010
0001
0010
0000
0001
0100
,
0001
0100
0010
1000
0010
0000
0100
0001
,
0100
0001
1000
0010
1000
0010
1000
0100
,
0010
0100
0010
0001
1000
0000
1002
0000
,
0000
0000
0000
0000
,
0000
0000
0000
0000
0000
0000
0000
0000
0013
0100
0010
0100
2000
0000
0000
0000
,
0000
3002
0203
0000
,
0000
0320
2030
0000
,
0000
0000
3002
0000
0023
0000
0000
0130
,
2000
0000
3100
0010
0001
1000
0020
0000
,
0000
0230
0302
0000
,
0000
2003
3020
0000
,
0000
0000
0230
0000
0302
0000
0000
1003
,
0200
0000
0310
0100
0010
0001
2000
0000
,
3010
1000
0001
0000
0100
0110
0000
0001
,
1000
0100
0010
0000
0100
0110
0000
1000
,
0001
0010
0001
0000
1000
1010
0000
0001
,
0001
0100
0001
0000
1010
0000
0011
0000
,
1000
1000
0100
1000
0001
0010
0000
0001
,
0001
0100
0001
1000
0010
0100
0010
1000
,
1000
0100
1000
0001
0010
0110
0000
0010
,
0001
0100
0001
0001
0010
0100
2001
0000
,
0000
0000
0000
0000
0000
0000
0000
0000
3010
0100
0010
0100
0001
0000
0000
0000
,
0010
0001
1000
0010
0001
0010
0000
1000
,
0001
0100
0010
1000
0100
0001
0000
0100
,
1000
0001
0010
0001
1000
0010
0100
0001
,
0010
0100
1000
0010
0100
0010
1000
0000
,
0100
0010
0001
0100
1000
0100
0000
0001
,
1000
0010
1000
0100
0001
0100
0000
1000
,
0001
0010
0100
1000
0010
0100
0110
0000
,
1001
0000
0001
0011
0000
1000
0100
0010
,
0100
1000
0001
0010
1000
0010
0000
0001
,
1000
0010
1000
0001
0100
1000
0000
0100
,
0001
0010
0100
0001
0100
1000
0001
0000
,
0010
0011
0000
1100
0000
1000
1010
0000
,
0010
0010
0100
0001
1000
1000
0000
0010
,
0010
0100
0100
0010
1000
0001
0010
0001
,
0100
0001
0010
0010
0100
1000
0001
0100
,
1000
0000
0100
0000
0001
0000
0001
0000
1000
0000
0010
0000
2020
0000
0000
3030
,
0000
0000
2200
0000
0000
3300
0000
0000
0022
0000
0000
0033
0000
0000
0202
0000
,
0000
0303
0000
0000
1001
0000
0000
0000
0110
0000
0000
0000
2002
0000
0000
0000
,
0000
0000
0000
0000
,
0000
0000
0000
0000
,
0000
0000
0000
0000
,
3003
0000
0000
0000
;

//--------------- dance-single - forcednature ----------------
#NOTEDATA:;
#STEPSTYPE:dance-single;
#DESCRIPTION:forcednature;
#DIFFICULTY:Hard;
#METER:17;
#RADARVALUES:0,0,0,0,0;
#CREDIT:forcednature;
#NOTES:
0000
0000
0000
0000
,
0000
0000
0000
0000
,
0000
0000
0000
0000
,
0000
0000
0000
0000
,
0000
0000
0000
0000
,
0000
0000
0000
0000
,
0000
0000
0000
1000
,
0100
0000
1000
0000
0010
0100
0000
0001
,
0100
0000
0110
0000
0010
1000
0001
0000
,
0010
0000
0100
0000
0010
0001
0000
1000
,
0010
0000
0100
0001
1000
0010
0210
0000
,
0001
0000
0310
1000
0001
0200
0000
0310
,
1000
0001
0010
0001
2000
0000
3200
0000
,
1000
0000
0310
0001
1000
0200
0000
0310
,
0001
1000
0010
1000
0001
0010
0100
1000
,
0010
1000
0100
1000
0010
0010
0100
0001
,
0010
0001
0100
0001
0020
0000
0130
0100
,
1000
1000
0001
0001
0010
0010
0001
1000
,
0010
1000
0100
0001
0100
1000
0002
0000
,
0000
0000
0000
0000
0000
0000
0000
0000
0000
0000
0000
0000
0000
0000
0000
0000
0103
0010
0100
0010
0100
0010
0100
0010
1000
0000
0000
0000
0001
0000
0000
0000
,
0010
0000
0001
0000
1000
0000
0100
1000
0100
0000
0010
0000
0001
0000
1000
0000
,
0010
0000
1000
0000
0001
0000
0100
0001
0100
0000
0010
0000
1000
0000
0001
0000
,
0010
0000
0001
0000
1000
0000
0010
1000
0010
0000
0100
0000
0001
0000
1000
0000
,
0100
0000
1000
0000
0001
0000
0100
0001
0100
0000
0010
0100
0010
0000
1000
0000
,
0001
0000
1000
0000
0010
0000
0100
0001
0100
0000
0010
0000
1000
0000
0001
0000
,
0010
0000
0001
0000
1000
0000
0100
0010
0100
0000
1000
0000
0001
0000
0100
0001
,
0100
0000
0010
0000
1000
0000
0100
1000
0100
0000
0010
0000
0001
0000
1000
0001
,
1000
0010
0110
0110
0000
0100
1001
0001
,
0010
0000
0001
0100
0001
0000
0010
0000
2000
0000
0000
0000
3010
0000
0001
0000
,
1000
0000
0100
1000
0100
0000
0002
0000
0203
0000
0000
0000
1300
0000
0001
0000
,
0010
0000
0001
1000
0001
0000
0100
0000
0020
0000
0032
0000
0013
0000
1000
0000
,
0001
0000
0010
0000
0100
1000
0100
1000
0002
0000
0000
0000
0103
0000
0010
0000
,
1000
0000
0010
0000
0100
0000
0101
0000
0000
0000
0011
0000
0010
0000
0001
1000
,
0001
0100
0010
1010
0000
1100
0110
0000
,
0011
0101
0110
1010
0000
0110
2001
0000
,
0100
0000
0001
0001
3010
0000
1000
0100
,
0001
0000
0100
0000
1000
0100
1000
0000
0100
0010
0001
0000
1000
0000
0010
0000
,
0001
0000
0010
0000
1000
0001
1000
0010
0200
0000
0000
0000
0301
0000
0010
0000
,
1000
0000
0010
0000
0001
0100
0001
0000
0100
0010
1000
0000
0001
0000
0100
0000
,
1000
0000
0100
0000
0001
0000
0010
0100
1000
0000
0100
0010
0001
0000
1000
0000
,
0010
0000
0001
0000
0010
1000
0010
0000
1000
0001
0100
0000
0010
0000
1000
0000
,
0001
0000
0010
0000
0100
1000
0001
0010
0002
0000
0000
0000
1003
0000
0010
0000
,
0001
0000
0010
0000
1000
0001
1000
0000
0010
0100
0001
0000
2000
0000
0000
0000
,
0100
0000
3010
0110
0000
0110
1002
0000
,
0010
1000
0100
1000
,
0010
1000
0100
2003
,
0010
0001
0100
0001
,
0010
0000
0001
0000
0100
0000
3001
0010
,
0100
0010
0001
0010
1000
0010
0001
0100
,
0010
0000
0100
0000
1000
0000
0100
0000
0002
0000
0000
0000
1003
0010
1000
0010
,
1000
0010
1000
0010
0100
0001
0100
0001
0100
0001
0100
0001
2000
0000
0000
0000
,
3100
0010
0100
0010
0001
0000
0010
0100
0000
1000
0100
0000
2001
0000
0000
0000
,
0000
0000
0000
0000
,
0000
0000
0000
0000
0000
0000
0000
0000
0000
0000
0000
0000
0000
0000
0000
0000
3010
0100
0010
0100
0010
0100
0010
0100
0002
0000
0000
0000
0000
0000
0000
0000
,
0000
0000
0013
0100
1000
0200
0000
0000
,
0000
0000
0310
0001
1000
0020
0000
0000
,
0000
0000
0000
0000
0130
0000
0001
0000
1000
0000
0020
0000
0000
0030
0100
0010
,
0200
0000
0000
0000
0301
0000
0010
0001
0010
0000
0100
0010
0200
0000
0000
0000
,
0000
0000
1300
0001
0010
0002
0000
0000
,
0000
0000
1003
0010
0100
0002
0000
0000
,
0000
0000
0000
0000
1003
0000
0100
0000
1000
0000
0020
0000
0000
0030
0100
0001
,
0200
0000
0000
0000
0310
0000
1000
0010
1000
0000
0100
0010
0002
0000
0000
0000
,
1000
0000
0010
0003
0110
2001
0000
0000
,
0001
0000
0010
3000
0110
1002
0000
0000
,
1000
0000
0000
0000
0100
0000
0003
0000
0110
0000
2001
0000
0000
0000
3100
0010
,
0100
0000
0010
0000
0110
0000
0000
0000
0001
1000
0001
1000
0020
0000
0000
0030
,
0100
0001
0100
0000
0010
0000
0010
0000
1000
0000
2001
0000
0000
3000
0100
1000
,
0100
0000
0010
0100
0010
0000
0010
0000
0001
0000
1000
0000
0010
0000
0100
0010
,
0100
0000
0001
0100
0001
1000
0010
0000
1000
0000
0001
0000
1000
0100
1000
0000
,
0100
0000
0010
0001
1000
0001
0010
0000
0001
1000
0010
0000
1002
0000
0000
0000
,
0000
0000
0000
0000
0000
0000
0000
0000
0000
0000
0000
0000
0000
0000
0000
0000
0103
0010
0100
0010
0100
0010
0100
0010
1000
0000
0000
0000
0001
0000
0000
0000
,
0100
0000
0001
1000
0100
0000
1000
0001
0010
0000
0100
0000
0010
0000
0001
0000
,
1000
0000
0010
0100
0001
0000
0010
0100
1000
0000
0010
0000
0100
0000
0001
0000
,
1000
0000
0100
0010
0001
0000
1000
0010
0100
0000
2000
0000
0000
0000
3100
0000
,
0001
0000
1000
0000
0010
0100
0010
0100
0001
0000
0010
0000
0001
0000
1000
0000
,
0100
0000
1000
0001
0100
0000
0001
1000
0010
0000
0100
0000
0010
0000
1000
0000
,
0001
0000
0010
0100
1000
0000
0010
0100
0001
0000
0010
0000
0100
0000
1000
0000
,
0001
0000
0100
0010
1000
0000
0001
0010
0100
0000
1000
0000
1010
0000
0000
0000
,
0101
0000
0001
0011
0000
1100
1000
0001
,
0010
0000
0100
0010
0001
0000
0100
0010
1000
0000
0001
0000
0010
0000
0100
0000
,
1000
0000
0001
0100
0010
0000
1000
0100
0010
0000
0001
0000
1000
0000
0010
0000
,
0100
0000
0001
0010
0100
0000
1000
0010
0100
0000
0001
0000
0011
0000
0000
0000
,
1100
1100
0000
1010
0000
0110
0001
1000
,
0010
0100
0001
0100
0010
0000
1000
0000
1100
0000
0110
0000
0000
0000
0010
0100
,
1000
0000
0010
0100
0001
0000
0010
0000
0110
0000
1000
0000
0001
0000
0100
0001
,
1000
0000
0100
1000
0001
0010
0001
0000
1000
0000
0010
0000
0100
0001
0100
0000
,
0010
0000
1000
0001
0010
0001
1000
0100
1000
0001
0010
0000
0011
0000
0000
1000
,
0100
0000
1100
0000
0000
0001
0100
0000
0101
0000
0000
1000
0010
0000
1010
0000
,
0000
0100
0010
0000
0110
0000
0000
0000
1001
0000
0000
0000
0220
0000
0000
0000
,
0000
0000
0000
0000
,
0000
0000
0000
0000
,
0000
0000
0000
0000
,
0330
0000
0000
0000
;

//--------------- dance-double - forcednature ----------------
#NOTEDATA:;
#STEPSTYPE:dance-double;
#DESCRIPTION:forcednature;
#DIFFICULTY:Easy;
#METER:9;
#RADARVALUES:0,0,0,0,0;
#CREDIT:forcednature;
#NOTES:
00000000
00000000
00000000
00000000
,
00000000
00000000
00000000
00000000
,
00000000
00000000
00000000
00000000
,
00000000
00000000
00000000
00000000
,
00000000
00000000
00000000
00000000
,
00000000
00000000
00000000
00000000
,
00000000
00000000
00000000
00001000
,
00001000
00001000
00000000
00010000
,
00000000
00000100
00000000
00001000
,
00001000
00001000
00000000
00000010
,
00000000
00000100
00000000
00001001
,
00000000
00000001
00000001
00000010
,
00000010
00000100
00001000
00000100
,
00000000
00010000
00010000
00001000
,
00001000
01000000
00010000
01000000
,
00000000
00100000
00100000
10000000
,
10000000
00010000
00100000
01000000
,
01000000
10000000
10000000
01000000
,
00010000
00001000
00000000
00022000
,
00000000
00000000
00033000
00011000
,
00000000
00000100
00001000
00000010
,
00001000
00000100
00000000
00010000
,
00001000
01000000
00010000
01000000
,
00001000
00010000
00000000
00100000
,
01000000
00010000
00000000
01000000
,
00100000
10000000
00000000
01000000
,
00100000
00010000
00100000
00001000
,
00010000
00000100
00000000
00000110
,
00000000
00000010
00000001
00001000
,
00000001
00000100
00000000
00000010
,
00001000
00000100
00000010
00000100
,
00001000
00000100
00000000
00010000
,
00001000
00100000
00000000
00010000
,
00100000
00001000
00000000
01000000
,
00010000
01000000
01000000
00100000
,
10000000
00010000
00000000
10010000
,
00000000
10000000
01000000
00100000
,
00010000
00100000
00001000
00010000
,
00000000
00000010
00001000
00000010
,
00000100
00000001
00001000
00000100
,
00000000
00000010
00000100
00000010
,
00000001
00001000
00000010
00001000
,
00000000
00000100
00010000
00001000
,
00100000
00001000
00000000
00011000
,
00000000
00010000
00010000
00001000
,
00001000
00010000
00000000
00001000
,
00000000
01000000
01000000
00010000
,
00010000
01000000
00000000
00100000
,
10000000
00100000
10000000
01000000
,
00100000
01000000
00100000
00010000
,
01000000
00010000
01000000
00001000
,
00001000
00010000
00001000
00022000
,
00000000
00000000
00000000
00000000
,
00000000
00000000
00033000
00000200
,
00000000
00000000
00000300
00002000
,
00000000
00000000
00003000
00000002
,
00000000
00000000
00000003
00000020
,
00000030
00000200
00000300
00020000
,
00000000
00000000
00030000
00002000
,
00000000
00000000
00003000
02000000
,
00000000
00000000
03000000
00020000
,
00030000
20000000
30000000
00100000
,
00100000
01000000
00010000
00000000
,
00100000
00001000
00010000
00000000
,
00000100
00001000
00000010
00000000
,
00000100
00000100
00000000
00000110
,
00000001
00000001
00001000
00000000
,
00000010
00001000
00000100
00000000
,
00010000
00010000
00001000
00100000
,
00010000
00100000
01000000
20020000
,
00000000
00000000
30030000
10000000
,
01000000
00100000
01000000
10000000
,
00010000
00100000
00000000
00001000
,
00010000
00000010
00000000
00001000
,
00000100
00010000
00000000
00000100
,
00001000
00000010
00000100
00000001
,
00000010
00000100
00000000
00000010
,
00000001
00001000
00000000
00000010
,
00001000
00000100
00000000
00000010
,
00000100
00001000
00000100
00010000
,
00001000
00100000
00000000
00001000
,
00010000
00001000
00000000
01000000
,
00010000
00100000
00000000
01100000
,
01000000
01000000
10000000
00000000
,
00100000
00100000
10000000
00000000
,
01000000
00010000
00001000
00100000
,
00001000
00010000
00000100
00001000
,
00000000
00001001
00000000
00000000
00000001
00000000
00000000
00001001
,
00000000
00000010
00000100
00000220
,
00000000
00000000
00000000
00000000
,
00000000
00000000
00000000
00000000
,
00000000
00000000
00000000
00000000
,
00000330
00000000
00000000
00000000
;

//--------------- dance-double - forcednature ----------------
#NOTEDATA:;
#STEPSTYPE:dance-double;
#DESCRIPTION:forcednature;
#DIFFICULTY:Medium;
#METER:13;
#RADARVALUES:0,0,0,0,0;
#CREDIT:forcednature;
#NOTES:
00000000
00000000
00000000
00000000
,
00000000
00000000
00000000
00000000
,
00000000
00000000
00000000
00000000
,
00000000
00000000
00000000
00000000
,
00000000
00000000
00000000
00000000
,
00000000
00000000
00000000
00000000
,
00000000
00000000
00000000
00001000
,
00010000
00000000
00001000
00000000
00100000
00010000
00000000
00000000
,
10000000
00100000
10000000
01000000
,
00010000
00000000
00001000
00000000
00100000
00010000
00000000
00000000
,
00100000
00002000
00003000
00020000
,
00000100
00001000
00000010
00001000
,
00000100
00001000
00000010
00032000
,
01000000
00010000
00100000
00010000
,
01000000
00000000
00010000
00000000
00100000
00000000
00013000
00001000
,
00010000
00000000
00000100
00001000
00000100
00000000
00010000
00001000
,
00010000
00000000
00000010
00001000
00000010
00000000
00010000
00001000
,
00010000
00001000
01000000
00010000
01000000
00010000
10000000
00100000
,
10000000
00100000
10000000
01000000
00010000
00000000
00022000
00000000
,
00000000
00000000
00000000
00000000
00033000
00000000
00000010
00000100
,
00000001
00000100
00000010
00001000
00000001
00000000
00000010
00000100
,
00010000
00000000
00001000
00100000
00010000
00000000
10000000
00100000
,
01000000
00100000
10000000
00010000
01000000
00000000
00010000
00100000
,
01000000
00000000
00010000
00001000
00100000
00000000
00001000
00010000
,
00000100
00001000
00000100
00010000
00001000
00000000
00000010
00000001
,
00000100
00000000
00000010
00001000
00000100
00000000
00010000
00001000
,
01000000
00010000
01000000
00001000
00010000
00000000
00100000
10000000
,
01000000
00000000
00100000
00100000
00000000
00100000
00001000
00000000
,
00010000
00000100
00001000
00000100
00000020
00000000
00000031
00001000
,
00000010
00001000
00000001
00000020
00000000
00000030
00000100
00000000
,
00001000
00000100
00010000
00001000
00200000
00000000
00310000
10000000
,
00100000
10000000
01000000
00100000
00020000
00000000
01030000
00000000
,
00010000
00100000
00001000
00010000
00000000
00001000
00001000
00000000
,
00010000
00000100
00001000
00000010
00000000
00000100
00000100
00000000
,
00000001
00000001
00000010
00000010
00000000
00000001
00002000
00000000
,
00000010
00000001
00003100
00001001
,
00000110
00000000
00000001
00001000
00000100
00001000
00000000
00000100
,
00010000
00001000
00100000
00010000
00100000
00000000
00110000
00000000
,
00101000
00000000
00001000
00010000
00001000
01000000
00000000
00010000
,
01000000
00010000
10000000
00100000
10000000
00000000
11000000
00000000
,
01100000
00000000
00100000
00010000
10000000
00010000
00000000
00100000
,
00010000
00100000
00001000
00010000
00001000
00000000
00011000
00000000
,
00010010
00000000
00000010
00001000
00000010
00000100
00000000
00000001
,
00001000
00000001
00000010
00000010
00000000
00000100
00000200
00000000
,
00001000
00010000
00001000
00000010
,
00001000
00010000
00001000
00020300
,
00001000
00000010
00001000
00000100
,
00001000
00000000
00000010
00000000
00001000
00000000
00030100
00010000
,
00000100
00000000
00010000
00001000
00010000
00000000
00001000
00100000
,
00001000
00000000
00100000
00010000
00100000
00000000
01000000
10000000
,
01000000
10000000
00100000
10000000
00100000
10000000
02000000
00000000
,
03010000
00000000
00001000
00000000
00010000
00000000
00000000
00010000
00000000
00000000
00001000
00000000
00000020
00000000
00000000
00000000
,
00000000
00000000
00000000
00000000
,
00000000
00000000
00000030
00000210
,
00000000
00000000
00000000
00002300
,
00000000
00000000
00000000
00003020
,
00000000
00000000
00000000
00020030
,
00000000
00032000
00000000
02003000
,
00000000
00000000
00000000
03020000
,
00000000
00000000
00000000
00230000
,
00000000
00000000
00000000
02300000
,
00000000
23000000
00000000
30010000
,
01000000
00000000
00010000
00000000
00100000
00100000
00000000
00000000
,
00001000
00000000
00010000
00000000
00000010
00000010
00000000
00000000
,
00001000
00000000
00000001
00000000
00000010
00000010
00000000
00000100
,
00001000
00000100
00001000
00000000
00001100
00000000
00010000
00000000
,
00001000
00001000
00100000
00010000
00100000
00010000
00000000
10000000
,
10000000
00100000
01000000
00010000
01000000
00100000
00000000
10000000
,
10000000
01000000
00100000
01000000
00100000
00010000
00000000
00100000
,
00001000
00010000
00000100
00010000
00001000
00000000
00022000
00000000
,
00000000
00000000
00000000
00000000
00033000
00000000
00010000
00001000
,
01000000
00010000
00100000
01000000
10000000
00000000
00100000
01000000
,
00010000
00100000
00001000
00010000
00000010
00000000
00001000
00000100
,
00000010
00000001
00000100
00000010
00001000
00000000
00000001
00000010
,
00001000
00000000
00010000
00001000
00000010
00000000
00000100
00010000
,
00001000
00100000
00001000
00010000
01000000
00000000
00100000
00010000
,
10000000
00100000
10000000
00010000
00100000
00000000
01000000
10000000
,
00100000
10000000
01000000
00010000
00001000
00000000
00110000
00000000
,
00110000
00000000
00001000
00001000
00000000
00010000
00010000
00000010
,
00001000
00000010
00000100
00000001
00000010
00000000
00000100
00001000
,
00000010
00010000
00001000
00100000
00010000
00000000
01000000
00100000
,
10000000
01000000
00100000
00010000
01000000
00000000
01100000
00000000
,
10000000
10000000
00000000
10010000
00000000
00100000
00100000
00000000
,
10000000
01000000
00010000
01000000
10000000
00010000
00000000
00100000
,
00001000
00010000
00000100
00010000
00001000
00000010
00000000
00000100
,
00001000
00000001
00000100
00001000
00000100
00000001
00000000
00001000
,
00000010
00010000
00001000
01000000
00010000
00000000
00110000
00000000
,
00000000
00011000
00000000
00000000
00001100
00000000
00000000
00011000
,
00000000
01010000
00110000
20020000
,
00000000
00000000
00000000
00000000
,
00000000
00000000
00000000
00000000
,
00000000
00000000
00000000
00000000
,
30030000
00000000
00000000
00000000
;

//--------------- dance-double - forcednature ----------------
#NOTEDATA:;
#STEPSTYPE:dance-double;
#DESCRIPTION:forcednature;
#DIFFICULTY:Hard;
#METER:17;
#RADARVALUES:0,0,0,0,0;
#CREDIT:forcednature;
#NOTES:
00000000
00000000
00000000
00000000
,
00000000
00000000
00000000
00000000
,
00000000
00000000
00000000
00000000
,
00000000
00000000
00000000
00000000
,
00000000
00000000
00000000
00000000
,
00000000
00000000
00000000
00000000
,
00000000
00000000
00000000
00001000
,
00010000
00000000
00001000
00000000
01000000
00010000
00000000
01000000
,
00100000
10000000
01000000
00100000
,
00010000
00000000
00100000
00000000
00001000
00010000
00000000
00000100
,
00001000
00000000
00000010
00000100
00000001
00001000
00000020
00000000
,
00000100
00000000
00001030
00000100
00010000
00002000
00000000
01003000
,
00010000
00100000
01000000
10000000
00200000
00000000
02300000
00000000
,
00010000
00000000
03100000
10000000
00010000
20000000
00000000
31000000
,
00010000
00001000
00100000
00010000
00100000
00001000
00000010
00000100
,
00001000
00000100
00010000
00000100
00001000
00000100
00000010
00000001
,
00000100
00000001
00001000
00000001
00000020
00000000
00000130
00000100
,
00010000
00010000
00001000
00001000
00100000
00100000
00010000
10000000
,
00100000
10000000
01000000
00010000
00001000
00000010
00000002
00000000
,
00000000
00000000
00000000
00000000
00000000
00000000
00000000
00000000
00000000
00000000
00000000
00000000
00000000
00000000
00000000
00000000
00000103
00000010
00000100
00000010
00000100
00000010
00000100
00000010
00001000
00000000
00000000
00000000
00000001
00000000
00000000
00000000
,
00000010
00001000
00010000
00001000
00010000
01000000
10000000
00010000
,
00100000
00000000
00010000
00000000
10000000
00000000
00100000
10000000
00100000
00000000
10000000
00000000
01000000
00000000
00010000
00000000
,
00001000
00010000
00001000
00000010
00000001
00001000
00000100
00010000
,
00001000
00000000
00010000
00000000
00000010
00000000
00001000
00000010
00001000
00000000
00000001
00000000
00000100
00000000
00000001
00000000
,
00000010
00001000
00010000
00001000
00010000
01000000
10000000
00010000
,
00100000
00000000
00010000
00000000
10000000
00000000
01000000
00100000
01000000
00000000
10000000
00000000
00010000
00000000
01000000
00000000
,
00100000
10000000
01000000
00010000
00001000
00010000
00001000
00000010
,
00000001
00001000
00001100
00001100
00000000
00010000
00011000
00000000
,
00100000
00010000
01000000
10000000
02000000
00000000
03100000
10000000
,
01000000
00010000
00001000
00020000
00032000
00000000
00003010
00000001
,
00001000
00000100
00001000
00000001
00000200
00002300
00003000
00010000
,
00001000
00000000
00010000
00000000
00100000
00000000
00000000
10000000
00020000
00000000
00000000
00000000
00130000
00000000
01000000
00000000
,
10000000
01000000
00010000
00001000
00000000
00011000
00000010
00001000
,
00000001
00000100
00001000
00010000
00000000
00011000
00100000
00000000
,
00010000
00010000
01000000
01100000
00000000
00100000
20010000
00000000
,
01000000
00000000
00010000
00000000
30100000
00000000
10000000
01000000
,
00010000
00000000
01000000
00000000
00010000
00000000
00001000
00010000
00001000
00000000
00000020
00000000
00000000
00000000
00000130
00000000
,
00001000
00000000
00000001
00000000
00000010
00000001
00000010
00000000
00000200
00000000
00000000
00000000
00001300
00000000
00000001
00000000
,
00000100
00000000
00001000
00000000
00010000
00000000
00001000
00010000
00001000
00000000
00010000
00000000
00000000
00000000
00100000
00000000
,
10000000
01000000
00010000
00001000
00010000
01000000
10000000
01000000
,
00010000
00000000
01000000
00000000
00010000
00000000
00001000
00010000
00001000
00000000
00000020
00000000
00000000
00000000
00000130
00000000
,
00001000
00000000
00000001
00000000
00000010
00000001
00000010
00000000
00000200
00000000
00000000
00000000
00001300
00000000
00000001
00000000
,
00000100
00000000
00001000
00000000
00010000
00000000
00001000
00010000
00001000
00000000
00020000
00000000
00000000
00000000
00130000
00000000
,
10000000
01000000
00010000
00011000
00000000
00000010
00002000
00000000
,
00000100
00000001
00000010
00023000
,
01000000
10000000
00100000
00032000
,
00000100
00000001
00000010
00023000
,
01000000
00000000
10000000
00000000
00100000
00000000
00031000
00000100
,
00001000
00000001
00000100
00001000
00010000
01000000
10000000
00100000
,
10000000
00000000
01000000
00000000
00010000
00000000
00001000
00000000
00020000
00000000
00000000
00000000
00030100
00001000
00000100
00000000
,
00010000
00000000
00001000
00000000
00010000
00001000
00100000
00000000
00010000
00000000
00100000
00000000
02000000
00000000
00000000
00000000
,
13000000
00010000
10000000
00010000
10000000
00000000
00000000
01100000
00000000
00000000
00010000
00000000
20000000
00000000
00000000
00000000
,
00000000
00000000
00000000
00000000
,
00000000
00000000
00000000
00000000
00000000
00000000
00000000
00000000
00000000
00000000
00000000
00000000
00000000
00000000
00000000
00000000
31000000
00100000
01000000
00100000
01000000
00100000
01000000
00100000
00020000
00000000
00000000
00000000
00000000
00000000
00000000
00000000
,
00000000
00000000
00130000
00001000
00010000
00002000
00000000
00000000
,
00000000
00000000
00013000
00000100
00001000
00000200
00000000
00000000
,
00000000
00000000
00000000
00000000
00000310
00000000
00000001
00000000
00001000
00000000
00000020
00000000
00000000
00000030
00000100
00000010
,
00000200
00000000
00000000
00000000
00000301
00000000
00000100
00000001
00000100
00000000
00000010
00000100
00000020
00000000
00000000
00000000
,
00000000
00000000
00001030
00000100
00010000
00002000
00000000
00000000
,
00000000
00000000
00103000
00010000
10000000
00200000
00000000
00000000
,
00000000
00000000
00000000
00000000
01300000
00000000
00010000
00000000
10000000
00000000
02000000
00000000
00000000
03000000
00100000
00010000
,
00200000
00000000
00000000
00000000
00301000
00000000
00010000
00001000
00010000
00000000
00001000
00010000
00000200
00000000
00000000
00000000
,
00001000
00000000
00000010
00000300
00000110
00002100
00000000
00000000
,
00000001
00000000
00000010
00003000
00010100
00021000
00000000
00000000
,
00000010
00000000
00000000
00000000
00001000
00000000
00030000
00000000
00011000
00000000
02001000
00000000
00000000
03000000
00010000
01000000
,
00010000
00000000
01000000
00000000
00100000
00000000
00000000
00000000
10000000
00010000
10000000
00010000
00200000
00000000
00000000
00300000
,
01000000
10000000
01000000
00000000
10000000
00000000
01000000
00000000
00010000
00000000
00002000
00000000
00000000
00003000
00010000
00001000
,
00010000
00000000
00001000
00010000
00000100
00000000
00000100
00000000
00001000
00000000
00000001
00000000
00000100
00000000
00000010
00000100
,
00000010
00000000
00000100
00000010
00001000
00000010
00001000
00000000
00000100
00000000
00010000
00000000
00001000
00010000
00001000
00000000
,
00010000
00000000
00001000
00100000
00010000
00000000
01000000
00000000
00010000
01000000
00100000
00000000
20010000
00000000
00000000
00000000
,
00000000
00000000
00000000
00000000
00000000
00000000
00000000
00000000
00000000
00000000
00000000
00000000
00000000
00000000
00000000
00000000
31000000
00100000
01000000
00100000
01000000
00100000
01000000
00100000
00010000
00000000
00000000
00000000
00100000
00000000
00000000
00000000
,
00001000
00000000
00010000
00001000
00010000
00000000
00001000
00010000
00000100
00000000
00001000
00000000
00000010
00000000
00000100
00000000
,
00000001
00000000
00000100
00000010
00000100
00000000
00000010
00001000
00000001
00000000
00000010
00000000
00000100
00000000
00001000
00000000
,
00000100
00000000
00010000
00001000
00010000
00000000
00001000
00100000
00010000
00000000
02000000
00000000
00000000
00000000
03100000
00000000
,
10000000
00000000
00010000
00000000
00100000
01000000
00100000
01000000
10000000
00000000
01000000
00000000
00100000
00000000
00010000
00000000
,
00100000
00000000
00001000
00010000
00001000
00000000
00010000
00000100
00001000
00000000
00000010
00000000
00000100
00000000
00000001
00000000
,
00000010
00000000
00000100
00001000
00000100
00000000
00001000
00000100
00010000
00000000
00001000
00000000
01000000
00000000
00010000
00000000
,
00100000
00000000
01000000
10000000
01000000
00000000
10000000
00010000
00100000
00000000
00010000
00000000
00110000
00000000
00000000
00000000
,
00101000
00000000
00011000
00011000
00000000
00010100
00010100
00000000
,
00000100
00000000
00001000
00000100
00001000
00000000
00000100
00000010
00000001
00000000
00000100
00000000
00000001
00000000
00001000
00000000
,
00000100
00000000
00001000
00000100
00010000
00000000
00001000
00010000
00001000
00000000
00100000
00000000
00010000
00000000
10000000
00000000
,
00100000
00000000
01000000
00010000
01000000
00000000
00010000
00100000
00001000
00000000
00010000
00000000
00011000
00000000
00000000
00000000
,
00001010
00001010
00000000
00000101
00000000
00000011
00000011
00000000
,
00001000
00000100
00001000
00000100
00010000
00000000
00010000
00000000
00001000
00000000
00011000
00000000
00000000
00000000
01000000
00010000
,
01000000
00000000
00100000
01000000
00100000
00000000
00100000
00000000
10000000
00000000
00010000
00000000
00100000
00000000
00010000
00100000
,
00001000
00000000
00010000
00001000
00010000
00001000
00010000
00000000
00000100
00000000
00001000
00000000
00000001
00000100
00000001
00000000
,
00001000
00000000
00000100
00000010
00000100
00000010
00000100
00000000
00000010
00000000
00000001
00000000
00000011
00000000
00000000
00001000
,
00000100
00000000
00001100
00000000
00000000
00010000
00001000
00000000
00011000
00000000
00000000
00100000
00010000
00000000
00110000
00000000
,
00000000
10000000
01000000
00000000
11000000
00000000
00000000
00000000
10100000
00000000
00000000
00000000
02200000
00000000
00000000
00000000
,
00000000
00000000
00000000
00000000
,
00000000
00000000
00000000
00000000
,
00000000
00000000
00000000
00000000
,
03300000
00000000
00000000
00000000
;
