#VERSION:0.83;
#TITLE:Gimme a Big Beat;
#SUBTITLE:;
#ARTIST:kors k;
#TITLETRANSLIT:;
#SUBTITLETRANSLIT:;
#ARTISTTRANSLIT:;
#GENRE:EDM;
#CREDIT:;
#MUSIC:Gimme a Big Beat.ogg;
#BANNER:Gimme a Big Beat.png;
#BACKGROUND:Gimme a Big Beat-bg.png;
#CDTITLE:/CDTitles/jubeat saucer.png;
#SAMPLESTART:91.656;
#SAMPLELENGTH:15.000;
#SELECTABLE:YES;
#OFFSET:0.699;
#BPMS:0.000=138.000;
#STOPS:;
#TIMESIGNATURES:0.000=4=4;
#BGCHANGES:0.000=../BGAs/26rt.mp4=1.000=0=0=0=StretchNoLoop====,
99999.000=-nosongbg-=1.000=0=0=0=StretchNoLoop====
;
#FGCHANGES:;

//--------------- dance-single - forcednature ----------------
#NOTEDATA:;
#STEPSTYPE:dance-single;
#DESCRIPTION:forcednature;
#CREDIT:forcednature;
#DIFFICULTY:Beginner;
#METER:1;
#RADARVALUES:0,0,0,0,0;
#NOTES:
0000
0000
0000
0000
,
0000
0000
0000
0000
,
0000
0000
0000
0000
,
0000
0000
0000
0000
,
0000
0000
0000
0000
,
0000
0000
0000
0000
,
1000
0000
0000
0000
,
0000
0000
0000
0000
,
0001
0000
0000
0000
,
0000
0000
0000
0000
,
0010
0000
0000
0000
,
0000
0000
0000
0000
,
0100
0000
0000
0000
,
0000
0000
0000
0000
,
1000
0000
0000
0000
,
0001
0000
0000
0000
,
0100
0000
0000
0000
,
0000
0000
0000
0000
,
1001
0000
0000
0000
,
0000
0000
0000
0000
,
0001
0000
0000
0000
,
0000
0000
0000
0000
,
0010
0000
0000
0000
,
0000
0000
0000
0000
,
0100
0000
0000
0000
,
1000
0000
0000
0000
,
0001
0000
0000
0000
,
0000
0000
0000
0000
,
0100
0000
0000
0000
,
0000
0000
0000
0000
,
0010
0000
0000
0000
,
0000
0000
0000
0000
,
1000
0000
0000
0000
,
0001
0000
0000
0000
,
1001
0000
0000
0000
,
0000
0000
0000
0000
,
0000
0000
0000
0000
,
0000
0000
0000
0000
,
0010
0000
0000
0000
,
0000
0000
0000
0000
,
0100
0000
0000
0000
,
0000
0000
0000
0000
,
1001
0000
0000
0000
,
0000
0000
0000
0000
,
0001
0000
0000
0000
,
0000
0000
0000
0000
,
0010
0000
0000
0000
,
0000
0000
0000
0000
,
0100
0000
0000
0000
,
0000
0000
0000
0000
,
1000
0000
0000
0000
,
0001
0000
0000
0000
,
0100
0000
0000
0000
,
0000
0000
0000
0000
,
1001
0000
0000
0000
,
0000
0000
0000
0000
,
1000
0000
0000
0000
,
0000
0000
0000
0000
,
0010
0000
0000
0000
,
0000
0000
0000
0000
,
0100
0000
0000
0000
,
0000
0000
0000
0000
,
0001
0000
0000
0000
,
0000
0000
0000
0000
,
0010
0000
0000
0000
,
0000
0000
0000
0000
,
0100
0000
0000
0000
,
0000
0000
0000
0000
,
1000
0000
0000
0000
,
0000
0000
0000
0000
,
1001
0000
0000
0000
;

//--------------- dance-single - forcednature ----------------
#NOTEDATA:;
#STEPSTYPE:dance-single;
#DESCRIPTION:forcednature;
#CREDIT:forcednature;
#DIFFICULTY:Easy;
#METER:6;
#RADARVALUES:0,0,0,0,0;
#NOTES:
0000
0000
0000
0000
,
0000
0000
0000
0000
,
0000
0000
0000
0000
,
0000
0000
0000
0000
,
0000
0000
0000
0000
,
0000
0000
0000
0000
,
1000
0000
0000
0000
0000
0000
0000
0000
0001
0000
0000
0100
0000
0000
0001
0000
,
0000
0000
0001
0010
,
0001
0000
0000
0000
0000
0000
0000
0000
1000
0000
0000
0100
0000
0000
1000
0000
,
0000
0010
0000
0000
0000
0000
0000
0000
,
1000
1000
0001
0001
,
1000
1000
0001
0001
,
0010
0010
0100
0100
,
0010
0010
0100
0100
,
1000
0010
1000
0100
,
0010
0001
0100
0001
,
0010
0100
1000
0001
,
0000
0000
0000
0000
,
1001
0000
1000
0010
,
0100
0000
0001
0010
,
0100
0000
1000
0001
,
0100
0000
0010
1000
,
0001
0010
0001
0100
,
0001
0010
0001
0100
,
0010
1000
0100
1000
,
2002
0000
3003
0000
,
0110
0001
1000
0010
,
1000
0100
0010
0001
,
0100
0010
1000
0001
,
0010
0100
1000
0000
,
1001
0001
0100
0001
,
1000
0010
0000
0100
,
0110
1000
0001
0010
,
0200
0000
0000
0300
,
2002
0000
0000
0000
,
0000
0000
0000
0000
,
0000
0000
0000
0000
,
0000
0000
3003
0000
,
1000
0000
0001
0000
,
0100
0000
0010
0000
,
1000
0000
0001
0000
,
0010
0000
0100
0000
,
0110
0000
0000
0000
0000
0000
0000
0000
1000
0000
0000
0001
0000
0000
1000
0000
,
0000
0000
0000
0000
,
0110
0000
0000
0000
0000
0000
0000
0000
0001
0000
0000
1000
0000
0000
0001
0000
,
0000
0000
0000
0000
,
1001
0000
0000
0000
0000
0000
0000
0000
0010
0000
0000
0100
0000
0000
0010
0000
,
0000
0000
0000
0000
,
1001
0000
0000
0000
0000
0000
0000
0000
0100
0000
0000
0010
0000
0000
0100
0000
,
0000
0000
0000
0000
,
1001
1000
0001
0001
,
1000
1000
0001
0001
,
0010
0100
1000
0001
,
0000
0000
0000
0000
,
0110
0010
1000
0001
,
0010
0000
0100
0000
1000
0100
1000
0000
,
0001
0010
0001
1000
,
0010
0000
0100
0000
0001
1000
0001
0000
,
0110
1000
0010
0100
,
0001
0000
1000
0000
0100
0010
0100
0000
,
1000
0001
0100
0010
,
1000
0000
0001
0000
0010
0100
0010
0000
,
0001
1001
1000
0010
,
0100
0000
0001
0000
0010
0100
0010
0000
,
0001
1000
0010
0100
,
0001
0000
0010
0000
0001
0100
0001
0000
,
1001
0110
1000
0100
,
0010
0000
0001
0000
0100
0010
0100
0000
,
0001
0000
0001
1000
0001
0000
1000
0001
,
1000
0000
0010
0000
0100
0001
0100
0000
,
2002
0000
0000
0000
,
0000
0000
0000
0000
,
3003
0000
0000
0000
;

//--------------- dance-single - forcednature ----------------
#NOTEDATA:;
#STEPSTYPE:dance-single;
#DESCRIPTION:forcednature;
#CREDIT:forcednature;
#DIFFICULTY:Medium;
#METER:10;
#RADARVALUES:0,0,0,0,0;
#NOTES:
0000
0000
0000
0000
,
0000
0000
0000
0000
,
0000
0000
0000
0000
,
0000
0000
0000
0000
,
0000
0000
0000
0000
,
0000
0000
0000
0000
,
2002
0000
0000
0000
3003
0000
0001
0000
0100
0000
0000
0010
0000
0000
2000
0000
,
0000
3000
0000
0000
0100
0010
0001
0010
,
0200
0000
0000
0000
0300
0000
1000
0000
0001
0000
0000
0100
0000
0000
0020
0000
,
0030
1000
1000
1000
0001
0010
0100
0000
,
1001
1000
0001
0001
,
0100
0100
0010
0010
,
1000
1000
0001
0001
,
0010
0010
0100
0100
,
1000
0010
1000
0000
1000
0100
1000
0000
,
0001
0010
0001
0000
0001
0100
0001
0000
,
1000
0100
1000
0010
0100
0001
0010
0001
,
0000
0100
0010
1000
0001
0000
0010
0000
,
0110
0000
0000
0100
0000
0000
1000
0000
0001
0000
0100
0000
0001
0000
0010
0000
,
0001
0000
0000
1000
0000
0000
0010
0000
0100
0000
0001
0000
0010
0000
0001
0000
,
0100
0000
0000
0010
0000
0000
1000
0000
0100
0000
0010
0000
0100
0000
1000
0000
,
0001
0000
0000
0100
0000
0000
0010
0000
1000
0000
0100
0000
0010
0000
0001
0000
,
0100
0000
0000
0010
0000
0000
1000
0000
0001
0000
0010
0000
0001
0000
1000
0000
,
0010
0000
0000
0100
0000
0000
0001
0000
1000
0000
0100
0000
1000
0000
0010
0000
,
0100
0000
0000
1000
0000
0000
0100
0000
0001
0000
0010
0000
0100
0000
0000
0000
,
0220
0000
0000
0000
0000
0000
0330
0000
2000
0000
3000
0002
0000
0003
2000
0000
,
3010
0000
0000
0100
0000
0000
0001
0000
0010
0000
0100
0000
0001
0000
0001
0000
,
0100
0000
0000
1000
0000
0000
0010
0000
0100
0000
0001
0010
0002
0000
0000
0000
,
1003
0000
0000
0010
0000
0000
0100
0000
0001
0000
1000
0000
0100
0000
0100
0000
,
0010
0000
0000
0011
0000
0000
0001
0000
0100
0000
1000
0000
0100
0000
0001
0000
,
0010
0000
0000
0100
0000
0000
1000
0000
0010
0000
0100
0000
1000
0000
1000
0000
,
0100
0000
0000
0100
0001
0000
0000
0001
0000
0000
0010
0000
0200
0000
0000
0000
,
1300
0000
0000
0010
0000
0000
0001
0000
0000
0010
0000
0000
0100
0000
0010
0000
,
0000
1000
1000
1000
0001
0010
0100
0000
,
1001
1000
0001
0001
,
0100
0100
0010
0010
,
1000
1000
0100
0100
,
0010
0010
0001
0001
,
0100
0100
0010
0010
,
1000
1000
0001
0001
,
0010
0010
0100
0100
,
1000
1000
0001
0001
,
2002
0000
0000
0000
3003
0000
1000
0000
0010
0000
0000
0100
0000
0000
0002
0000
,
0000
0003
0010
0000
0100
0000
1000
0000
,
2002
0000
0000
0000
3003
0000
0001
0000
0100
0000
0000
0010
0000
0000
2000
0000
,
0000
3000
0100
0000
0010
0000
0001
0000
,
2002
0000
0000
0000
3003
0000
1000
0000
0100
0000
0000
0001
0000
0000
0200
0000
,
0000
0300
0010
0000
0001
0000
1000
0000
,
2002
0000
0000
0000
3003
0000
0001
0000
0100
0000
0000
1000
0000
0000
0200
0000
,
0000
0300
0010
0000
1000
0000
0001
0000
,
0000
0100
0001
1000
0000
0100
1000
0001
,
0000
0100
1000
0010
0000
0100
0001
0010
,
0000
0100
1000
0001
0001
0100
0001
1000
,
0000
0100
0010
0001
0100
0000
0110
0000
,
1002
0000
0000
0000
1003
0000
0100
0000
0010
0000
0000
0001
0000
0000
0200
0000
,
0000
0310
0001
0010
0100
0001
1000
0010
,
2000
0000
0000
0000
3100
0000
0010
0000
0001
0000
0000
0100
0000
0000
0020
0000
,
0000
0000
1030
0000
0100
0000
0001
0000
0100
0000
0010
0000
0001
0000
0000
0001
,
0200
0000
0000
0000
0310
0000
1000
0000
0001
0000
0000
0010
0000
0000
0200
0000
,
0000
1300
0010
0001
0010
0100
0001
1000
,
0020
0000
0000
0000
1030
0000
0100
0000
0010
0000
0000
0001
0000
0000
0200
0000
,
0000
0000
0310
0000
1000
0000
0001
0000
0010
0000
0000
0011
0000
0000
0101
0000
,
0000
0000
0000
0000
1010
0000
0010
0000
1000
0000
0000
0001
0000
0000
0020
0000
,
0000
0031
0100
1000
0100
0010
1000
0001
,
0020
0000
0000
0000
0130
0000
1000
0000
0010
0000
0000
0100
0000
0000
0002
0000
,
0000
1003
0100
0001
0100
0010
0001
1000
,
0010
0000
0000
0000
0110
0000
0100
0000
1000
0000
0000
0100
0000
0000
0001
0000
,
0010
0100
1000
0010
0100
0001
0010
0100
,
2000
0000
3010
0001
0010
0010
0100
0100
,
0001
0010
0100
1000
0010
0100
0001
0000
,
2002
0000
0000
0000
,
0000
0000
0000
0000
,
3003
0000
0000
0000
;

//--------------- dance-single - forcednature ----------------
#NOTEDATA:;
#STEPSTYPE:dance-single;
#DESCRIPTION:forcednature;
#CREDIT:forcednature;
#DIFFICULTY:Hard;
#METER:15;
#RADARVALUES:0,0,0,0,0;
#NOTES:
0000
0000
0000
0000
,
0000
0000
0000
0000
,
0000
0000
0000
0000
,
0000
0000
0000
0000
,
0000
0000
0000
0000
,
0000
0000
0000
0000
,
1001
0000
0000
0000
0000
0000
1000
0000
0100
0000
0000
0010
0000
0000
0001
0000
,
0000
0000
0100
0000
0010
1000
0001
0010
,
0100
0000
0000
0000
0000
0000
1000
0000
0001
0000
0000
0100
0000
0000
0010
0000
,
0000
0000
1000
0001
1000
0001
1000
0000
0100
0000
0010
0000
0002
0000
0100
0000
,
1003
0000
0000
1000
0100
0000
1000
0000
0001
0000
0000
0001
0100
0000
0001
0000
,
1000
0000
0000
1000
0010
0000
1000
0000
0001
0000
0000
0001
0010
0000
0001
0000
,
0100
0000
0000
0100
0010
0000
1000
0000
0100
0000
0000
0100
0010
0000
0001
0000
,
0010
0000
0000
0010
0100
0000
1000
0000
0010
0000
0000
0010
0100
0000
0001
0000
,
1000
0100
0001
0100
1000
0010
0001
0010
,
0100
0100
0001
0001
1000
1000
0010
0010
,
1000
0100
1000
0100
0010
0001
1000
0010
0100
0001
0100
0001
1000
0010
0100
0001
,
0000
0010
0100
1000
0001
0000
0110
0000
,
1000
0000
0001
0100
0000
0001
0010
0000
0100
0000
0001
0000
0100
0000
1000
0000
,
0010
0000
0100
0001
0000
1000
0100
0000
1000
0010
1000
0000
0100
0000
0001
0000
,
0100
0000
0010
0001
0000
0100
0001
0000
1000
0000
0010
0000
0001
0000
0010
0000
,
0100
0000
0001
1000
0100
1000
0010
0000
0100
0000
0001
0010
0100
0000
0001
0000
,
0100
0000
1000
0010
0000
0010
0100
0000
1000
0000
0100
0000
0001
0000
0010
0000
,
0001
0000
1000
0010
0000
0010
0100
0001
0010
0001
0100
0000
1000
0000
0100
0000
,
0001
0000
0000
0001
0000
0010
0100
1000
0010
0000
0001
0000
0010
0000
1000
0000
,
2002
0000
0000
0000
0000
0000
3003
0000
0002
0000
0003
0020
0000
0030
0200
0000
,
1300
0000
0010
0100
0000
1000
0100
0000
0001
0000
1000
0000
0200
0300
0200
0300
,
0001
0000
0010
0100
0000
1000
0010
1000
0001
0000
0010
0100
2000
0000
0000
0000
,
3010
0000
0100
0001
0000
1000
0100
0000
0010
0000
0001
0000
0200
0300
0200
0300
,
1000
0000
0010
0100
1000
0000
0200
0000
0001
0000
0010
0000
1300
0000
0100
0000
,
0110
0000
0010
1000
0000
0001
0010
0000
0100
0000
1000
0000
0200
0300
0200
0300
,
0001
0000
1000
0100
0010
0000
0010
0100
1000
0010
0100
0010
0002
0000
0000
0000
,
0013
0000
0000
0010
1000
0000
0100
0000
0010
0001
0000
0100
0001
0000
1000
0000
,
1001
0000
0001
0100
0001
0100
0002
0000
0023
0000
0230
0000
2300
0000
3000
0000
,
1002
1000
0100
0100
,
1000
1000
0010
0010
,
1000
1000
0100
0100
,
1000
1000
0010
0013
,
0001
0001
0100
0100
,
0010
0010
1000
1000
,
0100
0100
0010
0010
,
0001
0001
1000
1000
,
2002
0000
0000
0000
3003
0000
0001
0000
0010
0000
0000
0100
0000
0000
2000
0000
,
0010
0001
0100
3001
,
2002
0000
0000
0000
3003
0000
1000
0000
0010
0000
0000
0100
0000
0000
0002
0000
,
0010
1000
0100
1003
,
2002
0000
0000
0000
3003
0000
1000
0000
0010
0000
0000
0001
0000
0000
0020
0000
,
0100
0001
0100
1030
,
2002
0000
0000
0000
3003
0000
0001
0000
0010
0000
0000
1000
0000
0000
0020
0000
,
0100
0000
1000
0000
0130
0010
0001
1000
,
1001
0000
0001
0100
0001
0000
1000
0000
0010
0000
1000
0100
1000
0000
0001
0000
,
0010
0000
0001
0100
0001
0000
1000
0000
0010
0000
1000
0100
1000
0000
0001
0000
,
0010
0001
0010
0001
1000
0010
1000
0010
0100
0001
1000
0100
0010
0001
1000
0010
,
0000
0200
2300
3200
0302
0000
0013
0000
,
0120
0000
0000
0000
0031
0000
1000
0000
0010
0000
0000
0010
0100
0000
0001
0000
,
0010
0000
0100
1000
0001
0100
0010
1000
0001
1000
0100
0010
0001
0100
0001
0010
,
0200
0000
0000
0000
1300
0000
0010
0000
0100
0000
0000
0100
0001
0000
1000
0000
,
0100
0000
0010
0001
1000
0001
0100
0010
1000
0001
0010
0100
1000
0000
0001
0100
,
2000
0000
0000
0000
3100
0000
0001
0000
0010
0000
0000
0010
0100
0000
1000
0000
,
0010
0000
0100
0001
0010
0001
1000
0010
1000
0100
0010
0001
0100
0010
1000
0001
,
0020
0000
0000
0000
0130
0000
1000
0000
0010
0000
0000
0010
0100
0000
1000
0000
,
0100
0000
0001
0010
0001
0100
0010
1000
0001
0010
0100
0010
0001
0000
1000
0100
,
0002
0000
0000
0000
0103
1000
0001
0010
0001
0000
1000
0010
0100
0000
1000
0000
,
0100
0001
0010
0001
0100
0000
0010
1000
0001
0010
0100
1000
0010
0100
0001
1000
,
0200
0000
0000
0000
0310
0001
0100
0001
1000
0000
0010
1000
0100
0000
0001
0000
,
0100
0010
0001
1000
0010
0000
0100
1000
0100
0010
0100
0001
1000
0100
0010
0001
,
0200
0000
0000
0000
0310
0001
0010
0100
0001
0000
1000
0100
0010
0000
0001
0000
,
0100
0010
1000
0010
0100
0000
0001
1000
0100
0010
0001
0010
0100
1000
0010
0100
,
0002
0010
0103
0101
0010
1010
0100
1001
,
1000
0010
0100
0001
1000
0100
0010
0001
0100
0010
1000
0001
0010
0000
0000
0000
,
2002
0000
0000
0000
,
0000
0000
0000
0000
,
3003
0000
0000
0000
;

//--------------- dance-double - forcednature ----------------
#NOTEDATA:;
#STEPSTYPE:dance-double;
#DESCRIPTION:forcednature;
#CREDIT:forcednature;
#DIFFICULTY:Easy;
#METER:6;
#RADARVALUES:0,0,0,0,0;
#NOTES:
00000000
00000000
00000000
00000000
,
00000000
00000000
00000000
00000000
,
00000000
00000000
00000000
00000000
,
00000000
00000000
00000000
00000000
,
00000000
00000000
00000000
00000000
,
00000000
00000000
00000000
00000000
,
00001000
00000000
00000000
00000000
00000000
00000000
00000000
00000000
01000000
00000000
00000000
00010000
00000000
00000000
01000000
00000000
,
00000000
00000000
00100000
10000000
,
00010000
00000000
00000000
00000000
00000000
00000000
00000000
00000000
00100000
00000000
00000000
00010000
00000000
00000000
00100000
00000000
,
00000000
00002000
00000000
00000000
00003000
00000000
00000000
00000000
,
00010000
00010000
00001000
00001000
,
01000000
01000000
00001000
00001000
,
00010000
00010000
00000100
00000100
,
00010000
00010000
00001000
00001000
,
00000010
00000100
00000010
00000100
,
00001000
00000001
00001000
00000001
,
00000100
00001000
00010000
00100000
,
00000000
00000000
00000000
00000000
,
01100000
00000000
01000000
00010000
,
10000000
00000000
01000000
00100000
,
00010000
00000000
01000000
00001000
,
00010000
00000000
00000100
00001000
,
00000010
00000100
00000001
00000100
,
00000001
00000010
00000100
00000010
,
00000100
00010000
00001000
00010000
,
00200000
00000000
00300000
00000000
,
01100000
00000000
01000000
00010000
,
10000000
00010000
00100000
01000000
,
00100000
00001000
00010000
00000010
,
00001000
00000010
00000200
00000300
,
00001001
00000000
00001000
00000100
,
00010000
00001000
00000000
01000000
,
01100000
00100000
10000000
00010000
,
00200000
00000000
00000000
00000000
00000000
00300000
00000000
00000000
,
20020000
00000000
00000000
00000000
,
00000000
00000000
00000000
00000000
,
00000000
00000000
00000000
00000000
,
00000000
00000000
30030000
00000000
,
10000000
00000000
00010000
00000000
,
01000000
00000000
00001000
00000000
,
00010000
00000000
00000100
00000000
,
00001000
00000000
00000001
00000000
,
00001001
00000000
00000000
00000000
00000000
00000000
00000000
00000000
00001000
00000000
00000000
00000100
00000000
00000000
00001000
00000000
,
00000000
00000000
00000000
00000000
,
00011000
00000000
00000000
00000000
00000000
00000000
00000000
00000000
01000000
00000000
00000000
00010000
00000000
00000000
01000000
00000000
,
00000000
00000000
00000000
00000000
,
10010000
00000000
00000000
00000000
00000000
00000000
00000000
00000000
00010000
00000000
00000000
01000000
00000000
00000000
00010000
00000000
,
00000000
00000000
00000000
00000000
,
00011000
00000000
00000000
00000000
00000000
00000000
00000000
00000000
00000100
00000000
00000000
00001000
00000000
00000000
00000100
00000000
,
00000000
00000000
00000010
00000001
,
00000100
00000100
00000010
00000010
,
00001000
00001000
00000100
00000100
,
00010000
00001000
01000000
00010000
,
00000000
00100000
01000000
01100000
,
10010000
00000000
10000000
00010000
,
01000000
00001000
00010000
00000100
,
00000110
00000000
00000010
00000001
,
00001000
00000010
00010000
00001000
,
00011000
00000000
00001000
01000000
,
00010000
10000000
01000000
00100000
,
01100000
00000000
01000000
10000000
,
00010000
01000000
00001000
00010000
,
00000100
00000110
00000010
00000001
,
00001000
00000010
00010000
00001000
,
00011000
00000000
01000000
00010000
,
00100000
00010000
10000000
00100000
,
01000000
10010000
00010000
00100000
,
00001000
00010000
00000010
00001000
,
00000100
00000100
00000010
00000010
,
00000001
00000100
00001000
00010000
,
00022000
00000000
00000000
00000000
,
00000000
00000000
00000000
00000000
,
00033000
00000000
00000000
00000000
;

//--------------- dance-double - forcednature ----------------
#NOTEDATA:;
#STEPSTYPE:dance-double;
#DESCRIPTION:forcednature;
#CREDIT:forcednature;
#DIFFICULTY:Medium;
#METER:10;
#RADARVALUES:0,0,0,0,0;
#NOTES:
00000000
00000000
00000000
00000000
,
00000000
00000000
00000000
00000000
,
00000000
00000000
00000000
00000000
,
00000000
00000000
00000000
00000000
,
00000000
00000000
00000000
00000000
,
00000000
00000000
00000000
00000000
,
00022000
00000000
00000000
00000000
00033000
00000000
00010000
00000000
00001000
00000000
00000000
01000000
00000000
00000000
00020000
00000000
,
00000000
00030000
00000000
00000000
00100000
01000000
00100000
00001000
,
00020000
00000000
00000000
00000000
00030000
00000000
00000010
00000000
00001000
00000000
00000000
00000001
00000000
00000000
00000020
00000000
,
00000030
00000100
00000100
00000100
00010000
00001000
01000000
00000000
,
01100000
00100000
10000000
10000000
,
01000000
01000000
00100000
00100000
,
00001000
00001000
00010000
00010000
,
00000010
00000010
00000100
00000100
,
00000001
00000010
00000001
00000000
00000001
00000100
00000001
00000000
,
00000100
00001000
00000100
00000000
00001000
00010000
00001000
00000000
,
01000000
00010000
01000000
00010000
10000000
01000000
10000000
01000000
,
00000000
00100000
00010000
01000000
00001000
00000000
00010000
00000000
,
00000100
00000000
00000000
00001000
00000000
00000000
00000100
00000000
00000010
00000000
00000001
00000000
00000100
00000000
00000001
00000000
,
00000010
00000000
00000000
00000100
00000000
00000000
00010000
00000000
00001000
00000000
01000000
00000000
00010000
00000000
01000000
00000000
,
00100000
00000000
00000000
10000000
00000000
00000000
00010000
00000000
10000000
00000000
01000000
00000000
00100000
00000000
01000000
00000000
,
00010000
00000000
00000000
00001000
00000000
00000000
00010000
00000000
00000010
00000000
00001000
00000000
00000100
00000000
00001000
00000000
,
00000001
00000000
00000000
00000100
00000000
00000000
00001000
00000000
00010000
00000000
00001000
00000000
01000000
00000000
00010000
00000000
,
01000000
00000000
00000000
00100000
00000000
00000000
10000000
00000000
00010000
00000000
00100000
00000000
00010000
00000000
01000000
00000000
,
00001000
00000000
00000000
00010000
00000000
00000000
00000100
00000000
00001000
00000000
00000010
00000000
00000100
00000000
00000000
00000000
,
00000220
00000000
00000000
00000000
00000000
00000000
00000330
00000000
00000002
00000000
00000003
00002000
00000000
00003000
00000002
00000000
,
00000013
00000000
00000000
00000100
00000000
00000000
00010000
00000000
00001000
00000000
01000000
00000000
00010000
00000000
00010000
00000000
,
00100000
00000000
00000000
01000000
00000000
00000000
00100000
00000000
00010000
00000000
10000000
00100000
20000000
00000000
00000000
00000000
,
31000000
00000000
00000000
00100000
00000000
00000000
00001000
00000000
00010000
00000000
00000010
00000000
00001000
00000000
00001000
00000000
,
00000100
00000000
00000000
00000010
00000000
00000000
00000001
00000000
00000100
00000000
00001000
00000000
00010000
00000000
01000000
00000000
,
10000000
00000000
00000000
00100000
00000000
00000000
10000000
00000000
01000000
00000000
00010000
00000000
00001000
00000000
00001000
00000000
,
00100000
00000000
00000000
00100000
00001000
00000000
00000000
00001000
00000000
00000000
00010000
00000000
00000020
00000000
00000000
00000000
,
00001030
00000000
00000000
00000100
00000000
00000000
00000001
00000000
00000000
00000100
00000000
00000000
00000010
00000000
00000001
00000000
,
00000000
00000100
00000100
00000100
00001000
00010000
01000000
00000000
,
01100000
00100000
00001000
00001000
,
00010000
00010000
00000010
00000010
,
00001000
00001000
00000100
00000100
,
00000010
00000010
00000001
00000001
,
00000100
00000100
00000010
00000010
,
00010000
00010000
00001000
00001000
,
00100000
00100000
00010000
00010000
,
10000000
10000000
00100000
00100000
,
20020000
00000000
00000000
00000000
30030000
00000000
10000000
00000000
01000000
00000000
00000000
00010000
00000000
00000000
02000000
00000000
,
00000000
03000000
00100000
00000000
00001000
00000000
00010000
00000000
,
00022000
00000000
00000000
00000000
00033000
00000000
00001000
00000000
00000010
00000000
00000000
00000001
00000000
00000000
00000020
00000000
,
00000000
00000030
00000100
00000000
00001000
00000000
00000001
00000000
,
00002002
00000000
00000000
00000000
00003003
00000000
00000001
00000000
00000100
00000000
00000000
00001000
00000000
00000000
00020000
00000000
,
00000000
00030000
01000000
00000000
00100000
00000000
00010000
00000000
,
20020000
00000000
00000000
00000000
30030000
00000000
10000000
00000000
00100000
00000000
00000000
00010000
00000000
00000000
00200000
00000000
,
00000000
00300000
01000000
00000000
00001000
00000000
00010000
00000000
,
00000000
00000100
00001000
00000010
00000000
01000000
00010000
00100000
,
00000000
00000100
00001000
00000010
00000000
01000000
00010000
00100000
,
00000000
00000100
00001000
00000010
00000010
00010000
00001000
00100000
,
00000000
01000000
10000000
00010000
01000000
00000000
01100000
00000000
,
20020000
00000000
00000000
00000000
30030000
00000000
10000000
00000000
01000000
00000000
00000000
00100000
00000000
00000000
00002000
00000000
,
00000000
00013000
00000010
00001000
00000010
00000100
00000001
00001000
,
00000200
00000000
00000000
00000000
00000300
00000000
00010000
00000000
00001000
00000000
00000000
01000000
00000000
00000000
00020000
00000000
,
00000000
00130000
01000000
00100000
00010000
10000000
00100000
00000000
,
02020000
00000000
00000000
00000000
03030000
00000000
10000000
00000000
00010000
00000000
00000000
00100000
00000000
00000000
00002000
00000000
,
00000000
00013000
00000010
00001000
00000010
00000100
00000001
00001000
,
00000200
00000000
00000000
00000000
00000300
00000000
00010000
00000000
00001000
00000000
00000000
01000000
00000000
00000000
00020000
00000000
,
00000000
00000000
00130000
00000000
01000000
00000000
00100000
00000000
00001000
00000000
00000000
00010000
00000000
00000000
00001000
00000000
,
00000020
00000000
00000000
00000000
00000130
00000000
00001000
00000000
00000001
00000000
00000000
00000010
00000000
00000000
00000200
00000000
,
00000000
00010300
00001000
01000000
00001000
00010000
00100000
01000000
,
00200000
00000000
00000000
00000000
00300000
00000000
10000000
00000000
01000000
00000000
00000000
00100000
00000000
00000000
00002000
00000000
,
00000000
00013000
00000010
00001000
00000010
00010000
00001000
00000010
,
00000200
00000000
00000000
00000000
00010300
00000000
00001000
00000000
01000000
00000000
00000000
00010000
00000000
00000000
00200000
00000000
,
00000000
01300000
10000000
01000000
00010000
00001000
00010000
00000010
,
00002000
00000000
00003100
00010000
00001000
01000000
00001000
00010000
,
00100000
01000000
00100000
10000000
01000000
00010000
00001000
00000000
,
00022000
00000000
00000000
00000000
,
00000000
00000000
00000000
00000000
,
00033000
00000000
00000000
00000000
;

//--------------- dance-double - forcednature ----------------
#NOTEDATA:;
#STEPSTYPE:dance-double;
#DESCRIPTION:forcednature;
#CREDIT:forcednature;
#DIFFICULTY:Hard;
#METER:15;
#RADARVALUES:0,0,0,0,0;
#NOTES:
00000000
00000000
00000000
00000000
,
00000000
00000000
00000000
00000000
,
00000000
00000000
00000000
00000000
,
00000000
00000000
00000000
00000000
,
00000000
00000000
00000000
00000000
,
00000000
00000000
00000000
00000000
,
00022000
00000000
00000000
00033000
00000000
00000000
00010000
00000000
00100000
00000000
00000000
00100000
00000000
00000000
20000000
00000000
,
00000000
30000000
00000000
00000000
01000000
00000000
00000000
00000000
00010000
00000000
00001000
00000000
00000010
00000000
00000100
00000000
,
00000020
00000000
00000000
00000030
00000000
00000000
00000001
00000000
00001000
00000000
00000000
00000010
00000000
00000000
00002000
00000000
,
00000000
00003000
00010000
01000000
00010000
01000000
00010000
00000000
10000000
00000000
01000000
00000000
00010000
00000000
00001000
00000000
,
00000010
00001000
00010000
00100000
00000000
00010000
00001000
00000010
,
00000000
00001000
00010000
01000000
00000000
00010000
00001000
00000100
,
00000000
00001000
00010000
01000000
00000000
00010000
00001000
00000100
,
00000000
00001000
00010000
00100000
00000000
00010000
00001000
00000010
,
00000100
00010000
00001000
00010000
00100000
00010000
00001000
00010000
,
01000000
00010000
00001000
00010000
00000010
00010000
00001000
00010000
,
00000100
00001000
00000100
00001000
00000001
00000100
00000001
00000100
00000010
00001000
00000010
00010000
00001000
00100000
00010000
00100000
,
00000000
01000000
10000000
01000000
00010000
00000000
00011000
00000000
,
00001000
00000000
00010000
00000100
00000000
00001000
00000100
00000000
00000010
00000000
00000001
00000000
00000100
00000000
00001000
00000000
,
00010000
00000000
00001000
01000000
00000000
00010000
01000000
00000000
00100000
10000000
00100000
00000000
01000000
00000000
10000000
00000000
,
01000000
00000000
00010000
00100000
00000000
00010000
01000000
00000000
00001000
00000000
00010000
00000000
00001000
00000000
00000010
00000000
,
00000100
00000000
00001000
00000010
00001000
00000001
00000100
00000000
00001000
00000000
00010000
00000000
00100000
00000000
01000000
00000000
,
00010000
00000000
00100000
01000000
00000000
10000000
01000000
00000000
00010000
00000000
00001000
00000000
00000010
00000000
00000100
00000000
,
00001000
00000000
00000010
00000100
00000000
00000001
00000010
00000001
00000100
00000010
00000100
00000000
00001000
00000000
00010000
00000000
,
00100000
00000000
00000000
00100000
01000000
00010000
10000000
00000000
01000000
00000000
00010000
00000000
00001000
00000000
00000100
00000000
,
00000220
00000000
00000000
00000000
00000000
00000000
00000330
00000000
00000002
00000000
00000003
00002000
00000000
00003000
00000200
00000000
,
00010300
00000000
00001000
01000000
00000000
00010000
01000000
00000000
00100000
00000000
10000000
00000000
02000000
00000000
03020000
00000000
,
00031000
00000000
00000010
00000100
00000000
00001000
00000100
00000010
00000001
00000000
00000100
00000001
00002000
00000000
00000000
00000000
,
00003010
00000000
00010000
00001000
00000000
01000000
00010000
00000000
00100000
00000000
01000000
00000000
20000000
00000000
30200000
00000000
,
00310000
00000000
00100000
10000000
00100000
00000000
10000000
00000000
01000000
00000000
00010000
00000000
00001000
00000000
00000100
00000000
,
00000001
00000000
00000010
00000100
00000000
00001000
00000100
00000000
00010000
00000000
00001000
00000000
02000000
00000000
03020000
00000000
,
00130000
00000000
01000000
10000000
00100000
00000000
00100000
10000000
01000000
00000000
00010000
00001000
00020000
00000000
00000000
00000000
,
00030010
00000000
00000000
00000010
00001000
00000000
00000100
00000000
00000010
00000001
00000000
00000100
00000001
00000000
00001000
00000000
,
00001100
00000000
00000100
00010000
00000100
00010000
00002000
00000000
02003000
00000000
03020000
00000000
00230000
00000000
00300000
00000000
,
10010000
10000000
01000000
01000000
,
00010000
00010000
00001000
00001000
,
00000100
00000100
00000001
00000001
,
00000010
00000010
00000100
00000100
,
00010000
00010000
00001000
00001000
,
01000000
01000000
00010000
00010000
,
00100000
00100000
01000000
01000000
,
10000000
10000000
00010000
00010000
,
20020000
00000000
00000000
30030000
00000000
00000000
10000000
00000000
01000000
00000000
00000000
00010000
00000000
00000000
00002000
00000000
,
00000000
00003000
00000000
00000000
00010000
00000000
00000000
00000000
00000100
00000000
00000000
00000000
00010000
00000000
00000000
00000000
,
00022000
00000000
00000000
00033000
00000000
00000000
00001000
00000000
00010000
00000000
00000000
00000100
00000000
00000000
00002000
00000000
,
00000000
00003000
00000000
00000000
00000010
00000000
00000000
00000000
00000100
00000000
00000000
00000000
00000010
00000000
00000000
00000000
,
00002002
00000000
00000000
00003003
00000000
00000000
00000001
00000000
00000010
00000000
00000000
00000100
00000000
00000000
00020000
00000000
,
00000000
00030000
00000000
00000000
00001000
00000000
00000000
00000000
01000000
00000000
00000000
00000000
00010000
00000000
00000000
00000000
,
20020000
00000000
00000000
30030000
00000000
00000000
10000000
00000000
01000000
00000000
00000000
00010000
00000000
00000000
00002000
00000000
,
00000000
00003000
00000000
00000000
00100000
00000000
00000000
00000000
01000000
00000000
00010000
00000000
00001000
00000000
00000100
00000000
,
00000110
00000010
00000100
00001000
00000000
00010000
01000000
00100000
,
00000000
00100000
01000000
00010000
00000000
00001000
00000100
00000010
,
00001000
00000100
00001000
00000100
00010000
00001000
00010000
00001000
01000000
00010000
10000000
00010000
00100000
01000000
10000000
00010000
,
00000000
02000000
03200000
00320000
00032000
00000000
00003010
00000000
,
00000120
00000000
00000000
00000000
00000130
00000000
00001000
00000000
00000001
00000000
00000000
00000101
00000000
00000000
00002010
00000000
,
00000000
00000000
00003100
00001000
00000100
00010000
00001000
00100000
00010000
00100000
01000000
10000000
00010000
10000000
00100000
01000000
,
00020000
00000000
00000000
00000000
00130000
00000000
00001000
00000000
00010000
00000000
00000000
00010010
00000000
00000000
00002010
00000000
,
00000000
00000000
00003100
00000010
00000001
00000100
00000010
00001000
00000010
00010000
00001000
00100000
00010000
00000000
00010000
01000000
,
20000000
00000000
00000000
00000000
31000000
00000000
00010000
00000000
00100000
00000000
00000000
01100000
00000000
00000000
21000000
00000000
,
00000000
00000000
30100000
10000000
00010000
10000000
01000000
00100000
00010000
00100000
00001000
00010000
00000010
00001000
00000010
00000100
,
00000002
00000000
00000000
00000000
00000013
00000000
00000100
00000000
00010000
00000000
00000000
00011000
00000000
00000000
02001000
00000000
,
00000000
00000000
03010000
00100000
01000000
00100000
01000000
10000000
00010000
01000000
00001000
00010000
00001000
00000000
00100000
01000000
,
00020000
00000000
00000000
00000000
00031000
00000000
00000010
00000100
00000010
00000000
00000000
00000011
00000000
00000000
00000201
00000000
,
00000000
00000000
00000310
00001000
00000010
00000000
00010000
00000000
00100000
01000000
00100000
10000000
00010000
10000000
01000000
00100000
,
00020000
00000000
00000000
00000000
01030000
00000000
00001000
00010000
00001000
00000000
00000000
00010010
00000000
00000000
00002010
00000000
,
00000000
00000000
00003100
00001000
00000100
00000000
00010000
00000000
01000000
00100000
01000000
10000000
00010000
00000000
01000000
00001000
,
00020000
00000000
00000000
00000000
00130000
01000000
00100000
01000000
00010000
00000000
00000000
00110000
00000000
00000000
02010000
00000000
,
00000000
00000000
03010000
01000000
00010000
00000000
00100000
00000000
00001000
00010000
00000100
00001000
00000001
00000010
00000001
00000100
,
00000020
00000000
00000130
00001000
00010000
01000000
00100000
00001000
,
00010000
00100000
00010000
00100000
01000000
00100000
01000000
00100000
10000000
00010000
10000000
01000000
00010000
00000000
00000000
00000000
,
00022000
00000000
00000000
00000000
,
00000000
00000000
00000000
00000000
,
00033000
00000000
00000000
00000000
;
