#VERSION:0.83;
#TITLE:Ghost Trigger;
#SUBTITLE:;
#ARTIST:u-z feat.CHERICa;
#TITLETRANSLIT:;
#SUBTITLETRANSLIT:;
#ARTISTTRANSLIT:;
#GENRE:;
#CREDIT:;
#MUSIC:Ghost Trigger.ogg;
#BANNER:Ghost Trigger.png;
#BACKGROUND:Ghost Trigger-bg.png;
#CDTITLE:./CDTitles/SDVX IV HEAVENLY HAVEN.png;
#SAMPLESTART:49.178;
#SAMPLELENGTH:15.000;
#SELECTABLE:YES;
#OFFSET:0.001;
#BPMS:0.000=140.000;
#STOPS:;
#TIMESIGNATURES:0.000=4=4;
#DISPLAYBPM:140.000;
#BGCHANGES:0.000=../BGAs/27hv.mp4=1.000=0=0=0=StretchNoLoop====,
99999.000=-nosongbg-=1.000=0=0=0=StretchNoLoop====
;
#FGCHANGES:;

//--------------- dance-single - forcednature ----------------
#NOTEDATA:;
#STEPSTYPE:dance-single;
#DESCRIPTION:forcednature;
#DIFFICULTY:Beginner;
#METER:5;
#RADARVALUES:0,0,0,0,0;
#CREDIT:forcednature;
#NOTES:
0000
0000
0000
0000
,
0000
0000
0000
0000
,
0000
0000
0000
0000
0000
0000
0000
0000
0000
0000
0000
0000
0000
0000
0000
1000
,
0000
0000
0000
0000
0000
0000
0000
0000
0100
0000
0000
0000
0010
0000
0000
0001
,
0000
0000
0000
0000
0000
0000
0000
0000
0100
0000
0000
0000
0000
0010
0000
1000
,
0000
0000
0000
0000
0000
0000
0000
0000
0001
0000
0000
0000
0010
0000
0000
0100
,
0000
0000
0000
0000
0000
0000
0000
0000
0010
0000
0000
0000
0001
0000
0000
1000
,
0000
0000
0000
0000
0000
0000
0000
0000
0010
0000
0000
0000
1000
0000
0000
0001
,
0000
0000
0000
0000
0000
0000
0000
0000
0010
0000
0000
0000
0000
0100
0000
1000
,
0000
0000
0000
0000
0000
0000
0000
0000
0001
0000
0000
0000
0100
0000
0000
0010
,
0000
0000
1000
0000
0000
0001
0000
0001
,
1000
0000
0001
0000
,
0100
0100
0100
0000
,
1000
0000
0000
1000
0000
0000
0000
0000
,
0001
0000
0000
0001
0000
0000
0000
0000
,
0010
0000
0000
0010
0000
0000
0000
0000
,
0100
0000
0000
0100
0000
0000
0000
0000
,
1000
0000
0000
0010
0000
0000
0000
0000
,
0001
0000
0000
0010
0000
0000
0000
0000
,
1000
0000
0000
0100
0000
0000
0000
0000
,
0001
0000
0000
0000
0000
0000
0100
0000
0000
0000
0000
0000
0000
0000
0000
0010
,
0000
0000
0000
0000
0100
0000
0000
0000
0100
0000
0000
0000
0000
0000
0000
0010
,
0000
0000
0000
0000
0001
0000
0000
0000
0001
0000
0000
0000
0000
0000
0000
0010
,
0000
0000
0000
0000
1000
0000
0000
0000
1000
0000
0000
0000
0000
0000
0000
0010
,
0000
0000
0000
0000
0100
0000
0000
0000
0100
0000
0000
0000
0000
0000
0000
0100
,
0000
0000
0000
0000
1000
0000
0000
0000
1000
0000
0000
0000
0000
0000
0000
0100
,
0000
0000
0000
0000
0001
0000
0000
0000
0001
0000
0000
0000
0000
0000
0000
0100
,
0000
0010
0010
0010
,
0100
0000
0000
1000
0000
0001
0000
1000
0000
0000
0000
0000
0000
0000
0000
0010
,
0000
0000
0000
0000
0000
0000
0000
0000
0100
0000
0000
0000
0001
0000
0000
0010
,
0000
0000
0000
0000
0000
0000
0000
0000
0100
0000
0000
0000
1000
0000
0000
0001
,
0000
0000
0000
0000
0000
0000
0000
0000
1000
0000
0000
0000
0010
0000
0000
1000
,
0000
0000
0000
0000
0000
0000
0000
0000
0100
0000
0000
0000
0010
0000
0000
0001
,
0000
0000
0000
0000
0000
0000
0000
0000
0100
0000
0000
0000
0010
0000
0000
1000
,
0000
0000
0000
0000
0000
0000
0000
0000
0001
0000
0000
0000
0010
0000
0000
0100
,
0000
0000
0000
0000
0000
0000
0000
0000
0010
0000
0000
0000
0001
0000
0000
1000
,
0000
0000
0010
0100
,
1001
0000
0110
0000
,
0100
0100
0100
0000
,
0001
1000
0001
0000
,
1001
0000
0010
0000
,
0200
0000
0300
0000
,
1001
0000
0100
0000
,
0020
0000
0030
0000
,
0110
0000
1000
0000
,
0002
0000
0003
0000
,
0000
0000
0001
0000
,
2000
0000
3001
0000
,
1001
0000
0000
0000
0000
0000
0000
0000
0000
0000
0000
0000
0000
0000
0000
0110
,
0000
0000
0000
0000
0000
0000
0000
0000
0000
0000
0000
0000
0000
0000
0000
1000
,
0000
0000
0000
0000
0001
0000
0000
0000
0001
0000
0000
0000
0001
0000
0000
0001
,
0000
0000
0000
0000
1000
0000
0000
0000
1000
0000
0000
0000
1000
0000
0000
0001
,
0000
0000
0000
0000
0100
0000
0000
0000
0010
0000
0000
0000
0000
0000
0000
1001
,
0000
0000
0000
0000
0000
0000
0000
0000
0010
0000
0000
0000
1000
0000
0000
0100
,
0000
0000
0000
0000
0000
0000
0000
0000
0010
0000
0000
0000
0001
0000
0000
1000
,
0000
0000
0000
0000
0000
0000
0000
0000
0010
0000
0000
0000
0100
0000
0000
0001
,
0000
0000
1000
0100
,
0010
0000
0100
0000
,
1000
0001
1000
0000
,
0010
0010
0010
0100
,
1001
0000
0100
0000
,
0010
0010
1000
1000
,
0001
0000
0000
0000
0001
0000
0000
0000
0010
0000
0000
0000
0000
0000
0000
0100
,
0000
0000
0000
0000
0000
0000
0000
0000
1000
0000
0000
0000
0001
0000
0000
0100
,
0000
0000
0000
0000
0000
0000
0000
0000
0010
0000
0000
0000
0000
1000
0000
0001
,
0000
0000
0000
0000
0000
0000
0000
0000
0010
0000
0000
0000
0001
0000
0000
0100
,
0000
0000
0000
0000
0000
0010
0000
1000
,
0100
0000
0000
0100
0000
0000
0010
0000
0000
0010
0000
0000
0100
0000
0000
0000
,
1001
0000
0000
0000
;

//--------------- dance-single - forcednature ----------------
#NOTEDATA:;
#STEPSTYPE:dance-single;
#DESCRIPTION:forcednature;
#DIFFICULTY:Easy;
#METER:9;
#RADARVALUES:0,0,0,0,0;
#CREDIT:forcednature;
#NOTES:
0000
0000
0000
0000
,
0000
0000
0000
0000
,
0000
0000
0000
0000
0000
0000
0000
0000
0000
0000
0000
0000
0000
0000
0000
1000
,
0000
0000
0000
0000
0001
0000
0000
0000
0100
0000
0000
0000
0010
0000
0000
1000
,
0000
0000
0000
0000
0001
0000
0000
0000
0010
0000
0000
0100
0000
1000
0000
0100
,
0000
0000
0000
0000
0010
0000
0000
0000
0001
0000
0000
0000
1000
0000
0000
0010
,
0000
0000
0000
0000
0100
0000
0000
0000
0001
0000
1000
0000
0000
0000
0001
0100
,
0000
0000
0000
0000
0010
0000
0000
0000
1000
0000
0000
0000
0001
0000
0000
0010
,
0000
0000
0000
0000
0100
0000
0000
0000
1000
0000
0000
0001
0000
0100
0000
0001
,
0000
0000
0000
0000
1000
0000
0000
0000
0010
0000
0000
0000
1000
0000
0000
0100
,
0000
0000
0010
0000
0100
1000
0000
0001
,
0200
0010
0010
0310
,
1000
0000
0000
0001
0000
1000
0000
0001
0000
0000
1000
0000
0001
0000
0000
0000
,
1000
0000
0000
0100
0000
0000
1000
0000
0000
0100
0000
0000
1000
0000
0000
0000
,
0001
0000
0000
0100
0000
0000
0001
0000
0000
0100
0000
0000
0001
0000
0000
0000
,
1000
0000
0000
0010
0000
0000
1000
0000
0000
0010
0000
0000
1000
0000
0000
0000
,
0001
0000
0000
0010
0000
0000
0001
0000
0000
0010
0000
0000
0000
0000
0000
0000
,
0100
0000
0000
1000
0000
0000
0010
0000
0000
1000
0000
0000
0100
0000
0000
0000
,
0010
0000
0000
0001
0000
0000
0100
0000
0000
0001
0000
0000
0010
0000
0000
0000
,
0001
0000
0000
1000
0000
0000
0010
0000
0000
0100
0000
0000
0001
0000
0000
0000
,
1000
0000
0000
0100
0000
0000
0010
0000
0000
0001
0000
0000
1000
0000
0000
0010
,
0000
0000
0100
0000
0000
0000
0100
0000
0000
0000
0010
0000
0000
0000
1000
0001
,
0000
0000
0010
0000
0000
0000
0010
0000
0000
0000
0010
0000
0000
0000
0001
1000
,
0000
0000
0100
0000
0000
0000
0100
0000
0000
0000
0100
0000
0000
0000
1000
0001
,
0000
0000
0100
0000
0000
0000
0100
0000
0000
0000
0100
0000
0000
0000
0001
1000
,
0000
0000
0010
0000
0000
0000
0100
0000
0000
0000
0010
0000
0000
0000
1000
0100
,
0000
0000
0010
0000
0000
0000
0100
0000
0000
0000
0010
0000
0000
0000
0001
0100
,
0000
0010
1000
0001
0000
0010
0001
1000
,
0010
0000
0000
0100
0000
0100
0000
0100
0000
0000
0000
0000
0010
0000
0000
1001
,
0000
0000
1000
0000
0000
0000
0100
0000
0000
0000
1000
0000
0000
0000
0001
0100
,
0000
0000
0010
0000
0000
0000
1000
0000
0000
0000
0001
0000
0000
0000
0010
0100
,
0000
0000
0010
0000
0000
0000
0001
0000
0000
0000
1000
0000
0000
0000
0010
1000
,
0000
0000
0001
0000
0000
0000
0100
0000
0010
0000
0000
0000
0100
0000
0000
1001
,
0000
0000
0001
0000
0000
0000
0010
0000
0000
0000
0100
0000
0000
0000
1000
0001
,
0000
0000
0100
0000
0000
0000
0010
0000
0000
0000
1000
0000
0000
0000
0001
1000
,
0000
0000
0100
0000
0000
0000
0010
0000
0000
0000
0001
0000
0000
0000
1000
0010
,
0000
0100
0000
0001
0010
0000
0100
0000
,
1001
0000
1000
0010
0100
0000
0001
0010
,
0100
0000
1000
0100
0001
0000
0100
0000
,
1000
0001
1000
0001
0100
0000
0010
0000
,
2002
0000
3003
0100
,
0200
0000
0000
0000
0000
0000
0310
0000
0010
0000
0010
0000
,
2002
0000
0000
0000
3003
0100
0010
0000
,
0020
0000
0000
0031
0000
0001
1000
0000
0000
1000
0000
0000
,
2002
0000
0000
0000
3003
1000
0001
1000
,
0020
0000
0000
0000
0000
0000
0130
0000
0100
0000
0100
0000
,
2002
0000
3003
0100
,
0001
0000
0010
0000
0100
0000
1000
0000
0010
0000
0100
0000
,
2002
0000
0000
0000
0000
0000
0000
0000
3003
0000
0000
0000
0010
0000
0000
2002
,
0000
0000
0000
0000
0000
0000
0000
0000
0000
0000
0000
0000
3003
0000
0000
1000
,
0000
0000
0001
0000
0100
0000
0001
0000
0100
0000
0001
0000
0100
0000
0000
1001
,
0000
0000
1000
0000
0100
0000
1000
0000
0100
0000
1000
0000
0100
0000
0000
1001
,
0000
0000
0010
0000
0100
0000
0010
0000
0100
0000
0000
0000
0010
0000
0000
1001
,
0000
0000
0001
0000
0000
0000
0100
0000
0000
0000
0010
0000
0000
0000
1000
0001
,
0000
0000
0010
0000
0000
0000
0100
0000
0000
0000
1000
0000
0000
0000
0010
0100
,
0000
0000
0001
0000
0000
0000
0010
0000
0000
0000
0100
0000
0000
0000
0010
0100
,
0000
0010
0000
0001
1000
0000
0010
0000
,
1001
0000
0100
0001
0010
0000
0100
1000
,
0010
0000
1000
0001
0100
0000
0010
0000
,
1000
0001
1000
0001
1000
0000
0100
0000
,
1001
0000
0001
0010
0100
0000
1000
0010
,
0000
0100
0001
0000
0010
0100
0010
0000
,
0100
0000
1000
0000
0100
0000
0001
0000
0100
0000
0000
0000
0010
0000
0000
1001
,
0000
0000
0000
0000
1000
0000
0000
0000
0010
0000
0000
0000
0100
0000
0000
0011
,
0000
0000
0000
0000
0100
0000
0000
0000
1000
0000
0000
0001
0000
0100
0000
0101
,
0000
0000
0000
0000
1000
0000
0000
0000
0010
0000
0000
0000
1000
0000
0000
0110
,
0000
0000
1000
0000
0001
1000
0001
1000
,
0010
0000
0000
0100
0000
0000
0010
0000
0000
0100
0000
0000
0001
0000
1000
0000
,
0001
0000
0000
0000
;

//--------------- dance-single - forcednature ----------------
#NOTEDATA:;
#STEPSTYPE:dance-single;
#DESCRIPTION:forcednature;
#DIFFICULTY:Medium;
#METER:13;
#RADARVALUES:0,0,0,0,0;
#CREDIT:forcednature;
#NOTES:
0000
0000
0000
0000
,
0000
0000
0000
0000
,
0000
0000
0000
0000
0000
0000
0000
0000
0000
0000
0000
0000
0000
0000
0000
1000
,
0000
0000
0001
0000
0100
0000
0000
0010
0000
0000
1000
0000
0001
0000
0000
1000
,
0000
0000
0100
0000
0010
0000
0100
0000
1000
0000
0000
0001
0000
0100
0000
0010
,
0000
0000
1000
0000
0001
0000
0000
0010
0000
0000
0001
0000
1000
0000
0000
0010
,
0000
0000
0100
0000
1000
0000
0100
0000
0001
0000
0010
0001
0000
0000
1000
0100
,
0000
0000
1000
0000
0001
0000
0000
0100
0000
0000
0010
0000
1000
0000
0000
0001
,
0000
0000
0010
0000
1000
0000
0010
0000
0100
0000
0000
1000
0000
0001
0000
0100
,
0000
0000
0010
0000
0001
0000
0000
0010
0000
0000
0100
0000
1000
0000
0000
0100
,
0000
0000
0001
0000
1000
0000
0100
0000
1000
0000
0010
1000
0000
0000
0001
0100
,
0002
0000
0100
0100
0100
0000
1000
1000
,
1003
0001
0000
0100
0000
0001
0000
1000
0000
0100
0000
1000
0001
0000
0000
0000
,
1001
0000
0000
0001
0000
0000
0100
0000
0000
0010
0000
0000
1000
0000
0100
0000
,
0110
0000
0000
0010
0000
0000
0001
0000
0000
1000
0000
0000
0010
0000
0100
0000
,
1001
0000
0000
1000
0000
0000
0001
0000
0000
0010
0000
0000
1000
0000
0010
0000
,
0110
0000
0000
1000
0000
0000
0001
0000
0000
0100
0010
0000
1000
0000
0001
0000
,
1001
0000
0000
1000
0000
0000
0110
0000
0000
0001
0000
0000
1000
0000
0010
0000
,
1001
0000
0000
0100
0000
0000
0011
0000
0000
1000
0000
0000
0010
0000
0100
0000
,
1001
0000
0000
0010
0000
0000
1001
0000
0000
0100
0000
0000
1000
0000
0001
0000
,
0101
0000
0000
1100
0000
0000
1001
0000
0000
1000
0010
0000
1000
0000
0001
0010
,
0000
0000
0100
0000
0010
0000
0100
0000
1000
0000
0001
0000
1000
0000
0010
0100
,
0000
0000
0001
0000
0100
0000
1000
0000
0100
0000
0001
0000
0010
0000
0100
1000
,
0000
0000
0010
0000
1000
0000
0001
0000
0010
0000
1000
0000
0010
0000
0100
1000
,
0000
0000
0001
0000
0100
0000
0010
0000
0001
0000
0010
0000
0100
0000
0001
0010
,
0000
0000
0100
0000
1000
0000
1000
0000
0010
0000
0001
0000
0001
0000
0010
0100
,
0000
0000
0001
0000
1000
0000
1000
0000
0100
0000
0001
0000
0001
0000
0100
0010
,
0000
0100
1000
0010
0001
0010
1000
0100
,
0010
0001
0000
1000
0000
0010
0000
1001
0000
0000
0000
0000
0001
0100
0000
1001
,
0000
0000
1000
0000
0010
0000
1000
0000
0100
0000
0010
0000
1000
0000
0010
0100
,
0000
0000
1000
0000
0001
0000
0100
0000
0010
0000
0001
0000
0010
0000
0100
0001
,
0000
0000
1000
0000
0010
0000
1000
0000
0100
0000
0001
0000
0100
0000
0010
0001
,
0000
0000
1000
0000
0001
0000
0100
0000
0010
0000
0000
0000
0100
0000
0000
1001
,
0000
0000
1000
0000
0010
0000
1000
0000
0100
0000
0001
0000
0100
0000
0010
0001
,
0000
0000
1000
0000
0001
0000
0100
0000
0010
0000
0001
0000
1000
0000
0100
0010
,
0000
0000
1000
0000
0100
0000
0010
0000
1000
0000
0010
0000
0001
0000
1000
0010
,
0000
0100
0001
0100
0010
0000
1001
0000
,
0110
0000
0000
0000
0001
0010
0001
0000
0100
0000
0010
0000
1000
0010
1000
0000
,
0100
0001
0100
1000
0100
0000
0010
0100
,
1000
0010
0001
0100
1000
0000
0110
0000
,
1002
0000
1000
0000
0013
0001
0101
0000
,
2010
0000
0000
0000
0000
0000
0100
0000
0000
0000
0000
0000
3001
0000
1000
0000
0001
0000
1000
0000
0000
0010
0000
0000
,
2001
0000
0000
0000
0100
0000
0000
0000
3001
0000
1000
0100
1000
0000
0010
0000
,
0102
0000
0000
1003
0001
1000
0001
0000
0000
0010
0000
0000
,
2001
0000
0100
0000
3001
0010
0110
0000
,
2100
0000
0000
0000
0000
0000
0010
0000
0000
0000
0000
0000
3001
0000
1000
0000
0001
0000
1000
0000
0000
0010
0000
0000
,
2001
0000
0100
0000
3001
1000
0010
0001
,
0010
0100
0010
0100
0001
1000
0001
1000
0100
0010
0100
0010
,
0200
0000
0000
0000
0000
0000
0000
0000
0300
0000
0000
0000
1000
0001
0000
1001
,
0000
0000
1000
0000
0010
0000
0001
0000
0010
0000
0100
0000
0001
0000
1000
0100
,
0000
0000
0010
0100
0010
0000
0001
0000
0100
0000
1000
0000
0100
0000
0001
1000
,
0000
0000
0010
0100
0010
0000
1000
0000
0100
0000
0001
0000
0100
0000
1000
0001
,
0000
1000
0100
0000
0010
0001
0010
0000
0100
0000
0000
0000
0010
0000
0000
1001
,
0000
0000
0001
0000
0100
0000
1000
0000
0100
0000
0010
0000
1000
0000
0001
0010
,
0000
0000
0100
0000
1000
0000
0100
0000
0001
0000
0100
0000
0010
0000
0001
1000
,
0000
0000
0010
0000
0100
0000
1000
0000
0100
0000
0001
0000
0010
0000
0100
1000
,
0000
0001
1000
0010
0100
0000
1001
0000
,
0110
0000
0001
0000
1000
0010
1000
0000
0001
0000
0010
0000
0000
0100
0010
0000
,
0001
0000
1000
0000
0001
0100
0001
0000
1000
0000
0010
0000
0000
1000
0100
0000
,
0110
0000
0001
0000
1000
0000
0010
0000
0100
0000
0000
0000
0001
1000
0001
0000
,
1001
0000
1000
0000
0100
1000
0100
0000
1000
0000
0001
0000
0100
0001
0100
0000
,
0010
0000
1000
0000
0001
0010
0000
0100
0000
1000
0000
0001
0000
0000
0100
0000
,
0010
0000
0001
0000
0010
0000
1000
0000
0010
0000
0000
0000
0110
0000
0000
1001
,
0000
0000
0001
0000
0100
0000
0000
1000
0000
0000
0100
0000
0010
0000
0000
1001
,
0000
0000
1000
0000
0100
0000
0001
0000
0100
0000
0000
0010
0000
0001
0000
1000
,
0000
0000
0010
0000
0001
0000
0000
0010
0000
0000
0100
0000
0001
0000
0000
0110
,
0000
0000
1000
0000
0010
0000
1000
0000
0100
0000
0010
0001
0000
0000
1000
0010
,
1000
0000
0000
1100
0000
0000
0001
0000
0000
0101
0000
0000
0010
0000
0100
0000
,
1001
0000
0000
0000
;

//--------------- dance-single - forcednature ----------------
#NOTEDATA:;
#STEPSTYPE:dance-single;
#DESCRIPTION:forcednature;
#DIFFICULTY:Hard;
#METER:16;
#RADARVALUES:0,0,0,0,0;
#CREDIT:forcednature;
#NOTES:
0000
0000
0000
0000
,
0000
0000
0000
0000
,
0000
0000
0000
0000
0000
0000
0000
0000
0000
0000
0000
0000
0000
0000
0000
1001
,
0000
1000
0100
0010
0001
0010
0100
1000
0000
0001
0100
0010
1000
0010
0100
0001
,
0000
1000
0100
0010
0001
0010
0001
0010
0200
0000
0000
0001
0000
1300
0000
0110
,
0000
0010
0001
1000
0001
0100
0010
1000
0000
0001
1000
0100
0010
0001
0100
0010
,
0000
1000
0100
1000
0001
1000
0010
0100
0001
0000
0010
0100
1000
0000
0010
0100
,
0000
0001
0010
0001
0100
0010
1000
0001
0000
1000
0010
1000
0100
0010
0001
1000
,
0000
0010
0100
0001
1000
0010
1000
0100
0020
0000
0000
1000
0000
0031
0000
0110
,
0000
0001
1000
0010
0100
0001
1000
0100
0000
0010
0001
1000
0001
0100
0010
1000
,
0000
0001
0010
0100
1000
0001
0100
0010
1000
0000
0100
0001
0100
0000
1000
0001
,
0200
0000
0010
0010
0010
0000
0010
0310
,
0100
0001
1000
0010
1000
0001
1000
0100
0010
0001
0100
0010
1000
0000
0000
0000
,
1100
0000
1000
0001
0000
0000
1010
0000
1000
0001
0000
0000
0100
0000
0010
0000
,
0101
0000
0001
1000
0000
0000
0011
0000
0001
1000
0000
0000
0100
0000
0010
0000
,
1001
0000
1000
0001
0000
0000
0110
0000
0001
1000
0000
0000
0100
0000
0010
0000
,
1001
0000
0000
0101
0000
0000
1100
0000
0000
0110
0000
0000
0000
0000
0000
0000
,
0001
0000
1000
0010
0000
0001
0010
0000
1000
0010
0000
0001
0010
0100
0010
0000
,
1000
0000
0100
0001
0000
0100
1000
0000
0100
0001
0000
0100
0010
0001
0010
0000
,
0100
0000
1000
0001
0000
0100
0010
0000
1000
0001
0000
0100
1000
0100
0001
0000
,
0101
0000
0000
1100
0000
0000
0001
0010
0100
1000
0000
0000
0001
0100
0010
1000
,
0000
0100
0010
0000
0001
0010
0100
0000
1000
0001
0100
0000
0010
1000
0001
1000
,
0000
0100
0010
0001
0010
0000
0100
1000
0001
0000
0101
0000
0100
0010
1000
0010
,
0000
0100
0001
1000
0100
0000
0010
0001
1000
0000
0010
0100
0001
1000
0000
0100
,
0000
0010
0001
0010
0100
0000
1000
0001
0200
0000
1000
0000
0301
0000
0000
0110
,
0000
0001
1000
0000
0010
0100
0001
0000
1000
0100
0010
0001
1000
0001
0000
0101
,
0000
0001
0100
0010
1000
0000
0001
0010
0200
0000
1000
0000
0301
0000
0100
0010
,
0000
0001
1000
0010
1000
0001
0010
0001
1000
0100
1000
0001
0100
0001
0010
0100
,
1000
0001
0000
0101
0000
1100
0000
1001
0000
0000
0000
0000
1000
0010
0000
0101
,
0000
0001
0010
0000
0100
1000
0100
0000
0010
0001
1000
0010
0100
0001
1000
0100
,
0000
0010
0001
0000
1000
0010
1000
0000
0001
0010
0100
1000
0001
0100
0010
1000
,
0000
0100
0010
0000
0001
1000
0010
0000
0100
0001
1000
0100
1000
0001
0100
0010
,
0000
1000
0100
0000
0010
0000
0011
0000
1100
0000
0000
0000
1001
0000
0000
0110
,
0000
0001
0100
0000
0010
1000
0001
0000
1000
0100
0010
1000
0010
0001
1000
0001
,
0000
0010
0100
0000
1000
0001
0100
0000
0010
0001
0010
1000
0010
0100
0001
1000
,
0000
0100
0010
0000
0001
0010
0100
0000
1000
0100
0001
0100
0010
0001
1000
0001
,
0000
0100
0010
0000
1000
0001
0100
0000
1010
0000
0100
0000
0011
0000
0000
0000
,
1001
0000
0000
0000
0001
0100
1000
0000
0110
0000
0000
0000
1000
0100
0001
0000
,
1100
0010
0101
0010
2002
0000
3003
0001
,
0101
1000
1100
0010
0110
0000
1001
0000
,
1020
0000
0000
0000
0031
0000
0000
0000
1000
0000
0010
0100
0001
0000
0010
0100
,
2000
0000
0000
0000
0000
0000
0001
0000
0000
3010
0000
0000
1000
0000
0100
0000
0100
0000
0001
0000
0000
0000
0000
0000
,
1002
0000
0000
0000
0013
0000
0000
0000
0001
0000
0100
1000
0100
0000
0001
1000
,
0020
0000
0000
1030
0100
0001
0100
0000
0000
0010
0000
0000
,
0201
0000
0000
0000
1300
0000
0000
0000
0100
0000
0001
0010
1000
0000
0010
0001
,
0200
0000
0000
0301
0010
0100
1000
0010
0001
0010
0000
0000
,
1200
0000
0301
0000
1100
0010
0101
0010
,
1000
0100
0001
1000
0010
0001
1000
0010
0010
0001
0010
0010
,
0100
0000
0000
0000
0000
0000
0000
0000
0000
0000
0000
0000
0001
1000
0000
2001
,
0000
0000
0100
0000
0001
0000
0010
0000
0001
0000
3100
0000
0001
0010
0100
1000
,
0000
0001
0100
0001
1000
0001
0010
0001
1000
0001
0100
0001
1000
0001
0010
0100
,
0000
1000
0100
1000
0001
1000
0010
1000
0001
1000
0100
1000
0001
1000
0010
0100
,
0000
0010
0001
0010
0100
0010
1000
0010
0100
0000
0000
0000
0110
0000
0000
1001
,
0000
0001
0100
0000
0010
1000
0001
0000
1000
0100
0001
0100
0010
0001
1000
0010
,
0000
0100
0001
0000
1000
0010
0001
0000
0010
1000
0001
1000
0100
0001
0100
0010
,
0000
0001
1000
0000
0010
0100
1000
0000
0100
0001
1000
0001
0010
1000
0010
0001
,
0000
1000
0010
0000
0100
0001
1000
0000
1100
0000
0010
0000
0101
0000
0000
0000
,
2010
0000
0001
0000
3100
1000
0001
0000
0012
0000
1000
0000
0103
0001
1000
0000
,
1010
0100
0011
0100
2002
0000
3003
0010
,
0101
1000
1100
0001
0110
0000
1001
0000
,
1000
0010
0100
0010
1000
0010
0100
0000
0001
0010
0100
0010
0001
0010
0100
0000
,
1000
0001
0100
0010
1000
0100
0010
0001
0100
0010
1000
0100
0010
0001
0100
0000
,
0010
1000
0010
0001
0010
1000
0010
0001
0010
0000
0000
0000
0110
0000
0000
1001
,
0000
1000
0100
0010
0001
0100
0010
1000
0000
0001
0010
0100
0010
0001
1000
0010
,
0000
0100
1000
0100
0010
0100
0001
0100
0020
0000
0000
0001
0000
1030
0000
0110
,
0000
0100
0001
1000
0001
0010
1000
0010
0000
0100
1000
0001
1000
0010
0001
0010
,
0000
0100
0001
1000
0100
0010
1000
0010
0001
0000
1000
0010
0001
0000
0010
1000
,
0100
0000
0010
1000
0000
0010
0001
0000
0010
0100
0000
1000
0001
0100
0010
0000
,
1001
0000
0000
0000
;

//--------------- dance-double - forcednature ----------------
#NOTEDATA:;
#STEPSTYPE:dance-double;
#DESCRIPTION:forcednature;
#DIFFICULTY:Easy;
#METER:9;
#RADARVALUES:0,0,0,0,0;
#CREDIT:forcednature;
#NOTES:
00000000
00000000
00000000
00000000
,
00000000
00000000
00000000
00000000
,
00000000
00000000
00000000
00000000
00000000
00000000
00000000
00000000
00000000
00000000
00000000
00000000
00000000
00000000
00000000
00001000
,
00000000
00000000
00000000
00000000
00010000
00000000
00000000
00100000
00000000
00000000
00000000
00000000
01000000
00000000
00000000
00010000
,
00000000
00000000
00000000
00000000
10000000
00000000
00000000
00000000
01000000
00000000
00000000
00010000
00000000
00001000
00000000
00010000
,
00000000
00000000
00000000
00000000
00000100
00000000
00000000
00001000
00000000
00000000
00000000
00000000
00000010
00000000
00000000
00000100
,
00000000
00000000
00000000
00000000
00000001
00000000
00000000
00000000
00000010
00000000
00000100
00000000
00000000
00000000
00000000
00010000
,
00000000
00000000
00000000
00000000
00001000
00000000
00000000
01000000
00000000
00000000
00000000
00000000
00010000
00000000
00000000
00100000
,
00000000
00000000
00000000
00000000
01000000
00000000
00000000
00000000
10000000
00000000
00000000
00010000
00000000
01000000
00000000
00010000
,
00000000
00000000
00000000
00000000
00100000
00000000
00000000
00001000
00000000
00000000
00000000
00000000
00010000
00000000
00000000
00000010
,
00000000
00000000
00000100
00000000
00000001
00000010
00000000
00000010
,
00000200
00000000
00000000
00000000
,
00010300
00000000
00000000
00001000
00000000
00000000
01000000
00000000
00010000
00000000
00000000
00000000
10000000
00000000
00000000
00000000
,
01000000
00000000
00000000
10000000
00000000
00000000
01000000
00000000
00000000
00000000
00000000
00000000
00100000
00000000
00000000
00000000
,
00001000
00000000
00000000
00010000
00000000
00000000
00001000
00000000
00000000
00000000
00000000
00000000
00000100
00000000
00000000
00000000
,
00000001
00000000
00000000
00000010
00000000
00000000
00000001
00000000
00000000
00000000
00000000
00000000
00000100
00000000
00000000
00000000
,
00000010
00000000
00000000
00010000
00000000
00000000
00000010
00000000
00000000
00010000
00000000
00000000
00000000
00000000
00000000
00000000
,
00001000
00000000
00000000
00100000
00000000
00000000
00001000
00000000
00000000
00000000
00000000
00000000
00010000
00000000
00000000
00000000
,
00100000
00000000
00000000
01000000
00000000
00000000
00100000
00000000
00000000
00000000
00000000
00000000
10000000
00000000
00000000
00000000
,
01000000
00000000
00000000
00100000
00000000
00000000
01000000
00000000
00000000
00000000
00000000
00000000
00010000
00000000
00000000
00000000
,
00001000
00000000
00000000
01000000
00000000
00000000
00001000
00000000
00000000
01000000
00000000
00000000
00000000
00000000
00000000
00010000
,
00000000
00000000
00100000
00000000
00000000
00000000
00100000
00000000
00000000
00000000
00001000
00000000
00000000
00000000
00000000
00010000
,
00000000
00000000
00000010
00000000
00000000
00000000
00000010
00000000
00000000
00000000
00001000
00000000
00000000
00000000
00000000
00000100
,
00000000
00000000
00000010
00000000
00000000
00000000
00000010
00000000
00000000
00000000
00000001
00000000
00000000
00000000
00000000
00000100
,
00000000
00000000
00000010
00000000
00000000
00000000
00000010
00000000
00000000
00000000
00000010
00000000
00000000
00000000
00000000
00010000
,
00000000
00001000
00000000
01000000
00000000
00001000
00000000
00100000
,
00000000
00000000
01000000
00000000
00000000
00000000
10000000
00000000
00000000
00000000
00010000
00000000
00000000
00000000
00000000
01000000
,
00000000
00001000
00000000
00010000
00000100
00010000
00001000
00010000
,
00000010
00000000
00000000
00000100
00000000
00000100
00000000
00000100
00000000
00000000
00000000
00000000
00000001
00000000
00000000
00001001
,
00000000
00000000
00001000
00000000
00000000
00000000
00000100
00000000
00000000
00000000
00010000
00000000
00000000
00000000
00001000
01000000
,
00000000
00000000
00010000
00000000
00000000
00000000
10000000
00000000
00000000
00000000
01000000
00000000
00000000
00000000
00100000
00010000
,
00000000
00000000
01000000
00000000
00000000
00000000
00001000
00000000
00000000
00000000
00010000
00000000
00000000
00000000
00000100
00001000
,
00000000
00000000
00000010
00000000
00000000
00000000
00000100
00000000
00000001
00000000
00000000
00000000
00000010
00000000
00000000
00000110
,
00000000
00000000
00000100
00000000
00000000
00000000
00010000
00000000
00000000
00000000
00001000
00000000
00000000
00000000
01000000
00010000
,
00000000
00000000
00100000
00000000
00000000
00000000
01000000
00000000
00000000
00000000
10000000
00000000
00000000
00000000
00010000
01000000
,
00000000
00000000
00001000
00000000
00000000
00000000
00010000
00000000
00000000
00000000
00000100
00000000
00000000
00000000
00001000
00000010
,
00000000
00000100
00000000
00000001
00000010
00000000
00000100
00000000
,
00000110
00000000
00000000
00001000
00000010
00000000
00000000
00010000
,
00001000
00100000
00010000
00100000
01000000
00000000
00000000
10000000
,
00010000
01000000
00010000
00100000
01000000
00000000
00010000
00000000
,
00022000
00000000
00033000
00000100
,
00000200
00000000
00000000
00000000
00000000
00000000
00001300
00000000
00001000
00000000
00001000
00000000
,
00002002
00000000
00003003
00001000
,
00000020
00000000
00000000
00010030
00000000
00010000
00001000
00000000
00000000
00100000
00000000
00000000
,
02200000
00000000
03300000
01000000
,
20000000
00000000
00000000
00000000
00000000
00000000
30100000
00000000
00100000
00000000
00100000
00000000
,
02200000
03300000
01000000
01000000
,
00001000
00000000
00010000
00000000
00000100
00000000
00001000
00000000
00000100
00000000
00000010
00000000
,
00000002
00000000
00000000
00000000
00000000
00000000
00000000
00000000
00000003
00000000
00000000
00000000
00000100
00000000
00000000
00002020
,
00000000
00000000
00000000
00000000
00000000
00000000
00000000
00000000
00000000
00000000
00000000
00000000
00003030
00000000
00000000
00010000
,
00000000
00000000
00001000
00000000
01000000
00000000
00001000
00000000
01000000
00000000
00001000
00000000
01000000
00000000
00000000
00011000
,
00000000
00000000
00010000
00000000
00000100
00000000
00010000
00000000
00000100
00000000
00010000
00000000
00000100
00000000
00000000
00011000
,
00000000
00000000
00001000
00000000
00100000
00000000
00010000
00000000
00100000
00000000
00000000
00000000
01000000
00000000
00000000
10010000
,
00000000
00000000
10000000
00000000
00000000
00000000
00010000
00000000
00000000
00000000
01000000
00000000
00000000
00000000
00001000
00010000
,
00000000
00000000
00000100
00000000
00000000
00000000
00001000
00000000
00000000
00000000
00000001
00000000
00000000
00000000
00000100
00000010
,
00000000
00000000
00001000
00000000
00000000
00000000
00000100
00000000
00000000
00000000
00010000
00000000
00000000
00000000
00001000
01000000
,
00000000
00010000
00000000
00100000
01000000
00000000
10000000
00000000
,
20020000
00000000
30030000
00010000
01000000
00000000
00000000
00001000
,
00010000
00000100
00001000
00000100
00000010
00000000
00000000
00000001
,
00000100
00000001
00000100
00000001
00000010
00000000
00000100
00000000
,
00000220
00000000
00000330
00000010
00001000
00000000
00000000
00020000
,
00000000
00000000
00130000
00000000
01000000
00000000
00000000
00010000
00000000
10000000
00000000
00010000
00000000
00000000
00000000
00000000
,
00100000
00000000
10000000
00000000
00100000
00000000
00010000
00000000
00100000
00000000
00000000
00000000
01000000
00000000
00000000
10010000
,
00000000
00000000
00000000
00000000
10000000
00000000
00000000
00000000
00010000
00000000
00000000
00000000
01000000
00000000
00000000
00011000
,
00000000
00000000
00000000
00000000
00000100
00000000
00000000
00000000
00001000
00000000
00000000
00000010
00000000
00000100
00000000
00000101
,
00000000
00000000
00000000
00000000
00000001
00000000
00000000
00000000
00000010
00000000
00000000
00000000
00000100
00000000
00000000
00011000
,
00000000
00000000
01000000
00000000
00010000
00100000
00010000
00100000
,
01000000
00000000
00000000
10000000
00000000
00000000
00010000
00000000
00000000
10000000
00000000
00000000
00100000
00000000
00000000
00000000
,
01010000
00000000
00000000
00000000
;

//--------------- dance-double - forcednature ----------------
#NOTEDATA:;
#STEPSTYPE:dance-double;
#DESCRIPTION:forcednature;
#DIFFICULTY:Medium;
#METER:14;
#RADARVALUES:0,0,0,0,0;
#CREDIT:forcednature;
#NOTES:
00000000
00000000
00000000
00000000
,
00000000
00000000
00000000
00000000
,
00000000
00000000
00000000
00000000
00000000
00000000
00000000
00000000
00000000
00000000
00000000
00000000
00000000
00000000
00000000
00001000
,
00000000
00000000
00010000
00000000
00100000
00000000
00000000
01000000
00000000
00000000
00010000
00000000
10000000
00000000
00000000
01000000
,
00000000
00000000
00010000
00000000
00001000
00000000
00010000
00000000
00000010
00000000
00000000
00000100
00000000
00001000
00000000
00000100
,
00000000
00000000
00000001
00000000
00000010
00000000
00000000
00000100
00000000
00000000
00010000
00000000
00001000
00000000
00000000
01000000
,
00000000
00000000
00010000
00000000
00100000
00000000
10000000
00000000
00100000
00000000
00010000
00100000
00000000
00000000
00001000
00010000
,
00000000
00000000
00000010
00000000
00000100
00000000
00000000
00001000
00000000
00000000
00000100
00000000
00000001
00000000
00000000
00000010
,
00000000
00000000
00000100
00000000
00010000
00000000
00001000
00000000
00010000
00000000
00000000
00100000
00000000
01000000
00000000
00100000
,
00000000
00000000
10000000
00000000
00010000
00000000
00000000
00100000
00000000
00000000
01000000
00000000
00010000
00000000
00000000
00001000
,
00000000
00000000
00000100
00000000
00001000
00000000
00010000
00000000
00000010
00000000
00000100
00001000
00000000
00000000
00000001
00000100
,
00000002
00000000
00000010
00000010
00000010
00000000
00001000
00001000
,
00001003
00000001
00000000
00000100
00000000
00001000
00000000
00010000
00000000
01000000
00000000
10000000
00100000
00000000
00000000
00000000
,
10010000
00000000
00000000
00010000
00000000
00000000
01000000
00000000
00000000
00001000
00000000
00000000
00010000
00000000
00000100
00000000
,
00000110
00000000
00000000
00000010
00000000
00000000
00000001
00000000
00000000
00000100
00000000
00000000
00001000
00000000
00010000
00000000
,
00011000
00000000
00000000
00001000
00000000
00000000
01000000
00000000
00000000
00010000
00000000
00000000
00100000
00000000
01000000
00000000
,
01100000
00000000
00000000
00100000
00000000
00000000
10000000
00000000
00000000
00100000
01000000
00000000
00001000
00000000
00010000
00000000
,
00011000
00000000
00000000
00000100
00000000
00000000
00001100
00000000
00000000
00010000
00000000
00000000
00001000
00000000
01000000
00000000
,
01010000
00000000
00000000
00100000
00000000
00000000
11000000
00000000
00000000
00010000
00000000
00000000
00100000
00000000
00001000
00000000
,
00011000
00000000
00000000
00000010
00000000
00000000
00001010
00000000
00000000
00010000
00000000
00000000
00000100
00000000
00000010
00000000
,
00000011
00000000
00000000
00000101
00000000
00000000
00001100
00000000
00000000
00001000
00010000
00000000
00100000
00000000
01000000
00010000
,
00000000
00000000
10000000
00000000
01000000
00000000
00100000
00000000
01000000
00000000
00010000
00000000
00001000
00000000
00100000
00010000
,
00000000
00000000
01000000
00000000
00001000
00000000
00010000
00000000
00000100
00000000
00001000
00000000
00000010
00000000
00000001
00000010
,
00000000
00000000
00000100
00000000
00000001
00000000
00001000
00000000
00000100
00000000
00000010
00000000
00000100
00000000
00010000
00001000
,
00000000
00000000
01000000
00000000
00001000
00000000
00100000
00000000
00010000
00000000
01000000
00000000
00100000
00000000
10000000
00010000
,
00000000
00000000
00100000
00000000
01000000
00000000
01000000
00000000
00100000
00000000
00001000
00000000
00001000
00000000
00010000
00000010
,
00000000
00000000
00000100
00000000
00001000
00000000
00001000
00000000
00000100
00000000
00000001
00000000
00000001
00000000
00000010
00000100
,
00000000
00010000
00001000
00010000
00100000
01000000
00100000
10000000
,
01000000
00010000
00000000
00001000
00000000
00010000
00000000
00000010
00000000
00000000
00000000
00000000
00001000
00000100
00000000
00000110
,
00000000
00000000
00000010
00000000
00000001
00000000
00000100
00000000
00000010
00000000
00000100
00000000
00001000
00000000
00010000
00001000
,
00000000
00000000
01000000
00000000
00010000
00000000
00100000
00000000
01000000
00000000
00100000
00000000
00001000
00000000
00010000
00100000
,
00000000
00000000
10000000
00000000
01000000
00000000
00010000
00000000
00001000
00000000
01000000
00000000
00010000
00000000
00100000
00001000
,
00000000
00000000
00010000
00000000
00000010
00000000
00000100
00000000
00001000
00000000
00000000
00000000
00010000
00000000
00000000
00010100
,
00000000
00000000
00000100
00000000
00001000
00000000
00000010
00000000
00000001
00000000
00000010
00000000
00001000
00000000
00000100
00010000
,
00000000
00000000
00001000
00000000
01000000
00000000
00010000
00000000
00100000
00000000
10000000
00000000
00100000
00000000
00010000
01000000
,
00000000
00000000
00001000
00000000
00010000
00000000
00000100
00000000
00000010
00000000
00001000
00000000
00000010
00000000
00000001
00001000
,
00000000
00000010
00000100
00001000
00010000
00000000
00011000
00000000
,
01100000
00000000
00000000
00000000
10000000
00100000
10000000
00000000
01000000
00000000
00010000
00000000
00001000
00100000
00001000
00000000
,
00010000
00100000
00010000
00001000
00000010
00000000
00000100
00010000
,
00001000
00000100
00000001
00000010
00001000
00000000
00011000
00000000
,
02001000
00000000
00100000
00000000
13000000
01000000
01010000
00000000
,
00102000
00000000
00000000
00000000
00000000
00000000
00010000
00000000
00000000
00000000
00000000
00000000
01003000
00000000
00001000
00000000
01000000
00000000
00001000
00000000
00000000
00010000
00000000
00000000
,
00010200
00000000
00000000
00000000
00001000
00000000
00000000
00000000
00000310
00000000
00000100
00001000
00000100
00000000
00010000
00000000
,
00002000
00000000
00000000
01003000
00010000
00100000
00010000
00000000
00000000
01000000
00000000
00000000
,
20010000
00000000
01000000
00000000
30100000
10000000
01000000
00010000
,
00002000
00000000
00000000
00000000
00000000
00000000
00100000
00000000
00000000
00000000
00000000
00000000
01003000
00000000
00001000
00000000
00010000
00000000
00000010
00000000
00000000
00001000
00000000
00000000
,
00001200
00000000
00000001
00000000
00001300
00000100
00000010
00000100
,
00010000
00001000
00100000
00010000
01000000
00001000
00010000
00100000
01000000
00100000
10000000
01000000
,
00020000
00000000
00000000
00000000
00000000
00000000
00000000
00000000
00030000
00000000
00000000
00000000
00001000
00010000
00000000
00011000
,
00000000
00000000
00000100
00000000
00001000
00000000
00000010
00000000
00010000
00000000
00001000
00000000
01000000
00000000
00010000
00100000
,
00000000
01000000
10000000
01000000
10000000
00000000
01000000
00000000
00010000
00000000
00001000
00000000
00000100
00000000
00000001
00000010
,
00000000
00000001
00000100
00000001
00000100
00000000
00001000
00000000
00010000
00000000
01000000
00000000
10000000
00000000
00100000
01000000
,
00000000
00010000
00100000
00000000
01000000
00000000
00010000
00000000
00001000
00000000
00000000
00000000
00000010
00000000
00000000
00001001
,
00000000
00000000
00001000
00000000
00000010
00000000
00000001
00000000
00000010
00000000
00000100
00000000
00001000
00000000
00010000
00000100
,
00000000
00000000
00001000
00000000
00000010
00000000
00010000
00000000
00001000
00000000
00100000
00000000
00010000
00000000
01000000
00100000
,
00000000
00000000
10000000
00000000
01000000
00000000
00010000
00000000
00001000
00000000
01000000
00000000
00010000
00000000
00100000
01000000
,
00000000
00010000
00001000
00000100
00000010
00000000
00000110
00000000
,
00001001
00000000
00000000
00000000
00000001
00000010
00000001
00000000
00000100
00000000
00000010
00000000
00000000
00001000
00000100
00000000
,
00010000
00000000
00001000
00000000
01000000
00010000
01000000
00000000
00100000
00000000
10000000
00000000
00000000
01000000
00100000
00000000
,
01100000
01000000
00010000
00001000
00000100
00000000
00000110
00000000
,
00000001
00000100
00000001
00000000
00000010
00000000
00000100
00001000
00000100
00000000
00010000
00000000
00001000
00000000
01000000
00010000
,
01000000
00000000
00100000
00000000
00010000
00100000
00000000
10000000
00000000
01000000
00000000
00010000
00000000
00000000
00001000
00000000
,
00000100
00000000
00000001
00000000
00000010
00000000
00000100
00000000
00010000
00000000
00000000
00000000
01001000
00000000
00000000
00110000
,
00000000
00000000
10000000
00000000
00100000
00000000
00000000
00010000
00000000
00000000
00001000
00000000
00000010
00000000
00000000
00000110
,
00000000
00000000
00000100
00000000
00000001
00000000
00000100
00000000
00001000
00000000
00000000
00000010
00000000
00010000
00000000
01001000
,
00000000
00000000
00001000
00000000
00100000
00000000
00000000
01000000
00000000
00000000
00010000
00000000
01000000
00000000
00000000
11000000
,
00000000
00000000
10000000
00000000
00100000
00000000
00010000
00000000
00100000
00000000
01000000
00001000
00000000
00000000
00010000
00000100
,
00010000
00000000
00000000
00010010
00000000
00000000
00001000
00000000
00000000
00101000
00000000
00000000
00010000
00000000
00001000
00000000
,
00011000
00000000
00000000
00000000
;

//--------------- dance-double - forcednature ----------------
#NOTEDATA:;
#STEPSTYPE:dance-double;
#DESCRIPTION:forcednature;
#DIFFICULTY:Hard;
#METER:17;
#RADARVALUES:0,0,0,0,0;
#CREDIT:forcednature;
#NOTES:
00000000
00000000
00000000
00000000
,
00000000
00000000
00000000
00000000
,
00000000
00000000
00000000
00000000
00000000
00000000
00000000
00000000
00000000
00000000
00000000
00000000
00000000
00000000
00000000
00011000
,
00000000
01000000
00010000
01000000
00100000
10000000
00010000
10000000
00000000
01000000
00010000
00001000
00010000
00000100
00001000
00000010
,
00000000
00000100
00001000
00000100
00000001
00000100
00000001
00000100
00000020
00000000
00000000
00001000
00000000
00010030
00000000
00011000
,
00000000
00001000
00100000
00010000
00100000
01000000
10000000
00010000
00000000
01000000
00001000
00010000
00000100
00001000
00000010
00001000
,
00000000
00000100
00000001
00000100
00000010
00000001
00001000
00000001
00000100
00000000
00001000
00020000
00000010
00000000
00031000
00010000
,
00000000
00001000
01000000
00010000
01000000
00100000
10000000
00010000
00000000
00100000
00001000
00010000
00000010
00001000
00000010
00000100
,
00000000
00000001
00000010
00000100
00000001
00000100
00001000
00000100
00020000
00000000
00000000
00000010
00000000
00031000
00000000
00101000
,
00000000
00100000
01000000
10000000
01000000
00010000
00001000
00010000
00000000
00000100
00001000
00000010
00000100
00001000
00000100
00000001
,
00000000
00000010
00000100
00001000
00000100
00010000
00001000
01000000
00010000
00000000
00100000
01000000
00100000
00000000
00001000
01000000
,
00020000
00000000
10000000
10000000
10000000
00000000
10000000
10000000
,
00130000
00010000
01000000
00001000
00010000
00000100
00001000
00000010
00000100
00001000
00000100
00000001
00000100
00000000
00000000
00000000
,
00000110
00000000
00000000
00000010
00000000
00000000
00001000
00000000
00000000
00010000
00000000
00000000
01000000
00000000
00100000
00000000
,
01100000
00000000
00000000
01000000
00000000
00000000
00001000
00000000
00000000
00000010
00000000
00000000
00000100
00000000
00001000
00000000
,
00001001
00000000
00000000
00000001
00000000
00000000
00000100
00000000
00000000
00001000
00000000
00000000
01000000
00000000
00010000
00000000
,
00110000
00000000
00000000
11000000
00000000
00000000
10100000
00000000
00000000
01001000
00000000
00000000
00000000
00000000
00000000
00000000
,
00011000
00000000
00000000
00100000
00000000
00000000
00001000
00000000
00000000
00000100
00000000
00000000
00000001
00000000
00000010
00000000
,
00000110
00000000
00000000
00000100
00000000
00000000
00010000
00000000
00000000
00100000
00000000
00000000
01000000
00000000
00010000
00000000
,
00110000
00000000
00000000
00100000
00000000
00000000
01000000
00000000
00000000
00010000
00000000
00000000
00000100
00000000
00001000
00000000
,
00001010
00000000
00000000
00010100
00000000
00000000
01001000
00000000
00000000
00110000
00000000
00000000
10000000
01000000
00100000
00010000
,
00000000
01000000
00001000
00000000
00010000
00000100
00001000
00000000
00000010
00001000
00000001
00000000
00000010
00000100
00001000
00000100
,
00000000
00010000
00001000
01000000
00001000
00000000
00010000
00100000
01000000
00000000
01010000
00000000
00010000
00100000
01000000
10000000
,
00000000
00010000
01000000
00001000
00010000
00000000
00000100
00001000
00000100
00000000
00000010
00000001
00001000
00000010
00000000
00000100
,
00000000
00000001
00001000
00000001
00000010
00000000
00000100
00010000
00002000
00000000
01000000
00000000
00013000
00000000
00000000
00101000
,
00000000
00100000
00010000
00000000
01000000
00100000
10000000
00000000
01000000
00100000
00010000
00100000
00001000
00010000
00000000
00010010
,
00000000
00000010
00001000
00000010
00000100
00000000
00000001
00000010
00000200
00000000
00000001
00000000
00001300
00000000
00000100
00010000
,
00000000
00001000
01000000
00001000
00010000
00000100
00010000
00001000
00100000
00001000
00010000
00000010
00010000
00001000
01000000
00010000
,
00100000
01000000
00000000
11000000
00000000
01010000
00000000
00011000
00000000
00000000
00000000
00000000
00000100
00001000
00000000
00000011
,
00000000
00000001
00000100
00000000
00000010
00001000
00000010
00000000
00010000
00001000
00100000
00010000
00100000
01000000
10000000
00010000
,
00000000
01000000
00001000
00000000
00010000
00000100
00010000
00000000
00001000
00100000
00010000
01000000
00100000
10000000
00010000
00100000
,
00000000
01000000
10000000
00000000
01000000
00010000
00001000
00000000
00100000
00001000
00010000
00000100
00010000
00001000
00000010
00000100
,
00000000
00001000
00000001
00000000
00000100
00000000
00001000
00000000
00011000
00000000
00000000
00000000
01100000
00000000
00000000
10010000
,
00000000
10000000
01000000
00000000
00100000
00001000
00010000
00000000
00000010
00001000
00000100
00000010
00001000
00000010
00000001
00000100
,
00000000
00000010
00001000
00000000
00000100
00010000
00001000
00000000
00100000
00010000
00100000
01000000
00100000
10000000
00100000
00010000
,
00000000
10000000
00100000
00000000
01000000
00001000
00010000
00000000
00000100
00001000
00000100
00000010
00000001
00000100
00000010
00001000
,
00000000
00000100
00010000
00000000
00001000
01000000
00010000
00000000
00110000
00000000
00000000
00000000
00001100
00000000
00000000
00000000
,
00011000
00000000
00000000
00000000
01000000
00010000
00100000
00000000
01100000
00000000
00000000
00000000
01000000
00010000
00001000
00000000
,
00000100
00010000
01000000
00100000
20020000
00000000
30030000
10000000
,
01000000
00010000
00000100
00001000
00000010
00000000
00000110
00000000
,
00002001
00000000
00000000
00000000
00003010
00000000
00000000
00000000
00001000
00000000
00000100
00010000
00001000
00000000
01000000
00001000
,
00020000
00000000
00000000
00000000
00000000
00000000
00100000
00000000
00000000
00001000
00000000
00000000
00030100
00000000
00010000
00000000
00001000
00000000
01000000
00000000
00000000
00000000
00000000
00000000
,
10020000
00000000
00000000
00000000
00130000
00000000
00000000
00000000
00010000
00000000
00100000
01000000
00100000
00000000
00001000
00010000
,
00000020
00000000
00000000
00000130
00001000
00000100
00000001
00000000
00000000
00000010
00000000
00000000
,
00020100
00000000
00000000
00000000
00130000
00000000
00000000
00000000
00010000
00000000
00001000
00000010
00000100
00000000
00001000
00000001
,
00000200
00000000
00000000
00001300
00010000
00100000
01000000
10000000
01000000
00010000
00000000
00000000
,
00210000
00000000
10300000
00000000
00100000
00001000
00000100
00001000
,
00010000
00000100
00001000
00010000
01000000
00100000
00010000
00001000
00000010
00001000
00010000
00100000
,
01000000
00000000
00000000
00000000
00000000
00000000
00000000
00000000
00000000
00000000
00000000
00000000
00100000
10000000
00000000
12000000
,
00000000
00000000
00100000
00000000
00010000
00000000
00001000
00000000
00010000
00000000
00100000
00000000
13000000
01000000
00100000
00010000
,
00000000
01000000
00001000
00010000
00001000
00000010
00001000
00010000
00001000
00000100
00001000
00010000
00001000
00100000
00010000
00001000
,
00000000
00000100
00010000
00001000
00010000
00100000
00010000
00001000
00010000
01000000
00010000
00001000
00010000
00000010
00001000
00010000
,
00000000
01000000
00001000
00010000
00001000
00100000
00010000
00001000
00000100
00000000
00000000
00000000
00000110
00000000
00000000
00001001
,
00000000
00001000
00000100
00000000
00010000
00001000
01000000
00000000
00010000
00100000
01000000
00100000
00010000
01000000
00010000
10000000
,
00000000
00100000
01000000
00000000
00010000
00100000
00001000
00000000
00010000
00000010
00001000
00000010
00000100
00000001
00000010
00000100
,
00000000
00001000
00000010
00000000
00010000
00001000
00100000
00000000
01000000
10000000
01000000
00010000
00001000
00100000
00010000
00100000
,
00000000
00001000
00010000
00000000
00000010
00001000
00000100
00000000
00000110
00000000
00000010
00000000
00000101
00000000
00000000
00000000
,
00001020
00000000
00000100
00000000
00001030
00000010
00010000
00000000
00020100
00000000
00001000
00000000
00030010
00010000
00001000
00000000
,
00100000
01000000
00010000
00000100
00000220
00000000
00000330
00000001
,
00000100
00010000
01000000
00100000
01100000
00000000
10010000
00000000
,
10000000
01000000
00100000
00010000
00100000
00001000
00010000
00000000
00000010
00001000
00000010
00000100
00000001
00001000
00000100
00000000
,
00010000
00001000
00100000
00010000
01000000
00001000
00010000
00000100
00001000
00000010
00010000
00001000
00100000
00010000
01000000
00000000
,
00100000
00010000
00100000
01000000
00100000
10000000
00010000
10000000
01000000
00000000
00000000
00000000
00011000
00000000
00000000
00010100
,
00000000
00000100
00001000
00000010
00000100
00000001
00000010
00000100
00000000
00000001
00000100
00000010
00000100
00010000
00001000
00100000
,
00000000
00010000
01000000
00100000
01000000
10000000
01000000
00100000
02000000
00000000
00000000
00010000
00000000
03001000
00000000
00011000
,
00000000
00010000
00000100
00001000
00000010
00000100
00000010
00001000
00000000
00000001
00000010
00000100
00000010
00000001
00000100
00000010
,
00000000
00001000
00000100
00010000
00001000
01000000
00010000
00100000
01000000
00000000
00010000
01000000
10000000
00000000
00010000
01000000
,
00100000
00000000
00100000
00010000
00000000
00010000
00001000
00000000
00001000
00000010
00000000
00000010
00000100
00000000
00000110
00000000
,
00001001
00000000
00000000
00000000
;
