#VERSION:0.83;
#TITLE:Get There;
#SUBTITLE:;
#ARTIST:BEMANI Sound Team "Yvya" feat. 吾龍;
#TITLETRANSLIT:;
#SUBTITLETRANSLIT:;
#ARTISTTRANSLIT:Yvya feat. Goryu;
#GENRE:;
#CREDIT:;
#MUSIC:Get There.ogg;
#BANNER:Get There.png;
#BACKGROUND:Get There-bg.png;
#CDTITLE:./CDTitles/GITADORA HIGH-VOLTAGE.png;
#SAMPLESTART:64.041;
#SAMPLELENGTH:15.000;
#SELECTABLE:YES;
#OFFSET:1.556;
#BPMS:0.000=122.000;
#STOPS:132.000=1.475;
#TIMESIGNATURES:0.000=4=4,
132.000=1=4,
133.000=4=4
;
#BGCHANGES:0.000=../BGAs/17te.mp4=1.000=0=0=0=StretchNoLoop====,
99999.000=-nosongbg-=1.000=0=0=0=StretchNoLoop====
;
#FGCHANGES:;

//--------------- dance-single - forcednature ----------------
#NOTEDATA:;
#STEPSTYPE:dance-single;
#DESCRIPTION:forcednature;
#DIFFICULTY:Beginner;
#METER:3;
#RADARVALUES:0,0,0,0,0;
#CREDIT:forcednature;
#NOTES:
0000
0000
0000
0000
,
0000
0000
0000
0000
,
0000
0000
0000
0000
,
2002
0000
0000
0000
,
0000
0000
0000
3003
,
1000
0000
0000
0000
,
0001
0000
0001
0000
,
0001
0000
0000
0000
,
0100
0000
0000
0000
,
0010
0000
0000
0000
,
1000
0000
1000
0000
,
1000
0000
0000
0000
,
0001
0000
0010
0000
,
0001
0000
0000
0000
,
1001
0000
0000
0000
,
1000
0000
0010
0000
,
1000
0000
0000
0000
,
0001
0000
0100
0000
,
0001
0000
0000
0000
,
1000
0000
0100
0000
,
1000
0000
1000
0000
,
0010
0000
0000
0000
,
1001
0000
0000
0000
,
0001
0000
0001
0000
,
0100
0000
0000
0000
,
0010
0000
1000
0000
,
0001
0000
0000
0001
,
0010
0000
0000
0010
,
0100
0000
0000
0100
,
1000
0000
1001
0000
,
0001
0000
0100
0100
,
0100
0000
0001
0000
,
1000
0000
0001
0000
,
1001
1000
1000
0000
,
0000
0001
0001
0000
,
0000
0100
0100
0000
,
0000
0220
0000
0330
,
0000
0001
0001
0000
,
0000
1000
1000
0000
,
0000
0100
0100
0000
,
0000
2002
0000
3003
,
0000
1000
0000
1000
,
0000
0001
0000
0001
,
0000
0100
0000
0010
,
0000
0010
0000
0100
,
0000
1001
0000
0000
,
0000
0001
0001
1000
,
1000
0020
0000
0030
,
0000
1000
0000
0100
,
0000
1000
1000
1000
,
0000
0001
0000
0100
,
0000
0001
0001
0001
,
0000
0010
0000
0100
,
0000
0010
0010
0010
,
0000
0001
0000
1000
,
0000
0010
0000
0100
,
0100
0010
0010
0100
,
0010
0100
0000
0000
,
0000
0001
0000
1000
,
0100
0010
0000
0000
;

//--------------- dance-single - forcednature ----------------
#NOTEDATA:;
#STEPSTYPE:dance-single;
#DESCRIPTION:forcednature;
#DIFFICULTY:Easy;
#METER:7;
#RADARVALUES:0,0,0,0,0;
#CREDIT:forcednature;
#NOTES:
0000
0000
0000
0000
,
0000
0000
0000
0000
,
0000
0000
0000
0000
,
2002
0000
0000
0000
,
0000
0000
0000
3003
,
1000
0000
0100
0000
1000
0001
1000
0000
,
0010
0100
0010
1000
,
0001
0000
0100
0000
0001
1000
0001
0000
,
0010
0100
2000
3002
,
0103
0000
0010
0000
1000
0010
1000
0000
,
0001
0010
0001
1000
,
0100
0000
0010
0000
0001
0010
0001
0000
,
1000
0010
0200
0302
,
1003
0000
0001
0000
,
1001
0000
1000
0100
,
0010
0100
1000
0000
,
1001
0000
0001
0100
,
0010
0100
0001
0000
,
0110
0000
1000
1000
,
0001
0001
1000
0001
,
1001
0000
0100
0010
,
0110
0001
0110
1000
,
0001
0000
0100
0000
0001
1000
0001
0000
,
0010
0100
1000
0010
,
1000
0000
0100
0000
1000
0001
1000
0000
,
0020
0230
0301
1000
,
0001
0001
0001
0000
0001
0000
0000
0000
,
1000
1000
1000
0000
1000
0000
0000
0000
,
0010
0010
0010
0000
0010
0000
0100
0000
,
0001
1000
2002
3003
,
0110
0000
0001
0000
1000
0001
1000
0000
,
0001
1000
0001
0000
0100
0000
0010
0000
,
0110
0100
1001
0010
,
0110
0000
1001
0000
1000
0000
0001
0100
,
0001
0000
1001
0000
0001
0000
1000
0100
,
1000
0000
0110
0000
0001
0000
1000
0001
,
1000
0020
0030
0200
,
0300
0000
1001
0000
0100
0000
0001
1000
,
0001
0000
0110
0000
1000
0000
0001
1000
,
0001
0000
1001
0000
0010
0000
1000
0001
,
1000
0200
0320
0031
,
1001
0000
1000
1000
1000
0000
0010
0000
,
1000
0000
0001
0001
0001
0000
0010
0000
,
0001
0000
0100
0100
0100
0000
0010
0000
,
0100
0000
0001
1000
0001
0000
1000
0001
,
1000
2002
3003
0010
,
0100
0000
0001
0000
1000
0001
1000
0000
,
0100
2002
0000
3003
,
0000
0000
1000
0000
0100
0000
1000
0001
,
1000
0010
0100
0001
,
0010
0000
0001
0000
0100
0000
0001
1000
,
0001
0010
0100
1001
,
0110
0000
0001
0000
1000
0000
0010
0100
,
0010
0000
1000
0000
0001
0000
0010
0100
,
0010
0000
0001
0000
1000
0000
0100
0010
,
0100
1000
0001
0100
,
0110
0010
1001
0100
,
0110
0000
2002
0000
0000
3003
0000
0000
,
0000
0000
1000
0000
0001
0000
0100
0100
,
0100
0110
0000
0000
;

//--------------- dance-single - forcednature ----------------
#NOTEDATA:;
#STEPSTYPE:dance-single;
#DESCRIPTION:forcednature;
#DIFFICULTY:Medium;
#METER:12;
#RADARVALUES:0,0,0,0,0;
#CREDIT:forcednature;
#NOTES:
0000
0000
0000
0000
,
0000
0000
0000
0000
,
0000
0000
0000
0000
,
2002
0000
0000
0000
,
0000
0000
0000
3003
,
1000
0100
0000
1000
0000
0000
0001
0010
0000
0001
0000
0000
1000
0000
0000
0000
,
0001
0100
0000
0001
0000
0000
1000
0010
0000
1000
0000
0000
0100
0000
0010
0000
,
0001
0100
0000
0001
0000
0000
1000
0100
0000
1000
0000
0000
0010
0000
0100
0000
,
0001
0000
0000
0010
0000
0000
0000
0000
0000
0001
0000
0000
0000
0000
0000
0000
0000
0000
1000
0000
0000
0000
0000
0000
0010
0000
0000
0000
0100
0000
0000
0000
0010
0000
0000
0000
0200
0000
0000
0000
0000
0000
0000
0000
0000
0000
0000
0000
,
0301
1000
0000
0100
0000
0000
1000
0001
0000
0010
0000
0000
0100
0000
0100
0000
,
0010
0100
0000
1000
0000
0000
0100
0010
0000
0001
0000
0000
1000
0000
0010
0000
,
0100
0001
0000
1000
0000
0000
0100
1000
0000
0001
0000
0000
0100
0000
0010
0000
,
1000
0000
0000
0100
0000
0000
0000
0000
0000
0010
0000
0000
0000
0000
0000
0000
0000
0000
0001
0000
0000
0000
0000
0000
1000
0000
0000
0000
0010
0000
0000
0000
1000
0000
0000
0000
0020
0000
0000
0000
0000
0000
0000
0000
0000
0000
0000
0000
,
0130
0001
0100
0000
1001
0000
0000
0000
,
1000
0100
0010
0000
0100
1000
0010
0000
,
0100
0001
0010
0100
1000
0000
0110
0000
,
1000
0001
0010
0000
0001
1000
0100
0000
,
1000
0010
0100
0001
0010
0000
1001
0000
,
0001
0100
1000
0000
0100
0001
1000
0000
,
1000
0001
0010
0000
1000
0010
0001
0000
,
0110
0000
1000
0001
0100
0010
1000
0000
,
0001
0010
0001
0010
0100
0010
0200
0000
0000
2300
0000
0000
,
3001
0100
0000
0001
0000
0000
1000
0010
0000
1000
0000
0000
0001
0000
0010
0000
,
0100
0010
0000
0100
0000
0000
1000
0001
0000
1000
0000
0000
0010
0000
0100
0000
,
0001
0010
0000
0100
0000
0000
1000
0010
0000
0100
0000
0000
0001
0000
1000
0000
,
0100
0000
0000
0000
0010
0000
0000
0000
0100
0000
0000
0000
0020
0000
0000
0000
0000
0000
0000
0000
0000
0000
0000
0000
0031
0000
0000
1000
0000
0000
0000
0000
0000
0001
0000
0000
0000
0000
0000
1000
0000
0000
0000
0000
0000
0000
0000
0000
,
0010
0000
0100
0010
0000
0010
0000
0010
0000
0000
2000
0000
0000
0000
3000
0000
,
0001
0000
0010
0100
0000
0100
0000
0100
0000
0000
2000
0000
0000
0000
3000
0000
,
0001
0000
0100
0001
0000
0001
0000
0001
0000
0000
0010
0000
0100
0000
1000
0000
,
0001
0000
0000
1001
0000
0000
0100
0000
0220
0000
0000
0000
0330
0000
0000
0000
,
1000
0100
0001
0000
0100
1000
0010
0010
,
0100
0100
0001
1000
0010
0000
0110
0000
,
0001
0000
0000
1000
0000
0000
0100
0000
1000
0000
0000
0001
0000
0000
0010
0000
,
1001
0000
0000
0000
0101
0000
0000
0110
0000
0000
1010
0000
0000
0000
0001
0000
,
1000
0000
0000
0000
1100
0000
0000
0110
0000
0000
0011
0000
0000
0000
0001
0000
,
1000
0000
0000
0000
1010
0000
0000
1100
0000
0000
0101
0000
0000
0000
0001
0000
,
0010
0000
0000
0000
0002
0000
0000
0203
0000
0000
0320
0000
0000
2030
0000
0000
,
3001
0000
0000
0000
1100
0000
0000
1010
0000
0000
1001
0000
0000
0000
0100
0000
,
0010
0000
0000
0000
0101
0000
0000
0011
0000
0000
1001
0000
0000
0000
0010
0000
,
0100
0000
0000
0000
1001
0000
0000
1100
0000
0000
0011
0000
0000
0000
0001
0000
,
1000
0000
0000
0000
0020
0000
0000
0230
0000
0000
0302
0000
0000
2003
0000
0000
,
3010
0000
0000
0000
0100
0000
0001
0000
0100
0000
0001
0100
0000
0001
0200
0000
,
0000
0000
0300
0000
0010
0000
1000
0000
0010
0000
1000
0010
0000
1000
0020
0000
,
0000
0000
0030
0000
1000
0000
0100
0000
1000
0000
0100
1000
0000
0100
2000
0000
,
0000
0000
3000
0000
0002
0000
0000
0023
0000
0000
0230
0000
0000
0000
1300
0000
,
0001
0000
1000
0000
0010
0000
0000
0000
0100
0000
0001
1000
0000
0000
0010
0000
,
0100
0000
0000
0000
0001
0000
0000
0010
0000
0000
0100
0000
1000
0000
0000
0010
,
0000
0010
0000
0000
2002
0000
0000
0000
0000
0000
0000
0000
3003
0000
0000
0000
,
0000
0000
0000
0000
1000
0100
0000
1100
0000
0000
0001
0010
0000
0011
0000
0000
,
0001
0000
1000
0000
0001
0100
0000
0101
0000
0000
1000
0010
0000
1010
0000
0000
,
1000
0000
0001
0000
0010
0100
0000
0110
0000
0000
0001
1000
0000
1001
0000
0000
,
0100
0000
0000
0000
0000
0000
0010
0000
0000
0000
0000
0000
1000
0000
0000
0100
0000
0000
0000
0000
0000
1100
0000
0000
0000
0000
0000
0000
0000
0000
0001
0000
0000
0000
0000
0000
0100
0000
0000
0000
0010
0000
0000
0000
0100
0000
0000
0000
,
0020
0000
0000
0000
1030
0001
0000
0101
0000
0000
0001
1000
0000
1010
0000
0000
,
0001
0000
1000
0000
0001
0010
0000
0110
0000
0000
1000
0100
0000
0110
0000
0000
,
0001
0000
1000
0000
0010
0100
0000
0101
0000
0000
0010
0100
0000
0010
0100
0000
,
0010
0000
0000
0100
0000
0000
0000
0000
0000
0000
0000
0000
1000
0000
0000
0000
0000
0000
0001
0000
0000
0000
0000
0000
0100
0000
0000
0000
0000
0000
0010
0000
0000
0000
0000
0000
1000
0000
0000
0000
0100
0000
0000
0000
1000
0000
0000
0000
,
0200
0000
0000
0310
0001
0010
0002
0000
0000
0103
0010
0100
,
0010
0000
2002
0000
0000
3003
0000
0000
,
0000
0000
0000
0000
0000
0000
0000
0000
0000
0000
0000
0000
1000
0000
0000
0000
0100
0000
0000
0000
0010
0000
0000
0000
0001
0000
0000
0000
0010
0000
0000
0000
0100
0000
0000
0000
0000
0000
0000
1000
0000
0000
0000
0000
0000
1000
0000
0000
,
0000
0001
0000
0001
0000
0100
0000
0000
0000
0000
0000
0000
0000
0000
0000
0000
;

//--------------- dance-single - forcednature ----------------
#NOTEDATA:;
#STEPSTYPE:dance-single;
#DESCRIPTION:forcednature;
#DIFFICULTY:Hard;
#METER:16;
#RADARVALUES:0,0,0,0,0;
#CREDIT:forcednature;
#NOTES:
0000
0000
0000
0000
,
0000
0000
0000
0000
,
0000
0000
0000
0000
,
2002
0000
0000
0000
,
0000
0000
0000
3003
,
1000
0100
0000
0010
0001
0000
1000
0100
0000
0010
0001
0000
0010
0100
1000
0000
,
0001
0100
0000
0010
1000
0000
0001
0100
0000
0010
1000
0000
0010
0100
0001
1000
,
0100
0010
0000
0001
1000
0000
0100
0010
0000
0001
1000
0000
0100
1000
0001
0100
,
0010
0000
0000
1000
0000
0000
0000
0000
0000
0001
0000
0000
0100
0000
0000
0000
0000
0000
0010
0000
0000
1000
0000
0000
0002
0000
0000
0000
0023
0000
0000
0000
0230
0000
0000
0000
2300
0000
0000
0000
3020
0000
0000
0000
0230
0000
0000
0000
,
0301
1000
0000
0100
0010
0000
0001
1000
0000
0010
0100
0000
0001
0010
0001
1000
,
0100
0010
0000
0001
1000
0000
0010
0100
0000
0110
0000
0010
1000
0001
0100
0000
,
0001
0010
0000
0100
1000
0000
0010
0100
0000
0001
1000
0000
0100
1000
0001
0100
,
0010
0000
0000
1000
0000
0000
0000
0000
0000
0001
0000
0000
0010
0000
0000
0000
0000
0000
0100
0000
0000
1000
0000
0000
0002
0000
0000
0000
0203
0000
0000
0000
0320
0000
0000
0000
2030
0000
0000
0000
3200
0000
0000
0000
0320
0000
0000
0000
,
0031
0001
0001
0100
0220
0000
0330
0000
,
1000
0000
0100
0000
0001
0000
0100
0000
1000
0001
0000
0010
0001
0000
1000
0000
,
0001
0000
0100
0000
1000
0000
0100
0000
0001
1000
0000
0010
1000
0000
0001
0100
,
0000
0010
0000
0010
0000
1000
0001
0000
1000
0100
0000
0010
0000
0100
0001
0000
,
0100
0000
1000
0001
0010
0000
0001
1000
0010
0100
0000
0110
0000
0010
1000
0000
,
0000
0001
0000
0010
0100
1000
0100
0010
0000
0110
0000
0001
0010
0000
0001
0100
,
1000
0000
1000
0100
0001
0000
1000
0010
0000
0110
0000
0100
0001
0000
0001
0000
,
0011
0000
1100
0000
0000
1000
0001
0100
0000
0100
0000
0010
1000
0000
0101
0000
,
0002
0023
2030
3002
0203
2300
3002
2003
3020
0130
0100
0010
,
0110
0000
0000
0001
1000
0000
0010
0100
0000
0001
0100
0010
1000
0000
0001
0000
,
0010
0100
0000
1000
0001
0000
0100
0010
0000
1000
0100
0010
0001
0010
0200
0000
,
1300
0010
0000
0100
0001
0000
0010
0100
0000
1000
0001
0100
0001
1000
0010
0000
,
2000
0000
0000
0000
3200
0000
0000
0000
0302
0000
0000
0000
0203
0000
0000
0000
2300
0000
0000
0000
3020
0000
0000
0000
1030
0000
0000
0001
0000
0000
0000
0000
0000
0101
0000
0000
0000
0000
0000
0101
0000
0000
0000
0000
0000
0000
0000
0000
,
1000
0000
0010
0001
0000
0001
0000
1000
0000
0100
0002
0000
0003
1000
0010
1000
,
0001
0000
0010
1000
0000
1000
0000
0001
0000
0100
2000
0000
3001
0100
0001
0100
,
1000
0000
0100
0001
0000
0001
0000
1000
0000
0010
0002
0000
0013
1000
0001
0100
,
0010
0000
1000
0100
0000
0010
0001
0000
0220
0000
0000
0000
0330
0000
0000
0000
,
1000
0000
1100
0000
0001
0000
0010
1000
0000
0010
0000
0001
0100
0000
0101
0000
,
1010
0000
0101
0000
0001
0010
0100
0000
1100
0000
0011
0000
0110
0000
1001
0000
,
0001
0100
0001
1000
0010
1000
0001
0100
0020
0000
0000
1000
0000
0000
0130
0000
,
1001
0000
0000
0000
1000
0100
1000
0001
0010
0000
0001
0100
0000
1000
0100
0001
,
1000
0000
0010
0000
1000
0001
1000
0100
0010
0000
0001
1000
0000
0100
0001
0100
,
1000
0000
0001
0000
0010
0001
0000
0100
0010
0000
1000
0100
0000
1000
0010
0100
,
0001
0000
0000
0000
1000
0000
0000
0000
0102
0000
0000
0003
0000
0000
1200
0000
0000
0300
0000
0000
2010
0000
0000
3000
0000
0000
0021
0000
0000
0030
0000
0000
,
0001
0010
0100
1000
0001
0100
0001
1000
0010
0000
1000
0100
0000
0001
0100
1000
,
0001
0000
0010
0000
0001
1000
0001
0100
0010
0000
1000
0001
0000
0100
1000
0100
,
0001
0000
1000
0000
0010
1000
0000
0100
0001
0000
0100
1000
0000
0001
0010
0100
,
1000
0000
0001
0000
1000
0010
0100
0010
1000
0001
1000
0100
0010
0100
1000
0001
,
0010
0000
0000
0000
0100
0000
1100
0000
0011
0000
0001
0100
0000
1000
0200
0000
,
0300
0000
0001
0000
0000
0000
0000
0000
0100
0000
0000
0000
0101
0000
0000
0000
1010
0000
0000
0000
1000
0000
0100
0000
0000
0000
0001
0000
0200
0000
0000
0300
,
0000
0110
0000
0000
1001
0000
1000
0100
0010
0000
0100
1000
0000
0010
0100
0001
,
0010
0100
1000
0000
1010
0000
0000
1000
0100
0010
0001
0100
0000
0010
1000
0010
,
0100
0001
0100
0010
1000
0000
1000
0100
0001
0000
0100
1000
0001
0000
0010
0001
,
0000
0010
0100
1000
0001
0100
0001
0100
0010
1000
0010
1000
0001
0010
0000
0110
,
0000
1100
0000
0001
2000
0000
0000
0000
0000
0000
0000
0000
3010
0100
0010
0100
,
0010
0100
0010
0100
0001
0010
0000
0100
1000
0000
0001
0010
0000
0100
1000
0001
,
0100
0001
1000
0000
0010
0100
0000
0001
1000
0000
0010
0100
0000
0001
0010
0001
,
1000
0100
0010
0000
0100
1000
0000
0010
0100
0000
0001
0010
0000
0100
1000
0001
,
0100
0000
0000
0001
0000
0000
1000
0000
0000
0000
0000
0000
0100
0000
0000
0010
0000
0000
0000
0000
0000
0001
0000
0000
1000
0000
0000
0000
0000
0000
0010
0000
0000
0000
0000
0000
2000
0000
0000
0000
3200
0000
0000
0000
0302
0000
0000
0000
,
2003
0000
0000
0000
3020
0000
0000
0000
0032
0000
0000
0000
1003
0000
0000
0001
0000
0000
0000
0000
0000
0100
0000
0000
0010
0000
0000
0000
0000
0000
1000
0000
0000
0001
0000
0000
0000
0000
0000
0011
0000
0000
0000
0000
0000
0010
0000
0000
,
0100
1000
0001
0000
1000
0100
0000
1000
0010
0000
0100
1000
0000
1100
0000
0100
,
0001
1000
0010
1000
0001
0010
0000
0100
1000
0000
0010
1000
0100
0010
0001
0100
,
0010
0000
0000
1000
0000
0000
0100
0000
0000
0010
0000
0000
0001
0000
0000
1000
0000
0000
0001
0000
0000
0100
0000
0000
1000
0000
0000
0100
0000
0000
0001
0000
0000
0000
0000
0000
2000
0000
0000
0000
3020
0000
0000
0000
2030
0000
0000
0000
,
3001
0100
0001
0100
0001
0100
0002
0000
0023
0000
0032
0000
1003
0100
1000
0100
1000
0100
2000
0000
3002
0000
2003
0000
,
3010
0100
0010
0100
0010
0100
0002
0000
0000
0000
0000
0000
0000
0000
0000
0003
0000
0000
0000
0000
0000
0000
0000
0000
,
0000
0000
0000
0000
1000
0010
0100
0001
0010
0001
0100
0010
1000
0100
0000
1100
,
0000
0011
0000
0001
1000
0010
0000
0000
0000
0000
0000
0000
0000
0000
0000
0000
;

//--------------- dance-double - forcednature ----------------
#NOTEDATA:;
#STEPSTYPE:dance-double;
#DESCRIPTION:forcednature;
#DIFFICULTY:Easy;
#METER:8;
#RADARVALUES:0,0,0,0,0;
#CREDIT:forcednature;
#NOTES:
00000000
00000000
00000000
00000000
,
00000000
00000000
00000000
00000000
,
00000000
00000000
00000000
00000000
,
00022000
00000000
00000000
00000000
,
00000000
00000000
00000000
00033000
,
01000000
00000000
00010000
00000000
10000000
00100000
10000000
00000000
,
00010000
00100000
00001000
00010000
,
00000010
00000000
00001000
00000000
00000001
00000100
00000001
00000000
,
00001000
00000100
00020000
00032000
,
01003000
00000000
00010000
00000000
10000000
00100000
10000000
00000000
,
00010000
00100000
00001000
00010000
,
00000010
00000000
00001000
00000000
00000001
00000100
00000001
00000000
,
00001000
00000100
00020000
00032000
,
00103000
00100000
00100000
00000000
,
10010000
00000000
10000000
01000000
,
00010000
00000000
00001000
00010000
,
00001000
00000000
00000010
00000001
,
00001000
00000001
00000100
00000000
,
00000110
00000000
00000001
00000001
,
00001000
00001000
00000001
00001000
,
00000010
00000000
00010000
00001000
,
00011000
00011000
00011000
00100000
,
00010000
00000000
01000000
00000000
00010000
10000000
00010000
00000000
,
00100000
00001000
00010000
00000100
,
00001000
00000000
00000010
00000000
00001000
00000001
00001000
00000000
,
00000200
00020300
00031000
00100000
,
00001000
00001000
00001000
00000000
00010000
00000000
00000000
00000000
,
00001000
00001000
00001000
00000000
01000000
00000000
00000000
00000000
,
00001000
00001000
00001000
00000000
00100000
00000000
00010000
00000000
,
10000000
00100000
02200000
03300000
,
10010000
00000000
10000000
00000000
01000000
00010000
00001000
00000000
,
00010000
00001000
00010000
00000000
00001000
00000010
00000001
00000000
,
00001001
00000100
00000110
00000010
,
00001001
00000000
00000000
00000000
00001000
00000000
00000000
00001000
00000000
00000000
00001000
00000000
00000000
00000000
00000100
00000000
,
00010000
00000000
00000000
00000000
00001000
00000000
00000000
00001000
00000000
00000000
00001000
00000000
00000000
00000000
01000000
00000000
,
00010000
00000000
00000000
00000000
00100000
00000000
00000000
00100000
00000000
00000000
00100000
00000000
00000000
00000000
01000000
00000000
,
10000000
20020000
30030000
02200000
,
03300000
00000000
00000000
00000000
00010000
00000000
00000000
01000000
00000000
00000000
00010000
00000000
00000000
00000000
00100000
00000000
,
00001000
00000000
00000000
00000000
00010000
00000000
00000000
00001000
00000000
00000000
00010000
00000000
00000000
00000000
00000100
00000000
,
00001000
00000000
00000000
00000000
00000001
00000000
00000000
00000010
00000000
00000000
00000001
00000000
00000000
00000000
00001000
00000000
,
00000010
00020000
00032000
00103000
,
00011000
00000000
01000000
01000000
01000000
00000000
00001000
00000000
,
00010000
00000000
00000100
00000100
00000100
00000000
00010000
00000000
,
00001000
00000000
00100000
00100000
00100000
00000000
00001000
00000000
,
00010000
00000000
00000010
00001000
00000010
00000000
00000100
00000001
,
00000100
00002002
00003003
00001000
,
00000100
00000000
00000000
00000000
00010000
00000000
00000000
00010000
00000000
00000000
00001000
00000000
01000000
00000000
00000000
00000000
,
00100000
20020000
00000000
30030000
,
00000000
00000000
10000000
01000000
10000000
00000000
00010000
00100000
,
00010000
01000000
00001000
00010000
,
00000010
00000000
00001000
00000100
00001000
00000000
00000001
00000010
,
00000001
00000100
00001000
00011000
,
00101000
00000000
00100000
00010000
10000000
00000000
00100000
10000000
,
00010000
00000000
01000000
00000000
00001000
00000000
00010000
00010000
,
00001000
00000000
00010000
00000100
00001000
00000000
00000001
00000010
,
00000100
00000000
00001000
00000010
00010000
00000000
00001000
00000000
,
00011000
00100000
00011000
00000100
,
00011000
00000000
02000000
00000000
00000000
03000000
00000000
00000000
,
00000000
00000000
00010000
10000000
00010000
00000000
00100000
00100000
,
00100000
00011000
00000000
00000000
;

//--------------- dance-double - forcednature ----------------
#NOTEDATA:;
#STEPSTYPE:dance-double;
#DESCRIPTION:forcednature;
#DIFFICULTY:Medium;
#METER:12;
#RADARVALUES:0,0,0,0,0;
#CREDIT:forcednature;
#NOTES:
00000000
00000000
00000000
00000000
,
00000000
00000000
00000000
00000000
,
00000000
00000000
00000000
00000000
,
00022000
00000000
00000000
00000000
,
00000000
00000000
00000000
00033000
,
01000000
00010000
00000000
01000000
00000000
00000000
00100000
10000000
00000000
00100000
00000000
00000000
10000000
00000000
00000000
00000000
,
01000000
00010000
00000000
01000000
00000000
00000000
00010000
00001000
00000000
00010000
00000000
00000000
00001000
00000000
00000010
00000000
,
00000001
00000100
00000000
00000001
00000000
00000000
00001000
00000010
00000000
00001000
00000000
00000000
00000001
00000000
00000010
00000000
,
00001000
00000000
00000000
00010000
00000000
00000000
00000000
00000000
00000000
00001000
00000000
00000000
00000000
00000000
00000000
00000000
00000000
00000000
00010000
00000000
00000000
00000000
00000000
00000000
00100000
00000000
00000000
00000000
01000000
00000000
00000000
00000000
00100000
00000000
00000000
00000000
02000000
00000000
00000000
00000000
00000000
00000000
00000000
00000000
00000000
00000000
00000000
00000000
,
03010000
10000000
00000000
00100000
00000000
00000000
10000000
00010000
00000000
01000000
00000000
00000000
00001000
00000000
00010000
00000000
,
00000100
00001000
00000000
00000001
00000000
00000000
00000010
00000001
00000000
00001000
00000000
00000000
00000010
00000000
00010000
00000000
,
00001000
01000000
00000000
00010000
00000000
00000000
01000000
00001000
00000000
00010000
00000000
00000000
00000100
00000000
00001000
00000000
,
00000001
00000000
00000000
00000100
00000000
00000000
00000000
00000000
00000000
00000010
00000000
00000000
00000000
00000000
00000000
00000000
00000000
00000000
00010000
00000000
00000000
00000000
00000000
00000000
00001000
00000000
00000000
00000000
00100000
00000000
00000000
00000000
00001000
00000000
00000000
00000000
00200000
00000000
00000000
00000000
00000000
00000000
00000000
00000000
00000000
00000000
00000000
00000000
,
00310000
00010000
01000000
01000000
10010000
00000000
00000000
00000000
,
10000000
01000000
00010000
00000000
00001000
00010000
01000000
00000000
,
00010000
00001000
00000010
00000001
00001000
00000001
00000010
00000000
,
00000001
00000100
00001000
00000000
00010000
00001000
00000100
00000000
,
00001000
00010000
00100000
10000000
00010000
00000000
10010000
00000000
,
10000000
01000000
00010000
00000000
00001000
00010000
01000000
00010000
,
00001000
00010000
00100000
00000000
00010000
00001000
00000010
00000000
,
00000110
00000000
00000100
00001000
00000001
00000100
00001000
00000000
,
00010000
00100000
00010000
00100000
10000000
00100000
20000000
00000000
00000000
32000000
00000000
00000000
,
03100000
00010000
00000000
00100000
00000000
00000000
00001000
00010000
00000000
00001000
00000000
00000000
00000010
00000000
00000100
00000000
,
00001000
00000010
00000000
00001000
00000000
00000000
00000001
00000010
00000000
00000001
00000000
00000000
00000100
00000000
00001000
00000000
,
00010000
00001000
00000000
00010000
00000000
00000000
00100000
10000000
00000000
00100000
00000000
00000000
10000000
00000000
01000000
00000000
,
00010000
00000000
00000000
00000000
00001000
00000000
00000000
00000000
00010000
00000000
00000000
00000000
00002000
00000000
00000000
00000000
00000000
00000000
00000000
00000000
00000000
00000000
00000000
00000000
00003010
00000000
00000000
00000100
00000000
00000000
00000000
00000000
00000000
00000010
00000000
00000000
00000000
00000000
00000000
00000100
00000000
00000000
00000000
00000000
00000000
00000000
00000000
00000000
,
00001000
00000000
00000001
00000100
00000000
00000100
00000000
00000100
00000000
00000000
00001000
00000000
00010000
00000000
00000000
00000000
,
00100000
00000000
10000000
00010000
00000000
00010000
00000000
00010000
00000000
00000000
01000000
00000000
00001000
00000000
00000000
00000000
,
00010000
00000000
00000100
00001000
00000000
00001000
00000000
00001000
00000000
00000000
00000001
00000000
00000010
00000000
00001000
00000000
,
00011000
00000000
00000000
01001000
00000000
00000000
01000000
00000000
02020000
00000000
00000000
00000000
03030000
00000000
00000000
00000000
,
10000000
01000000
00010000
00001000
00010000
01000000
00010000
00001000
,
00000010
00001000
00000010
00000001
00000100
00001000
00010000
00001000
,
00010000
00000000
00000000
00100000
00000000
00000000
10000000
00000000
01000000
00000000
00000000
00010000
00000000
00000000
00001000
00000000
,
00011000
00000000
00000000
00000000
00010100
00000000
00000000
00001100
00000000
00000000
00001010
00000000
00000000
00000000
00000001
00000000
,
00000010
00000000
00000000
00000000
00000110
00000000
00000000
00010100
00000000
00000000
00011000
00000000
00000000
00000000
01000000
00000000
,
00010000
00000000
00000000
00000000
10100000
00000000
00000000
11000000
00000000
00000000
01010000
00000000
00000000
00000000
00001000
00000000
,
00010000
00000000
00000000
00000000
00000020
00000000
00000000
00002030
00000000
00000000
00023000
00000000
00000000
02030000
00000000
00000000
,
03100000
00000000
00000000
00000000
10010000
00000000
00000000
11000000
00000000
00000000
00110000
00000000
00000000
00000000
00001000
00000000
,
00010000
00000000
00000000
00000000
00001010
00000000
00000000
00000110
00000000
00000000
00000101
00000000
00000000
00000000
00000001
00000000
,
00000010
00000000
00000000
00000000
00000110
00000000
00000000
00010100
00000000
00000000
00011000
00000000
00000000
00000000
00100000
00000000
,
00001000
00000000
00000000
00000000
00020000
00000000
00000000
00230000
00000000
00000000
20300000
00000000
00000000
32000000
00000000
00000000
,
03010000
00000000
00000000
00000000
00001000
00000000
00010000
00000000
00001000
00000000
00010000
00001000
00000000
00010000
00002000
00000000
,
00000000
00003000
00000000
00000000
00010000
00000000
00000100
00000000
00010000
00000000
00000100
00001000
00000000
00000100
00002000
00000000
,
00000000
00000000
00003000
00000000
00000001
00000000
00000100
00000000
00000001
00000000
00000100
00000010
00000000
00000100
00000020
00000000
,
00000000
00000000
00000030
00000000
00002000
00000000
00000000
00023000
00000000
00000000
02030000
00000000
00000000
00000000
03100000
00000000
,
10000000
00000000
00010000
00000000
00100000
00000000
00000000
00000000
01000000
00000000
00010000
00001000
00000000
00000000
00100000
00000000
,
00001000
00000000
00000000
00000000
00000010
00000000
00000000
00000100
00000000
00000000
00001000
00000000
00000010
00000000
00000000
00000100
,
00000000
00000100
00000000
00000001
00000020
00000000
00000000
00000000
00000000
00000000
00000000
00000000
00000030
00000000
00000000
00000000
,
00000000
00000000
00000000
00000000
00000001
00000100
00000000
00001000
00000000
00000000
00010000
00100000
00000000
10000000
00000000
00000000
,
00010000
00000000
00000000
00000000
10000000
01000000
00000000
00010000
00000000
00000000
00001000
00000010
00000000
00000001
00000000
00000000
,
00001000
00000000
00001000
00000000
00000001
00000100
00000000
00001000
00000000
00000000
00010000
01000000
00000000
10000000
00000000
00000000
,
00010000
00000000
00000000
00000000
00000000
00000000
00000000
00000000
00000000
00000000
00000000
00000000
10000000
00000000
00000000
01000000
00000000
00000000
00000000
00000000
00000000
00010000
00000000
00000000
00000000
00000000
00000000
00000000
00000000
00000000
00001000
00000000
00000000
00000000
00000000
00000000
00000100
00000000
00000000
00000000
00000010
00000000
00000000
00000000
00000100
00000000
00000000
00000000
,
00000020
00000000
00000000
00000000
00001030
00000001
00000000
00000101
00000000
00000000
00000001
00001000
00000000
00001010
00000000
00000000
,
00010000
00000000
00001000
00000000
00100000
00010000
00000000
00110000
00000000
00000000
01000000
10000000
00000000
11000000
00000000
00000000
,
00010000
00000000
00100000
00000000
00001000
00010000
00000000
00010010
00000000
00000000
00010000
00001000
00000000
00010000
00001000
00000000
,
00010000
00000000
00000000
00001000
00000000
00000000
00000000
00000000
00000000
00000000
00000000
00000000
01000000
00000000
00000000
00000000
00000000
00000000
00010000
00000000
00000000
00000000
00000000
00000000
00100000
00000000
00000000
00000000
00000000
00000000
01000000
00000000
00000000
00000000
00000000
00000000
10000000
00000000
00000000
00000000
01000000
00000000
00000000
00000000
10000000
00000000
00000000
00000000
,
02000000
00000000
00000000
03010000
00001000
00010000
00002000
00000000
00000000
00003100
00000001
00000100
,
00000002
00000000
00000023
00000000
00000000
00000030
00000000
00000000
,
00000000
00000000
00000000
00000000
00000000
00000000
00000000
00000000
00000000
00000000
00000000
00000000
00000001
00000000
00000000
00000000
00000100
00000000
00000000
00000000
00001000
00000000
00000000
00000000
00010000
00000000
00000000
00000000
00100000
00000000
00000000
00000000
10000000
00000000
00000000
00000000
00000000
00000000
00000000
00010000
00000000
00000000
00000000
00000000
00000000
00100000
00000000
00000000
,
00000000
01000000
00000000
00010000
00000000
00001000
00000000
00000000
00000000
00000000
00000000
00000000
00000000
00000000
00000000
00000000
;

//--------------- dance-double - forcednature ----------------
#NOTEDATA:;
#STEPSTYPE:dance-double;
#DESCRIPTION:forcednature;
#DIFFICULTY:Hard;
#METER:16;
#RADARVALUES:0,0,0,0,0;
#CREDIT:forcednature;
#NOTES:
00000000
00000000
00000000
00000000
,
00000000
00000000
00000000
00000000
,
00000000
00000000
00000000
00000000
,
00022000
00000000
00000000
00000000
,
00000000
00000000
00000000
00033000
,
00001000
00010000
00000000
00000100
00001000
00000000
00000100
00000010
00000000
00000100
00001000
00000000
00000001
00000000
00000010
00000000
,
00000001
00000100
00000000
00000010
00000100
00000000
00000001
00001000
00000000
00000010
00001000
00000000
00000100
00010000
00001000
00000000
,
00100000
00010000
00000000
00100000
01000000
00000000
10000000
00010000
00000000
00100000
00010000
00000000
10000000
00100000
01000000
00000000
,
00010000
00000000
00000000
00100000
00000000
00000000
00000000
00000000
00000000
00001000
00000000
00000000
00010000
00000000
00000000
00000000
00000000
00000000
01000000
00000000
00000000
00000000
00000000
00000000
00100000
00000000
00000000
00000000
00002000
00000000
00000000
00000000
00023000
00000000
00000000
00000000
00030200
00000000
00000000
00000000
00020300
00000000
00000000
00000000
00032000
00000000
00000000
00000000
,
00103000
00010000
00000000
00100000
00001000
00000000
00010000
00001000
00000000
00010000
00000100
00000000
00001000
00000001
00000100
00000000
,
00000010
00001000
00000000
00000010
00010000
00000000
00001000
00100000
00000000
00110000
00000000
00010000
01000000
00100000
01000000
00000000
,
00010000
10000000
00000000
00100000
10000000
00000000
00010000
01000000
00000000
00001000
00010000
00000000
00000100
00001000
00000100
00000000
,
00000010
00000000
00000000
00000001
00000000
00000000
00000000
00000000
00000000
00001000
00000000
00000000
00000010
00000000
00000000
00000000
00000000
00000000
00000100
00000000
00000000
00000000
00000000
00000000
00002000
00000000
00000000
00000000
00023000
00000000
00000000
00000000
00230000
00000000
00000000
00000000
02300000
00000000
00000000
00000000
03200000
00000000
00000000
00000000
00320000
00000000
00000000
00000000
,
00031000
00001000
00010000
00001000
00022000
00000000
00033000
00000000
,
00010000
00000000
01000000
00000000
10000000
00000000
01000000
00000000
00010000
00001000
00000000
00011000
00000000
00000000
00010000
00000000
,
00001000
00000000
00000100
00000000
00000001
00000000
00000100
00000000
00001000
00010000
00000000
00010010
00000000
00000000
00010000
00001000
,
00000000
00101000
00000000
00100000
00000000
00010000
01000000
00000000
00100000
10000000
00000000
10100000
00000000
00000000
00010000
00000000
,
00100000
00000000
01000000
00000000
00010000
00000000
00001000
00100000
00010000
00100000
00000000
00101000
00000000
00001000
00010000
00000000
,
00000000
00000010
00000000
00001000
00000100
00000000
00000010
00000100
00000000
00000110
00000000
00000010
00000001
00000000
00000001
00000100
,
00001000
00000000
00010000
00001000
00000100
00000000
00001000
00010000
00000000
00011000
00000000
00001000
00100000
00000000
00010000
00000000
,
00110000
00000000
01010000
00000000
00000000
10000000
00100000
01000000
00000000
01100000
00000000
00010000
00100000
00000000
00110000
00000000
,
00020000
00230000
02300000
03020000
00032000
00003020
00000230
00020300
00032000
00103000
00100000
00100000
,
00010000
01000000
00000000
00100000
01000000
00000000
00010000
10000000
00000000
00100000
10000000
00010000
01000000
00000000
00010000
00000000
,
00100000
00001000
00000000
00010000
00001000
00000000
00010000
00000100
00000000
00001000
00000001
00000010
00000001
00001000
00000200
00000000
,
00010300
00001000
00000000
01000000
00010000
00000000
00100000
00010000
00000000
10000000
00100000
10000000
00010000
00100000
01000000
00000000
,
00020000
00000000
00000000
00000000
00032000
00000000
00000000
00000000
00003020
00000000
00000000
00000000
00000230
00000000
00000000
00000000
00000320
00000000
00000000
00000000
00002030
00000000
00000000
00000000
00013000
00000000
00000000
00001000
00000000
00000000
00000000
00000000
00000000
00000010
00000000
00000000
00000000
00000000
00000000
00000110
00000000
00000000
00000000
00000000
00000000
00000000
00000000
00000000
,
00000001
00000000
00000100
00001000
00000000
00010000
00000000
01000000
00000000
10000000
00200000
00000000
00300000
10000000
00010000
00000000
,
10000000
00000000
01000000
00010000
00000000
00001000
00000000
00000100
00000000
00000001
00000020
00000000
00000031
00001000
00000100
00001000
,
00000001
00000000
00000100
00001000
00000000
00010000
00000000
01000000
00000000
10000000
00200000
00000000
10300000
01000000
00100000
00010000
,
10000000
00000000
01000000
00010000
00000000
00001000
00010000
00000000
00022000
00000000
00000000
00000000
00033000
00000000
00000000
00000000
,
00100000
00000000
00001000
00000000
00000010
00000000
00010000
00100000
00000000
00001000
00000000
00000010
00000100
00000000
00000110
00000000
,
00001001
00000000
00000101
00000000
00000001
00000010
00001000
00000000
00011000
00000000
00101000
00000000
00110000
00000000
01010000
00000000
,
10000000
00100000
10000000
00100000
10000000
01000000
00010000
01000000
00200000
00000000
00000000
00320000
00000000
00000000
00032000
00000000
,
00003010
00000000
00000000
00000000
00000001
00000100
00000000
00001000
00000100
00000000
00001000
00010000
00000000
00100000
10000000
00000000
,
01010000
00000000
10100000
00000000
10000000
01000000
00000000
00010000
01000000
00000000
00010000
00001000
00000000
00000010
00000001
00000000
,
00001100
00000000
00000011
00000000
00000001
00000100
00000000
00001000
00000100
00000000
00000001
00000010
00000000
00001000
00010000
00000000
,
01000000
00000000
10000000
00000000
00200000
00000000
00000000
00320000
00000000
00000000
00030020
00000000
00000000
00002030
00000000
00000000
,
00103000
00000000
01100000
00000000
10000000
01000000
00000000
00010000
00001000
00000000
00000010
00000001
00000000
00001000
00000010
00000000
,
00000110
00000000
00001001
00000000
00000001
00000100
00000000
00001000
00010000
00000000
00100000
10000000
00000000
00010000
00100000
00000000
,
01100000
00000000
10010000
00000000
10000000
01000000
00000000
00010000
00001000
00000000
00100000
00010000
00000000
00001000
00000200
00000000
,
00000320
00000000
00000032
00000000
00000103
00000010
00001000
00000010
00000100
00000001
00000100
00000010
00001000
00000100
00010000
00001000
,
00100000
00000000
00000000
00000000
01000000
00000000
00010000
00000000
00000100
00000000
00001000
00000001
00000000
00000010
00002000
00000000
,
00003000
00010000
00001000
00000000
00000100
00000000
00001000
00000000
01000000
00000000
00010000
10000000
00000000
00100000
00020000
00000000
,
00030000
00001000
00010000
00000000
00100000
00000000
00010000
00000000
00000010
00000000
00001000
00000001
00000000
00000100
00002000
00000000
,
00003000
00010000
00001000
00000000
00011000
00000000
00000000
01010000
00000000
00000000
01100000
00000000
00000000
00100000
10000000
00010000
,
10000000
01000000
00010000
00001000
00200000
00000000
00000000
00000000
00301000
00000000
00010000
00000010
00001000
00000000
00000010
00000100
,
00000000
00000001
00000010
00000100
00001000
00000000
00000001
00000100
00000000
00001000
00010000
00000000
00100000
01000000
00000000
01100000
,
00000000
01100000
00000000
00010000
20000000
00000000
00000000
00000000
00000000
00000000
00000000
00000000
31000000
00010000
01000000
00010000
,
00001000
00010000
00001000
00010000
00000100
00001000
00000000
00000001
00000010
00000000
00000001
00000100
00000000
00001000
00000100
00001000
,
00010000
00001000
00100000
00000000
00010000
01000000
00000000
00100000
10000000
00000000
00010000
00100000
00000000
01000000
00010000
00001000
,
00010000
00000100
00001000
00000000
00000001
00000010
00000000
00000100
00000010
00000000
00000100
00010000
00000000
00001000
00100000
00010000
,
00100000
00000000
00000000
00001000
00000000
00000000
00010000
00000000
00000000
00000000
00000000
00000000
00100000
00000000
00000000
10000000
00000000
00000000
00000000
00000000
00000000
01000000
00000000
00000000
00010000
00000000
00000000
00000000
00000000
00000000
00001000
00000000
00000000
00000000
00000000
00000000
02000000
00000000
00000000
00000000
03200000
00000000
00000000
00000000
00320000
00000000
00000000
00000000
,
00032000
00000000
00000000
00000000
00003200
00000000
00000000
00000000
00000320
00000000
00000000
00000000
00001030
00000000
00000000
00000001
00000000
00000000
00000000
00000000
00000000
00000010
00000000
00000000
00000001
00000000
00000000
00000000
00000000
00000000
00001000
00000000
00000000
00000010
00000000
00000000
00000000
00000000
00000000
00000110
00000000
00000000
00000000
00000000
00000000
00000100
00000000
00000000
,
00000001
00001000
00000100
00000000
00010000
00001000
00000000
00100000
00010000
00000000
01000000
10000000
00000000
11000000
00000000
01000000
,
00010000
00100000
00001000
00010000
00000010
00001000
00000000
00000100
00000010
00000000
00000001
00000100
00001000
00010000
00001000
00000100
,
00001000
00000000
00000000
00010000
00000000
00000000
00100000
00000000
00000000
10000000
00000000
00000000
00010000
00000000
00000000
00000000
00000000
00000000
00100000
00000000
00000000
01000000
00000000
00000000
00010000
00000000
00000000
00000000
00000000
00000000
00001000
00000000
00000000
00000000
00000000
00000000
00200000
00000000
00000000
00000000
00302000
00000000
00000000
00000000
00023000
00000000
00000000
00000000
,
00030010
00001000
00000010
00001000
00000010
00001000
00000020
00000000
00020030
00000000
00032000
00000000
00103000
00010000
00100000
00010000
00100000
00010000
00200000
00000000
00302000
00000000
00023000
00000000
,
00030100
00001000
00000100
00001000
00000100
00001000
00000002
00000000
00000000
00000000
00000000
00000000
00000000
00000000
00000000
00000003
00000000
00000000
00000000
00000000
00000000
00000000
00000000
00000000
,
00000000
00000000
00000000
00000000
00000100
00001000
00010000
00001000
00010000
00100000
10000000
00010000
00000000
10000000
00000000
11000000
,
00000000
00110000
00000000
00100000
00001000
00010000
00000000
00000000
00000000
00000000
00000000
00000000
00000000
00000000
00000000
00000000
;
