#VERSION:0.83;
#TITLE:幻想花;
#SUBTITLE:;
#ARTIST:星野奏子;
#TITLETRANSLIT:Gensouka;
#SUBTITLETRANSLIT:;
#ARTISTTRANSLIT:Kanako Hoshino;
#GENRE:DIVA METAL;
#CREDIT:;
#MUSIC:Gensouka.ogg;
#BANNER:Gensouka.png;
#BACKGROUND:Gensouka-bg.png;
#CDTITLE:/CDTitles/GuitarFreaks & DrumMania XG.png;
#SAMPLESTART:54.077;
#SAMPLELENGTH:15.000;
#SELECTABLE:YES;
#OFFSET:2.476;
#BPMS:0.000=185.000;
#STOPS:;
#TIMESIGNATURES:0.000=4=4;
#BGCHANGES:-4.000=Gensouka.mp4=1.000=0=0=0=StretchNoLoop====,
99999.000=-nosongbg-=1.000=0=0=0=StretchNoLoop====
;
#FGCHANGES:;

//--------------- dance-single - forcednature ----------------
#NOTEDATA:;
#STEPSTYPE:dance-single;
#DESCRIPTION:forcednature;
#CREDIT:forcednature;
#DIFFICULTY:Beginner;
#METER:2;
#RADARVALUES:0,0,0,0,0;
#NOTES:
0000
0000
0000
0000
,
0000
0000
0000
0000
,
0000
0000
0000
0000
,
0000
0000
0000
0000
,
0000
0000
0000
0000
,
0000
0000
0000
0000
,
1000
0000
0000
0000
,
0000
0000
0000
0000
,
0001
0000
0000
0000
,
0000
0000
0000
0000
,
0100
0000
0000
0000
,
0000
0000
0000
0000
,
1001
0000
0000
0000
,
0000
0000
0000
0000
,
0001
0000
0000
0000
,
0000
0000
0000
0000
,
0100
0000
0000
0000
,
0000
0000
0000
0000
,
0010
0000
0000
0000
,
0000
0000
0000
0000
,
1000
0000
0000
0000
,
0000
0000
0000
0000
,
0100
0000
0000
0000
,
0000
0000
0000
0000
,
0010
0000
0000
0000
,
0000
0000
0000
0000
,
0001
0000
0000
0000
,
0000
0000
0000
0000
,
0100
0000
0000
0000
,
0000
0000
0000
0000
,
0001
0000
0000
0000
,
0000
0000
0000
0000
,
1000
0000
0000
0000
,
0000
0000
0000
0000
,
0100
0000
0000
0000
,
0000
0000
0000
0000
,
0010
0000
0000
0000
,
0000
0000
0000
0000
,
0001
0000
0000
0000
,
0000
0000
0000
0000
,
1000
0000
0000
0000
,
1000
0000
0000
0000
,
0010
0000
0000
0000
,
0010
0000
0000
0000
,
1001
0000
0000
0000
,
0001
0000
0000
0000
,
0010
0000
0000
0000
,
0001
0000
0000
0000
,
1000
0000
0000
0000
,
0010
0000
0000
0000
,
1000
0000
0000
0000
,
0100
0000
0000
0000
,
0010
0000
0000
0000
,
0001
0000
0000
0000
,
1000
0000
0000
0000
,
0100
0000
0000
0000
,
1000
0000
0000
0000
,
0010
0000
0000
0000
,
0100
0000
0000
0000
,
0001
0000
0000
0000
,
0010
0000
0000
0000
,
0000
0000
0000
0000
,
0100
0000
0000
0000
,
1000
0000
0000
0000
,
0001
0000
0000
0000
,
0000
0000
0000
0000
,
0100
0000
0000
0000
,
0010
0000
0000
0000
,
1000
0000
0000
0000
,
1000
0000
0000
0000
,
0100
0000
0000
0000
,
0100
0000
0000
0000
,
0010
0000
0000
0000
,
0010
0000
0000
0000
,
0001
0000
0000
0000
,
0001
0000
0000
0000
,
1001
0000
0000
0000
;

//--------------- dance-single - forcednature ----------------
#NOTEDATA:;
#STEPSTYPE:dance-single;
#DESCRIPTION:forcednature;
#CREDIT:forcednature;
#DIFFICULTY:Easy;
#METER:8;
#RADARVALUES:0,0,0,0,0;
#NOTES:
0000
0000
0000
0000
,
0000
0000
0000
0000
,
0000
0000
0000
0000
,
0000
0000
0000
0000
,
0000
0000
0000
0000
,
0000
0000
0000
0000
,
0001
0100
0000
0100
0000
0100
0000
0100
,
0000
0010
1000
0001
,
1000
0100
0000
0100
0000
0100
0000
0100
,
0010
0000
0000
0000
0100
0000
0000
0000
1000
0000
0000
0001
0000
0000
2000
0000
,
0000
0000
0000
0000
,
0000
0000
0000
0000
,
3010
1000
0010
0100
,
0001
1000
0100
0000
,
0010
0001
0100
0001
,
0010
0100
1000
0000
,
0010
0000
1000
0000
0001
0000
0000
0001
,
0000
0000
1000
0000
0000
1000
0000
0000
,
1001
0000
0000
0000
1000
0000
0000
1000
,
0000
0000
0001
0000
0000
0001
0000
0000
,
1001
1000
0010
0100
,
0001
1000
0100
0000
,
0010
0001
0100
0001
,
1000
0100
0010
0000
,
0110
0000
0000
0000
0010
0000
0000
0010
,
0000
0000
0100
0000
0000
0100
0000
0000
,
0110
0000
0000
0000
0100
0000
0000
0100
,
0000
0000
0010
0000
0000
0010
0000
0000
,
1001
0000
0001
0001
,
0100
0010
1000
0000
,
0100
0000
0010
0001
,
1000
1000
0001
0000
,
0100
0000
0010
0010
,
1000
0001
0010
0100
,
0010
0000
0002
0000
,
1000
0000
1003
0001
,
1001
0000
0001
0100
,
0001
0100
0010
1000
,
1001
0000
1000
0100
,
1000
0100
0010
0001
,
1001
0010
0010
0010
,
0100
0100
0100
0100
,
0001
1000
0001
1000
,
0001
1000
0001
0000
0000
0000
0000
0000
,
1001
0000
0001
0100
,
0001
1000
0010
1000
,
1100
0000
0100
0010
,
0001
1000
0010
0100
,
0101
0000
0001
0010
,
0001
0100
0010
1000
,
0002
0000
0013
0100
,
2000
0000
3010
0100
,
1001
0000
0001
1000
,
0010
1000
0001
0010
,
0110
0000
0100
1000
,
0001
0100
0001
1000
,
1010
0000
0001
0010
,
0001
0100
0001
0010
,
0200
0000
1300
0001
,
0200
0000
0310
0000
,
1001
1001
1000
0001
,
0000
0000
0100
0000
0001
0010
0001
0000
,
0100
0000
0100
0000
0010
0000
0000
1001
,
0000
0000
0000
0110
0000
0000
0000
1001
,
0000
0001
0010
0001
,
1000
0000
0010
0000
0100
0000
0000
1001
,
0000
0001
0010
0110
,
0100
1000
0001
0000
,
1100
1000
1000
1000
,
0101
0001
0001
0001
,
1010
1000
1000
1000
,
0011
0001
0001
0001
,
0110
0100
0100
0100
,
1001
0010
0010
0010
,
0110
0100
0100
0100
,
1001
0000
1001
0000
1000
0001
1000
0000
,
0010
0000
0100
0000
0020
0000
0000
0000
0000
0000
0000
0000
,
0000
0000
0000
0000
,
0030
0000
0000
0000
;

//--------------- dance-single - forcednature ----------------
#NOTEDATA:;
#STEPSTYPE:dance-single;
#DESCRIPTION:forcednature;
#CREDIT:forcednature;
#DIFFICULTY:Medium;
#METER:12;
#RADARVALUES:0,0,0,0,0;
#NOTES:
0000
0000
0000
0000
,
0000
0000
0000
0000
,
0000
0000
0000
0000
,
0000
0000
0000
0000
,
0000
0000
0000
0000
,
0000
0000
0000
0000
,
1000
0001
0000
0101
0000
1010
0000
1001
,
0000
1000
0100
0000
0110
0000
1001
0000
,
0001
1000
0000
1100
0000
0011
0000
1001
,
0001
0000
0100
0000
0010
0000
1000
0000
0001
0000
0000
0010
0000
0000
0100
0000
,
2000
0000
0000
0000
,
0000
0000
0000
0000
,
3010
0010
0100
0000
0001
1000
0100
1000
,
0000
0010
0100
0001
0000
0010
0000
0000
,
0100
0100
1000
0000
0001
0100
0001
1000
,
0000
0010
1000
0001
0000
0010
0000
0000
,
0110
0000
1000
0001
0100
0000
0000
0110
,
0000
0000
1001
0000
0000
0001
0010
0100
,
1000
0000
0001
1000
0100
0000
0000
0110
,
0000
0000
1001
0000
0001
1000
0020
0000
,
0130
0100
0001
0000
1000
0100
0010
1000
,
0000
0010
0001
0100
0000
0010
0000
0000
,
1000
1000
0001
0000
0100
1000
0100
0010
,
0000
1000
0001
0010
0000
0100
1000
0000
,
1010
0000
1000
0001
0010
0000
0100
0110
,
0000
1000
1001
0000
0001
0100
0010
1000
,
0001
0000
0010
0100
1000
0000
0010
0110
,
0000
1000
1001
0000
0001
0001
0100
0000
,
1001
0000
0001
0100
1000
0000
0100
0020
,
0000
0001
0000
0100
0000
1000
0030
0010
,
0100
0000
0001
0000
1000
0000
0100
0020
,
0000
0001
0000
0100
0130
0000
0010
0001
,
1000
0010
1000
0010
1000
0000
0001
0200
,
0000
1000
0010
0301
,
1000
0100
1000
0100
0000
0010
0001
0000
,
0100
0000
0010
1000
0001
0000
0010
0000
,
1001
0000
0001
0100
0000
0010
0000
2000
,
0000
0000
3001
0010
,
1001
0000
1000
0100
0000
0010
0000
0002
,
0000
0000
0103
0000
0010
1000
0010
0000
,
0110
0000
0010
1000
0100
0000
0010
0000
,
0110
0000
0010
0001
0100
0000
0010
0000
,
0110
1000
0110
0001
,
0100
0100
0100
0000
0000
0010
1000
0010
,
2000
0000
3000
0001
0010
0000
0100
1000
,
0000
0010
0000
1000
0000
0001
0000
2002
,
0000
0000
3003
1000
0010
0000
0100
0001
,
0000
0010
0000
0100
0000
1000
0000
2002
,
0000
0000
3003
0001
0100
0000
1000
0100
,
0000
0010
1000
0001
,
0020
0000
0000
0000
0030
0100
1000
0002
,
0000
0000
0013
0000
0001
0100
0010
1000
,
0001
0000
0010
0100
1000
0000
0010
0100
,
0000
0001
0000
1000
0000
0010
0000
1000
,
1001
0000
0001
0010
0100
0000
1000
0001
,
0000
0100
0000
0010
1000
0001
1000
0100
,
0110
0000
0010
0001
0100
0000
0010
1000
,
1001
1000
0100
0001
,
0210
0000
0010
0000
0310
0100
1000
0001
,
1001
0000
1000
0000
0010
1000
0001
1000
,
0100
0000
0110
0000
0010
0001
1000
0001
,
0000
0100
0001
0100
0010
1000
0010
0100
,
0000
0001
0010
0100
1000
0100
0010
0001
,
0000
0100
0000
1001
0000
0010
0000
1001
,
0000
1000
0010
1000
0001
0010
0001
0100
,
0010
1000
0001
0010
0100
1000
0100
1000
,
0000
0000
1001
0000
0100
0100
0010
0100
,
0000
0000
0110
0000
0001
1000
0001
0000
,
1001
0101
0101
0101
,
1001
1100
1100
1100
,
1001
0011
0011
0011
,
1001
1010
1010
1010
,
1001
0000
1000
0100
0010
0001
0100
0000
,
1010
0000
0001
0100
0010
1000
0100
0000
,
0011
0000
0001
1000
0010
0100
0001
0000
,
1001
0000
1000
0100
0010
0001
1000
0010
,
0100
0000
0100
0000
0200
0000
0000
0000
0000
0000
0000
0000
,
0000
0000
0000
0000
,
0300
0000
0000
0000
;

//--------------- dance-single - forcednature ----------------
#NOTEDATA:;
#STEPSTYPE:dance-single;
#DESCRIPTION:forcednature;
#CREDIT:forcednature;
#DIFFICULTY:Hard;
#METER:15;
#RADARVALUES:0,0,0,0,0;
#NOTES:
0000
0000
0000
0000
,
0000
0000
0000
0000
,
0000
0000
0000
0000
,
0000
0000
0000
0000
,
0000
0000
0000
0000
,
0000
0000
0000
0000
,
1001
1000
0000
1100
0000
0011
0000
1001
,
0000
0000
0001
0100
0001
0000
0010
0000
0110
0000
0000
0000
1001
0000
0000
0000
,
1001
0001
0000
0101
0000
1010
0000
1001
,
1000
0000
0001
0100
0001
0000
0010
0000
0100
1000
0100
1000
0100
0000
0010
0001
,
0020
0000
0000
0000
,
0000
0000
0000
0000
,
0130
1000
0100
1000
0100
0000
0010
0000
0001
0000
1000
0000
0001
0000
0100
0000
,
0000
0000
0010
0000
0001
0000
0010
0000
1000
0000
0001
1000
0001
0000
0000
0000
,
0010
0100
0010
0100
0010
0000
0001
0000
0100
0000
0010
0000
1000
0000
0001
0000
,
0000
0000
1000
0000
0100
0000
0001
0000
0100
0000
0010
0001
0010
0000
0000
0000
,
0001
1000
0010
0100
0110
0010
1000
1001
,
0001
0010
0110
0100
1000
1001
0001
0010
,
0110
0100
1000
0001
0101
0001
1000
1100
,
1000
0001
0011
0001
1000
0010
0200
0000
,
0301
1000
0001
1000
0001
0000
0010
0000
0100
0000
1000
0000
0001
0000
0100
0000
,
0000
0000
1000
0000
0100
0000
0010
0000
1000
0000
0001
0010
0001
0000
0000
0000
,
1000
0010
1000
0010
1000
0000
0100
0000
0001
0000
0100
0000
0010
0000
0001
0000
,
0000
0000
0100
0000
1000
0000
0100
0000
0010
0000
1000
0001
1000
0000
0100
0000
,
0110
0010
0001
1000
1010
0010
0010
0101
,
0100
0100
0011
0001
0001
1100
1000
1000
,
1001
0001
0100
0010
0110
1000
1000
0110
,
0001
0000
0001
0000
1001
0000
0010
0000
0010
0000
1001
0000
1000
0000
0001
0010
,
0001
0100
0001
0100
0000
0010
1000
0001
,
0000
1000
0100
0010
1000
0010
0001
0000
,
1000
0100
1000
0100
0000
0010
0001
1000
,
0010
0000
0100
0000
0001
0000
1000
0001
0000
0000
0010
0000
0100
0000
0010
0000
,
0001
1000
0001
1000
0000
0010
1000
0100
,
0000
0001
0100
0010
0011
0000
1100
0000
,
1000
0001
1000
1001
0000
0001
0101
0000
,
0100
0010
1000
0100
0020
0000
0032
0000
,
0103
0000
0001
0000
1000
0100
1000
0000
0001
0000
0100
0000
0010
0000
1000
0000
,
0001
0000
1000
0000
0100
0010
0100
0000
1000
0000
0001
0000
0100
0000
0010
0000
,
0010
0000
1000
0000
0001
0010
0001
0000
1000
0000
0001
0000
0100
0000
0010
0000
,
1000
0000
0001
0000
1000
0010
1000
0000
0100
0000
0010
0000
0001
0000
0100
0000
,
0110
0000
0001
0100
1000
0100
0001
0100
,
1000
0000
0000
0000
0001
0000
0010
0000
1000
0001
1000
0000
0100
0000
0010
0000
,
0001
0100
1000
0001
0010
1000
0100
0010
,
0100
0100
0100
0000
0000
1000
0001
1000
,
1001
0000
0001
0100
1000
0000
0100
0110
,
0000
0001
0010
0100
1000
0010
1000
1001
,
0000
0001
0010
0001
0100
0010
1000
1100
,
0000
0010
0001
0101
0000
0010
1000
1200
,
0000
0000
0301
0100
0010
0001
1000
0001
,
0000
0100
0010
1000
0001
0010
0100
1000
,
0020
0000
0001
0000
0130
0010
1000
2002
,
0000
0000
3003
0000
0001
0000
0010
0000
0100
0000
1000
0000
0001
0100
0001
0100
,
0010
0000
0000
0000
1000
0000
0100
0000
0010
0000
0001
0000
1000
0000
0100
0010
,
0001
0000
0001
0100
0010
1000
0001
0100
,
0110
0000
0000
0000
0001
0000
1000
0000
0100
0000
0001
0000
0100
0000
0010
0001
,
0010
0000
0100
1000
0010
0100
0001
1000
,
1001
0000
0000
0000
0001
0000
0100
0000
1000
0000
0100
0000
0010
0000
1000
0001
,
1000
0000
0100
0010
0001
0100
0010
0000
,
2001
0000
0000
0000
0100
0000
0000
0000
3010
0000
1000
0000
0100
0000
0010
0001
,
0020
0000
0000
0000
0031
1000
0001
1000
0001
0000
0100
0000
0010
0000
1000
0000
,
1001
0000
1001
0000
0001
0010
0100
0110
,
0000
0010
0001
1000
0010
0100
0001
1001
,
0000
1000
0100
1000
0010
0100
0001
1001
,
0000
1000
0100
1100
0000
0001
0100
0101
,
0000
1000
0001
0100
1000
0100
0001
1000
,
0100
0001
0100
0010
0001
0100
0010
0110
,
0000
0000
1001
0000
1000
0100
0110
0010
,
0000
0001
0100
0001
1000
0001
0010
0000
,
0110
0000
0000
0000
0110
0000
0100
0000
1000
0000
0010
0000
1000
0000
0001
0100
,
0001
0000
0010
0001
0100
0001
1000
0010
,
0110
0000
0000
0000
0001
0000
1000
0000
0100
0000
0010
0000
0001
0000
1000
0010
,
1000
0000
0100
0010
0100
1000
0010
0100
,
0110
0000
0000
0000
0001
0000
1000
0000
0010
0000
1000
0000
0001
0000
0010
0100
,
0010
0000
0100
1000
0001
0100
0010
1000
,
1001
0000
0000
0000
0001
0000
0010
0000
0001
0000
0100
0000
0010
0000
1000
0001
,
1000
0000
0010
0000
1000
0000
0100
0000
0010
0001
0010
0001
1000
0001
1000
0001
,
0100
0000
0110
0000
2002
0000
0000
0000
0000
0000
0000
0000
,
0000
0000
0000
0000
,
3003
0000
0000
0000
;

//--------------- dance-double - forcednature ----------------
#NOTEDATA:;
#STEPSTYPE:dance-double;
#DESCRIPTION:forcednature;
#CREDIT:forcednature;
#DIFFICULTY:Easy;
#METER:8;
#RADARVALUES:0,0,0,0,0;
#NOTES:
00000000
00000000
00000000
00000000
,
00000000
00000000
00000000
00000000
,
00000000
00000000
00000000
00000000
,
00000000
00000000
00000000
00000000
,
00000000
00000000
00000000
00000000
,
00000000
00000000
00000000
00000000
,
00001000
01000000
00000000
00001000
00000000
01000000
00000000
00001000
,
00000000
00010000
00000100
00001000
,
00000001
00000100
00000000
00000001
00000000
00000100
00000000
00000001
,
00000010
00000000
00000000
00000000
00001000
00000000
00000000
00000000
00010000
00000000
00000000
00000100
00000000
00000000
00020000
00000000
,
00000000
00000000
00000000
00000000
,
00000000
00000000
00000000
00000000
,
00130000
10000000
00010000
00100000
,
00001000
00010000
00100000
00000000
,
01000000
00001000
00010000
00000100
,
00001000
00000010
00000100
00000000
,
00000001
00000000
00000010
00000000
00000100
00000000
00000000
00001000
,
00000000
00000000
00000010
00000000
00000000
00000010
00000000
00000000
,
00010000
00000000
00000000
00000000
00001000
00000000
00000000
00001000
,
00000000
00000000
00100000
00000000
00000000
00100000
00000000
00000000
,
01000000
10000000
00010000
01000000
,
00010000
00100000
00001000
00000000
,
00010000
00000010
00000100
00001000
,
00000100
00000001
00000010
00000000
,
00000110
00000000
00000000
00000000
00000100
00000000
00000000
00010000
,
00000000
00000000
00001000
00000000
00000000
01000000
00000000
00000000
,
01100000
00000000
00000000
00000000
01000000
00000000
00000000
00001000
,
00000000
00000000
00010000
00000000
00000000
00000100
00000000
00000000
,
00000110
00000000
00000010
00000001
,
00000100
00001000
00010000
00000000
,
00100000
00000000
10000000
00010000
,
10000000
10000000
01000000
00000000
,
00010000
00000000
00001000
00001000
,
00010000
00000100
00001000
00000001
,
00000100
00000000
00000020
00000000
,
00001000
00000000
00001030
00000010
,
00000110
00000000
00000001
00001000
,
00000100
00010000
00001000
01000000
,
10010000
00000000
10000000
00010000
,
01000000
00001000
00010000
00000100
,
00011000
00100000
00100000
00100000
,
00001000
00001000
00001000
00001000
,
00010000
00000100
00010000
00000100
,
00001000
00000001
00001000
00000000
00000000
00000000
00000000
00000000
,
00001001
00000000
00000001
00000100
,
00001000
00010000
01000000
10000000
,
10010000
00000000
10000000
01000000
,
00010000
00001000
00000100
00000001
,
00001001
00000000
00000001
00001000
,
00000100
00010000
00001000
01000000
,
00020000
00000000
00130000
01000000
,
20000000
00000000
30100000
01000000
,
01100000
00000000
00010000
01000000
,
00001000
00010000
00000100
00000010
,
00000110
00000000
00000001
00000100
,
00001000
00010000
01000000
00100000
,
01100000
00000000
10000000
00010000
,
01000000
00001000
00010000
00100000
,
02000000
00000000
03001000
00010000
,
00000200
00000000
00000310
00000000
,
00001001
00001001
00000001
00000100
,
00000000
00000000
00000010
00000000
00010000
00001000
00010000
00000000
,
00000100
00000000
00000100
00000000
00010000
00000000
00000000
00011000
,
00000000
00000000
00000000
01001000
00000000
00000000
00000000
10010000
,
00000000
10000000
01000000
00100000
,
00010000
00000000
01000000
00000000
00001000
00000000
00000000
00011000
,
00000000
00010000
00000100
00000110
,
00000010
00000001
00001000
00000000
,
00001001
00000100
00000100
00000100
,
00011000
01000000
01000000
01000000
,
10010000
01000000
01000000
01000000
,
00011000
00000100
00000100
00000100
,
00010010
00000100
00000100
00000100
,
00011000
00010000
00010000
00010000
,
00101000
01000000
01000000
01000000
,
00011000
00000000
00011000
00000000
00001000
00010000
00001000
00000000
,
01000000
00000000
01000000
00000000
02000000
00000000
00000000
00000000
00000000
00000000
00000000
00000000
,
00000000
00000000
00000000
00000000
,
03000000
00000000
00000000
00000000
;

//--------------- dance-double - forcednature ----------------
#NOTEDATA:;
#STEPSTYPE:dance-double;
#DESCRIPTION:forcednature;
#CREDIT:forcednature;
#DIFFICULTY:Medium;
#METER:12;
#RADARVALUES:0,0,0,0,0;
#NOTES:
00000000
00000000
00000000
00000000
,
00000000
00000000
00000000
00000000
,
00000000
00000000
00000000
00000000
,
00000000
00000000
00000000
00000000
,
00000000
00000000
00000000
00000000
,
00000000
00000000
00000000
00000000
,
00001000
00010000
00000000
01001000
00000000
01001000
00000000
01001000
,
00000000
00010000
00001000
00000000
00010100
00000000
00001100
00000000
,
00000010
00000001
00000000
00001001
00000000
00001001
00000000
00001001
,
00000001
00000000
00000100
00000000
00000010
00000000
00001000
00000000
00000100
00000000
00000000
00010000
00000000
00000000
00001000
00000000
,
02000000
00000000
00000000
00000000
,
00000000
00000000
00000000
00000000
,
03100000
00100000
10000000
00000000
00010000
10000000
01000000
00100000
,
00000000
00001000
00010000
00001000
00000000
00000010
00000000
00000000
,
00000100
00000100
00001000
00000000
00000001
00000100
00000001
00001000
,
00000000
00000010
00010000
00001000
00000000
00100000
00000000
00000000
,
01100000
00000000
10000000
00010000
01000000
00000000
00000000
00011000
,
00000000
00000000
00000110
00000000
00000000
00000001
00000100
00000010
,
00001000
00000000
00000100
00010000
00001000
00000000
00000000
00011000
,
00000000
00000000
01001000
00000000
00010000
10000000
02000000
00000000
,
03100000
00100000
00010000
00000000
01000000
00001000
00010000
00000010
,
00000000
00010000
00001000
00000010
00000000
00000100
00000000
00000000
,
00001000
00001000
00000001
00000000
00000100
00001000
00010000
00001000
,
00000000
00010000
01000000
00010000
00000000
00001000
01000000
00000000
,
10010000
00000000
10000000
01000000
00100000
00000000
00010000
01010000
,
00000000
01000000
01001000
00000000
00001000
00010000
00000100
00001000
,
00000001
00000000
00000100
00000010
00001000
00000000
00000100
00010100
,
00000000
00010000
00011000
00000000
00001000
00001000
01000000
00000000
,
10010000
00000000
10000000
01000000
00010000
00000000
00001000
00020000
,
00000000
00100000
00000000
00001000
00000000
00000100
00000000
00031000
,
00010000
00000000
00000100
00000000
00000010
00000000
00000001
00000200
,
00000000
00000010
00000000
00001000
00001300
00000000
00000100
00000010
,
00001000
00000001
00001000
00000001
00001000
00000000
00000100
00020000
,
00000000
00100000
00001000
00030100
,
00010000
00001000
00010000
00001000
00000000
01000000
00010000
00000000
,
10000000
00000000
01000000
00100000
00010000
00000000
01000000
00000000
,
00011000
00000000
00000100
00001000
00000000
00000001
00000000
00000200
,
00000000
00000000
00000310
00010000
,
00011000
00000000
00001000
01000000
00000000
00100000
00000000
20000000
,
00000000
00000000
31000000
00000000
00100000
00010000
00100000
00000000
,
00011000
00000000
00000010
00001000
00000010
00000000
00000100
00000000
,
00001001
00000000
00001000
00000100
00010000
00000000
00001000
00000000
,
00011000
01000000
00011000
00000100
,
00010000
00010000
00010000
00000000
00000000
00001000
01000000
00001000
,
02000000
00000000
03000000
00100000
10000000
00000000
01000000
00100000
,
00000000
00001000
00000000
00010000
00000000
00000100
00000000
00000220
,
00000000
00000000
00000330
00000010
00000001
00000000
00000100
00000010
,
00000000
00010000
00000000
00001000
00000000
01000000
00000000
02020000
,
00000000
00000000
03030000
00010000
10000000
00000000
01000000
00100000
,
00000000
00010000
01000000
00001000
,
00020000
00000000
00000000
00000000
00030000
00000100
00001000
00000200
,
00000000
00000000
00000310
00000000
00000100
00001000
00000001
00000100
,
00000010
00000000
00001000
00000001
00001000
00000000
00000100
00010000
,
00000000
00001000
00000000
01000000
00000000
00100000
00000000
10000000
,
10010000
00000000
10000000
01000000
00100000
00000000
00001000
00010000
,
00000000
00000100
00000000
00001000
00000001
00000100
00000001
00000010
,
00000110
00000000
00000100
00010000
00001000
00000000
01000000
00010000
,
10010000
10000000
01000000
00010000
,
00012000
00000000
01000000
00000000
01003000
00001000
00010000
00000100
,
00002000
00000000
00000010
00000000
00003100
00001000
00000001
00001000
,
00000010
00000000
00011000
00000000
00100000
00010000
10000000
00010000
,
00000000
01000000
00001000
00010000
00000100
00010000
00001000
00100000
,
00000000
01000000
10000000
00010000
01000000
00010000
00100000
00001000
,
00000000
00010000
00000000
00010100
00000000
00010000
00000000
01001000
,
00000000
00001000
00010000
00001000
00100000
00001000
00100000
00010000
,
01000000
00100000
10000000
00010000
10000000
01000000
00100000
00010000
,
00000000
00000000
00011000
00000000
00000100
00000100
00010000
00000100
,
00000000
00000000
00011000
00000000
01000000
00001000
01000000
00000000
,
00020000
00100000
10000000
01000000
,
00032000
00000010
00000001
00000100
,
00023000
00100000
10000000
01000000
,
00032000
00000010
00000001
00000100
,
00013000
00000000
01000000
00001000
01000000
00001000
00100000
00000000
,
00011000
00000000
00000100
00010000
00000100
00010000
00000010
00000000
,
00011000
00000000
00010000
01000000
10000000
00100000
00010000
00000000
,
00011000
00000000
00001000
00000100
00000001
00000010
00001000
00010000
,
00100000
00000000
00100000
00000000
00200000
00000000
00000000
00000000
00000000
00000000
00000000
00000000
,
00000000
00000000
00000000
00000000
,
00300000
00000000
00000000
00000000
;

//--------------- dance-double - forcednature ----------------
#NOTEDATA:;
#STEPSTYPE:dance-double;
#DESCRIPTION:forcednature;
#CREDIT:forcednature;
#DIFFICULTY:Hard;
#METER:15;
#RADARVALUES:0,0,0,0,0;
#NOTES:
00000000
00000000
00000000
00000000
,
00000000
00000000
00000000
00000000
,
00000000
00000000
00000000
00000000
,
00000000
00000000
00000000
00000000
,
00000000
00000000
00000000
00000000
,
00000000
00000000
00000000
00000000
,
00011000
00001000
00000000
01001000
00000000
10010000
00000000
00101000
,
00000000
00000000
00000100
00010000
00000100
00000000
00001000
00000000
00001001
00000000
00000000
00000000
00000101
00000000
00000000
00000000
,
00000101
00000100
00000000
00010010
00000000
00011000
00000000
00101000
,
00100000
00000000
01000000
10000000
01000000
00000000
00100000
00000000
00001000
00010000
00001000
00010000
00000100
00000000
00001000
00000001
,
00002000
00000000
00000000
00000000
,
00000000
00000000
00000000
00000000
,
00003010
00010000
00000010
00010000
00000010
00000000
00001000
00000000
00000001
00000000
00000010
00000000
00000100
00000000
00010000
00000000
,
00000000
00000000
00001000
00000000
01000000
00000000
00010000
00000000
10000000
00000000
01000000
00100000
01000000
00000000
00000000
00000000
,
10000000
00010000
10000000
00010000
10000000
00000000
00100000
00000000
01000000
00000000
00010000
00000000
01000000
00000000
00001000
00000000
,
00000000
00000000
00010000
00000000
00000100
00000000
00001000
00000000
00000001
00000000
00000100
00000001
00000100
00000000
00000000
00000000
,
00000010
00010000
00001000
00100000
01000000
00100000
00001000
00010000
,
00100000
10000000
01000000
00100000
00001000
00010000
00000100
00000010
,
00001000
00000010
00000001
00000100
00001000
00010000
00100000
10000000
,
00010000
00100000
10000000
00100000
00001000
00010000
00200000
00000000
,
01300000
00001000
01000000
00001000
01000000
00000000
00100000
00000000
10000000
00000000
00010000
00000000
00100000
00000000
00001000
00000000
,
00000000
00000000
00010000
00000000
00000010
00000000
00001000
00000000
00000001
00000000
00000010
00000100
00000010
00000000
00000000
00000000
,
00000001
00001000
00000001
00001000
00000001
00000000
00000100
00000000
00000010
00000000
00000100
00000000
00001000
00000000
00010000
00000000
,
00000000
00000000
01000000
00000000
00100000
00000000
01000000
00000000
10000000
00000000
00010000
01000000
00010000
00000000
00100000
00000000
,
00001000
00010000
00000010
00000100
00001000
00000100
00000001
00000010
,
00000100
00000001
00000100
00001000
00000010
00010000
00001000
00100000
,
01000000
00010000
01000000
10000000
00100000
00010000
00100000
01000000
,
00001000
00000000
00010000
00000000
00000100
00000000
00000010
00000000
00000001
00000000
00000100
00000000
00001000
00000000
00010000
00000100
,
00010000
00001000
01000000
00010000
00000000
00100000
10000000
00100000
,
00000000
00010000
01000000
00100000
00010000
00001000
00000010
00000000
,
00000100
00001000
00000001
00000100
00000000
00001000
00010000
00100000
,
10000000
00000000
00010000
00000000
10000000
00000000
01000000
00100000
00000000
00000000
00001000
00000000
00010000
00000000
00001000
00000000
,
00000010
00000001
00000010
00000001
00000000
00000100
00001000
00010000
,
00000000
01000000
00010000
00001000
00011000
00000000
01001000
00000000
,
00010000
10000000
00010000
00110000
00000000
00001000
00011000
00000000
,
00010000
00000100
00001000
00000100
00000020
00000000
00000032
00000000
,
00000103
00000000
00000010
00000000
00001000
00000001
00001000
00000000
00000100
00000000
00000010
00000000
00001000
00000000
00010000
00000000
,
00100000
00000000
01000000
00000000
00010000
10000000
00010000
00000000
00100000
00000000
01000000
00000000
00010000
00000000
00001000
00000000
,
00001000
00000000
00000010
00000000
00000001
00001000
00000001
00000000
00000100
00000000
00000010
00000000
00000100
00000000
00001000
00000000
,
00010000
00000000
01000000
00000000
00100000
00010000
00100000
00000000
01000000
00000000
10000000
00000000
00010000
00000000
01000000
00000000
,
01100000
00000000
10000000
01000000
00010000
00001000
00000100
00000001
,
00000010
00000000
00000000
00000000
00000001
00000000
00000100
00000000
00001000
00010000
00001000
00000000
00100000
00000000
01000000
00000000
,
00010000
01000000
10000000
00010000
00100000
00001000
00010000
00000010
,
00000100
00000100
00000100
00000000
00000000
00001000
00010000
00001000
,
00011000
00000000
00010000
00100000
10000000
00000000
00010000
01010000
,
00000000
00001000
00010000
00000100
00001000
00000001
00000100
00000110
,
00000000
00000010
00010000
00001000
00100000
01000000
00010000
01000000
,
00000000
10000000
00010000
10010000
00000000
00010000
01000000
02001000
,
00000000
00000000
03010000
01000000
00001000
00010000
00000100
00000010
,
00000000
00001000
00000010
00000001
00000100
00001000
00010000
00000100
,
00020000
00000000
00100000
00000000
00031000
00010000
00100000
02200000
,
00000000
00000000
03300000
00000000
01000000
00000000
00010000
00000000
10000000
00000000
01000000
00000000
00100000
00010000
00100000
00010000
,
00100000
00000000
00000000
00000000
00001000
00000000
00010000
00000000
00000010
00000000
00000100
00000000
00001000
00000000
00000100
00000001
,
00000100
00000000
00000010
00010000
00001000
00100000
00010000
10000000
,
10010000
00000000
00000000
00000000
00010000
00000000
01000000
00000000
00001000
00000000
00010000
00000000
00000100
00000000
00001000
00000001
,
00001000
00000000
00000010
00010000
00001000
00000010
00000100
00010000
,
00011000
00000000
00000000
00000000
00010000
00000000
01000000
00000000
10000000
00000000
00100000
00000000
01000000
00000000
00001000
00010000
,
00001000
00000000
00000100
00000001
00000010
00001000
00000010
00000000
,
00001002
00000000
00000000
00000000
00000100
00000000
00000000
00000000
00000013
00000000
00000001
00000000
00000100
00000000
00001000
00010000
,
00002000
00000000
00000000
00000000
01003000
00001000
01000000
00001000
01000000
00000000
00100000
00000000
10000000
00000000
00010000
00000000
,
00110000
00000000
00101000
00000000
00001000
00010000
00000010
00001010
,
00000000
00001000
00000100
00000010
00000001
00000100
00001000
00011000
,
00000000
00010000
00001000
01000000
00100000
00010000
00100000
10100000
,
00000000
10000000
01000000
11000000
00000000
00010000
00100000
00101000
,
00000000
00001000
00010000
00000100
00000010
00001000
00000010
00000001
,
00000100
00001000
00010000
01000000
00100000
00010000
10000000
10010000
,
00000000
00000000
00011000
00000000
00000100
00001000
00001001
00000001
,
00000000
00000100
00001000
00010000
01000000
00100000
00010000
00000000
,
10010000
00000000
00000000
00000000
01010000
00000000
01000000
00000000
00001000
00000000
00010000
00000000
00000100
00000000
00001000
00000001
,
00001000
00000000
00000010
00010000
00001000
00000010
00000100
00001000
,
00001001
00000000
00000000
00000000
00000001
00000000
00000100
00000000
00001000
00000000
00010000
00000000
00100000
00000000
10000000
00010000
,
10000000
00000000
01000000
00010000
00001000
00000010
00000001
00001000
,
00001001
00000000
00000000
00000000
00000001
00000000
00000100
00000000
00001000
00000000
00010000
00000000
00000100
00000000
00001000
00000001
,
00001000
00000000
00000010
00010000
00001000
00100000
00010000
10000000
,
11000000
00000000
00000000
00000000
01000000
00000000
00100000
00000000
00010000
00000000
01000000
00000000
00001000
00000000
00010000
00000100
,
00010000
00000000
00000000
00000000
00001000
00000000
00000100
00000000
00000001
00001000
00000001
00001000
00000001
00000010
00000001
00000010
,
00000100
00000000
00010000
00000000
00022000
00000000
00000000
00000000
00000000
00000000
00000000
00000000
,
00000000
00000000
00000000
00000000
,
00033000
00000000
00000000
00000000
;
