#VERSION:0.83;
#TITLE:Geirskögul;
#SUBTITLE:;
#ARTIST:Maozon;
#TITLETRANSLIT:Geirskogul;
#SUBTITLETRANSLIT:;
#ARTISTTRANSLIT:;
#GENRE:CYBER DRUMSTEP;
#CREDIT:;
#MUSIC:Geirskogul.ogg;
#BANNER:Geirskogul.png;
#BACKGROUND:Geirskogul-bg.png;
#CDTITLE:./CDTitles/bm IIDX 26 Rootage.png;
#SAMPLESTART:94.520;
#SAMPLELENGTH:15.000;
#SELECTABLE:YES;
#OFFSET:0.374;
#BPMS:0.000=177.000;
#STOPS:;
#TIMESIGNATURES:0.000=4=4;
#BGCHANGES:0.000=Geirskogul.mp4=1.000=0=0=0=StretchNoLoop====,
99999.000=-nosongbg-=1.000=0=0=0=StretchNoLoop====
;
#FGCHANGES:;

//--------------- dance-single - forcednature ----------------
#NOTEDATA:;
#STEPSTYPE:dance-single;
#DESCRIPTION:forcednature;
#DIFFICULTY:Beginner;
#METER:4;
#RADARVALUES:0,0,0,0,0;
#CREDIT:forcednature;
#NOTES:
0000
0000
0000
0000
,
0000
0000
0000
0000
,
0000
0000
0000
0000
,
0000
0000
0000
0000
,
0000
0000
0000
0000
,
0000
0000
0000
0000
,
0000
0000
0000
0000
,
0000
0000
0000
0000
,
0000
0000
0000
0000
,
0000
0000
0000
0000
,
1001
0000
0000
0000
,
0000
0000
0000
0000
,
0100
0000
0000
0000
,
0000
0000
0000
0000
,
0110
0000
0000
0000
,
0000
0000
0000
0000
,
1001
0000
0000
0000
0000
0000
0000
0220
,
0000
0000
0330
0000
,
1001
0000
0001
0000
,
0001
0000
0001
0000
,
1001
0000
0000
0000
,
0110
0000
1000
0000
,
1001
0000
1000
0000
,
0000
0000
1000
0000
,
0010
0000
0100
0000
,
0000
0000
0100
0000
,
0001
0000
0010
0000
,
0000
0000
0010
0000
,
0100
0000
1000
0000
,
0001
0000
0100
0000
,
0001
0000
0010
0000
,
0000
0000
0010
0000
,
0100
0000
1000
0000
,
0000
0000
1000
0000
,
0010
0000
0100
0000
,
0000
0000
0100
0000
,
0001
0000
0000
0000
,
1000
0000
0100
0000
,
0110
0000
1000
0000
,
0000
0000
1000
0000
,
0000
0000
0001
0000
,
0000
0000
0001
0000
,
0100
0000
0010
0000
,
0000
0000
0010
0000
,
1000
0000
0100
0000
,
0010
0000
0000
0000
,
1001
0000
0001
0000
,
0000
0001
0000
0000
,
1001
0000
1000
0000
,
0000
1000
0000
0000
,
0110
0000
0001
0000
,
0000
0001
0000
0000
,
0110
0000
1000
0000
,
0000
1000
0000
0000
,
2002
0000
0000
0000
,
0000
0000
3003
0000
,
2000
0000
0000
0000
,
0000
0000
3000
0000
,
0200
0000
0000
0000
,
0000
0000
0300
0000
,
0020
0000
0000
0000
,
0000
0000
0030
0000
,
0002
0000
0000
0000
,
0000
0000
0003
0000
,
1001
0000
0000
0000
,
0110
0000
0000
0000
,
2002
0000
3003
0000
,
0000
0000
0110
0000
,
1001
0000
0001
0000
,
0100
0100
0100
0000
,
0110
1000
0000
0001
,
0000
0010
0000
0100
,
0000
0010
0000
0001
,
0000
1000
0000
0001
,
0000
0100
0000
0010
,
0000
1000
0000
0100
,
0100
0000
0010
0000
,
0001
0000
1000
0000
,
0110
0000
1001
0000
,
0000
0000
0100
0000
,
0110
0001
0000
1000
,
0000
0010
0000
0100
,
0000
0001
0000
0010
,
0000
0100
0000
1000
,
0020
0000
0000
0100
,
0000
0000
0030
0000
,
2002
0000
0000
0000
,
0000
0000
0000
0000
,
0000
0000
0000
0000
,
0000
0000
0000
0000
,
3003
0000
0000
0000
;

//--------------- dance-single - forcednature ----------------
#NOTEDATA:;
#STEPSTYPE:dance-single;
#DESCRIPTION:forcednature;
#DIFFICULTY:Easy;
#METER:8;
#RADARVALUES:0,0,0,0,0;
#CREDIT:forcednature;
#NOTES:
0000
0000
0000
0000
,
0000
0000
0000
0000
,
0000
0000
0000
0000
,
0000
0000
0000
0000
,
0000
0000
0000
0000
,
0000
0000
0000
0000
,
0000
0000
0000
0000
,
0000
0000
0000
0000
,
0000
0000
0000
0000
0000
0000
0000
1001
,
0000
0000
0000
0100
0020
0000
0030
0000
,
1001
1000
0000
0001
,
0000
1000
0010
0000
,
1000
0100
0000
0010
,
0000
0001
0010
0100
,
0110
0010
0000
0001
,
0000
1000
0010
0100
,
1001
0000
0000
0110
0000
0000
0000
2002
,
0000
0000
0000
3003
,
1100
1000
0001
0001
,
0100
0100
0010
0010
,
2002
0000
0000
3003
,
0110
0000
0001
0001
,
2000
0000
3001
0100
,
0010
1000
0001
1000
,
0200
0000
0310
0001
,
1000
0010
0100
0001
,
0020
0000
0130
1000
,
0010
0100
0010
1000
,
0100
0000
0010
0001
,
1000
0001
0100
0010
,
2001
0000
3001
0100
,
0001
1000
0010
1000
,
0002
0000
1003
0100
,
0010
0001
0010
0100
,
0210
0000
1300
0010
,
0100
0001
0010
0001
,
2002
0000
0000
0000
3003
0000
0000
0110
,
0000
1000
0001
0100
,
1001
0000
1000
0000
,
0010
0000
0100
0000
,
0001
0000
0010
0000
,
0100
0000
0010
0000
,
1001
0000
0001
0000
,
0100
0000
0010
0000
,
1001
0000
1000
0000
,
0220
0000
0000
0330
,
1001
0000
0001
0001
,
0001
0000
0001
0000
,
1001
0000
1000
1000
,
1000
0000
1000
0000
,
0110
0000
0001
0001
,
0001
1000
0001
0000
,
0110
0110
1000
0001
,
1000
0010
0100
0000
,
2002
0000
0000
0000
,
0000
0000
3003
0000
,
0001
0000
0000
0001
0000
0000
0001
0000
,
0000
0001
0000
0000
0001
0000
0000
0000
,
1000
0000
0000
1000
0000
0000
1000
0000
,
0000
1000
0000
0000
1000
0000
0000
0000
,
0010
0000
0000
0010
0000
0000
0010
0000
,
0000
0010
0000
0000
0010
0000
0000
0000
,
0100
0000
0000
0100
0000
0000
0100
0010
,
0000
1000
0000
0001
0000
0000
0000
0000
,
1001
0001
0100
0001
,
1001
0100
0010
0000
,
2002
0000
3003
0000
,
0000
0000
0000
0100
0010
0000
0000
0000
,
1001
0001
0100
0001
,
1000
0010
0100
0000
,
0110
0001
1000
0100
,
0010
0001
0010
0100
,
0110
0010
0001
1000
,
0010
0100
0001
1000
,
1001
0001
0100
0001
,
0010
0100
1000
0010
,
0110
0100
0100
0100
,
0001
0010
0001
0100
,
1001
0000
1000
0100
,
1000
0010
0100
0000
,
1001
0001
0100
0001
,
1000
0100
0010
0001
,
1001
1000
0010
0100
,
0010
1000
0100
0010
,
0110
0000
0000
2000
0000
0000
0002
0000
,
0000
0000
0000
3003
,
0200
0000
0000
0000
,
0000
0000
0000
0000
,
0000
0000
0000
0000
,
0000
0000
0000
0000
,
0300
0000
0000
0000
;

//--------------- dance-single - forcednature ----------------
#NOTEDATA:;
#STEPSTYPE:dance-single;
#DESCRIPTION:forcednature;
#DIFFICULTY:Medium;
#METER:12;
#RADARVALUES:0,0,0,0,0;
#CREDIT:forcednature;
#NOTES:
0000
0000
0000
0000
,
0000
0000
0000
0000
,
0000
0000
0000
0000
,
0000
0000
0000
0000
,
0000
0000
0000
0000
,
0000
0000
0000
0000
,
0000
0000
0000
0000
,
0000
0000
0000
0000
,
0000
0000
0000
0000
0000
0000
0000
0220
,
0000
0000
0000
0000
0330
0000
1000
0000
0001
0000
0000
0001
0000
0001
0100
0000
,
0110
0000
0000
0000
0010
0000
0000
0010
0000
0000
1000
0000
0000
0000
1001
0000
,
0000
0000
0001
0000
0010
0000
0000
0010
0000
0000
0100
0000
0000
0000
1100
0000
,
0000
0000
1000
0000
0010
0000
0000
0010
0000
0000
0100
0000
0000
0000
0101
0000
,
0000
0000
0001
0000
1000
0000
0000
1000
0100
0000
0010
0000
0001
0000
1000
0000
,
1001
0000
0000
0000
0001
0000
0000
0001
0100
0000
0010
0000
1000
0000
0001
0000
,
1000
0000
0100
0000
0010
0000
0000
0010
0100
0000
1000
0000
0000
0000
0010
0000
,
0202
0000
0303
2200
0000
0000
3300
2002
,
0000
0000
0000
3003
,
1100
1100
0101
0101
,
1010
1010
0011
0011
,
2002
0000
0000
3003
,
0110
0000
0000
0001
0100
1000
0100
0000
,
2002
0000
3003
0000
0001
0100
1000
0001
,
0010
1000
0001
0100
1000
0100
0001
0010
,
0002
0000
0003
0000
1000
0100
0001
1000
,
0010
0001
1000
0100
0002
0000
0203
0000
,
0320
0000
0030
0000
0001
0100
1000
0001
,
0010
1000
0001
0100
1000
0100
0001
0010
,
0001
0000
0100
0010
1000
0001
0010
0100
,
0000
0000
1000
0000
0001
0100
0001
0100
0010
0000
0000
0000
0000
0000
0000
0000
,
2002
0000
3003
0000
1000
0010
0001
1000
,
0100
0001
1000
0010
0001
1000
0100
0001
,
2000
0000
3000
0000
0001
0010
1000
0001
,
0100
0000
1000
0000
0001
0000
0010
0000
1000
0000
0000
0000
0010
0001
0010
0001
,
0200
0000
0300
0000
0010
0001
1000
0100
,
0001
0010
1000
0001
0100
1000
0010
0100
,
0001
1000
0100
0010
0000
0100
1000
0010
,
0000
0100
0000
0001
0010
0100
1000
0001
,
1000
0000
1100
0000
,
0001
0000
0101
0000
,
1000
0000
1010
0000
,
0001
0000
0000
0001
0011
0001
0000
0000
,
1001
0000
0110
0000
,
0100
0000
1001
0000
,
0010
0000
1001
0000
,
0110
0000
0000
0001
0100
0010
1000
0000
,
1001
0000
0000
0000
0000
0000
0000
0000
0001
0000
0000
0001
0000
0000
0100
0000
,
0000
0000
0000
0000
0010
0000
0000
0010
0000
0000
1000
0000
0000
0000
0000
0000
,
1001
0000
0000
0000
0000
0000
0000
0000
1000
0000
0000
1000
0000
0000
0100
0000
,
0000
0000
0000
0000
0010
0000
0000
0010
0001
0010
0001
0000
0000
0000
0000
0000
,
1001
0000
0000
0000
0000
0000
0000
0000
0001
0000
0000
0001
0000
0000
0010
0000
,
0000
0000
0000
0000
1000
0000
0000
1000
0000
0000
0010
0000
0000
0000
0000
0000
,
0110
0000
0000
0000
0110
0000
0000
0000
0001
0000
0000
0100
0000
0000
1000
0000
,
0000
0000
0000
0000
0100
0000
0000
0010
0000
0000
1000
0000
0000
0000
0001
0000
,
2002
0000
0000
0000
,
0000
0000
0000
3003
,
2100
0000
0000
3002
0000
0000
0203
0000
,
0000
0320
0000
0000
2030
0000
3000
0000
,
0002
0000
0000
0023
0000
0000
0032
0000
,
0000
0203
0000
0000
0320
0000
0030
0000
,
2000
0000
0000
3200
0000
0000
0320
0000
,
0000
0230
0000
0000
2300
0000
3000
0000
,
0020
0000
0000
0230
0000
0000
0301
2000
,
0000
3100
0010
0002
0000
0000
0003
0000
,
2002
0000
0000
3003
,
0220
0000
0000
0330
,
2002
0000
3003
0000
,
0000
0000
0000
0100
0110
0000
0000
0000
,
1001
0000
0001
0100
0010
1000
0001
1001
,
0000
1000
0100
0010
0001
0100
0010
0000
,
1000
0100
1000
0010
0100
0001
0010
0002
,
0000
0103
0010
1000
0001
0010
0100
1000
,
0010
0000
0000
0010
0000
0000
0100
0000
0001
0000
1000
0000
0100
0000
0020
0000
,
0000
0230
0000
1300
0001
0100
0010
1000
,
2002
0000
3003
0000
0001
0010
0100
2000
,
0000
3010
0100
0001
0010
0001
0100
0010
,
1000
0000
0000
0100
0000
0000
0010
0000
0001
0000
0000
0100
0000
0000
0010
0000
,
1000
0000
0000
0001
0000
0000
0010
0000
0100
0000
0000
1000
0000
0000
0001
0000
,
2002
0000
3003
0000
1000
0010
0100
0002
,
0000
0000
0003
0020
0000
0000
0130
0000
,
1100
1001
0101
1001
,
1010
1001
0011
1001
,
0110
0000
1000
0100
0010
0001
0100
0010
,
1000
0001
0010
0100
1000
0001
0100
0010
,
2000
0000
0000
3200
0000
0000
0302
0000
,
0000
0000
0000
0000
,
0103
0010
0001
1000
0000
0001
0100
0020
,
0000
0000
0000
0000
,
0000
0000
0000
0000
,
0000
0000
0000
0000
,
0030
0000
0000
0000
;

//--------------- dance-single - forcednature ----------------
#NOTEDATA:;
#STEPSTYPE:dance-single;
#DESCRIPTION:forcednature;
#DIFFICULTY:Hard;
#METER:15;
#RADARVALUES:0,0,0,0,0;
#CREDIT:forcednature;
#NOTES:
0000
0000
0000
0000
,
0000
0000
0000
0000
,
0000
0000
0000
0000
,
0000
0000
0000
0000
,
0000
0000
0000
0000
,
0000
0000
0000
0000
,
0000
0000
0000
0000
,
0000
0000
0000
0000
,
0000
0000
0000
0000
0000
0000
0000
2002
,
0000
0000
0000
0000
3003
0000
1000
0000
0001
0000
0010
0000
0100
1000
0001
0100
,
0020
0000
0000
0000
1000
0000
0000
0100
0000
0000
0001
0000
0000
0000
1000
0000
,
0000
0000
0000
0000
1000
0000
0000
0100
0000
0000
0001
0000
0030
0000
0010
0000
,
0200
0000
0000
0000
1000
0000
0000
0010
0000
0000
0001
0000
0000
0000
1000
0000
,
0000
0000
0000
0000
1000
0000
0000
0010
0000
0000
0302
0000
0000
0000
0013
0000
,
1001
0000
0000
0000
0001
0000
0000
0001
0100
0010
1000
0000
0100
0000
0010
0000
,
0000
0000
0100
0000
1000
0000
0010
0100
0001
0000
0020
0000
0000
0000
0130
0000
,
2002
0000
3003
1200
0000
0301
0100
0220
,
0000
0000
0000
0330
,
0101
1100
0101
1100
,
0011
1010
0011
1010
,
2002
0000
0000
3003
,
0220
0000
0000
0000
0330
0000
0001
0100
0010
0000
1000
0000
0001
0000
0000
0000
,
2002
0000
0000
0000
0000
0000
3003
0000
0001
0000
0100
0010
1000
0000
0001
0000
,
0010
0100
1000
0000
0001
0000
0100
0010
1000
0000
0100
0000
0100
0000
0100
0000
,
2002
0000
0000
0000
0000
0000
3003
0000
1000
0000
0100
0010
0001
0000
1000
0000
,
0010
0100
0001
0000
1000
0000
0100
0010
0002
0000
0000
0000
2003
0000
3000
0000
,
0220
0000
0000
0000
0000
0000
0330
0000
0001
0000
1000
0100
0010
0000
0001
0000
,
1000
0010
0100
0000
0001
0000
1000
0100
0010
0000
0100
0000
0100
0000
0100
0000
,
1001
0000
1000
0000
0010
0000
0001
0000
0010
0000
0100
0000
0001
0000
1000
0100
,
0010
0000
0001
0000
0100
0010
1000
0010
1000
0001
1000
0100
0010
0001
0100
0000
,
2002
0000
0000
0000
0000
0000
3003
0000
0001
0000
0100
1000
0100
0000
0001
0000
,
0100
1000
0100
0000
0001
0000
0100
1000
0100
0000
0010
0000
0010
0000
0010
0000
,
2002
0000
0000
0000
0000
0000
3003
0000
1000
0000
0100
0001
0100
0000
1000
0000
,
0100
0001
0100
0000
1000
0000
0100
0001
0200
0000
0000
0000
0310
0000
0010
0000
,
2002
0000
0000
0000
0000
0000
3003
0000
0001
0000
0010
1000
0010
0000
0001
0000
,
0100
1000
0100
0000
0001
0000
0010
1000
0010
0000
0001
0000
1000
0000
0001
0000
,
0110
1000
0001
0200
0000
0310
1000
1001
,
0000
0000
0001
0010
0100
0000
0001
0000
0100
0000
1000
0000
0010
0000
0100
0000
,
1001
0000
0001
0100
0101
0000
1000
0000
,
0110
0000
0100
1000
0110
0000
0001
1000
,
1010
0000
0100
0001
0011
0000
0100
0000
,
1001
0000
0000
0000
1000
0000
0001
0000
0101
0000
0100
0000
0010
1000
0010
0000
,
1001
0000
1000
0100
0110
0000
0001
0100
,
0110
0000
1000
0001
0010
1000
0010
0001
,
1001
0000
0001
1000
0110
0001
1000
0000
,
2002
0000
0000
0000
3003
0000
0001
0100
0010
0000
1000
0000
0001
0000
0000
0000
,
1100
0000
0000
0000
0001
0000
0000
0000
1000
0000
0010
1000
0000
0001
0100
0000
,
0001
0000
1000
0000
0100
0000
0000
0110
0000
0000
1000
0000
0000
0000
0001
0000
,
0110
0000
0000
0000
1000
0000
0000
0000
0001
0000
0010
0001
0000
1000
0100
0000
,
1000
0000
0001
0000
0100
0000
0000
0010
1000
0010
1000
0000
0100
0010
0001
0000
,
1001
0000
0000
0000
1000
0000
0000
0000
0100
0000
0010
0001
0000
0100
0001
0000
,
1000
0000
0010
0000
0100
0000
0001
1000
0000
0000
0110
0000
0000
0000
0001
0000
,
1001
0000
0000
0000
1001
0000
0000
0000
1000
0000
0001
0100
0000
0010
1000
0000
,
0100
0000
0010
0000
0001
0000
0100
0001
0100
0001
1000
0000
0100
0010
0001
0000
,
1001
0001
0100
1000
0001
0010
1000
0100
,
0001
1000
0010
0001
1000
0010
0100
0000
,
1002
0000
0000
0100
0000
0000
1000
0000
,
0000
0010
0000
0000
1000
0000
0000
0000
,
1003
0100
0010
0002
0000
0103
0010
2000
,
0000
0100
0000
0000
0001
0000
3000
0000
,
0010
1000
0001
0020
0000
0130
1000
0002
,
0000
0100
0000
0000
0013
0000
0000
0001
,
2000
0000
0000
0010
0000
0000
3100
1000
,
0000
0001
0100
0010
1000
0000
0000
0000
,
1100
0000
1000
0001
0100
0001
1000
0000
,
0101
0000
0001
1000
0100
0010
0002
0003
,
0220
0000
0000
0330
1000
0000
0000
1000
,
0000
0000
0000
0000
0001
0000
0010
0100
0010
0000
0100
0000
0100
0000
0100
0000
,
1001
0001
0100
0010
0110
0100
0001
1001
,
0000
0000
1000
0000
0110
0000
0001
0000
0000
0000
1000
0010
0100
0001
1000
0001
,
0010
0100
0001
0100
1000
0010
0100
0110
,
0000
0000
0001
0000
1000
0000
0010
0100
0001
0000
1000
0000
0100
0010
0001
1000
,
0001
0000
0000
0100
0000
0000
0010
0000
1000
0000
0100
0000
0010
0000
0110
0000
,
0000
0000
0100
0000
1000
0000
0001
0100
0010
0000
1000
0000
0001
0000
0001
0000
,
0011
0000
0010
0100
1000
0001
0100
0110
,
0000
0000
0010
0000
1000
0000
0100
0000
0010
0001
0100
0000
0001
0100
0010
1000
,
0001
0000
0000
0010
0100
1000
0100
1000
0001
0100
0001
0000
0000
0000
1001
0000
,
0000
0000
1000
0000
0100
0010
0001
1000
0001
0000
0100
0010
1000
0001
1000
0100
,
0020
0000
0000
0000
0130
1000
0010
0220
,
0000
0000
0000
0000
0330
0000
0001
0000
1000
0100
0010
0001
1000
0010
0100
0001
,
0010
0000
0100
1000
0000
0100
0010
0000
0001
0000
1000
0000
0001
0100
0010
1000
,
0001
0000
0010
0001
0000
1000
0010
0000
0100
0001
0100
0000
0010
0000
0010
0000
,
1001
0000
1000
0100
0000
0010
0001
0000
0100
0000
0001
0000
0010
0000
0001
0000
,
0100
0000
0010
1000
0000
0001
0010
0000
0100
0000
0001
0000
0100
0000
1000
0000
,
1020
0000
0000
0230
0000
0000
0302
0000
,
0000
0000
0000
0000
,
1003
0100
0010
0200
0000
0310
0001
2000
,
0000
0000
0000
0000
,
0000
0000
0000
0000
,
0000
0000
0000
0000
,
3000
0000
0000
0000
;

//--------------- dance-double - forcednature ----------------
#NOTEDATA:;
#STEPSTYPE:dance-double;
#DESCRIPTION:forcednature;
#DIFFICULTY:Easy;
#METER:8;
#RADARVALUES:0,0,0,0,0;
#CREDIT:forcednature;
#NOTES:
00000000
00000000
00000000
00000000
,
00000000
00000000
00000000
00000000
,
00000000
00000000
00000000
00000000
,
00000000
00000000
00000000
00000000
,
00000000
00000000
00000000
00000000
,
00000000
00000000
00000000
00000000
,
00000000
00000000
00000000
00000000
,
00000000
00000000
00000000
00000000
,
00000000
00000000
00000000
00000000
00000000
00000000
00000000
00011000
,
00000000
00000000
00000000
01000000
00020000
00000000
00030000
00000000
,
01100000
10000000
00000000
00010000
,
00000000
00001000
00000001
00000000
,
00000010
00000100
00000000
00001000
,
00000000
00000001
00000100
00001000
,
00011000
00010000
00000000
01000000
,
00000000
00100000
00010000
10000000
,
10010000
00000000
00000000
01100000
00000000
00000000
00000000
00022000
,
00000000
00000000
00000000
00033000
,
00010100
00010000
00001000
00001000
,
00000100
00000100
00000001
00000001
,
00002002
00000000
00000000
00003003
,
00000110
00000000
00001000
00001000
,
00000002
00000000
00000103
00001000
,
00010000
01000000
00100000
00010000
,
20000000
00000000
30100000
00010000
,
00001000
00000010
00000100
00001000
,
00000002
00000000
00000103
00001000
,
00010000
01000000
00100000
00010000
,
10000000
00000000
00100000
00010000
,
00001000
00000010
00000100
00001000
,
00001002
00000000
00000103
00001000
,
00010000
00100000
10000000
00010000
,
00200000
00000000
01300000
00010000
,
00001000
00000010
00000100
00001000
,
00001002
00000000
00000103
00001000
,
00010000
00000100
00010000
00001000
,
00022000
00000000
00000000
00000000
00033000
00000000
00000000
01100000
,
00000000
10000000
00010000
01000000
,
01100000
00000000
00001000
00000000
,
00010000
00000000
00000100
00000000
,
00001000
00000000
00000001
00000000
,
00000100
00000000
00000010
00000000
,
00001001
00000000
00001000
00000000
,
00000100
00000000
00010000
00000000
,
00011000
00000000
01000000
00000000
,
02200000
00000000
00000000
03300000
,
10010000
00000000
10000000
10000000
,
10000000
00000000
00010000
00000000
,
00011000
00000000
00001000
00001000
,
00001000
00000000
00000001
00000000
,
00000110
00000000
00001000
00001000
,
00001000
00000001
00001000
00000000
,
00011000
00011000
01000000
00001000
,
00100000
00010000
01000000
00000000
,
00022000
00000000
00000000
00000000
,
00000000
00000000
00033000
00000000
,
00000100
00000000
00000000
00000100
00000000
00000000
00000100
00000000
,
00000000
00000100
00000000
00000000
00000100
00000000
00000000
00000000
,
00010000
00000000
00000000
00010000
00000000
00000000
00010000
00000000
,
00000000
00010000
00000000
00000000
00010000
00000000
00000000
00000000
,
00001000
00000000
00000000
00001000
00000000
00000000
00001000
00000000
,
00000000
00001000
00000000
00000000
00001000
00000000
00000000
00000000
,
01000000
00000000
00000000
01000000
00000000
00000000
01000000
00100000
,
00000000
10000000
00000000
00010000
00000000
00000000
00000000
00000000
,
00011000
00000100
00010000
00000010
,
00000110
00000100
00000010
00000000
,
00002002
00000000
00003003
00000000
,
00000000
00000000
00000000
00000100
00000100
00000000
00000000
00000000
,
00011000
01000000
00010000
00100000
,
01000000
10000000
00100000
00000000
,
01100000
00010000
10000000
01000000
,
00010000
00001000
00000010
00000100
,
00000110
00000010
00000001
00001000
,
00000010
00000100
00001000
00010000
,
00011000
00001000
01000000
00010000
,
00100000
01000000
10000000
00100000
,
01100000
01000000
00010000
00010000
,
00100000
00001000
00010000
00001000
,
00011000
00000000
00000100
00001000
,
00000010
00001000
00000100
00000000
,
00000110
00000010
00000001
00000100
,
00000010
00001000
00000100
00010000
,
00011000
00001000
01000000
00010000
,
01000000
00100000
10000000
01000000
,
01100000
00000000
00000000
20000000
00000000
00000000
00020000
00000000
,
00000000
00000000
00000000
30030000
,
00002000
00000000
00000000
00000000
,
00000000
00000000
00000000
00000000
,
00000000
00000000
00000000
00000000
,
00000000
00000000
00000000
00000000
,
00003000
00000000
00000000
00000000
;

//--------------- dance-double - forcednature ----------------
#NOTEDATA:;
#STEPSTYPE:dance-double;
#DESCRIPTION:forcednature;
#DIFFICULTY:Medium;
#METER:13;
#RADARVALUES:0,0,0,0,0;
#CREDIT:forcednature;
#NOTES:
00000000
00000000
00000000
00000000
,
00000000
00000000
00000000
00000000
,
00000000
00000000
00000000
00000000
,
00000000
00000000
00000000
00000000
,
00000000
00000000
00000000
00000000
,
00000000
00000000
00000000
00000000
,
00000000
00000000
00000000
00000000
,
00000000
00000000
00000000
00000000
,
00000000
00000000
00000000
00000000
00000000
00000000
00000000
00022000
,
00000000
00000000
00000000
00000000
00033000
00000000
00001000
00000000
01000000
00000000
00000000
00010000
00000000
00010000
10000000
00000000
,
10010000
00000000
00000000
00000000
00010000
00000000
00000000
00010000
00000000
00000000
00100000
00000000
00000000
00000000
00011000
00000000
,
00000000
00000000
00000010
00000000
00001000
00000000
00000000
00001000
00000000
00000000
00000100
00000000
00000000
00000000
00000110
00000000
,
00000000
00000000
00000010
00000000
00000001
00000000
00000000
00000001
00000000
00000000
00000100
00000000
00000000
00000000
00000110
00000000
,
00000000
00000000
00000010
00000000
00010000
00000000
00000000
00010000
00001000
00000000
00100000
00000000
00010000
00000000
00100000
00000000
,
01100000
00000000
00000000
00000000
01000000
00000000
00000000
01000000
10000000
00000000
00010000
00000000
10000000
00000000
00100000
00000000
,
00010000
00000000
00001000
00000000
00000010
00000000
00000000
00000010
00000100
00000000
00001000
00000000
00000000
00000000
00000001
00000000
,
00000202
00000000
00000303
00002020
00000000
00000000
00003030
00022000
,
00000000
00000000
00000000
00033000
,
01001000
01001000
00010010
00010010
,
00001100
00001100
00110000
00110000
,
00022000
00000000
00000000
00033000
,
01100000
00000000
00000000
10000000
01000000
00010000
00001000
00000000
,
00022000
00000000
00033000
00000000
00000100
00010000
00001000
01000000
,
00001000
00010000
00000010
00010000
00001000
00100000
00001000
00010000
,
00200000
00000000
00300000
00000000
10000000
01000000
00010000
00001000
,
00000100
00000001
00000010
00000100
00002000
00000000
00003020
00000000
,
00020030
00000000
00030000
00000000
00100000
10000000
01000000
00100000
,
00010000
01000000
00001000
00010000
00000100
00010000
00001000
00000100
,
00000001
00000000
00000010
00000100
00001000
00000010
00000100
00001000
,
00000000
00000000
00010000
00000000
00001000
01000000
00001000
01000000
00010000
00000000
00000000
00000000
00000000
00000000
00000000
00000000
,
20020000
00000000
30030000
00000000
10000000
01000000
00010000
00001000
,
00000010
00000001
00000100
00001000
00010000
00100000
10000000
00010000
,
20000000
00000000
30000000
00000000
01000000
00010000
00001000
00000100
,
00001000
00000000
00010000
00000000
00100000
00000000
00010000
00000000
00001000
00000000
00000000
00000000
00000010
00000100
00000010
00000100
,
00002000
00000000
00003000
00000000
00000001
00000100
00001000
00010000
,
00100000
10000000
01000000
00010000
00001000
00000010
00000001
00000100
,
00001000
00010000
00100000
10000000
00000000
01000000
00100000
00010000
,
00000000
01000000
00000000
00001000
00010000
00000100
00010000
00001000
,
00000100
00000000
00000110
00000000
,
00000010
00000000
00001001
00000000
,
00000100
00000000
00011000
00000000
,
01000000
00000000
00000000
00100000
01100000
00100000
00000000
00000000
,
10010000
00000000
01100000
00000000
,
00001000
00000000
00000110
00000000
,
00000001
00000000
00001001
00000000
,
00000110
00000000
00000000
00010000
00001000
00010000
00001000
00000000
,
01001000
00000000
00000000
00000000
00000000
00000000
00000000
00000000
00100000
00000000
00000000
00100000
00000000
00000000
01000000
00000000
,
00000000
00000000
00000000
00000000
00010000
00000000
00000000
00001000
00000000
00000000
00000010
00000000
00000000
00000000
00000000
00000000
,
00000110
00000000
00000000
00000000
00000000
00000000
00000000
00000000
00000001
00000000
00000000
00000001
00000000
00000000
00000100
00000000
,
00000000
00000000
00000000
00000000
00001000
00000000
00000000
00010000
00001000
00010000
00001000
00000000
00000000
00000000
00000000
00000000
,
01001000
00000000
00000000
00000000
00000000
00000000
00000000
00000000
10000000
00000000
00000000
10000000
00000000
00000000
01000000
00000000
,
00000000
00000000
00000000
00000000
00010000
00000000
00000000
00010000
00000000
00000000
00001000
00000000
00000000
00000000
00000000
00000000
,
00000110
00000000
00000000
00000000
00000110
00000000
00000000
00000000
00000001
00000000
00000000
00000100
00000000
00000000
00001000
00000000
,
00000000
00000000
00000000
00000000
00010000
00000000
00000000
01000000
00000000
00000000
10000000
00000000
00000000
00000000
00100000
00000000
,
02200000
00000000
00000000
00000000
,
00000000
00000000
00000000
03300000
,
21000000
00000000
00000000
30020000
00000000
00000000
02030000
00000000
,
00000000
03002000
00000000
00000000
00023000
00000000
00030000
00000000
,
00000200
00000000
00000000
00002300
00000000
00000000
00003020
00000000
,
00000000
00000230
00000000
00000000
00000302
00000000
00000003
00000000
,
00000020
00000000
00000000
00000230
00000000
00000000
00020300
00000000
,
00000000
00032000
00000000
00000000
02003000
00000000
03000000
00000000
,
00020000
00000000
00000000
00230000
00000000
00000000
01300000
20000000
,
00000000
30100000
01000000
00002000
00000000
00000000
00003000
00000000
,
00022000
00000000
00000000
00033000
,
00020200
00000000
00000000
00030300
,
02002000
00000000
03003000
00000000
,
00000000
00000000
00000000
00001000
00011000
00000000
00000000
00000000
,
01100000
00000000
10000000
01000000
00010000
00001000
00010000
00011000
,
00000000
00000100
00001000
00000010
00001000
00000100
00000010
00000000
,
00000100
00001000
00000001
00000100
00000010
00001000
00000010
00020000
,
00000000
00031000
01000000
00010000
01000000
00100000
10000000
01000000
,
00100000
00000000
00000000
00100000
00000000
00000000
00010000
00000000
00100000
00000000
00001000
00000000
00010000
00000000
00000020
00000000
,
00000000
00000230
00000000
00000301
00001000
00000100
00000010
00000001
,
00002002
00000000
00003003
00000000
00001000
00000100
00010000
00002000
,
00000000
01003000
00010000
00100000
00010000
01000000
00100000
10000000
,
01000000
00000000
00000000
00100000
00000000
00000000
00010000
00000000
00100000
00000000
00000000
00001000
00000000
00000000
00010000
00000000
,
00000010
00000000
00000000
00010000
00000000
00000000
00001000
00000000
00000010
00000000
00000000
00000100
00000000
00000000
00001000
00000000
,
00002002
00000000
00003003
00000000
00000001
00000100
00001000
00020000
,
00000000
00000000
00030000
00200000
00000000
00000000
10300000
00000000
,
11000000
10010000
00110000
00011000
,
00001010
00001001
00000101
00001001
,
00000110
00000000
00000001
00000100
00001000
00010000
01000000
10000000
,
00100000
01000000
00100000
10000000
01000000
00100000
00010000
00001000
,
00000200
00000000
00000000
00000320
00000000
00000000
00000032
00000000
,
00000000
00000000
00000000
00000003
,
00000100
00001000
00010000
00100000
00000000
01000000
00001000
00020000
,
00000000
00000000
00000000
00000000
,
00000000
00000000
00000000
00000000
,
00000000
00000000
00000000
00000000
,
00030000
00000000
00000000
00000000
;

//--------------- dance-double - forcednature ----------------
#NOTEDATA:;
#STEPSTYPE:dance-double;
#DESCRIPTION:forcednature;
#DIFFICULTY:Hard;
#METER:16;
#RADARVALUES:0,0,0,0,0;
#CREDIT:forcednature;
#NOTES:
00000000
00000000
00000000
00000000
,
00000000
00000000
00000000
00000000
,
00000000
00000000
00000000
00000000
,
00000000
00000000
00000000
00000000
,
00000000
00000000
00000000
00000000
,
00000000
00000000
00000000
00000000
,
00000000
00000000
00000000
00000000
,
00000000
00000000
00000000
00000000
,
00000000
00000000
00000000
00000000
00000000
00000000
00000000
00022000
,
00000000
00000000
00000000
00000000
00033000
00000000
00010000
00000000
00001000
00000000
01000000
00000000
00010000
10000000
00010000
10000000
,
02000000
00000000
00000000
00000000
10000000
00000000
00000000
00100000
00000000
00000000
00010000
00000000
00000000
00000000
10000000
00000000
,
00000000
00000000
00000000
00000000
03010000
00000000
00000000
01000000
00000000
00000000
00100000
00000000
00000000
00000000
00001000
00000000
,
00020000
00000000
00000000
00000000
00100000
00000000
00000000
00001000
00000000
00000000
00000100
00000000
00000000
00000000
00001000
00000000
,
00000000
00000000
00000000
00000000
00100000
00000000
00000000
00001000
00000000
00000000
00030200
00000000
00000000
00000000
00000310
00000000
,
00001001
00000000
00000000
00000000
00000001
00000000
00000000
00000001
00000010
00000100
00001000
00000000
00000100
00000000
00010000
00000000
,
00000000
00000000
00001000
00000000
01000000
00000000
00010000
10000000
00010000
00000000
00200000
00000000
00000000
00000000
01300000
00000000
,
20020000
00000000
30030000
12000000
00000000
03010000
00001000
00022000
,
00000000
00000000
00000000
00033000
,
00010100
01001000
00010100
01001000
,
00010010
00101000
00010010
00101000
,
00022000
00000000
00000000
00033000
,
00020200
00000000
00000000
00000000
00030300
00000000
00000100
00001000
00000010
00000000
00000100
00000000
00000001
00000000
00000000
00000000
,
00002002
00000000
00000000
00000000
00000000
00000000
00003003
00000000
00000001
00000000
00001000
00000010
00001000
00000000
00000100
00000000
,
00010000
00001000
01000000
00000000
00010000
00000000
10000000
01000000
00100000
00000000
00010000
00000000
00010000
00000000
00010000
00000000
,
20020000
00000000
00000000
00000000
00000000
00000000
30030000
00000000
10000000
00000000
00010000
01000000
00001000
00000000
00010000
00000000
,
00000100
00001000
00000010
00000000
00000100
00000000
00000001
00000010
00000200
00000000
00000000
00000000
00002300
00000000
00003000
00000000
,
00002002
00000000
00000000
00000000
00000000
00000000
00003003
00000000
00000001
00000000
00001000
00000010
00000100
00000000
00000010
00000000
,
00010000
00001000
00100000
00000000
01000000
00000000
10000000
00010000
01000000
00000000
00100000
00000000
00100000
00000000
00100000
00000000
,
10010000
00000000
10000000
00000000
00100000
00000000
00010000
00000000
00001000
00000000
00000010
00000000
00000001
00000000
00001000
00000010
,
00000100
00000000
00000001
00000000
00000010
00000100
00001000
00000100
00001000
00000100
00010000
00001000
01000000
00010000
01000000
00000000
,
02020000
00000000
00000000
00000000
00000000
00000000
03030000
00000000
00001000
00000000
00010000
00001000
00010000
00000000
00000100
00000000
,
00010000
00001000
00010000
00000000
00000010
00000000
00010000
00001000
00010000
00000000
00100000
00000000
00100000
00000000
00100000
00000000
,
00022000
00000000
00000000
00000000
00000000
00000000
00033000
00000000
00010000
00000000
00001000
00010000
00001000
00000000
01000000
00000000
,
00001000
00010000
00001000
00000000
00000010
00000000
00001000
00010000
00002000
00000000
00000000
00000000
00003100
00000000
00000100
00000000
,
00000220
00000000
00000000
00000000
00000000
00000000
00000330
00000000
00000001
00000000
00000010
00000100
00001000
00000000
00000100
00000000
,
00010000
00001000
01000000
00000000
00010000
00000000
10000000
01000000
00100000
00000000
00010000
00000000
10000000
00000000
00010000
00000000
,
01010000
01000000
00100000
20000000
00000000
31000000
00010000
00011000
,
00000000
00000000
00000100
00001000
00000100
00000000
00000010
00000000
00000001
00000000
00000100
00000000
00000010
00000000
00001000
00000000
,
00001001
00000000
00000001
00000010
00000110
00000000
00000100
00000000
,
00010100
00000000
00011000
00000000
01001000
00000000
01000000
00010000
,
10010000
00000000
10000000
01000000
01100000
00000000
00100000
00000000
,
10010000
00000000
00000000
00000000
10000000
00000000
00010000
00000000
01000000
00000000
00001000
00000000
00010000
00000100
00010000
00000000
,
00001000
00000000
00000100
00000001
00001001
00000000
00001000
00000100
,
00000110
00000000
00000010
00000001
00000100
00001000
00010000
00100000
,
01100000
00000000
10000000
00010000
01100000
10000000
00010000
00000000
,
20020000
00000000
00000000
00000000
30030000
00000000
10000000
01000000
00100000
00000000
00010000
00000000
01000000
00000000
00000000
00000000
,
00011000
00000000
00000000
00000000
00000100
00000000
00000000
00000000
00001000
00000000
00000001
00000010
00000000
00000100
00001000
00000000
,
00000010
00000000
00000100
00000000
00001000
00000000
00000000
00011000
00000000
00000000
00010000
00000000
00000000
00000000
00100000
00000000
,
10010000
00000000
00000000
00000000
10000000
00000000
00000000
00000000
01000000
00000000
00010000
00001000
00000000
00010000
00001000
00000000
,
00000010
00000000
00000100
00000000
00001000
00000000
00000000
00000001
00000100
00000001
00000100
00000000
00000010
00001000
00000100
00000000
,
00000110
00000000
00000000
00000000
00000100
00000000
00000000
00000000
00010000
00000000
00001000
01000000
00000000
00001000
00010000
00000000
,
00100000
00000000
10000000
00000000
01000000
00000000
00100000
00010000
00000000
00000000
00110000
00000000
00000000
00000000
00001000
00000000
,
00011000
00000000
00000000
00000000
00011000
00000000
00000000
00000000
00000100
00000000
00001000
00000100
00000000
00000010
00000001
00000000
,
00000100
00000000
00000010
00000000
00010000
00000000
00001000
01000000
00001000
01000000
00001000
00000000
00100000
00010000
00100000
00000000
,
01100000
01000000
10000000
00010000
01000000
00001000
00010000
00000100
,
00000010
00001000
00000010
00000001
00000100
00001000
00010000
00000000
,
00021000
00000000
00000000
01000000
00000000
00000000
00001000
00000000
,
00000000
00000010
00000000
00000000
00001000
00000000
00000000
00000000
,
00031000
01000000
00010000
20000000
00000000
31000000
00100000
00020000
,
00000000
01000000
00000000
00000000
10000000
00000000
00030000
00000000
,
00010000
00100000
00001000
00020000
00000000
00030100
00001000
00000020
,
00000000
00000001
00000000
00000000
00001030
00000000
00000000
00000010
,
00020000
00000000
00000000
00000100
00000000
00000000
01030000
00010000
,
00000000
00001000
00000100
00001000
00010000
00000000
00000000
00000000
,
01100000
00000000
10000000
01000000
00010000
00001000
00000010
00000000
,
00000110
00000000
00000001
00000100
00001000
00010000
00200000
00300000
,
20020000
00000000
00000000
30030000
10000000
00000000
00000000
00010000
,
00000000
00000000
00000000
00000000
00001000
00000000
00000010
00000100
00000010
00000000
00000100
00000000
00000100
00000000
00000100
00000000
,
00001001
00000001
00000100
00001000
00010000
01000000
10000000
10010000
,
00000000
00000000
10000000
00000000
01000000
00000000
00010000
00000000
00000000
00000000
00001000
00010000
00000100
00001000
00000100
00000010
,
00000001
00000100
00000010
00000100
00001000
00010000
01000000
01100000
,
00000000
00000000
00100000
00000000
00010000
00000000
10000000
00100000
01000000
00000000
00010000
00000000
00100000
00001000
00010000
00001000
,
00010000
00000000
00000000
00000010
00000000
00000000
00001000
00000000
00000100
00000000
00000010
00000000
00000001
00000000
00001001
00000000
,
00000000
00000000
00001000
00000000
00000010
00000000
00010000
00001000
00010000
00000000
01000000
00000000
10000000
00000000
10000000
00000000
,
10010000
00000000
00010000
01000000
00001000
00010000
00000100
00000110
,
00000000
00000000
00000010
00000000
00000001
00000000
00000100
00000000
00000010
00001000
00000010
00000000
00010000
00001000
00100000
00010000
,
00100000
00000000
00000000
01000000
10000000
00100000
10000000
00100000
01000000
00010000
01000000
00000000
00000000
00000000
00011000
00000000
,
00000000
00000000
00000100
00000000
00001000
00000001
00000100
00000010
00001000
00000000
00000100
00000010
00000001
00001000
00000001
00000100
,
00000020
00000000
00000000
00000000
00010030
00001000
00010000
00022000
,
00000000
00000000
00000000
00000000
00033000
00000000
01000000
00000000
00010000
00100000
01000000
10000000
00010000
01000000
00100000
10000000
,
01000000
00000000
00100000
00010000
00000000
00100000
00001000
00000000
00010000
00000000
00000010
00000000
00000100
00000001
00001000
00000100
,
00000010
00000000
00000100
00001000
00000000
00000100
00010000
00000000
00001000
01000000
00001000
00000000
00010000
00000000
00010000
00000000
,
00011000
00000000
00001000
01000000
00000000
00010000
10000000
00000000
01000000
00000000
00010000
00000000
00001000
00000000
00000010
00000000
,
00000100
00000000
00001000
00000001
00000000
00000100
00000010
00000000
00001000
00000000
00000100
00000000
00000001
00000000
00000100
00000000
,
00000120
00000000
00000000
00000032
00000000
00000000
00000203
00000000
,
00000000
00000000
00000000
00000000
,
00000310
00010000
00001000
00020000
00000000
00130000
10000000
02000000
,
00000000
00000000
00000000
00000000
,
00000000
00000000
00000000
00000000
,
00000000
00000000
00000000
00000000
,
03000000
00000000
00000000
00000000
;
