#VERSION:0.83;
#TITLE:Ganymede kamome mix;
#SUBTITLE:;
#ARTIST:kamome sano;
#TITLETRANSLIT:;
#SUBTITLETRANSLIT:;
#ARTISTTRANSLIT:;
#GENRE:;
#CREDIT:;
#MUSIC:Ganymede kamome mix.ogg;
#BANNER:Ganymede kamome mix.png;
#BACKGROUND:Ganymede kamome mix-bg.png;
#CDTITLE:/CDTitles/SDVX BOOTH.png;
#SAMPLESTART:78.899;
#SAMPLELENGTH:15.000;
#SELECTABLE:YES;
#OFFSET:0.000;
#BPMS:0.000=200.000
,47.000=400.000
,59.000=100.000
,75.000=200.000
,226.000=100.000
,230.667=200.000
;
#STOPS:4.500=1.950
,6.000=1.950
,59.000=0.600
,150.000=0.038
,150.125=0.038
,150.500=0.038
,151.125=0.038
,230.667=0.699
;
#TIMESIGNATURES:0.000=4=4,
4.000=3=4,
7.000=4=4,
155.000=7=4,
162.000=4=4,
230.000=1=4,
231.000=4=4
;
#DISPLAYBPM:100.000:200.000;
#BGCHANGES:0.000=../BGAs/20dr.mp4=1.000=0=0=0=StretchNoLoop====,
99999.000=-nosongbg-=1.000=0=0=0=StretchNoLoop====
;
#FGCHANGES:;

//--------------- dance-single - forcednature ----------------
#NOTEDATA:;
#STEPSTYPE:dance-single;
#DESCRIPTION:forcednature;
#DIFFICULTY:Beginner;
#METER:4;
#RADARVALUES:0,0,0,0,0;
#CREDIT:forcednature;
#NOTES:
0000
0000
0000
0000
,
0000
0000
0000
0000
,
1000
0000
0000
0000
,
1000
0000
0000
0000
,
0001
0000
0000
0000
,
0000
0000
0000
0100
,
0000
0000
0000
0010
,
0000
0000
0000
0100
,
0000
0010
0000
0100
,
0000
0010
0000
0100
,
0000
0100
0000
0100
,
0100
0100
0000
2002
,
0000
0000
0000
0000
,
0000
0000
0000
0000
,
0000
0000
0000
3003
,
0000
0000
0000
0001
,
0000
0000
0000
0100
,
0000
0000
0000
0010
,
0000
0000
0000
1000
,
0000
0000
0000
0000
,
0000
0000
0000
0100
,
0000
0000
0000
0000
,
0000
0000
0000
0010
,
0000
0000
0000
0000
,
0000
0000
0000
0001
,
0000
0000
0000
0000
,
0000
0000
0000
0100
,
0000
0000
0000
0010
,
0000
0000
0000
0100
,
0000
0000
0000
0010
,
0000
0000
0000
1000
,
0000
0000
0000
0001
,
0000
0000
0000
1000
,
0000
0000
0000
0001
,
0000
0000
0000
0010
,
0000
0000
0000
0000
0000
0100
0000
0000
,
0000
0000
0000
1000
0000
0000
0000
0000
,
0000
0001
0000
0000
0000
0000
0000
0000
,
0000
0100
0000
0000
,
0001
0000
0000
1000
,
0000
0000
2002
0000
,
0000
0000
0000
0000
,
0000
0000
0000
0000
,
0000
0000
0000
0000
,
3003
0000
0220
0000
,
0000
0000
0000
0000
,
0000
0000
0000
0000
,
0000
0000
0000
0000
,
0330
0000
1000
0000
,
0000
0000
0100
0000
,
0000
0000
1000
0000
,
0000
0000
0001
0000
,
0000
0000
0100
0000
,
0000
0000
0001
0000
,
0000
0000
0010
0000
,
0000
0000
0100
0000
,
0000
0000
2002
0000
,
0000
0000
0000
0000
0000
0000
0000
0000
3003
0000
0000
0000
,
0000
1000
0000
0100
,
0000
1000
0000
0000
,
0000
0001
0000
0100
,
0000
0001
0000
0000
,
0000
0010
0000
0100
,
0000
0010
0000
0001
,
0000
1000
0000
0010
,
0000
0100
0000
0000
,
0000
0001
0000
1000
,
0000
0100
0000
0000
,
0000
1000
0000
0001
,
0000
0100
0000
0000
,
0000
0010
0000
1000
,
0000
0001
0000
0010
,
0000
0100
0000
1000
,
0000
0001
0000
0100
,
0100
0100
0000
0100
,
0100
0100
0000
0010
,
0010
0010
0000
0010
,
0010
0010
0000
0110
,
0000
1000
0000
0110
,
0000
0001
0000
1001
,
0000
0110
0000
1000
,
0001
1000
0001
0020
,
0000
0000
0000
0000
,
0000
0000
0030
0200
,
0000
0000
0000
0000
,
0000
0000
0300
2000
,
0000
0000
0000
0000
,
0000
0000
3000
0002
,
0000
0000
0000
0000
,
0000
0000
0000
0000
0000
0000
0000
0000
0003
0000
0000
0000
;

//--------------- dance-single - forcednature ----------------
#NOTEDATA:;
#STEPSTYPE:dance-single;
#DESCRIPTION:forcednature;
#DIFFICULTY:Easy;
#METER:10;
#RADARVALUES:0,0,0,0,0;
#CREDIT:forcednature;
#NOTES:
0000
0000
0000
0000
,
0000
0000
0000
1000
,
0001
0000
0001
0100
,
0001
0000
0001
0010
,
0100
0000
0000
0000
0000
0100
0000
0000
0000
0000
0000
0000
1000
0000
0000
0000
,
1000
0000
0000
0001
,
0100
0000
0001
1000
,
0100
0000
1000
0001
,
0010
0001
1000
0001
,
0100
0001
1000
0100
,
0010
0000
0100
0000
0010
0000
0001
1000
,
0001
0000
1000
0001
1000
0000
2002
0000
,
0000
0000
0000
0000
,
0000
0000
0000
0000
,
0000
0000
0000
3003
,
0002
0203
0320
2030
,
0000
3002
2003
3200
,
0000
0320
0000
0032
,
0000
2003
0000
3010
,
0000
0200
0000
0302
,
0000
2003
0000
3200
,
0000
0000
0000
0320
,
0000
0032
0000
2003
,
0000
0001
0000
3020
,
0000
1000
0000
0230
,
0000
0010
0000
0302
,
0000
2003
0000
3100
,
1000
0100
0010
0000
,
0100
1000
0100
0010
,
0001
0100
0001
0000
,
0010
0100
0100
1000
,
0001
0000
0100
0001
0100
0000
0001
0000
,
1000
0000
0100
1000
0100
0000
0010
0000
,
0001
0000
0100
0010
0100
0000
0001
1000
,
0001
0000
0010
0100
1000
0000
0000
1001
,
0000
0000
0110
0000
0000
2000
0000
0000
,
0000
0000
0000
3200
0000
0000
0000
0000
,
0000
0320
0000
0000
0000
0000
0000
0000
,
0000
0032
0000
0000
,
0203
0000
0000
0320
,
0000
0030
2002
0000
,
0000
0000
0000
0000
,
0000
3003
0220
0000
,
0000
0000
0000
0000
,
0000
0330
0001
0100
,
0001
0000
1000
0100
,
1000
0000
0010
0100
,
0010
0100
0001
1000
,
0001
0000
1000
1001
,
0010
1001
0001
1001
,
0100
0010
0001
1001
,
0010
1001
1000
1001
,
0100
0010
1000
0110
,
0001
0110
0010
0110
,
1000
0000
0000
0001
0000
0000
0100
0000
0010
0100
0000
0010
,
0100
0000
0000
1001
0000
0000
1000
0000
0100
0000
0010
0000
,
0001
0000
0100
0000
0010
0000
2002
0000
0000
0000
0000
0000
,
0000
0000
0000
0000
0000
0000
0000
0000
3003
1000
0000
0000
,
0100
0000
1000
0001
0010
0000
0001
0000
,
0100
0000
0001
1000
0010
0000
0100
0000
,
0001
0000
0100
0001
0010
0000
0100
0000
,
1000
0000
0100
1000
0010
0000
0100
0000
,
0010
0000
1000
0001
0010
0000
0100
0000
,
0010
0000
0001
1000
0010
0000
0100
0001
,
1000
0000
0100
1000
0001
0000
0100
0010
,
0100
0010
0100
0000
0010
0000
1000
0000
,
0001
0000
0010
0100
1000
0000
0001
0000
,
1000
0000
0010
0100
0001
0000
1000
0000
,
0100
0000
0010
0001
1000
0000
0001
0000
,
0100
0000
0010
1000
0001
0000
0010
0000
,
0100
0000
1000
0010
0100
0000
0010
0000
,
0100
0000
0001
0010
0100
0000
1000
0010
,
1000
0000
0001
0010
0001
0000
0100
0010
,
0100
0000
0000
0010
0000
0000
0100
0000
0000
0000
0000
0000
0010
0000
0000
0000
0000
0000
1000
0000
0000
0000
1000
0000
,
0000
1000
0000
0001
0000
0001
0000
0001
0000
0100
0000
0010
,
0000
0100
0000
0010
0000
0100
0000
0010
0000
1000
0000
1000
,
0000
1000
0000
0001
0000
0001
0000
0001
0000
0010
0000
0100
,
0000
0010
0000
0200
0000
0000
0300
0000
0000
1001
0000
0000
,
1000
0000
0010
0100
0010
0000
1001
0000
,
0001
0000
0010
0100
0010
0000
1001
0000
,
0100
0000
1001
0000
0010
0000
0001
1000
,
0001
1000
0010
0100
0010
0000
1002
0000
,
0000
0100
0000
1000
,
0000
0100
0003
2000
,
0000
0100
0000
0001
,
0000
0100
3000
0002
,
0000
0010
0000
1000
,
0000
0010
0003
2000
,
0000
0010
0000
0001
,
0000
0000
0000
0010
0000
0000
0000
0000
3000
0000
0000
0000
;

//--------------- dance-single - forcednature ----------------
#NOTEDATA:;
#STEPSTYPE:dance-single;
#DESCRIPTION:forcednature;
#DIFFICULTY:Medium;
#METER:14;
#RADARVALUES:0,0,0,0,0;
#CREDIT:forcednature;
#NOTES:
0000
0000
0000
0000
,
0000
0000
0000
0000
0000
0000
1000
0100
,
1000
0000
1000
0001
0010
0000
0001
0000
,
0101
0000
0001
1000
0010
0000
0100
0010
,
0100
0000
0000
0000
0000
0010
0000
0000
0100
0000
0010
0000
1000
0000
0000
0000
,
1000
0000
0001
0010
0100
0000
0010
0001
,
0010
0000
0001
1000
0010
0000
1000
0010
,
1000
0000
0010
0100
0001
0000
0010
0100
,
1000
0000
0010
0100
0001
0000
0010
0100
,
1000
0000
0010
0100
0001
0000
1000
0001
,
1000
0001
1000
0001
1000
0001
0100
0010
,
0100
0010
0100
0010
0100
0000
2002
0000
,
0000
0000
0000
0000
,
0000
0000
0000
0000
,
0000
0000
0000
3003
,
0002
0203
0320
2030
,
0000
3200
0320
0032
,
0000
0203
0000
0320
,
0000
2030
0000
3001
,
0000
0010
0001
0100
,
0001
1000
0010
1000
,
0000
0100
1000
0001
,
0000
0010
0000
0100
,
1000
0000
0100
1000
0100
0000
1000
0000
,
0010
0000
1000
0010
1000
0000
0010
0100
,
0010
0000
0100
0001
0100
0000
0001
0010
,
0100
0010
0001
0100
0010
0000
1000
0100
,
1000
0001
0010
0001
1000
0000
0010
0100
,
0001
0010
0100
1000
0010
0000
0100
0001
,
1000
0010
1000
0001
0010
0000
0100
1000
,
0001
0000
0010
0010
0010
0000
0100
1000
,
0001
0000
0100
0010
0100
0010
1000
0001
,
0100
0000
0010
1000
0001
0010
0100
1000
,
0001
0001
0100
0000
0010
1000
0002
0000
,
0013
0100
1000
0001
0100
0010
0000
1001
,
0000
0000
0000
0000
0000
0000
0110
0000
0000
0000
0000
0001
0000
1000
0000
0002
0000
0000
0000
0000
0000
0000
0000
0000
,
0000
0000
0000
0023
0000
0000
0000
0000
,
0000
0230
0000
0000
0000
0000
0000
0000
,
0000
2300
0000
0000
,
3020
0000
0000
0230
,
0000
0300
2002
0000
,
0000
0000
0000
0000
,
0000
3003
0220
0000
,
0000
0000
0000
0000
,
0000
0330
1000
1000
,
0100
0100
1000
0010
,
0010
0000
0000
1000
0000
0000
0001
0000
0100
0001
0000
0000
,
1000
0000
0100
1000
0000
0000
0010
0000
0100
0010
0000
0100
,
0010
0000
1000
1100
,
0001
0101
1000
1010
,
0001
0000
0010
0001
0000
0010
0100
0000
0000
1100
0000
0000
,
0010
0011
0100
1100
,
1000
0000
0010
0100
0000
0001
0100
0000
0100
0001
0000
0000
,
0010
0000
0000
0100
0010
0100
0010
0000
0001
1000
0000
1000
,
0010
0000
0000
0110
0000
0000
0100
0000
0001
1000
0000
0001
,
1000
0000
0000
1001
0000
0000
0001
0000
0001
0100
0000
0100
,
0010
1000
0010
1000
0000
0000
2002
0000
0000
0000
0000
0000
,
0000
0000
0000
0000
0000
0000
0000
0000
3003
1000
0000
0100
,
1000
0000
0000
0001
0000
0100
0001
0000
0000
0010
0000
0100
,
1000
0000
0100
0010
0000
0001
1000
0000
0000
0001
0000
0010
,
0001
0000
0000
1000
0000
0010
1000
0000
0000
0100
0000
0010
,
0001
0000
0010
0100
0000
1000
0001
0000
0000
0100
0000
0010
,
1000
0000
0000
0100
0000
0010
0001
0000
0000
1000
0000
0010
,
0100
0000
0001
0100
0000
0010
1000
0000
0000
0001
0010
0100
,
0010
0000
0000
0100
0010
0100
1000
0000
0000
0001
0100
0001
,
0100
0000
0100
0010
1000
0010
1000
0000
0000
0001
0000
0100
,
0010
0000
0000
1000
0000
0100
0010
0000
0000
0001
0000
1000
,
0010
0000
0100
0010
0000
1000
0001
0000
0000
0010
0000
0100
,
1000
0000
0000
0010
0000
0100
0001
0000
0000
1000
0000
0100
,
0010
0000
0001
1000
0000
0100
0010
0000
0000
0001
0000
0100
,
0010
0000
0000
1000
0000
0100
0010
0000
0000
0001
0000
1000
,
0010
0000
0100
0001
0000
1000
0010
0000
0000
0100
1000
0001
,
1000
0000
0000
0001
0100
0010
0100
0000
0000
0001
0010
0001
,
0010
0000
0010
0100
1000
0100
1000
0000
0000
0001
0010
0001
,
0010
0001
0000
1000
0010
1000
0010
1000
0000
0100
0000
0010
,
0100
0000
0010
0100
0000
0010
0100
0000
0000
1000
0100
1000
,
0100
1000
0000
0001
0100
0001
0100
0001
0000
0010
0000
0100
,
0010
0000
0100
0020
0000
0000
0031
1000
0001
1000
0000
1000
,
0010
0000
0010
0100
0000
0100
0001
0000
0001
0010
0000
0010
,
0100
0000
0100
1000
0000
1000
0001
0000
0000
0100
0010
0100
,
0001
1000
0000
0100
0010
0100
1000
0001
0000
0010
0100
0010
,
0100
1000
0100
1000
0001
1000
0001
0100
0001
0200
0000
0000
,
0320
2030
3020
0230
,
0302
2003
3002
0023
,
0230
0320
0032
2003
,
3200
2300
3002
0203
,
0320
2030
3020
0230
,
0302
2003
3002
0023
,
0230
2300
3200
0320
,
0032
0000
0000
2003
0000
0000
3002
0000
0003
0000
0000
0000
;

//--------------- dance-single - forcednature ----------------
#NOTEDATA:;
#STEPSTYPE:dance-single;
#DESCRIPTION:forcednature;
#DIFFICULTY:Hard;
#METER:17;
#RADARVALUES:0,0,0,0,0;
#CREDIT:forcednature;
#NOTES:
0000
0000
0000
0000
,
0000
0000
0000
0000
0000
0000
1000
1000
,
0001
0000
0000
0100
0000
0100
0001
0000
0010
0000
0000
0000
0001
0000
0001
0000
,
1000
0000
0000
0100
0000
0100
1000
0000
0010
0000
0000
0000
1000
0000
1000
0000
,
0001
0000
0000
0100
0000
0100
0001
0000
0001
0000
0010
0000
0100
0000
0001
0100
,
1000
0000
0000
0001
0100
0001
0010
0001
0100
0001
0010
0001
0100
0000
0110
0000
,
0010
0000
0000
1000
0000
1000
0100
0000
0010
0000
0000
0000
0100
0000
0110
0000
,
0010
0000
0000
0001
0000
0001
0100
0000
0010
0000
0000
0000
1000
0000
1100
0000
,
0001
0000
0001
0101
1000
0000
1000
1010
,
0001
0000
0001
0011
1000
0000
1000
1100
,
0001
0000
0101
0000
1000
0000
1010
0000
0001
0000
0011
0000
1000
0001
1000
0001
,
1000
0001
1000
0001
1000
0001
1000
0001
1000
0001
1000
0001
0020
0000
0000
0000
,
0000
0000
0000
0000
,
0000
0000
0000
0000
,
0000
0000
0000
0030
,
0200
2300
3002
0203
,
0000
0320
2030
3002
,
0000
0023
0000
0230
,
0000
2300
0000
3001
,
0000
0000
0100
0010
1000
0000
0001
1000
,
0100
0000
0010
0001
1000
0000
0010
0100
,
0001
0100
0010
0100
0001
0000
1000
0100
,
0010
0000
0001
0010
0100
0000
1000
0001
,
0100
0000
0000
0010
0000
1000
0001
0000
0010
0000
0000
0100
1000
0000
0001
0100
,
0001
0000
0000
0010
0000
0100
1000
0000
0001
0100
0010
0000
1000
0000
0001
1000
,
0100
0000
0010
0000
0000
0000
0010
0000
0001
0000
0001
0000
0100
0000
0010
1000
,
0001
0000
0010
0000
0100
1000
0001
0000
0100
0000
0000
0000
0010
0000
1000
0001
,
0010
0000
0100
1000
0100
0000
0010
0100
0010
0000
0001
0000
1000
0000
0001
0100
,
0010
0000
1000
0001
1000
0000
0001
0010
0001
0000
0100
0000
0010
0000
1000
0100
,
0010
0001
1000
0100
0010
0000
0001
1000
0001
0000
0100
0000
0010
0000
0010
1000
,
0100
0000
0100
0000
1000
0001
0100
0001
0010
0000
0100
1000
0001
0000
0001
0100
,
0010
0000
1000
0001
1000
0100
0010
0001
1000
0100
0010
0001
0100
0000
0100
0010
,
1000
0000
0001
1000
0001
0100
0010
1000
0001
0000
0010
0100
1000
0000
1000
0001
,
1000
0100
0001
0100
0010
0100
1000
0100
0010
0000
0001
1000
0001
0100
0001
0000
,
1000
0010
0100
0001
1000
0000
0001
0010
0100
1000
0001
1000
0000
0010
0010
0000
,
0100
0000
0000
0001
0000
0000
0000
0000
0000
0100
0000
0000
0020
0000
0000
0000
0000
0000
1030
0000
0000
0000
0001
0000
0000
0000
1000
0000
0000
0000
0200
0000
0000
0000
0000
0000
0000
0000
0000
0000
0000
0000
0000
0000
0000
0000
0000
0000
,
0000
0000
0000
0320
0000
0000
0000
0000
,
0000
0032
0000
0000
0000
0000
0000
0000
,
0000
0203
0000
0000
,
0320
0000
0000
2030
,
0000
3000
1002
0000
,
0000
0000
0000
0000
,
0000
0000
0203
0000
,
0000
0000
0000
0000
,
0000
0000
0000
0000
0000
0000
0310
0000
0010
1000
0000
1000
,
0010
0000
0010
1000
0000
1000
0001
0000
0001
0010
0000
0010
,
0001
0000
0001
0010
0000
0010
0100
1000
0100
0010
0000
0010
,
0001
0000
0001
0100
0000
0100
0010
1000
0010
0100
0001
0100
,
0001
0010
0001
0100
0010
0100
0001
0000
0001
1000
0001
0100
,
0010
0000
1000
0001
0010
0001
1000
0000
0010
0100
0001
1000
,
0001
0010
0100
1000
0100
0010
0001
0000
1000
0010
0100
0001
,
1000
0000
0100
1000
0001
0100
0010
0000
1000
0001
0010
0001
,
0100
0010
1000
0100
0010
0001
0100
0000
0100
0001
1000
0010
,
1000
0000
0001
0100
1000
0100
0001
0000
1000
0001
0010
1000
,
0010
0100
1000
0001
0100
0010
1000
0000
0100
0001
0000
0100
,
1000
0000
0001
0100
0000
0010
1000
0001
1000
0100
0010
0001
,
0100
0000
0010
0000
1000
0000
0100
0000
0010
0000
0001
0000
0200
0000
0000
0320
0000
0000
2030
0000
0000
3002
0000
0000
,
0023
0000
0000
0000
0000
0000
0200
0000
0000
0030
0000
0000
2000
0000
0000
0000
3300
0000
0001
0000
0100
0000
0010
0000
,
1000
0001
1000
0100
0010
0001
0100
0010
1000
0001
0010
0001
,
0100
0010
1000
0001
0100
0001
1000
0100
1000
0001
1000
0010
,
0100
0001
1000
0010
1000
0100
0010
0001
0100
0010
1000
0001
,
0010
0001
1000
0100
0001
0100
1000
0001
0010
0100
1000
0001
,
0100
0010
1000
0001
0010
0001
1000
0010
0100
0001
1000
0100
,
0010
0001
0100
0010
0001
0010
1000
0100
1000
0001
0010
0001
,
0100
0010
1000
0100
1000
0010
0100
0001
0010
0001
0100
1000
,
0100
0001
1000
0100
0010
0001
1000
0010
1000
0100
0010
0001
,
1000
0001
0100
0010
1000
0001
1000
0100
0010
0001
0100
0010
,
0100
0001
0010
0100
1000
0001
0100
0001
1000
0010
0100
0001
,
0100
0010
1000
0001
0010
0100
1000
0100
0010
0001
1000
0010
,
1000
0001
0100
0010
0001
0010
1000
0001
1000
0100
0010
0100
,
1000
0001
0100
0010
1000
0001
0010
0001
0100
0010
1000
0100
,
0010
0001
1000
0100
0001
0100
1000
0001
0100
0010
1000
0100
,
1000
0010
0100
0001
0010
0001
0100
0010
1000
0001
0100
1000
,
0100
0001
0010
0100
0001
0100
1000
0010
1000
0001
0100
1000
,
0100
0001
0000
1000
0100
0001
0100
1000
0000
0001
0010
0100
,
0001
0100
0010
0001
0100
0010
0001
0010
0100
1000
0100
0001
,
0100
0010
0000
1000
0100
0001
0100
0010
0000
0100
1000
0010
,
0100
1000
0100
0001
1000
0010
0100
0100
0100
1000
0100
0001
,
1000
0100
0001
0100
0010
0001
1000
0001
0100
0010
0001
0010
,
1000
0000
0001
0000
0010
0000
1000
0000
0010
0000
0100
0000
1000
0000
0001
0000
0100
0000
0010
1000
0010
0000
1000
0000
,
0100
0000
1000
0000
0001
0000
0010
0001
0010
0000
0001
0000
0100
0000
0001
0000
1000
0000
0100
1000
0100
0000
1000
0000
,
0001
0100
0001
0000
0100
0000
0010
1000
0010
0000
1000
0000
0001
0010
0001
0000
0010
0000
0200
0000
0000
0000
0000
0000
,
2300
3020
2030
3002
,
0023
0032
0203
0320
,
2030
3200
0320
0032
,
0203
0320
2030
3200
,
0320
0230
2300
3002
,
0203
0320
0230
0302
,
0023
0230
0320
0032
,
2003
0000
0000
3020
0000
0000
2030
0000
3000
0000
0000
0000
;

//--------------- dance-double - forcednature ----------------
#NOTEDATA:;
#STEPSTYPE:dance-double;
#DESCRIPTION:forcednature;
#DIFFICULTY:Easy;
#METER:10;
#RADARVALUES:0,0,0,0,0;
#CREDIT:forcednature;
#NOTES:
00000000
00000000
00000000
00000000
,
00000000
00000000
00000000
00001000
,
00010000
00000000
00010000
00000100
,
00010000
00000000
00010000
00000010
,
00001000
00000000
00000000
00000000
00000000
00001000
00000000
00000000
00000000
00000000
00000000
00000000
00000001
00000000
00000000
00000000
,
00000001
00000000
00000000
00000010
,
00000100
00000000
00000010
00000100
,
00010000
00000000
00001000
00100000
,
00010000
10000000
00010000
01000000
,
00001000
00010000
00000100
00001000
,
00000100
00000000
00010000
00000000
00001000
00000000
00010000
00001000
,
00010000
00000000
00001000
00010000
00001000
00000000
00022000
00000000
,
00000000
00000000
00000000
00000000
,
00000000
00000000
00000000
00000000
,
00000000
00000000
00000000
00033000
,
00020000
00032000
02003000
03020000
,
00000000
20030000
32000000
03200000
,
00000000
00302000
00000000
00023000
,
00000000
00030200
00000000
00001300
,
00000000
00000002
00000000
00000203
,
00000300
00002000
00000000
00023000
,
00000000
00000000
00000000
00230000
,
00000000
20300000
00000000
30020000
,
00000000
00100000
00000000
02030000
,
00000000
00010000
00000000
03002000
,
00000000
00010000
00000000
00203000
,
00000000
00320000
00000000
01030000
,
00010000
01000000
00001000
00000000
,
00010000
00000100
00001000
00000100
,
00010000
00001000
00010000
00000000
,
00000010
00001000
00001000
00000001
,
00000010
00000000
00000100
00000010
00000100
00000000
00001000
00000000
,
00000100
00000000
00010000
00001000
00010000
00000000
00001000
00000000
,
01000000
00000000
00010000
01000000
00010000
00000000
10000000
01000000
,
10000000
00000000
00100000
01000000
00100000
00000000
00000000
10010000
,
00000000
00000000
01100000
00000000
00000000
20000000
00000000
00000000
,
00000000
00000000
00000000
32000000
00000000
00000000
00000000
00000000
,
00000000
03020000
00000000
00000000
00000000
00000000
00000000
00000000
,
00000000
00032000
00000000
00000000
,
00003200
00000000
00000000
00000302
,
00000000
00000003
00002002
00000000
,
00000000
00000000
00000000
00000000
,
00000000
00003003
00000220
00000000
,
00000000
00000000
00000000
00000000
,
00000000
00000330
00000001
00000100
,
00000001
00000000
00001000
00000100
,
00001000
00000000
00000010
00010000
,
00001000
01000000
00001000
00010000
,
00001000
00000000
00100000
10010000
,
01000000
10010000
10000000
01000000
,
00010000
00001000
00100000
00011000
,
00000010
00011000
00010000
00000100
,
00001000
00000001
00000100
00001001
,
00000010
00001001
00000001
00000100
,
00001000
00010000
00000010
00011000
,
00100000
00011000
00001000
00010000
,
01000000
10000000
20020000
00000000
,
00000000
00000000
00000000
00000000
00000000
00000000
00000000
00000000
30030000
10000000
00000000
00000000
,
01000000
00000000
10000000
00010000
00100000
00000000
00001000
00000000
,
00010000
00000000
00000010
00001000
00000001
00000000
00000010
00000000
,
00000100
00000000
00001000
00000100
00010000
00000000
00001000
00000000
,
01000000
00000000
00010000
01000000
00001000
00000000
00100000
00000000
,
00010000
00000000
10000000
00100000
01000000
00000000
00010000
00000000
,
01000000
00000000
00001000
00010000
00000010
00000000
00001000
00000010
,
00010000
00000000
00001000
00010000
00000100
00000000
00000010
00000100
,
00000010
00000110
00001001
00001000
,
00000100
00000000
00010000
00001000
00100000
00000000
00010000
00000000
,
01000000
00000000
00001000
00010000
00000010
00000000
00001000
00000000
,
00000001
00000000
00000010
00000100
00001000
00000000
00000100
00000000
,
00010000
00000000
00001000
00100000
00010000
00000000
10000000
00000000
,
00100000
00000000
01000000
00010000
10000000
00000000
01000000
00000000
,
00010000
00000000
00001000
00100000
00010000
00000000
01000000
00010000
,
01000000
00000000
00001000
00010000
00001000
00000000
00010000
00000100
,
00010000
00000000
00000000
00000100
00000000
00000000
00001000
00000000
00000000
00000001
00000000
00000001
,
00000000
00000001
00000000
00000100
00000000
00000100
00000000
00000100
00000000
00001000
00000000
00000000
,
00011000
00000000
00000000
00010000
00000000
00000000
00011000
00000000
00000000
01000000
00000000
01000000
,
00000000
01000000
00000000
00010000
00000000
00010000
00000000
00010000
00000000
00100000
00000000
00000000
,
01100000
02000000
03000000
10010000
,
10000000
00000000
01000000
00100000
00010000
00000000
01000000
00000000
,
00001000
00000000
00010000
00000010
00001000
00000000
00001001
00000000
,
00000100
00000000
00001001
00000000
00000010
00000000
00000001
00000100
,
00000010
00000000
00001000
00000100
00010000
00000000
00002000
00000000
,
00000000
01000000
00000000
00010000
,
00000000
00103000
00000000
00021000
,
00000000
00000100
00000000
00001000
,
00000000
00030010
00000000
00012000
,
00000000
00100000
00000000
00010000
,
00000000
01003000
00000000
00021000
,
00000000
00000010
00000000
00001000
,
00000000
00000000
00000000
00000100
00000000
00000000
00000000
00000000
00030000
00000000
00000000
00000000
;

//--------------- dance-double - forcednature ----------------
#NOTEDATA:;
#STEPSTYPE:dance-double;
#DESCRIPTION:forcednature;
#DIFFICULTY:Medium;
#METER:14;
#RADARVALUES:0,0,0,0,0;
#CREDIT:forcednature;
#NOTES:
00000000
00000000
00000000
00000000
,
00000000
00000000
00000000
00000000
00000000
00000000
00001000
00010000
,
00000100
00000000
00001000
00000000
00000010
00000000
00010000
00001000
,
01000000
00000000
00010000
00000000
00100000
00000000
00001000
00010000
,
00000100
00000000
00000000
00000000
00000000
00001000
00000000
00000000
00000100
00000000
00010000
00000000
00001000
00000000
00000000
00000000
,
00001000
00000000
01000000
00001000
00010000
00000000
00100000
10000000
,
01000000
00000000
00010000
00000000
00001000
00000000
00000010
00000001
,
00000100
00000000
00001000
00000000
00010000
00000000
00000010
00010000
,
00001000
00000000
00100000
00001000
00010000
00000000
00000100
00010000
,
00001000
00000000
01000000
00001000
00010000
00000000
01000000
00100000
,
01000000
00100000
01000000
00100000
01000000
00100000
00001000
00010000
,
00001000
00010000
00000100
00000010
00000100
00000010
00002002
00000000
,
00000000
00000000
00000000
00000000
,
00000000
00000000
00000000
00000000
,
00000000
00000000
00000000
00003003
,
00000002
00000203
00002300
00023000
,
00000000
00230000
20300000
30020000
,
00000000
00230000
00000000
02300000
,
00000000
03020000
00000000
00031000
,
00000000
00000010
00000100
00010000
,
00000010
00001000
00000001
00000010
,
00000000
00000100
00010000
00001000
,
00000000
01000000
00000000
00010000
,
00100000
00000000
01000000
00100000
01000000
00000000
10000000
00000000
,
00100000
00000000
01000000
00100000
01000000
00000000
00010000
01000000
,
00010000
00000000
01000000
00001000
00010000
00000000
00000100
00001000
,
00000010
00010000
00000010
00001000
00000100
00000000
00000010
00001000
,
00010000
00000100
00010000
00001000
00100000
00000000
00001000
00010000
,
00100000
01000000
00010000
10000000
00100000
00000000
10000000
01000000
,
00010000
00001000
00100000
00010000
00100000
00000000
00001000
00010000
,
00000010
00000000
00000100
00000100
00000100
00000000
00000001
00000010
,
00001000
00000000
00010000
00001000
00010000
00001000
00010000
00100000
,
10000000
00000000
01000000
10000000
00100000
10000000
01000000
00010000
,
00001000
00001000
00100000
00000000
00001000
00010000
00000020
00000000
,
00010030
00001000
00000010
00000100
00001000
00000010
00000000
00000110
,
00000000
00000000
00000000
00000100
00000000
00000000
00001001
00000000
00000000
00000000
00000000
00000001
00000000
00001000
00000000
00000020
00000000
00000000
00000000
00000000
00000000
00000000
00000000
00000000
,
00000000
00000000
00000000
00020030
00000000
00000000
00000000
00000000
,
00000000
00032000
00000000
00000000
00000000
00000000
00000000
00000000
,
00000000
02003000
00000000
00000000
,
03020000
00000000
00000000
20030000
,
00000000
30000000
20020000
00000000
,
00000000
00000000
00000000
00000000
,
00000000
30030000
02200000
00000000
,
00000000
00000000
00000000
00000000
,
00000000
03300000
10000000
10000000
,
01000000
01000000
00010000
00001000
,
00010000
00000000
00000000
00001000
00000000
00000000
00000010
00000000
00000100
00000010
00000000
00000000
,
00000100
00000000
00000010
00000100
00000000
00000000
00001000
00000000
00000001
00001000
00000000
00000001
,
00002000
00003000
00000010
00001010
,
00010000
00011000
00000100
00001100
,
00010000
00000000
00001000
00010000
00000000
00001000
01000000
00000000
00000000
01010000
00000000
00000000
,
00001000
00011000
00100000
00110000
,
00001000
00000000
00010000
00001000
00000000
00010000
00000100
00000000
00001000
00000100
00000000
00000000
,
00010000
00000000
00000000
00001000
01000000
00001000
01000000
00000000
00010000
10000000
00000000
10000000
,
00100000
00000000
00000000
01100000
00000000
00000000
01000000
00000000
00010000
01000000
00000000
00001000
,
00010000
00000000
00000000
00011000
00000000
00000000
00000100
00000000
00000100
00001000
00000000
00001000
,
00000001
00000100
00000001
00000100
00000000
00000000
00000220
00000000
00000000
00000000
00000000
00000000
,
00000000
00000000
00000000
00000000
00000000
00000000
00000000
00000000
00000330
00000001
00000000
00001000
,
00000010
00000000
00000000
00001000
00000000
00000001
00000010
00000000
00000000
00000100
00000000
00001000
,
00000100
00000000
00010000
00001000
00000000
00100000
00010000
00000000
00000000
10000000
00000000
00100000
,
01000000
00000000
00000000
00010000
00000000
00100000
01000000
00000000
00000000
00100000
00000000
00001000
,
00010000
00000000
00001000
01000000
00000000
00010000
01000000
00000000
00000000
00001000
00000000
00010000
,
00000010
00000000
00000000
00001000
00000000
00000010
00010000
00000000
00000000
00001000
00000000
00000010
,
00000100
00000000
00001000
00000100
00000000
00000010
00000001
00000000
00000000
00001000
00000010
00010000
,
00001000
00000000
00000000
00100000
00010000
00100000
00001000
00000000
00000000
00010000
00000100
00001000
,
00000100
00000000
00000100
00010000
00001000
00010000
00001000
00000000
00000000
01000000
00000000
00010000
,
00100000
00000000
00000000
01000000
00000000
10000000
00100000
00000000
00000000
10000000
00000000
01000000
,
00100000
00000000
00010000
00100000
00000000
00001000
00010000
00000000
00000000
00000010
00000000
00001000
,
00000100
00000000
00000000
00000010
00000000
00000001
00000100
00000000
00000000
00000010
00000000
00001000
,
00000001
00000000
00000010
00000100
00000000
00001000
00000100
00000000
00000000
00010000
00000000
00001000
,
01000000
00000000
00000000
00001000
00000000
00010000
00000100
00000000
00000000
00010000
00000000
00001000
,
00100000
00000000
00010000
01000000
00000000
00001000
00100000
00000000
00000000
00010000
01000000
00010000
,
10000000
00000000
00000000
00100000
10000000
00010000
10000000
00000000
00000000
01000000
00010000
01000000
,
00010000
00000000
00010000
00001000
00010000
00001000
00010000
00000000
00000000
00000100
00001000
00000100
,
00010000
00001000
00000000
01000000
00010000
01000000
00001000
00010000
00000000
00000010
00000000
00001000
,
00000010
00000000
00001000
00000010
00000000
00001000
00000010
00000000
00000000
00010000
00001000
00100000
,
00010000
00100000
00000000
00001000
00010000
00000010
00001000
00000010
00000000
00010000
00000000
00001000
,
00010000
00000000
00001000
00020000
00000000
00000000
00031000
01000000
00010000
01000000
00000000
01000000
,
00100000
00000000
00100000
10000000
00000000
10000000
01000000
00000000
01000000
00010000
00000000
00010000
,
00001000
00000000
00001000
00000100
00000000
00000100
00000001
00000000
00000000
00000010
00000100
00001000
,
00000100
00010000
00000000
00001000
01000000
00010000
01000000
00100000
00000000
10000000
00010000
10000000
,
00010000
00100000
00010000
00100000
00001000
00100000
00001000
00010000
00001000
00020000
00000000
00000000
,
00030020
00002030
00003020
00020030
,
00030200
00002300
00003200
00020300
,
00032000
02003000
03020000
00230000
,
02300000
23000000
32000000
03020000
,
00032000
00003200
00000302
00000023
,
00000230
00020300
00030020
00002030
,
00003200
00020300
00032000
02003000
,
03020000
00000000
00000000
00230000
00000000
00000000
02300000
00000000
03000000
00000000
00000000
00000000
;

//--------------- dance-double - forcednature ----------------
#NOTEDATA:;
#STEPSTYPE:dance-double;
#DESCRIPTION:forcednature;
#DIFFICULTY:Hard;
#METER:17;
#RADARVALUES:0,0,0,0,0;
#CREDIT:forcednature;
#NOTES:
00000000
00000000
00000000
00000000
,
00000000
00000000
00000000
00000000
00000000
00000000
00001000
00010000
,
00001000
00000000
00000000
01000000
00000000
00010000
01000000
00000000
00100000
00000000
00000000
00000000
00010000
00000000
00001000
00000000
,
00010000
00000000
00000000
00000100
00000000
00001000
00000100
00000000
00000010
00000000
00000000
00000000
00001000
00000000
00010000
00000000
,
00001000
00000000
00000000
00100000
00000000
00010000
00100000
00000000
01000000
00000000
00010000
00000000
00001000
00000000
00010000
00000100
,
00001000
00000000
00000000
00000001
00000010
00000001
00001000
00000001
00000010
00000001
00001000
00000001
00000100
00000000
00001000
00000000
,
00010000
00000000
00000000
00100000
00000000
10000000
01000000
00000000
10000000
00000000
00000000
00000000
01000000
00000000
00010000
00000000
,
00001000
00000000
00000000
00000010
00000000
00000001
00000100
00000000
00000001
00000000
00000000
00000000
00000100
00000000
00001000
00000000
,
00010000
00000000
01000000
00010000
00001000
00000000
00000010
00001000
,
00010000
00000000
00100000
00010000
00001000
00000000
01000000
01010000
,
00001000
00000000
00011000
00000000
00000100
00000000
00001100
00000000
00010000
00000000
00011000
00000000
00001000
00010000
00001000
00010000
,
00001000
00010000
00001000
00010000
00001000
00010000
00001000
00010000
00001000
00010000
00001000
00010000
00200000
00000000
00000000
00000000
,
00000000
00000000
00000000
00000000
,
00000000
00000000
00000000
00000000
,
00000000
00000000
00000000
00300000
,
20000000
32000000
03020000
00032000
,
00000000
00003020
00000032
00000203
,
00000000
00002300
00000000
00023000
,
00000000
00230000
00000000
10300000
,
00000000
00000000
01000000
00010000
00001000
00000000
00100000
00001000
,
00010000
00000000
00000010
00000100
00001000
00000000
00000100
00000001
,
00000010
00001000
00000010
00000001
00000100
00000000
00001000
00010000
,
00100000
00000000
00010000
00001000
00000010
00000000
00001000
00010000
,
01000000
00000000
00000000
10000000
00000000
00100000
10000000
00000000
01000000
00000000
00000000
01000000
00010000
00000000
00001000
00010000
,
00001000
00000000
00000010
00000000
00000001
00000000
00000100
00000000
00000001
00001000
00000020
00000000
00000230
00000000
00001300
00000000
,
00010000
00000000
00100000
00000000
00000000
00000000
00100000
00000000
10000000
00000000
10000000
00000000
01000000
00000000
00000000
01000000
,
00010000
00000000
00001000
00000000
00000000
00001000
00010000
00000000
01000000
00000000
00000000
00000000
00100000
00000000
00010000
00100000
,
00010000
00000000
00100000
00001000
00010000
00000000
00001000
00010000
00000100
00000000
00001000
00000000
00000010
00000000
00001000
00000010
,
00010000
00000000
00001000
00010000
00001000
00000000
00010000
00001000
01000000
00000000
00010000
00000000
10000000
00000000
01000000
10000000
,
00010000
00100000
00010000
10000000
01000000
00000000
00100000
01000000
00100000
00000000
00010000
00000000
00100000
00000000
00001000
00010000
,
00001000
00000000
00010000
00001000
00010000
00000010
00001000
00000010
00010000
00000000
00001000
00000000
00010000
00000000
00000100
00001000
,
00000100
00000000
00010000
00001000
01000000
00010000
01000000
00001000
00010000
00001000
01000000
00010000
01000000
00000000
00100000
10000000
,
00100000
00000000
10000000
00010000
10000000
01000000
00100000
00010000
10000000
00000000
00010000
01000000
00001000
00000000
00001000
00010000
,
00000100
00001000
00000100
00010000
00001000
00010000
00000010
00001000
00000010
00000000
00000010
00001000
00000001
00000100
00000010
00000000
,
00001000
00000010
00010000
00001000
00010000
00000000
00001000
00100000
00010000
00100000
00001000
00010000
00000000
00100000
01000000
00000000
,
00100000
00000000
00000000
10000000
00000000
00000000
00000000
00000000
00000000
01000000
00000000
00000000
20000000
00000000
00000000
00000000
00000000
00000000
31000000
00000000
00000000
00000000
00010000
00000000
00000000
00000000
00001000
00000000
00000000
00000000
00020000
00000000
00000000
00000000
00000000
00000000
00000000
00000000
00000000
00000000
00000000
00000000
00000000
00000000
00000000
00000000
00000000
00000000
,
00000000
00000000
00000000
00032000
00000000
00000000
00000000
00000000
,
00000000
00003020
00000000
00000000
00000000
00000000
00000000
00000000
,
00000000
00000032
00000000
00000000
,
00000203
00000000
00000000
00002300
,
00000000
00003000
00021000
00000000
,
00000000
00000000
00000000
00000000
,
00000000
00000000
02030000
00000000
,
00000000
00000000
00000000
00000000
,
00000000
00000000
00000000
00000000
00000000
00000000
13000000
00000000
10000000
00100000
00000000
00100000
,
10000000
00000000
10000000
01000000
00000000
01000000
00010000
00000000
00010000
00001000
00000000
00001000
,
00000100
00000000
00010100
00000001
00000000
00000001
00000010
00000100
00001000
00000100
00000000
00000100
,
00010000
00000000
00010000
00001000
00000000
00001000
01000000
00010000
01000000
00100000
10000000
00100000
,
10000000
01000000
10000000
01000000
00010000
01000000
00010000
00000000
00010000
00001000
00010000
00000100
,
00001000
00000000
00001000
00000001
00000010
00000001
00001000
00000000
00001000
00000010
00010000
00001000
,
01000000
00010000
01000000
00001000
00010000
00001000
00100000
00000000
00100000
00010000
10000000
00100000
,
01000000
00000000
01000000
00010000
01000000
00001000
00010000
00000000
00010000
00000100
00001000
00000100
,
00010000
00001000
00010000
00000010
00001000
00000001
00000100
00000000
00000100
00000010
00001000
00000010
,
00010000
00000000
00010000
00001000
00100000
00010000
00100000
00000000
00100000
01000000
10000000
01000000
,
00010000
00001000
00100000
00010000
00100000
00001000
00010000
00000000
00000010
00001000
00000000
00000010
,
00010000
00000000
00001000
00010000
00000000
00000100
00001000
00000001
00000100
00000001
00001000
00000010
,
00010000
00000000
00001000
00000000
01000000
00000000
00010000
00000000
10000000
00000000
00010000
00000000
00200000
00000000
00000000
02300000
00000000
00000000
23000000
00000000
00000000
32000000
00000000
00000000
,
00020000
00000000
00000000
03000000
00000000
00000000
00002000
00000000
00000000
00030000
00000000
00000000
00000020
00000000
00000000
00000000
00003030
00000000
00000010
00000000
00000001
00000000
00001000
00000000
,
00000001
00000100
00000010
00001000
00000010
00010000
00001000
01000000
00010000
01000000
00001000
00010000
,
00001000
00100000
00010000
10000000
00100000
10000000
01000000
00010000
01000000
10000000
00010000
00100000
,
00001000
00010000
00000010
00001000
00000010
00010000
00001000
00010000
00000100
00001000
00000001
00000010
,
00000001
00001000
00000010
00000100
00001000
00010000
00001000
01000000
00010000
01000000
00100000
10000000
,
01000000
00100000
00010000
01000000
00001000
00010000
00000010
00010000
00001000
00100000
00010000
00100000
,
00001000
00010000
00001000
00100000
01000000
00010000
00001000
00100000
00010000
01000000
00010000
01000000
,
00001000
00010000
00000010
00001000
00000010
00010000
00001000
00010000
00000100
00001000
00000010
00000100
,
00001000
00010000
00100000
01000000
00010000
10000000
00010000
00100000
01000000
10000000
00010000
00100000
,
00001000
00010000
00001000
01000000
00010000
01000000
00001000
00010000
00000010
00001000
00000001
00000010
,
00000100
00000010
00000001
00000100
00001000
00010000
00001000
00000100
00000001
00001000
00000010
00001000
,
00000100
00010000
00001000
00100000
00001000
01000000
00010000
01000000
00100000
10000000
00010000
00100000
,
01000000
00100000
00001000
00010000
01000000
10000000
01000000
00010000
00001000
00100000
00010000
00100000
,
00001000
00010000
00000010
00001000
00000010
00000100
00000001
00001000
00000100
00010000
00001000
01000000
,
00010000
01000000
00001000
00100000
01000000
00010000
00001000
00100000
00010000
00100000
00001000
00010000
,
00000010
00001000
00000001
00000010
00000100
00000010
00000001
00001000
00000010
00000100
00001000
00010000
,
00001000
00010000
00100000
00010000
00100000
10000000
00100000
10000000
01000000
00010000
00001000
00000010
,
00001000
00010000
00000000
00001000
00010000
00100000
00010000
00001000
00000000
00010000
00001000
00000100
,
00001000
00010000
00000100
00010000
00001000
00000010
00000001
00000010
00001000
00010000
00001000
00000100
,
00001000
00010000
00000000
00001000
00010000
01000000
00010000
00001000
00000000
00010000
00100000
10000000
,
01000000
10000000
00100000
00020000
00000000
00000000
00031000
00010000
00001000
00000010
00000100
00010000
,
00001000
00000010
00000001
00001000
00000010
00010000
00001000
01000000
00010000
00100000
01000000
00010000
,
01000000
10000000
00100000
10000000
01000000
00100000
00010000
00100000
00001000
00010000
00000010
00000100
,
00001000
00010000
00001000
00000100
00000010
00010000
00001000
00000010
00000001
00000100
00001000
00010000
,
00100000
00010000
00001000
00010000
01000000
10000000
00100000
00010000
00001000
02000000
00000000
00000000
,
03020000
00230000
02300000
03020000
,
00032000
00203000
00320000
02030000
,
03002000
00023000
00030020
00002030
,
00003200
00000302
00000203
00002300
,
00003002
00000203
00002300
00023000
,
00230000
20300000
32000000
03020000
,
00032000
00203000
00302000
00003020
,
00000230
00000000
00000000
00020300
00000000
00000000
00030020
00000000
00000030
00000000
00000000
00000000
;
