#VERSION:0.83;
#TITLE:GLOW DOMINATE THE DARKNESS;
#SUBTITLE:;
#ARTIST:SOUND HOLIC Vs. BEMANI Sound Team "T.Kakuta" feat. Nana Takahashi;
#TITLETRANSLIT:;
#SUBTITLETRANSLIT:;
#ARTISTTRANSLIT:SOUND HOLIC Vs. T.Kakuta feat. Nana Takahashi;
#GENRE:;
#CREDIT:;
#MUSIC:GLOW DOMINATE THE DARKNESS.ogg;
#BANNER:GLOW DOMINATE THE DARKNESS.png;
#BACKGROUND:GLOW DOMINATE THE DARKNESS-bg.png;
#CDTITLE:./CDTitles/GITADORA FUZZ-UP.png;
#SAMPLESTART:49.796;
#SAMPLELENGTH:15.000;
#SELECTABLE:YES;
#OFFSET:0.000;
#BPMS:0.000=196.000;
#STOPS:;
#BGCHANGES:0.000=../BGAs/22bk.mp4=1.000=0=0=0=StretchNoLoop====,
99999.000=-nosongbg-=1.000=0=0=0=StretchNoLoop====
;
#FGCHANGES:;

//--------------- dance-single - forcednature ----------------
#NOTEDATA:;
#STEPSTYPE:dance-single;
#DESCRIPTION:forcednature;
#DIFFICULTY:Beginner;
#METER:5;
#RADARVALUES:0,0,0,0,0;
#CREDIT:forcednature;
#NOTES:
0000
0000
0000
0000
,
0000
0000
0000
0000
,
0000
0000
0000
0000
,
0000
0000
0000
0000
,
0000
0000
0000
0000
,
1000
0000
1000
0000
,
1000
0000
0000
0000
,
0001
0000
0100
0000
,
0001
0000
0000
0000
,
0010
0000
0000
0000
,
0100
0000
0000
0000
,
0010
0000
0000
0000
,
0001
0000
0000
0000
,
1000
0000
1000
0000
,
1000
0000
0000
0000
,
0001
0000
0001
0000
,
0001
0000
0000
0000
,
0100
0000
0010
0000
,
0100
0000
0000
0000
,
0001
0000
1000
0000
,
0001
0000
0000
0000
,
0010
0000
0010
0000
,
0100
0000
0100
0000
,
0010
0000
0100
0000
,
1000
0000
0000
0000
,
0001
0000
0000
0000
,
1001
0000
0000
0000
,
1000
0000
1000
0000
,
0010
0000
0000
0000
,
1000
0000
0000
0000
,
1001
0000
0000
0000
,
0001
0000
0001
0000
,
0010
0000
0000
0000
,
0100
0000
0100
0000
,
1000
0000
0000
0000
,
0010
0000
0010
0000
,
1000
0000
0000
0000
,
0001
0000
0001
0000
,
0100
0000
0100
0000
,
0001
0000
1000
0000
,
1001
0000
0000
0000
,
1000
0000
0100
0000
,
1001
0000
0000
0000
,
0001
0000
0010
0000
,
0100
1000
0100
0000
,
1000
0000
0001
0000
,
1001
0000
0000
0000
,
0001
0000
0100
0000
,
0010
1000
0010
0000
,
0100
0100
0100
0000
,
0001
0000
0000
0000
,
0010
0010
0010
0000
,
0001
0000
0000
0000
,
1000
0000
1001
0000
,
0001
0000
1001
0000
,
1000
0000
0010
0000
,
0110
0000
0000
0000
,
0001
0000
0001
0000
,
0100
0100
0100
0000
,
0001
0000
0001
0000
,
0010
0010
0010
0000
,
0100
0100
0100
0000
,
1000
1000
1000
0000
,
0010
0100
0010
0100
,
0001
1000
0001
0000
,
1000
0000
0000
0000
,
0100
0000
0000
0000
,
0010
0000
0010
0000
,
0001
0000
0000
0000
,
1000
0000
0010
0000
,
1000
0000
0001
0000
,
0100
0100
0100
0000
,
0010
0010
0010
0000
,
0110
0000
0000
0000
,
1001
0000
0000
0000
,
1000
0000
0001
0000
,
1001
0000
0000
0000
,
0110
0000
0001
0001
,
0001
1000
1000
1000
,
0000
0000
0010
0000
,
0100
0100
0001
0000
,
1001
0000
1000
0000
,
0100
0010
0100
0000
,
0010
0000
0001
0000
,
0100
0010
0100
0000
,
0001
0001
0010
0000
,
0100
0100
1000
0000
,
1001
0000
0010
0000
,
0110
0000
0000
0000
,
1000
1000
0100
0000
,
1000
0000
0010
0000
,
0001
0001
0100
0000
,
0001
0000
0010
0000
,
1001
0000
1000
0001
,
1000
0000
0010
0000
,
0110
0000
0001
0000
,
0100
0010
0100
0000
,
0001
0000
1000
0000
,
0100
1000
0100
0000
,
0110
0000
0000
1001
,
0000
0000
0000
0110
;

//--------------- dance-single - forcednature ----------------
#NOTEDATA:;
#STEPSTYPE:dance-single;
#DESCRIPTION:forcednature;
#DIFFICULTY:Easy;
#METER:10;
#RADARVALUES:0,0,0,0,0;
#CREDIT:forcednature;
#NOTES:
0000
0000
0000
0000
,
0000
0000
0000
0000
,
0000
0000
0000
0000
,
0000
0000
0000
0000
,
0000
0000
0000
0000
,
1000
0001
0100
0001
,
1000
0010
1000
0001
,
0010
0000
0010
0100
0000
0100
0010
0000
,
0110
0000
1001
0000
1000
0001
1000
0000
,
0010
0000
0100
0001
,
0100
0010
1000
0000
,
0100
0000
0010
0100
,
1000
0001
0010
1001
,
0000
0001
0100
1000
,
0100
0001
1000
0010
,
0100
0001
0010
0001
,
0100
0010
0100
0020
0000
0000
0030
0000
,
1000
0000
0001
1000
0000
0001
0000
1001
,
0000
1000
0100
0010
,
0001
0000
1000
0001
0000
1000
0000
1001
,
0000
0000
0001
0000
0110
0000
0000
1001
,
0000
1000
0100
0010
,
0100
0000
1000
0000
0010
0100
0010
0000
,
0200
0001
0001
0010
,
0310
0000
1000
0000
0001
1000
0001
0000
,
1002
0000
0000
2003
0000
0000
3200
0000
,
0000
0320
0000
0000
0031
0000
1000
0000
,
1001
0000
0001
0000
0100
0000
0001
0010
,
0000
0010
0001
0000
1000
0000
0010
0000
,
2001
0000
0000
3002
0000
0000
0203
0000
,
0000
0320
0000
0000
1030
0000
0001
0000
,
1001
0000
1000
0000
0100
0000
0010
0100
,
0000
0100
1000
0000
0001
0000
0010
0000
,
0002
0100
0100
1000
,
1000
0010
0013
0001
,
2000
0100
0100
0001
,
0001
0010
3010
1000
,
1001
0000
0001
0100
0000
0001
0100
0000
,
1001
0000
1000
0100
0000
1000
0100
0000
,
0110
0000
0010
0100
0000
0100
0010
0200
,
0000
0300
0000
0000
,
1000
0000
0001
0000
0100
0010
0100
0000
,
1001
0001
0010
0100
,
1000
0000
0001
0000
0100
0010
0100
0000
,
1001
1000
0100
0010
,
0001
0000
1000
0000
0010
0100
0010
0000
,
1000
0000
0001
0000
0010
0100
0010
0000
,
0001
0101
1000
1100
,
0001
1000
2002
3003
,
0001
0000
0010
0000
0100
1000
0100
0000
,
0010
0110
1000
1001
,
1000
0000
0010
0000
0100
0001
0100
0000
,
0010
0110
0001
1001
,
1000
0000
0100
0010
0200
0000
0300
0000
,
1000
0000
0010
0100
0020
0000
0030
0000
,
1000
0001
0100
0010
,
2002
0000
3003
0000
,
1000
0000
1000
0100
0000
1000
0000
0000
,
0001
0000
0001
0100
0000
0001
0000
0000
,
0010
0000
0010
0100
0000
0010
0000
0000
,
0001
0000
1000
0000
0010
0100
0010
0000
,
1000
0000
0001
0000
0010
0001
0010
0000
,
0001
0000
1000
0000
0100
1000
0100
0000
,
1000
0000
1000
0010
0000
0010
0100
0000
,
0010
0110
2002
3003
,
0002
0100
1000
0103
,
0001
0000
1000
0010
1000
0000
0001
0000
,
2000
0100
0001
3100
,
1000
0000
0001
0010
0001
0000
1000
0000
,
1001
0001
0100
0010
,
1001
1000
0100
0010
,
0110
0000
0000
1100
0000
0000
0011
0000
,
0000
1001
0000
0000
1000
0000
0001
0000
,
2002
0000
3003
0000
,
0220
0000
0330
0000
,
2000
0000
3002
0000
,
0023
0000
0130
0000
,
1001
0000
0001
0001
,
1000
0001
1000
0000
0001
1000
0001
2000
,
0000
0000
0000
3000
,
0010
0000
0010
0100
0000
0110
0000
0000
,
0001
1000
0010
1000
,
0001
0100
0001
0000
1000
0010
1000
0000
,
0001
0010
0100
0010
,
0100
1000
0100
0000
0010
0001
0010
0000
,
0110
0000
0100
0000
1000
0010
1000
0000
,
0001
0000
0100
0000
0001
0010
0001
0000
,
1000
0000
0010
0000
1000
0001
1000
0000
,
2002
0000
3003
0000
,
0001
0010
0100
0010
,
0001
0010
0100
0000
1000
0000
0001
0000
,
1000
0010
0100
0010
,
1000
0001
0100
0000
0010
0000
1000
0000
,
1001
0000
0001
0000
0010
0100
0010
0000
,
0220
0000
0330
0000
,
1000
0000
0001
0100
0001
0000
1000
0000
,
0010
0000
1000
0100
1000
0000
0001
0000
,
0010
0100
0010
0000
0001
1000
0001
0000
,
0100
0010
0100
0000
0001
0000
1000
0000
,
1001
0000
0000
0110
0000
0000
2002
0000
,
0000
0000
0000
3003
0000
0100
0010
0100
;

//--------------- dance-single - forcednature ----------------
#NOTEDATA:;
#STEPSTYPE:dance-single;
#DESCRIPTION:forcednature;
#DIFFICULTY:Medium;
#METER:14;
#RADARVALUES:0,0,0,0,0;
#CREDIT:forcednature;
#NOTES:
0000
0000
0000
0000
,
0000
0000
0000
0000
,
0000
0000
0000
0000
,
0000
0000
0000
0000
,
0000
0000
0000
0000
,
1000
0100
0010
0000
0100
1000
0010
0000
,
0100
0001
0010
0000
0001
0100
0010
0000
,
0110
0000
0001
1000
0100
0010
0001
0000
,
0100
0010
1000
0010
0100
0001
1000
0010
,
0100
0000
0100
0001
0000
0010
0000
0011
,
0000
1000
0100
0010
,
0001
0000
0001
1000
0000
0010
0000
1010
,
0000
0000
0001
0000
1000
0010
1000
0001
,
0000
0010
0001
0000
0010
0100
0000
1000
,
0000
0100
0010
0000
0100
1000
0001
0000
,
0100
0010
1000
0010
0000
0100
0001
0000
,
1000
1000
0001
0010
0000
0210
0000
0000
,
1300
0001
0010
0001
0000
0101
0000
1010
,
0000
0001
1000
0100
1000
0001
0010
0000
,
0001
1000
0010
1000
0000
0110
0000
0101
,
0000
0001
0010
0100
1000
0010
0100
0002
,
0000
0013
0010
0001
0100
0001
2000
0000
,
3010
1000
0100
1000
0001
0100
0010
2000
,
0000
3001
0010
0100
0010
0001
0000
0101
,
0000
0110
0000
1010
0000
1000
0001
0000
,
0020
0000
0000
0130
0010
0001
2000
0000
,
0000
3010
0100
0001
0100
0010
1000
0000
,
0001
0010
0100
0000
0110
0000
0010
0001
,
0000
1000
0010
0100
0001
0100
0010
0000
,
2000
0000
0000
3100
0010
0001
0200
0000
,
0000
0310
1000
0001
0010
0100
1000
0000
,
0010
0100
0001
0100
0010
1000
0001
0020
,
0000
0130
1000
0001
0100
0001
1000
0000
,
0020
0100
1000
0130
,
1000
0001
0100
0001
0000
1000
0010
0000
,
2000
0100
0001
3010
,
1000
0001
0010
0001
0000
1000
0100
0000
,
0110
0000
0010
0001
0100
0010
1000
0100
,
0010
0000
0100
1000
0010
0100
0001
0010
,
0000
0001
0100
1000
0100
0001
1000
0010
,
0000
0100
0220
0000
0000
0000
0330
0000
,
1000
0100
0001
0100
1000
0001
0010
0000
,
0011
0000
0001
1000
0100
1000
0010
0000
,
1000
0001
0100
1000
0100
0001
1000
0000
,
1010
0000
0010
0100
0001
0010
0100
0000
,
1000
0001
0100
0001
1000
0010
0001
0000
,
0010
1000
0100
1000
0001
0010
1000
0000
,
0010
0001
0100
0001
1000
0100
1000
0010
,
0100
0000
1000
0000
0100
0000
0001
0000
0000
0000
2002
0000
0000
3003
0000
0000
,
1000
0100
0001
0100
1000
0010
0001
0010
,
1000
0100
0010
1000
0010
0100
1000
0000
,
0001
0100
1000
0100
0001
0010
1000
0010
,
0001
0100
0010
0001
0010
0100
0001
0000
,
1000
0100
0001
0000
0101
0000
0100
1000
,
0000
0001
0010
0000
0110
0000
0100
1000
,
0002
0000
0103
0010
2000
0000
3100
0000
,
0220
0000
0000
0330
,
0010
0001
0100
0010
0001
0010
0100
0000
,
0010
1000
0100
0010
1000
0010
0100
0000
,
1000
0001
0100
1000
0100
0001
1000
0000
,
0010
0100
0001
0010
0100
1000
0020
0000
,
1030
0100
0001
0100
1000
0010
1000
0001
,
0100
1000
0100
0001
0010
0001
1000
0000
,
0010
0100
0001
0010
0100
1000
0010
0000
,
0100
1000
0100
0001
0020
0000
0030
0000
,
0110
0000
1001
0000
0001
0100
1000
0000
,
0100
0001
1000
0000
0010
1000
0001
0000
,
0110
0000
1001
0000
1000
0100
0001
0000
,
0100
1000
0001
0000
0010
0001
1000
0000
,
0010
0100
0001
0200
0000
0310
2000
0000
,
3100
0010
0001
0020
0000
0130
2000
0000
,
3010
0100
0001
0010
0100
1000
0010
0100
,
0000
0000
0001
0000
0001
0000
1000
0000
0200
0000
0020
0000
0000
0330
0000
0000
,
2001
0000
0000
0100
0000
0000
3010
0000
,
0220
0000
0000
0330
,
1002
0000
0000
0100
0000
0000
0013
0000
,
0220
0000
0000
0330
,
1001
0000
1000
0100
1000
0001
0010
0000
,
0001
0001
0100
0100
0001
1000
0010
0200
,
0000
0000
0001
0001
0301
0000
1001
0000
,
1000
0000
0100
0000
0001
0000
0100
0000
0000
0000
0220
0000
0000
0330
0000
0000
,
0010
0001
0100
0010
1000
0100
0010
2000
,
0000
3010
0001
1000
0100
1000
0001
0000
,
0100
0001
0010
0100
1000
0010
0100
2000
,
0000
3100
0001
1000
0010
1000
0001
0000
,
0011
0000
0010
0100
1000
0002
0000
0203
,
0000
0000
0320
0000
0000
0000
2030
0000
0000
0000
0002
0000
0000
3003
0000
0000
,
1001
1100
0010
1100
,
2002
0000
3003
0000
,
1000
0100
0001
0100
1000
0100
0001
0100
,
1000
0001
0010
0001
1000
0010
1000
0000
,
0001
0100
1000
0100
0001
1000
0010
1000
,
0001
0010
0100
1000
0010
0100
0001
0000
,
1100
0000
0001
0010
0100
0010
0001
0000
,
2002
0000
3003
0000
,
1000
0010
0100
1000
0100
0001
1000
0010
,
1000
0100
0001
0100
1000
0001
0010
0000
,
0100
1000
1000
0010
1000
1000
0100
1000
,
0001
0010
1000
0001
0100
1000
0001
0000
,
0011
0000
0001
0101
0000
1000
2200
0000
,
0000
0000
0000
0000
3300
0010
0100
0110
;

//--------------- dance-single - forcednature ----------------
#NOTEDATA:;
#STEPSTYPE:dance-single;
#DESCRIPTION:forcednature;
#DIFFICULTY:Hard;
#METER:17;
#RADARVALUES:0,0,0,0,0;
#CREDIT:forcednature;
#NOTES:
0000
0000
0000
0000
,
0000
0000
0000
0000
,
0000
0000
0000
0000
,
0000
0000
0000
0000
,
0000
0000
0000
0000
,
1000
0100
1000
0010
0100
0001
0011
0000
,
0001
0100
0001
0010
0100
1000
1010
0000
,
0001
0010
0001
0010
0001
0000
1000
0100
1000
0100
1000
0000
0010
0000
0000
0000
,
1000
0001
0100
0000
0001
1000
0010
0000
2000
0000
3200
0000
0320
0000
0032
0000
,
1003
0000
1000
0010
0000
0100
0000
0101
,
0000
0001
0010
0100
1000
0010
0200
0000
,
0301
0000
0100
0010
1000
0010
0000
0101
,
0000
0001
0000
0010
0100
1000
0010
0200
,
0000
0000
0301
0000
1000
0000
0010
0100
0010
0000
1000
0000
0001
0000
0020
0000
,
0000
0000
0031
0000
1000
0000
0100
0010
0100
0000
1000
0000
0001
0000
0000
0000
,
1001
0000
0000
0000
1000
0000
0010
0000
0100
0000
0001
0100
0001
0000
0000
0000
,
1000
0000
0100
1000
0100
1000
0002
0000
0000
0000
0010
0000
0013
0000
0000
0000
,
0001
0100
1000
0100
0000
0101
0000
1010
,
0000
0000
1000
0000
0100
0000
0010
0100
0010
0000
0001
0000
1000
0000
0010
0100
,
0001
0010
0100
0010
0000
0011
0000
1100
,
0000
0000
0001
0000
1000
0000
0001
0100
0001
0100
0001
0100
0010
0000
1000
0000
,
0001
0000
0010
0000
0100
0000
0010
0100
0010
0000
0100
1000
0002
0000
0000
0000
,
1003
0000
0010
0000
0100
0000
0001
0000
0010
0000
0100
0000
1000
0000
0001
1000
,
0010
0100
1000
0100
0001
0100
0010
2000
,
0000
3200
0000
0302
0000
1003
0010
0001
,
2000
0000
0000
0000
3000
0000
0001
0100
0010
0000
1000
0000
0001
0000
0001
0000
,
0020
0000
0000
0000
0130
0000
1000
0001
0010
0000
0001
0000
1000
0010
0100
0001
,
1000
0000
0100
0000
0010
0000
0100
0010
0002
0000
0000
0000
0103
0000
0120
0000
,
0000
0000
1030
0000
1000
0000
0001
0000
0010
0000
0100
0000
0010
0100
1000
0000
,
0200
0000
0000
0000
0300
0000
0010
0001
1000
0000
0001
0000
0100
0000
0010
0000
,
0000
0000
1000
0001
1000
0001
1000
0000
0010
0000
0100
0000
0002
0000
0000
0000
,
0013
0100
0001
0100
1000
0001
0010
0200
,
0000
0000
0310
0001
1000
0000
0100
1000
0001
0000
0100
0000
0010
1000
0010
1000
,
0002
0010
1000
0103
,
0001
0010
1000
0010
0001
1000
0100
0000
,
2000
0000
0100
0000
0001
0000
3010
1000
,
0001
0000
0100
0000
1000
0000
0100
0000
0001
0000
1000
0000
0010
0100
0010
0100
,
0001
0000
1000
0000
0100
0000
0001
0000
0100
0000
1000
0000
0001
0010
0001
0000
,
1000
0000
0001
0000
0100
0000
1000
0000
0100
0000
0001
0000
1000
0010
1000
0000
,
0001
0000
0010
0100
1000
0000
0001
0000
0100
0010
1000
0000
0100
0000
1001
0000
,
0000
0010
0220
0000
0000
0000
0330
0000
,
0001
0000
0100
0000
0010
1000
0001
0000
1000
0000
0100
0000
0010
0001
1000
0000
,
0010
0000
0100
0000
0001
0100
0001
0000
0010
0001
0010
0000
0001
1000
0100
0000
,
1000
0000
0010
0000
0100
0001
1000
0000
0001
0000
0010
0000
0100
1000
0001
0000
,
0100
0000
0010
1000
0010
1000
0010
0000
0100
0001
0100
0001
0100
0000
0000
0000
,
0010
0000
1000
0001
0100
0000
0001
1000
0010
0000
1000
0001
0010
0000
0001
1000
,
0100
0000
0010
0001
0100
0000
0010
1000
0100
0000
0010
0000
0001
0000
0201
0000
,
0000
1000
1300
0100
0001
1000
0010
1000
,
0001
0010
0100
1000
0001
0000
1001
0000
0000
0000
0220
0000
0000
0330
0000
0000
,
0001
0000
1000
0000
0100
0010
0001
0000
1000
0000
0001
0000
0100
0010
1000
0000
,
0001
0000
0010
0100
0010
0000
0001
1000
0010
0000
0100
0001
1000
0000
0100
0000
,
0010
0000
0001
0000
0100
0010
1000
0000
0100
0000
1000
0000
0010
0100
0001
0000
,
0010
0000
0001
0100
0001
0000
0010
0100
0010
0000
0001
1000
0020
0000
0000
0000
,
0230
0000
0000
0000
0301
0000
0001
0000
0100
0000
0010
0000
0000
0000
1000
0001
,
2000
0000
0000
0000
3001
0000
0010
0100
0010
0000
0100
0000
0000
0000
1000
0001
,
2000
0000
3010
0100
0001
0010
0100
1000
,
2002
0000
0000
0000
0000
0000
3003
0000
0001
0000
1000
0001
1000
0001
1000
0000
,
0001
0000
0100
0010
1000
0000
1010
0000
0000
0000
0001
0100
0001
0100
0001
0000
,
1000
0000
0100
0010
0001
0000
0011
0000
0000
0000
1000
0001
1000
0001
1000
0000
,
0010
0100
0001
0100
0010
0000
1000
0001
0000
0100
0001
1000
0010
0000
1000
0000
,
0001
0010
0001
0010
0100
0010
0100
1000
0001
0000
1000
0001
1000
0001
1000
0001
,
0100
0000
0010
0000
1000
0001
0100
0001
1000
0000
0010
0000
1000
0001
1000
0001
,
0010
0000
0100
0000
1000
0001
0010
0000
0100
1000
0100
1000
0001
0000
0100
0000
,
0010
1000
0001
1000
0010
0000
0100
0001
1000
0001
0100
0000
0010
1000
0001
0000
,
1000
0100
0010
0001
1000
0010
0100
0001
0020
0000
0000
0000
0030
0000
0000
0000
,
0001
1000
0100
1000
0001
0010
0100
0010
,
0001
0100
1000
0200
0000
0301
1000
0010
,
0100
0001
0010
0001
1000
0010
0100
0000
,
0002
0000
0023
0000
0230
0000
2300
0000
3010
0000
0100
0001
1000
0000
0000
0000
,
0001
0001
0100
0020
0000
1030
1100
0000
,
1000
1000
0100
0020
0000
0031
0101
0000
,
1000
0000
0010
0100
0010
0000
1000
0000
0100
0010
0100
0000
1000
0000
0001
0010
,
0001
0000
1000
0100
1000
0100
0010
0000
0001
0000
1000
0000
0010
0000
0000
0000
,
0210
0000
0000
0302
0000
0000
2003
0000
,
3010
0110
0000
1000
0001
0010
0100
0000
,
2100
0000
0000
3002
0000
0000
0023
0000
,
0031
0000
0000
0100
0001
0000
1000
0000
0010
0000
1000
0000
0100
0000
0000
0000
,
0110
0000
0010
0001
0100
0001
1000
0100
,
1000
0010
0010
0100
0100
0010
0100
2002
,
0000
0003
0000
0000
0010
0000
0010
0000
3010
0000
1000
0001
0100
0000
0000
0000
,
0001
0010
0100
1000
0001
0000
0200
0000
0000
0300
0010
0100
0010
0100
0001
1000
,
0010
0000
0100
0000
0001
1000
0100
0000
0010
0000
0100
0000
1000
0001
0100
0000
,
0010
0000
1000
0010
1000
0000
0001
0010
0100
0000
0010
0001
1000
0000
0010
0000
,
0100
0000
0001
0000
0010
0100
1000
0000
0010
0000
1000
0000
0100
0010
0001
0000
,
1000
0000
0010
0100
0010
0000
0100
0001
1000
0000
0010
1000
0200
0000
0000
0000
,
0320
0000
0000
0000
0031
0000
0001
0000
1000
0000
1100
0000
0000
0000
0001
0010
,
0001
0000
1000
0000
0010
0000
0100
0001
0100
0000
0020
0000
0000
0000
1030
0001
,
1000
0000
0100
0000
0010
0000
0100
1000
0001
0000
0100
0000
0010
0000
0100
0001
,
2000
0000
0000
0000
0000
0000
0000
0000
3010
0000
0100
0010
0100
0010
0100
0000
,
0001
0000
0010
0100
1000
0000
0100
0010
0001
0000
0100
0010
1000
0000
0010
0100
,
0001
1000
0100
0001
0100
1000
0001
0000
,
1000
0000
0010
0100
0001
0000
0010
0100
1000
0000
0100
0010
0001
0000
0100
0010
,
1000
0100
0001
0100
1000
0001
0011
0000
,
0001
0000
0100
0001
1000
0000
0010
0100
0001
0000
1000
0100
0010
0000
0001
1000
,
0020
0000
0000
0000
0030
0000
0100
0001
0100
0000
0010
1000
0010
1000
0001
0100
,
0010
1000
0100
1000
0010
0100
0001
0010
,
0100
0000
1000
0000
0001
0010
0001
0000
0100
0000
0001
0000
2000
0000
0000
0000
,
3100
0010
0100
0010
0001
0010
0001
0010
0100
1000
0100
1000
0001
0010
0001
0010
,
0001
1000
0010
1000
0001
0100
0001
1000
0100
0010
0001
0100
0010
0000
1000
0000
,
0001
0010
0001
1000
0100
0000
1000
0010
1000
0001
0100
0000
2002
0000
0000
0000
,
0000
0000
0000
0000
3003
1100
0110
0011
;

//--------------- dance-double - forcednature ----------------
#NOTEDATA:;
#STEPSTYPE:dance-double;
#DESCRIPTION:forcednature;
#DIFFICULTY:Easy;
#METER:9;
#RADARVALUES:0,0,0,0,0;
#CREDIT:forcednature;
#NOTES:
00000000
00000000
00000000
00000000
,
00000000
00000000
00000000
00000000
,
00000000
00000000
00000000
00000000
,
00000000
00000000
00000000
00000000
,
00000000
00000000
00000000
00000000
,
00001000
00010000
00000100
00000000
,
00010000
00001000
00100000
00000000
,
00001000
00000000
00000000
00010000
00000000
00000000
00001000
00000000
,
00011000
00010000
00001000
00100000
,
00010000
00000000
01000000
00010000
,
01000000
00100000
10000000
00000000
,
01000000
00000000
00100000
00010000
,
00100000
00000000
00001000
00000000
00010000
00000000
00000000
00011000
,
00000000
00000100
00001000
00000100
,
00000000
00000010
00000001
00000000
,
00001000
00000010
00010000
00000000
,
00001000
00000000
00001000
00020000
00000000
00000000
00030000
00000000
,
00001000
00000000
00000000
00100000
00000000
00100000
00000000
00010000
,
00000000
10000000
00100000
00000000
,
01000000
00000000
00000000
00010000
00000000
00010000
00000000
00100000
,
00000000
00000000
00001000
00000000
00010000
00000000
00000000
00011000
,
00000000
00000100
00001000
00000100
,
00000010
00000001
00000010
00000000
,
00002002
00000000
00000000
00000000
,
00003003
00001000
00000100
00010000
,
00001000
00000000
00000000
00001000
00000000
00000000
00100000
00000000
,
00000000
00010000
00000000
00000000
01000000
00000000
00000000
00000000
,
10010000
00010000
01000000
00010000
,
00100000
00001000
00010000
00000000
,
00000100
00000000
00000000
00001000
00000000
00000000
00000100
00000000
,
00000000
00000010
00000000
00000000
00000001
00000000
00000000
00000000
,
00000100
00000010
00001000
00000010
,
00010000
00010000
00001000
00000000
,
00020000
00000000
00000100
00000000
,
00001000
00000000
00030010
00000000
,
00002000
00000000
01000000
00000000
,
00010000
00000000
00103000
00000000
,
00011000
00000000
00000000
00010000
00000000
00000000
00001000
00000000
,
01000000
00000000
00000000
01000000
00000000
00000000
00010000
00000000
,
00100000
00000000
01000000
00000000
00100000
00000000
01000000
20000000
,
00000000
30000000
00000000
00000000
,
00010000
00100000
00001000
00010000
,
00011000
00000100
00001000
00000010
,
00000100
00000001
00001000
00000010
,
00011000
01000000
00010000
00100000
,
01000000
00000000
10000000
00000000
01000000
00100000
01000000
00000000
,
00100000
00000000
00010000
00000000
00100000
00001000
00100000
00000000
,
00001000
00011000
00010000
00001100
,
00010000
00001000
00022000
00033000
,
00000010
00001000
00000010
00000100
,
00000001
00001001
00000100
00000110
,
00001000
00000100
00010000
00001000
,
00100000
10010000
01000000
01100000
,
10000000
00000000
00010000
10000000
00020000
00000000
00030000
00000000
,
00100000
00000000
01000000
00100000
02000000
00000000
03000000
00000000
,
00100000
00010000
00100000
00001000
,
00022000
00000000
00033000
00000000
,
00000100
00000000
00000000
00001100
00000000
00000000
00000000
00000000
,
00000010
00000000
00000000
00000011
00000000
00000000
00000000
00000000
,
00001000
00000000
00000000
00001010
00000000
00000000
00000000
00000000
,
00010000
00001000
00010000
00001000
,
01000000
00000000
01000000
00000000
00010000
01000000
00010000
00000000
,
10000000
00000000
10000000
00000000
00100000
10000000
00100000
00000000
,
10000000
00000000
00000000
10010000
00000000
00000000
00010000
00000000
,
00100000
00001000
00022000
00033000
,
00000200
00000000
00001000
00001300
,
00000100
00000010
00000100
00001000
,
00000001
00000001
00000100
00000000
,
00000010
00001000
00000010
00000000
,
00011000
00001000
00100000
00010000
,
10010000
10000000
00100000
01000000
,
01100000
00000000
00000000
00010000
00000000
00000000
00100000
00000000
,
00000000
00001000
00000000
00000000
00010000
00000000
00000000
00000000
,
00022000
00000000
00033000
00000000
,
00000200
00000000
00000300
00000000
,
00020000
00000000
00032000
00000000
,
00203000
00000000
00310000
00000000
,
10010000
00000000
00010000
01000000
,
00001000
00000000
00010000
00000000
00000010
00000000
00001000
00000002
,
00000000
00000000
00000000
00000003
,
00000010
00000000
00000100
00000000
00000000
00000110
00000000
00000000
,
00001000
00000100
00010000
00001000
,
00100000
00010000
00100000
00000000
01000000
00000000
10000000
00000000
,
00010000
01000000
00001000
00010000
,
00000010
00001000
00000010
00000000
00000100
00000000
00000001
00000000
,
00001000
00000000
00001100
00000000
,
00010000
00000000
00001000
00000000
00010000
00001000
00010000
00000000
,
00001000
00000000
00110000
00010000
,
20020000
00000000
30030000
00000000
,
10000000
01000000
00100000
01000000
,
10000000
00010000
10000000
00000000
00100000
00000000
01000000
00000000
,
00010000
00100000
00001000
00010000
,
00000100
00001000
00000100
00000000
00000010
00000000
00000001
00000000
,
00001001
00001000
00000010
00010000
,
00022000
00000000
00033000
00000000
,
00001000
00000000
00010000
00001000
00010000
00000000
00001000
00000000
,
00100000
00000000
00010000
00100000
00010000
00000000
00100000
00000000
,
01000000
10000000
01000000
00000000
00100000
00000000
00010000
00000000
,
00100000
00001000
00100000
00000000
00001000
00000000
00010000
00000000
,
00000010
00000000
00000000
00000100
00000000
00000000
00002002
00000000
,
00000000
00000000
00000000
00003003
00000000
00000001
00001000
00000001
;

//--------------- dance-double - forcednature ----------------
#NOTEDATA:;
#STEPSTYPE:dance-double;
#DESCRIPTION:forcednature;
#DIFFICULTY:Medium;
#METER:13;
#RADARVALUES:0,0,0,0,0;
#CREDIT:forcednature;
#NOTES:
00000000
00000000
00000000
00000000
,
00000000
00000000
00000000
00000000
,
00000000
00000000
00000000
00000000
,
00000000
00000000
00000000
00000000
,
00000000
00000000
00000000
00000000
,
00001000
00011000
00010000
00101000
,
00001000
00010010
00010000
01001000
,
01010000
00000000
00010000
10000000
00000000
01000000
10000000
00000000
,
01000000
00010000
00001000
00010000
01000000
00100000
00010000
00000000
,
01000000
00000000
01000000
00010000
00000000
00100000
00000000
00001000
,
00000000
00010000
00000000
00000010
00000000
00002000
00000000
00000000
,
00003000
00000000
00000100
00000010
00000001
00000010
00000000
00000100
,
00000000
00010000
00000000
00001000
00100000
00100000
00010000
10000000
,
00000000
01000000
00010000
00000000
00001000
00000000
00010000
01000000
,
00000000
00100000
00001000
00000000
01000000
00000000
00011000
00000000
,
00000010
00000000
00010000
00000100
00000000
00000010
00000001
00000000
,
00000100
00000100
00000010
00000100
00000000
00002002
00000000
00003003
,
00001000
00000100
00010000
00001000
00000000
00011000
00000000
00101000
,
00000000
00100000
00010000
00000000
01000000
00100000
10000000
00000000
,
00010000
01000000
00001000
00010000
00000000
00011000
00000000
00010100
,
00000000
00000100
00001000
00000000
00000010
00000100
00000000
00002001
,
00000000
00003100
00000100
00010000
00001000
00100000
00020000
00000000
,
00030000
01000000
00010000
01000000
00001000
00010000
00001000
00200000
,
00000000
01300000
10000000
01000000
00010000
00001000
00000000
00011000
,
00000000
00010100
00000000
00001100
00000000
00000010
00000100
00000000
,
00002001
00000000
00000000
00003100
00010000
00000000
00002000
00000000
,
00000000
00103000
00001000
00000000
00010000
00001000
01000000
00000000
,
00110000
00000000
01000000
00000000
11000000
00000000
00010000
00100000
,
00000000
00001000
00010000
00000010
00001000
00000010
00000100
00000000
,
00000002
00000000
00000000
00000013
00000100
00000000
00002000
00000000
,
00000000
00003100
00010000
00000000
00001000
00100000
00010000
00000000
,
10000000
00100000
01000000
00100000
10000000
00000000
00010000
00200000
,
00000000
00301000
00010000
00000100
00001000
00000100
00000010
00000000
,
00000002
00000100
00001000
00000103
,
00000001
00000000
00000010
00000100
00000000
00001000
00000100
00000000
,
00020000
00000010
00001000
00030100
,
00010000
00000000
00001000
00100000
00000000
00010000
01000000
00000000
,
01100000
00000000
00100000
10000000
01000000
00100000
00010000
02000000
,
00000000
03000000
00001000
00010000
00000100
00001000
00000010
00000200
,
00000000
00000301
00000010
00000100
00010000
00001000
00100000
01000000
,
00000000
00100000
02200000
00000000
00000000
00000000
03300000
00000000
,
10000000
00010000
00100000
00010000
00000000
00100000
00001000
00000000
,
00011000
00000000
00000100
00001000
00000100
00000000
00000010
00000000
,
00000001
00001000
00000010
00001000
00000000
00000100
00010000
00000000
,
00011000
00000000
00001000
00100000
00010000
00100000
01000000
00000000
,
10000000
00010000
01000000
00010000
10000000
00100000
10000000
00000000
,
00010000
00100000
00001000
00010000
00000100
00001000
00000010
00000000
,
00000100
00000001
00000010
00000001
00001000
00000000
00001010
00000000
,
00010000
00000000
00001000
00000000
00100000
00000000
00010000
00000000
00000000
00000000
20020000
00000000
00000000
30030000
00000000
00000000
,
10000000
00000000
01000000
00010000
00000000
00001000
00010000
00001000
,
00000000
00000010
00000100
00001000
00000010
00000100
00000001
00000000
,
00000001
00000000
00000100
00001000
00000000
00010000
00001000
00010000
,
00000000
00100000
01000000
00010000
00100000
01000000
10000000
00000000
,
02000000
03010000
00011000
00000000
,
00002000
00003010
00000110
00000000
,
00000200
00000000
00001300
00000001
00000020
00000000
00000130
00000000
,
00002002
00000000
00000000
00003003
,
00001000
00000100
00010000
00002000
00000000
00103000
00010000
00000000
,
01000000
00001000
00010000
00000020
00000000
00001030
00000100
00000000
,
00000010
00000001
00000100
00000010
00001000
00000100
00000010
00000000
,
00000100
00010000
00001000
00100000
00010000
01000000
00200000
00000000
,
10300000
01000000
00010000
01000000
10000000
00010000
00100000
00000000
,
00001000
00010000
00000100
00010000
00001000
00000010
00000001
00000000
,
00000100
00001000
00000000
00010000
00001000
00000000
00011000
00000000
,
00010000
00100000
01000000
00100000
20000000
00000000
30000000
00000000
,
10010000
11000000
01000000
00010000
,
00001000
00010000
00001000
00100000
00000000
00001000
00010000
00000000
,
00011000
00000000
00010100
00000000
00000100
00001000
00000010
00000000
,
00000100
00000001
00000100
00000020
00000000
00001030
00000010
00000000
,
00001000
00000100
00010000
00002000
00000000
00103000
00010000
00000000
,
10000000
00100000
01000000
00200000
00000000
01300000
00010000
00000000
,
10000000
01000000
00010000
00001000
00000000
00010000
00001000
00000010
,
00000000
00000001
00000001
00001000
00000020
00000000
00000030
00000000
,
00000220
00000000
00000000
00000330
,
00022000
00000000
00000000
00033000
,
02200000
00000000
00000000
03300000
,
10010000
00000000
10000000
01000000
00000000
00100000
01000000
00000000
,
01100000
00000000
00100000
00010000
00100000
00000000
00001000
00010000
,
00001000
00000000
00010000
00000100
00001000
00000100
00000010
00000200
,
00000000
00000000
00000001
00000001
00000301
00000000
00000110
00000000
,
00000010
00000001
00001000
00000100
00000000
00000220
00000000
00000330
,
00000010
00000000
00000001
00000100
00000010
00001000
00000010
00000200
,
00000000
00000310
00001000
00000100
00000010
00000001
00000100
00000000
,
00000010
00000000
00001000
00000100
00010000
00001000
00100000
00020000
,
00000000
01030000
00100000
10000000
01000000
00100000
00010000
00000000
,
10010000
00000000
10000000
01000000
00100000
02000000
00000000
03020000
,
00000000
00000000
00032000
00000000
00000000
00000000
00203000
00000000
00000000
00000000
00320000
00000000
00000000
00030000
00000000
00000000
,
00110000
00001000
00011000
00000100
,
00002002
00000000
00003003
00000000
,
00001000
00000100
00010000
00000100
00001000
00000100
00000010
00000100
,
00010000
00000000
00001000
00100000
00000000
00010000
01000000
00000000
,
00100000
10000000
00010000
10000000
01000000
10000000
00010000
10000000
,
00100000
00000000
01000000
00010000
00000000
00100000
00001000
00000000
,
00011000
00000000
00010000
00000010
00001000
00000010
00010000
00000000
,
00022000
00000000
00033000
00000000
,
00000100
00001000
00000100
00010000
00001000
00010000
00000010
00000000
,
00001000
00000100
00000010
00000001
00000100
00000010
00001000
00000000
,
00000001
00000100
00001000
00000000
00010000
00001000
00000100
00000000
,
00001000
00010000
00100000
10000000
00010000
01000000
00100000
00000000
,
10010000
00000000
00000000
01100000
00000000
00000000
00022000
00000000
,
00000000
00000000
00000000
00000000
00033000
00001000
00010000
00000100
;

//--------------- dance-double - forcednature ----------------
#NOTEDATA:;
#STEPSTYPE:dance-double;
#DESCRIPTION:forcednature;
#DIFFICULTY:Hard;
#METER:17;
#RADARVALUES:0,0,0,0,0;
#CREDIT:forcednature;
#NOTES:
00000000
00000000
00000000
00000000
,
00000000
00000000
00000000
00000000
,
00000000
00000000
00000000
00000000
,
00000000
00000000
00000000
00000000
,
00000000
00000000
00000000
00000000
,
00001000
00010000
00001000
00100000
00010000
00100000
01100000
00000000
,
10000000
00010000
10000000
00100000
01000000
00010000
01010000
00000000
,
00010000
00100000
00010000
00100000
00010000
00000000
00100000
00001000
00100000
00001000
00100000
00000000
00001000
00000000
00000000
00000000
,
00010000
00000100
00001000
00000000
00000100
00010000
00001000
00000000
00000020
00000000
00000032
00000000
00000203
00000000
00000302
00000000
,
00001003
00000000
00001000
00000010
00000000
00000100
00000000
00001001
,
00000000
00000001
00000010
00000100
00010000
00001000
00200000
00000000
,
00310000
00000000
01000000
00100000
10000000
00100000
00000000
01010000
,
00000000
00010000
00000000
00100000
00001000
00010000
00000010
00002000
,
00000000
00000000
00003100
00000000
00000010
00000000
00000001
00000010
00000001
00000000
00001000
00000000
00000010
00000000
00020000
00000000
,
00000000
00000000
00031000
00000000
00010000
00000000
00001000
00100000
00010000
00000000
00100000
00000000
01000000
00000000
00000000
00000000
,
10010000
00000000
00000000
00000000
10000000
00000000
01000000
00000000
00100000
00000000
00010000
00100000
00001000
00000000
00000000
00000000
,
00010000
00000000
00000100
00001000
00000100
00001000
00000200
00000000
00000000
00000000
00000010
00000000
00000310
00000000
00000000
00000000
,
00000100
00001000
00000001
00000100
00000000
00000110
00000000
00001010
,
00000000
00000000
00010000
00000000
00001000
00000000
00100000
00010000
00100000
00000000
00010000
00000000
10000000
00000000
00100000
01000000
,
00010000
00100000
01000000
10000000
00000000
00110000
00000000
00101000
,
00000000
00000000
00001000
00000000
00010000
00000000
00001000
00010000
00001000
00010000
00001000
00010000
00001000
00000000
00100000
00000000
,
00010000
00000000
00100000
00000000
00001000
00000000
00000010
00000000
00000100
00000000
00001000
00000100
00000020
00000000
00000000
00000000
,
00000031
00000100
00000010
00000100
00000001
00001000
00000010
00000200
,
00000000
00001300
00010000
00100000
01000000
00200000
00000000
20300000
,
00000000
32000000
00000000
03020000
00000000
00031000
00010000
00001000
,
00000020
00000000
00000000
00000000
00000030
00000000
00000100
00001000
00000001
00000000
00000010
00000000
00000002
00000000
00000000
00000000
,
00000000
00000000
00000203
00000000
00000000
00000000
00000310
00000000
00001000
00000000
00000010
00000000
00010000
00000000
00001000
00010000
,
00001000
00000000
00100000
00000000
00010000
00000000
00100000
00001000
00020000
00000000
00000000
00000000
00130000
00000000
20000000
00000000
,
00000000
00000000
31000000
00000000
01000000
00000000
10000000
00000000
00100000
00000000
00100000
00000000
01000000
00010000
10000000
00000000
,
02000000
00000000
00000000
00000000
03000000
00000000
00100000
00010000
10000000
00000000
01000000
00000000
00020000
00000000
00000000
00000000
,
00000000
00032000
00000000
00000000
00003010
00000100
00020000
00000000
,
00031000
00000010
00000001
00000010
00000100
00010000
00001000
00200000
,
00000000
00000000
00310000
00000000
10000000
00000000
00010000
10000000
00100000
00000000
01000000
00000000
00100000
01000000
00100000
01000000
,
00020000
01000000
10000000
00100000
,
00031000
00000000
00001000
00000100
00000000
00000010
00000011
00000000
,
00002000
00000100
00000001
00000010
,
00013000
00000000
00000000
00000000
01000000
00000000
00020000
00000000
00000000
00000000
10030000
00000000
00100000
10000000
00100000
10000000
,
00020000
00000000
00000000
00000000
00130000
00000000
01000000
00000000
00010000
00000000
00001000
00000000
00010000
00001000
00010000
00000000
,
00001000
00000000
00000010
00000000
00000100
00000000
00000010
00000000
00000001
00001000
00000001
00001000
00000001
00000000
00000000
00000000
,
00000100
00001000
00010000
00100000
00010000
00001000
00010000
01000000
,
00000000
01100000
02200000
00000000
00000000
00000000
03300000
00000000
,
10000000
00000000
01000000
00000000
00100000
01000000
00100000
00000000
00010000
00000000
00100000
00000000
00001000
00010000
00001000
00000000
,
00010000
00000000
00000100
00000000
00001000
00000100
00001000
00000000
00000100
00000010
00000100
00000000
00000010
00000001
00000010
00000000
,
00000001
00000000
00000100
00000000
00000010
00000100
00000010
00000000
00001000
00000000
00000010
00000000
00001000
00000100
00001000
00000000
,
00000100
00000000
00010000
00000000
00001000
00000000
00100000
00000000
00010000
10000000
00010000
10000000
00010000
00000000
00000000
00000000
,
01000000
00000000
00100000
10000000
00010000
00000000
10000000
00000000
01000000
00000000
00100000
00010000
10000000
00000000
00010000
00000000
,
00100000
00000000
00001000
00010000
00001000
00000000
00010000
00000000
00000100
00000000
00001000
00000000
00000001
00000000
00000020
00000000
,
00000000
00000001
00000031
00001000
00000100
00000000
00011000
00000000
,
00010000
00001000
00010000
00001000
00010000
00000000
00001000
00000000
00000000
00000000
00022000
00000000
00000000
00000000
00033000
00000000
,
00010000
00000000
00001000
00000000
01000000
00010000
01000000
00000000
00010000
00000000
10000000
00000000
00100000
10000000
00200000
00000000
,
00000000
10300000
01000000
00010000
00001000
00000100
00000001
00000010
,
00000100
00000000
00001000
00000000
00000001
00000010
00000100
00000000
00000010
00000000
00000001
00000000
00001000
00000010
00002000
00000000
,
00000000
00003001
00000100
00001000
00010000
01000000
20000000
00000000
,
30200000
00000000
00000000
00000000
10300000
00000000
10000000
00000000
00010000
00000000
01000000
00000000
00000000
00000000
00001000
00010000
,
00002000
00000000
00000000
00000000
00103000
00000000
00010000
00100000
00001000
00000000
00020000
00000000
00000000
00000000
00030100
00001000
,
00000100
00000010
00000100
00000000
00000110
00000000
00000001
00001000
,
00002002
00000000
00000000
00000000
00000000
00000000
00000000
00000000
00003003
00000000
00001000
00000001
00001000
00000001
00001000
00000000
,
00000001
00000000
00000100
00000000
00001000
00000000
00011000
00000000
00000000
00000000
00010000
00001000
00010000
00001000
00010000
00000000
,
00001000
00000000
00010000
00000000
01000000
00000000
11000000
00000000
00000000
00000000
10000000
00010000
10000000
00010000
10000000
00000000
,
00100000
01000000
00010000
01000000
00100000
00000000
20000000
00000000
00000000
32000000
00000000
00000000
03020000
00000000
00030000
00000000
,
00001000
00010000
00001000
00010000
00000100
00001000
00000100
00001000
00000001
00000000
00000100
00000001
00000100
00000001
00000100
00000001
,
00001000
00000000
00000010
00000000
00001000
00000000
00000010
00010000
00001000
00000000
00010000
00000000
00001000
00000000
00010000
00001000
,
00100000
00000000
01000000
00000000
10000000
01000000
00100000
00000000
00010000
00100000
00010000
00100000
00001000
00000000
00000000
00000000
,
00010000
00000000
00000100
00001000
00000100
00000000
00010000
00000000
00000010
00001000
00000010
00000000
00010000
00000000
00001000
00000000
,
00100000
00010000
00100000
00010000
10000000
01000000
00100000
00010000
20000000
00000000
00000000
00000000
30000000
00000000
00000000
00000000
,
01100000
00000000
10010000
00000000
10000000
01000000
00100000
01000000
,
00010000
00001000
00100000
00002000
00000000
00013000
00000100
00001000
,
00000010
00000200
00000000
00000302
00000000
00001003
00000100
00000000
,
00000020
00002030
00023000
02030000
00000000
00100000
03100000
00000000
,
01000000
10000000
00100000
20000000
00000000
31000000
00010000
00000000
,
00001000
00100000
00001000
00020000
00000000
00030010
00001000
00000000
,
00000001
00000000
00000100
00000010
00000100
00000000
00000001
00000000
00000010
00000100
00000010
00000000
00000001
00000000
00002001
00000000
,
00000000
00003100
00010000
00001000
00200000
00000000
00300000
00000000
,
20010000
00000000
00000000
32000000
00000000
00000000
03020000
00000000
,
00031000
00100000
00000000
00001000
00010000
00000100
00001000
00000000
,
00000002
00000000
00000000
00000203
00000000
00000000
00002300
00000000
,
00013000
00000000
00000000
00010000
00001000
00000000
00100000
00000000
00010000
00000000
00100000
00000000
01000000
00000000
00000000
00000000
,
01100000
00000000
00100000
01000000
00010000
01000000
00100000
00001000
,
00010000
00000100
00000100
00001000
00001000
00000100
00000010
00000220
,
00000000
00000000
00000000
00000000
00000330
00000000
00000000
00000000
00000001
00001000
00000001
00001000
00000001
00000000
00000000
00000000
,
00001000
00000000
00000100
00010000
00001000
00000000
00100000
00000000
00000000
00000000
20020000
00000000
00000000
00000000
30030000
00000000
,
10000000
00000000
01000000
00000000
00100000
00010000
10000000
00000000
00010000
00000000
01000000
00000000
00001000
00100000
00010000
00000000
,
00100000
00000000
00001000
00010000
00001000
00000000
00010000
00000100
00010000
00000000
00000100
00001000
00000100
00000000
00000010
00000000
,
00000001
00000000
00001000
00000000
00000010
00000100
00000001
00000000
00001000
00000000
00000100
00000000
00010000
00001000
00100000
00000000
,
00010000
00000000
10000000
00100000
10000000
00000000
00100000
01000000
00100000
00000000
01000000
00010000
02000000
00000000
00000000
00000000
,
03002000
00000000
00013000
00010000
00000100
00002000
00000000
00003002
,
00000000
00000000
00000023
00000000
00000000
00000000
00002030
00000000
00000000
00000000
00023000
00000000
00000000
00000000
00031000
00010000
,
00001000
00000000
00000000
00000000
01000000
00000000
00010000
01000000
00010000
00000000
10000000
00000000
00100000
00000000
01000000
00010000
,
20000000
00000000
00000000
00000000
00000000
00000000
00000000
00000000
31000000
00000000
00100000
01000000
00100000
01000000
00100000
00000000
,
00010000
00000000
00100000
00010000
00100000
00000000
00001000
00010000
00001000
00000000
00010000
00000100
00001000
00000000
00000100
00000000
,
00000010
00000001
00000100
00002000
00000000
00003100
00000001
00000000
,
00001000
00000000
00000010
00001000
00000010
00000000
00010000
00001000
00010000
00000000
00001000
00100000
00010000
00000000
00100000
00000000
,
01000000
10000000
01000000
00010000
00000000
00001000
00011000
00000000
,
00100000
00000000
00010000
00100000
00010000
00000000
00100000
00001000
00010000
00000000
00001000
00010000
00001000
00000000
00010000
00000010
,
00002000
00000000
00000000
00000000
00003000
00000000
00000001
00001000
00000001
00000000
00000010
00000100
00000010
00000100
00000010
00000100
,
00001000
00000100
00010000
00001000
00100000
00001000
00010000
00001000
,
01000000
00000000
00010000
00000000
10000000
00100000
10000000
00000000
00010000
00000000
00100000
00000000
02000000
00000000
00000000
00000000
,
03100000
00010000
00100000
00000000
00001000
00000000
00010000
00000000
00000010
00001000
00000010
00000000
00010000
00000000
00001000
00000000
,
01000000
00010000
01000000
00000000
00001000
00010000
00001000
00000000
00100000
00010000
00100000
00010000
00100000
00000000
00000000
00000000
,
01000000
00000000
10000000
01000000
00100000
00000000
00010000
00000000
00100000
00001000
00010000
00000000
00022000
00000000
00000000
00000000
,
00000000
00000000
00000000
00000000
00033000
00001000
00000010
00000001
;
