#VERSION:0.83;
#TITLE:GIGANT;
#SUBTITLE:;
#ARTIST:seiya-murai;
#TITLETRANSLIT:;
#SUBTITLETRANSLIT:;
#ARTISTTRANSLIT:;
#GENRE:MARCHING ROCK;
#CREDIT:;
#MUSIC:GIGANT.ogg;
#BANNER:GIGANT.png;
#BACKGROUND:GIGANT-bg.png;
#CDTITLE:./CDTitles/bm IIDX 19 Lincle.png;
#SAMPLESTART:2.067;
#SAMPLELENGTH:15.000;
#SELECTABLE:YES;
#OFFSET:1.353;
#BPMS:0.000=140.000;
#STOPS:;
#TIMESIGNATURES:0.000=4=4;
#BGCHANGES:3.800=GIGANT.mp4=1.000=0=0=1,
999.000=1.000=0.000=0=0=0=StretchNoLoop====,
99999.000=-nosongbg-=1.000=0=0=0=StretchNoLoop====
;
#FGCHANGES:;

//--------------- dance-single - forcednature ----------------
#NOTEDATA:;
#STEPSTYPE:dance-single;
#DESCRIPTION:forcednature;
#CREDIT:forcednature;
#DIFFICULTY:Beginner;
#METER:3;
#RADARVALUES:0,0,0,0,0;
#NOTES:
0000
0000
0000
0000
,
0000
0000
0000
0000
,
0000
0000
0000
0000
,
0000
0000
0000
0000
,
0000
0000
0000
0000
,
0000
0000
0000
0000
,
1000
0000
0000
0000
,
0001
0000
0000
0000
,
0100
0000
0000
0000
,
0010
0000
0000
0000
,
1001
0000
0000
0000
,
0001
0000
0000
0000
,
0100
0000
0000
0000
,
0001
0000
0001
0000
,
0001
0000
0000
0000
,
1000
0000
0000
0000
,
0100
0000
0000
0000
,
1000
0000
1000
0000
,
1000
0000
0000
0000
,
0001
0000
0000
0000
,
0010
0000
0000
0000
,
0001
0000
0001
0000
,
0001
0000
0000
0000
,
1000
0000
0000
0000
,
0010
0000
0000
0000
,
1000
0000
1000
0000
,
1000
0000
0000
0000
,
1001
0000
0000
0000
,
0001
0000
0000
0000
,
0100
0000
0000
0000
,
0010
0000
0000
0000
,
1000
0000
0000
0000
,
0100
0000
0000
0000
,
0010
0000
0000
0000
,
0001
0000
0000
0000
,
0100
0000
0000
0000
,
0000
0000
0000
0000
,
0010
0000
0000
0000
,
0000
0000
0000
0000
,
1000
0000
0000
0000
,
0000
0000
0000
0000
,
0001
0000
0000
0000
,
0000
0000
0000
0000
,
0010
0000
0000
0000
,
0100
0000
0000
0000
,
1000
0000
0000
0000
,
0001
0000
0100
0000
,
0001
0000
0000
0000
,
1000
0000
0000
0000
,
0100
0000
0000
0000
,
0010
0000
0000
0000
,
1001
0000
0000
0000
,
0110
0000
0000
0000
,
1001
0000
0000
0000
,
0100
0000
0010
0000
,
1001
0000
0000
0000
,
0110
0000
0000
0000
,
1001
0000
0000
0000
,
0100
0000
0010
0000
,
1001
0000
0000
0000
;

//--------------- dance-single - forcednature ----------------
#NOTEDATA:;
#STEPSTYPE:dance-single;
#DESCRIPTION:forcednature;
#CREDIT:forcednature;
#DIFFICULTY:Easy;
#METER:7;
#RADARVALUES:0,0,0,0,0;
#NOTES:
0000
0000
0000
0000
,
0000
0000
0000
0000
,
0000
0000
0000
0000
,
0000
0000
0000
0000
,
0000
0000
0000
0000
,
0000
0000
0000
0000
,
1000
0000
0000
0000
0000
0000
0000
0010
0000
0010
0000
0010
,
0000
0000
0000
0000
0000
0000
0000
0100
0000
0100
0000
0100
,
0000
0000
0000
0000
0001
0000
0000
0000
1000
0000
0000
0000
,
0100
0100
0010
0010
,
2002
0000
3003
0000
,
0001
0000
0100
0000
,
0010
0000
1000
0000
,
0100
0100
0010
0010
,
0001
1000
0001
0000
,
0100
0000
0010
0000
,
1000
0000
0001
0000
,
0010
0010
0100
0100
,
1000
0001
0100
0000
,
0010
0000
1000
0000
,
0100
0000
0010
0000
,
0001
0001
1000
1000
,
0010
0010
0100
0100
,
0001
0000
1000
0000
,
0100
0000
0010
0000
,
0001
0001
0100
0100
,
0010
1000
0001
1000
,
0100
0000
0000
0000
0000
0000
0000
0010
0000
0010
0000
0010
,
0000
0000
0000
0000
0000
0000
0000
0001
0000
0001
0000
0001
,
0000
0000
0000
0000
0100
0000
0000
0000
0010
0000
0000
0000
,
1000
0001
0010
0100
,
1000
0000
0000
0000
0000
0000
0000
0001
0000
0001
0000
0001
,
0000
0000
0000
0000
0000
0000
0000
0100
0000
0100
0000
0100
,
0000
0000
0000
0000
0010
0000
0000
0000
1000
0000
0000
0000
,
0100
0010
0001
1000
,
0020
0000
0230
0000
,
0302
0000
0000
0003
,
2000
0000
3200
0000
,
0320
0000
0032
0000
,
0203
0000
0320
0000
,
2030
3002
2003
0000
,
3200
0320
0032
0023
,
0230
0000
2000
3300
,
0001
0000
0100
0000
0001
0000
0100
0000
0001
0000
0100
0000
,
0010
0000
1000
0000
0001
0000
1000
0000
0100
0000
0000
0000
,
0010
0000
0001
0000
0010
0000
0001
0000
0010
0000
0001
0000
,
0100
0000
0010
0000
1000
0000
0001
0000
0010
0000
0000
0000
,
0100
0000
1000
0000
0010
0000
0000
0100
0000
0100
0000
0100
,
0000
0000
0001
0000
1000
0000
0000
0100
0000
0100
0000
0100
,
0000
0000
1000
0000
0001
0000
0000
0010
0000
0010
0000
0010
,
0000
0000
0001
0000
1000
0000
0010
0000
0100
0000
0000
0000
,
1001
0000
0000
0000
0000
0000
0000
0110
0000
0110
0000
0110
,
0000
0000
0000
0000
0000
0000
0000
1001
0000
1001
0000
1001
,
0000
0000
0000
0000
0000
0000
0000
0110
0000
0110
0000
0110
,
0000
0000
0000
0000
0000
0000
0001
0000
0100
0000
0010
0000
,
1000
0000
0000
0000
0000
0000
0000
0110
0000
0110
0000
0110
,
0000
0000
0000
0000
0000
0000
0000
1001
0000
1001
0000
1001
,
0000
0000
0000
0000
0000
0000
0000
0110
0000
0110
0000
0110
,
0000
0000
0000
0000
0000
0000
1000
0000
0100
0000
0010
0000
,
0001
0000
0000
0000
;

//--------------- dance-single - forcednature ----------------
#NOTEDATA:;
#STEPSTYPE:dance-single;
#DESCRIPTION:forcednature;
#CREDIT:forcednature;
#DIFFICULTY:Medium;
#METER:10;
#RADARVALUES:0,0,0,0,0;
#NOTES:
0000
0000
0000
0000
,
0000
0000
0000
0000
,
0000
0000
0000
0000
,
0000
0000
0000
0000
,
0000
0000
0000
0000
,
0000
0000
0000
0000
,
0001
0000
0100
0000
0010
0000
0000
1010
0000
1010
0000
1010
,
0000
0000
1000
0000
0100
0000
0000
0011
0000
0011
0000
0011
,
0000
0000
0001
0000
1000
0000
0010
0000
0100
0000
0001
0000
,
1001
0000
0000
0110
0000
0000
1001
0000
0100
0010
0000
0000
,
2002
0000
3003
0000
,
0102
0000
0000
0003
1000
0010
2000
0000
0000
3000
0001
0010
,
0002
0000
0000
0003
1000
0100
2000
0000
0000
3020
0000
0000
,
0130
0000
0100
0001
0000
0000
1000
0000
1000
0010
0000
0000
,
0110
0000
0000
0100
0001
1000
0001
0000
0000
0010
0000
0000
,
0120
0000
0000
0030
0100
1000
0200
0000
0000
0300
0010
0001
,
0020
0000
0000
0030
0001
0100
0002
0000
0000
2003
0000
0000
,
3100
0000
0100
0010
0000
0000
0001
0000
0001
1000
0000
0000
,
0110
0000
0000
0001
1000
0010
0200
0000
0000
0300
0000
0000
,
0001
0000
0010
0000
0100
0000
1000
0000
0100
0000
0010
0000
,
0002
0000
0000
0003
1000
0010
0200
0000
0000
0300
0000
0000
,
0101
0101
1010
1010
,
1100
1100
0011
0101
,
1000
0000
0010
0000
0100
0000
0001
0000
0100
0000
0010
0000
,
2000
0000
0000
3000
0001
0010
0002
0000
0000
0003
0000
0000
,
0101
0011
1100
1010
,
0110
0000
0000
1001
0000
0000
1000
0100
0010
0001
0010
0100
,
0000
0000
1000
0000
0001
0000
0000
0101
0000
0101
0000
0101
,
0000
0000
0001
0000
1000
0000
0000
0110
0000
0110
0000
0110
,
0000
0000
0001
0000
1000
0000
0010
0000
0100
0000
0001
0000
,
0101
0000
0000
1100
0000
0000
0110
0000
1000
0001
0000
0000
,
0110
0000
1000
0000
0001
0000
0000
1010
0000
1010
0000
1010
,
0000
0000
0001
0000
0010
0000
0000
1100
0000
1100
0000
1100
,
0000
0000
0001
0000
1000
0000
0010
0000
0100
0000
0001
0000
,
0101
0000
0000
1010
0000
0000
1100
0000
0001
0010
0000
0000
,
0002
0000
0203
0000
,
0320
2030
3002
0000
,
0023
0230
2300
3002
,
0203
0000
0320
2030
,
3002
0000
0023
0000
,
0230
2300
3002
0000
,
0203
0320
2030
3002
,
0023
0000
0200
0330
,
1000
0001
1000
0010
0200
0000
0000
0000
0000
0000
0000
0000
,
0301
0010
0001
0000
0100
0000
0010
1000
0010
0000
0100
0000
,
0001
1000
0100
0020
0000
0000
0000
0000
0000
0000
0000
0000
,
0031
1000
0001
0000
0100
0000
0010
1000
0010
0000
0100
0000
,
0001
0000
1000
0000
0100
0000
0010
0001
0000
0001
0000
0001
,
0100
0000
0010
0000
1000
0000
0001
0010
0000
0010
0000
0010
,
0100
0000
1000
0000
0001
0000
0100
0010
0000
0010
0000
0010
,
1000
0000
0100
0000
0010
0000
0001
0000
2002
0000
3003
0000
,
0110
0000
0001
1000
0010
0000
0000
0101
0000
0101
0000
0101
,
0000
0000
0001
1000
0100
0000
0000
1100
0000
1100
0000
1100
,
0000
0000
0100
0010
0001
0000
0000
0110
0000
0110
0000
0110
,
0000
0000
0001
1000
0010
0000
0100
0001
1000
0000
0100
0000
,
0110
0000
0010
0001
1000
0000
0000
1010
0000
1010
0000
1010
,
0000
0000
0001
0010
0100
0000
0000
0011
0000
0011
0000
0011
,
0000
0000
0100
0001
1000
0000
0000
1001
0000
1001
0000
1001
,
0000
0000
0010
0100
0001
0000
1000
0100
0010
0001
0100
0000
,
1001
0000
0000
0000
;

//--------------- dance-single - forcednature ----------------
#NOTEDATA:;
#STEPSTYPE:dance-single;
#DESCRIPTION:forcednature;
#CREDIT:forcednature;
#DIFFICULTY:Hard;
#METER:13;
#RADARVALUES:0,0,0,0,0;
#NOTES:
0000
0000
0000
0000
,
0000
0000
0000
0000
,
0000
0000
0000
0000
,
0000
0000
0000
0000
,
0000
0000
0000
0000
,
0000
0000
0000
0000
,
1100
0000
0100
0010
0001
0010
0000
0101
0000
0101
0000
0001
,
1000
0000
0010
1000
0100
0010
0000
0110
0000
0110
0000
0100
,
1000
0100
0010
0001
0000
0100
0001
0100
0010
1000
0001
1000
,
0100
0000
0000
0110
0000
0000
0011
0000
0001
1000
0000
0000
,
2020
0000
0000
3030
0000
0000
0100
0001
0100
0001
0100
0001
,
2000
0000
0000
0000
3100
0010
0002
0000
0000
0000
0103
0010
,
2000
0000
0000
0000
3010
0100
0002
0000
0000
0023
0000
0130
,
2000
0000
0001
3001
0000
0000
0002
0000
1000
1003
0000
0000
,
0110
0000
0000
0001
1000
0010
0200
0000
0000
0301
0000
0000
,
2100
0000
0000
0000
3001
0010
0200
0000
0000
0000
1300
0001
,
0200
0000
0000
0000
0310
1000
0002
0000
0000
0023
0000
0000
,
0230
0000
0010
0310
0000
0000
0020
0000
0100
0130
0000
0000
,
1001
0000
0000
1000
0001
0100
0020
0000
0000
0030
0000
0000
,
2000
0000
3200
0000
0320
0000
0032
0000
0023
0000
0230
0000
,
2300
0000
0000
0000
3001
0100
0020
0000
0000
0030
0000
0000
,
1000
0100
1000
0001
0100
0001
1000
0010
1000
0001
0010
0001
,
0100
0010
1000
0100
0010
0001
1000
0010
0100
0001
0010
0100
,
2000
0000
3002
0000
0203
0000
0320
0000
2030
0000
3002
0000
,
0023
0000
0000
0000
0130
1000
0002
0000
0000
0003
0000
0000
,
0100
0010
1000
0100
0010
0001
1000
0010
0100
0001
0010
0100
,
1000
0001
0100
0001
1000
0100
0010
0001
1000
0001
0100
0010
,
1000
0000
0001
0010
0100
1000
0000
1100
0000
1100
0000
1000
,
0001
0000
0100
0010
1000
0001
0000
0110
0000
0110
0000
0001
,
1000
0010
0100
0001
0000
1000
0100
0010
0001
0100
0010
0000
,
1010
0000
0000
0101
0000
0000
1100
0000
0001
0010
0000
0000
,
1001
0000
1000
0010
0100
0001
0000
0011
0000
0011
0000
0100
,
1000
0000
0001
0100
0010
1000
0000
0110
0000
0110
0000
0001
,
1000
0000
0010
0100
0001
1000
0100
0000
0010
0001
1000
0001
,
0100
0000
0000
0101
0000
0000
1010
0000
0001
1000
0000
0000
,
0200
0000
0000
0000
0310
0001
0020
0000
0000
0000
0030
0100
,
2000
0000
0000
3002
0000
0103
0020
0000
0000
0000
0000
0030
,
2000
0000
0000
3001
0010
0100
2000
0000
0000
3002
0000
0103
,
0020
0000
0000
0000
1030
0100
0020
0000
0000
0032
0000
0000
,
2003
0000
0000
0000
3100
0010
0002
0000
0000
0000
0003
0100
,
0002
0000
0000
2003
0000
3010
0200
0000
0000
0000
0000
0300
,
0002
0000
0000
1003
0100
0010
0002
0000
0000
0203
0000
0310
,
2000
0000
0000
0000
3001
0010
0200
0000
0000
0000
0000
0000
,
0310
0001
1000
0001
0200
0000
0000
0000
0000
0000
0000
0000
,
0310
1000
0001
1000
0100
0010
0001
0000
0100
0010
1000
0001
,
0010
0100
1000
0200
0000
0000
0000
0000
0000
0000
0000
0000
,
0310
0001
1000
0001
0100
0010
1000
0000
0001
0001
0100
0000
,
0010
1000
0001
1000
0100
0000
0010
0001
0000
0001
0000
0100
,
0010
1000
0001
0010
0100
0000
1000
0001
0000
0001
0000
0100
,
0010
1000
0100
0010
0100
0000
1000
0010
0000
0010
0000
0010
,
0100
0001
1000
0001
0010
0100
1000
0010
0200
0000
0000
0000
,
0301
1000
0010
1000
0001
0010
0200
1000
0000
0010
0000
0301
,
0100
0010
0001
1000
0001
0100
0020
0001
0000
0100
0000
1030
,
0010
0100
0001
1000
0100
0010
0002
0100
0000
1000
0000
0013
,
0001
0100
0010
1000
0010
0100
0001
0010
0100
1000
0100
0010
,
0001
1000
0001
0100
0010
1000
0200
0001
0000
0010
0000
1300
,
0100
0010
0001
1000
0001
0100
0020
0001
0000
0100
0000
1030
,
0010
0100
0001
1000
0100
0010
0002
0100
0000
1000
0000
0013
,
0001
1000
0010
0100
0001
1000
0100
0001
0100
1000
0001
0100
,
0010
0000
0000
0000
;

//--------------- dance-single - forcednature ----------------
#NOTEDATA:;
#STEPSTYPE:dance-single;
#DESCRIPTION:forcednature;
#CREDIT:forcednature;
#DIFFICULTY:Challenge;
#METER:15;
#RADARVALUES:0,0,0,0,0;
#NOTES:
0000
0000
0000
0000
,
0000
0000
0000
0000
,
0000
0000
0000
0000
,
0000
0000
0000
0000
,
0000
0000
0000
0000
,
0000
0000
0000
0000
,
0001
0100
0010
1000
0001
1000
0100
0110
0000
0110
0000
0110
,
0010
0001
1000
0001
0100
0010
1000
1001
0000
1001
0000
1001
,
0001
0010
0100
1000
0010
0100
0001
1000
0100
1000
0001
0100
,
0101
0000
1000
1010
0000
1000
0100
0010
0001
0100
1000
0100
,
0001
0000
0000
0000
0000
0000
0010
0100
0010
0100
0010
0100
,
0210
0000
0000
0310
0001
0100
0020
0000
0000
0130
0010
1000
,
0200
0000
0000
0000
0000
0000
0310
0000
0001
0000
0100
0000
0020
0000
0000
0000
0000
0000
1030
0000
0000
0000
0001
0010
,
0002
0000
0100
0100
0000
0000
2003
0000
0100
0100
0000
0000
,
3020
0000
0000
0000
0000
0000
0130
0000
0001
0000
1000
0000
0100
0000
0000
0000
0010
0001
0010
0000
0100
0000
1000
0000
,
0001
0000
0100
0001
1000
0010
1000
0000
0100
1000
0001
0010
,
0001
0000
0000
0000
0100
0000
0010
0000
0001
0000
0010
0000
1000
0000
0000
0000
0100
0000
1000
0000
0000
0000
0001
0100
,
0002
0000
0010
0010
0000
0000
2003
0000
0010
3010
0000
0000
,
1001
0000
0000
0000
0000
0000
0001
0000
0100
0000
0010
0000
1000
0000
0001
0010
0001
0000
0100
0000
0010
0000
1000
0000
,
0200
0000
0302
0000
2003
0000
3020
0000
0032
0000
2003
0000
,
3020
0000
0000
0000
0130
0001
2000
0000
0000
3000
0000
0000
,
0100
0001
0100
0010
0001
1000
0010
0100
1000
0100
0001
1000
,
0100
0001
0100
1000
0001
0010
1000
0010
0100
1000
0010
0100
,
0002
0000
0203
0000
2300
0000
3002
0000
0023
0000
2030
0000
,
3002
0000
0000
0000
0013
0100
2000
0000
0000
3000
0000
0000
,
0010
0100
1000
0001
0010
0100
0001
1000
0100
0001
1000
0010
,
0001
0000
1000
0000
0010
0000
0100
0000
1000
0000
0100
0000
0001
0000
0010
0100
0010
0000
0001
0000
1000
0000
0010
0000
,
0100
1000
0001
0010
1000
0100
0010
0110
0000
0110
0000
0110
,
0100
0001
0100
1000
0010
0100
0001
1001
0000
1001
0000
1001
,
1000
0010
0001
0010
0100
0001
1000
0100
0001
0100
1000
0010
,
0110
0000
0100
0001
1000
0001
0011
0000
0100
1100
0000
0000
,
1000
0010
0001
0010
0100
0001
1000
1100
0000
1100
0000
1100
,
0100
0001
0100
0010
0001
1000
0010
0110
0000
0110
0000
0110
,
0100
1000
0100
0001
0010
0001
0100
0010
1000
0001
0010
0100
,
0110
0000
0000
0000
1000
0001
1000
0000
0010
0000
0100
0000
0001
0000
0010
0000
0100
0000
1000
0000
0000
0000
0000
0000
,
0020
0000
0000
0000
0130
0001
2000
0000
0000
0000
0000
3100
,
0020
0000
0000
0032
0000
1003
0020
0000
0000
0000
0000
0030
,
0200
0000
0000
0301
1000
0100
2000
0000
0000
3020
0000
0130
,
0002
0000
0000
0000
0013
0100
0020
0000
0000
0032
0000
0000
,
2003
0000
0000
0000
3010
0100
0002
0000
0000
0000
0003
1000
,
0200
0000
0000
0320
0000
0031
2000
0000
0000
0000
0000
3000
,
0020
0000
0000
0130
0001
1000
0200
0000
0000
0320
0000
0031
,
2000
0000
0000
0000
3010
0100
0002
0000
0000
0000
0000
0000
,
1003
0100
1000
0010
0200
0000
1000
0000
0001
0000
1000
0000
,
0310
0100
0001
1000
0100
0001
0100
0010
0001
1000
0010
0100
,
0001
1000
0100
0020
1000
0000
0100
0000
0001
0000
0100
0000
,
1030
0000
0010
0000
0001
0000
1000
0000
0001
0000
0100
0000
0010
0000
1000
0000
0001
0010
0100
0000
1000
0000
0001
0000
,
0100
0010
1000
0001
0010
0100
1000
0020
0030
0020
0030
0020
,
0130
0001
1000
0001
0010
0100
1000
0020
0030
0020
0030
0020
,
0130
0001
1000
0100
1000
0001
0010
0200
0300
0200
0300
0200
,
0310
0000
0001
0000
1000
0000
0001
0000
0100
0000
0010
0000
1000
0000
0001
0010
0001
0000
0100
0000
0010
0000
1000
0000
,
1010
0000
0000
0000
0001
0000
0010
0000
0001
0000
0100
0000
0010
0000
1000
0100
1000
0000
0100
1000
0100
0000
0010
0000
,
0011
0000
0000
0000
0001
0000
1000
0000
0001
0000
0100
0000
0010
0000
1000
0010
1000
0000
0010
1000
0010
0000
0100
0000
,
0101
0000
0000
0000
0001
0000
1000
0000
0100
0000
0010
0000
0001
0000
1000
0100
1000
0000
0100
1000
0100
0000
0010
0000
,
0110
0000
0000
0000
0100
0000
0001
0000
0100
0000
1000
0000
0001
0000
0100
0000
0010
1000
0001
0000
0010
0000
0100
0000
,
0110
0000
0010
0000
0001
0000
1000
0000
0010
0000
0100
0000
0001
0000
1000
0100
1000
0000
0001
0010
0001
0000
0100
0000
,
0110
0000
0010
0000
1000
0000
0001
0000
0010
0000
0001
0000
0100
0000
0010
1000
0010
0000
0100
0001
0100
0000
0010
0000
,
0110
0000
0100
0000
0001
0000
1000
0000
0100
0000
0010
0000
0001
0000
1000
0010
0100
0000
0001
0100
0010
0000
1000
0000
,
0001
0010
0001
0000
0100
0000
0010
0000
1000
0000
0001
0000
0010
0000
1000
0000
0001
0000
0100
0000
1000
0000
0010
0000
,
0110
0000
0000
0000
;

//--------------- dance-double - forcednature ----------------
#NOTEDATA:;
#STEPSTYPE:dance-double;
#DESCRIPTION:forcednature;
#CREDIT:forcednature;
#DIFFICULTY:Easy;
#METER:7;
#RADARVALUES:0,0,0,0,0;
#NOTES:
00000000
00000000
00000000
00000000
,
00000000
00000000
00000000
00000000
,
00000000
00000000
00000000
00000000
,
00000000
00000000
00000000
00000000
,
00000000
00000000
00000000
00000000
,
00000000
00000000
00000000
00000000
,
00010000
00000000
00000000
00000000
00000000
00000000
00000000
00010000
00000000
00010000
00000000
00010000
,
00000000
00000000
00000000
00000000
00000000
00000000
00000000
00001000
00000000
00001000
00000000
00001000
,
00000000
00000000
00000000
00000000
,
01000000
00010000
01000000
00100000
,
20020000
00000000
30030000
00000000
,
10000000
00000000
01000000
00000000
,
00100000
00000000
00001000
00010000
,
00000000
00011000
00000000
00010100
,
00000000
00000100
00001000
00000001
,
00000100
00000000
00000010
00000000
,
00001000
00000000
00000010
00010000
,
00000000
00011000
00000000
00101000
,
00000000
00100000
00010000
00000000
,
10000000
00100000
01000000
00010000
,
01000000
00000000
00001000
00000000
,
00011000
00011000
00010100
00010100
,
00011000
00011000
01001000
01001000
,
00001000
00010000
00000100
00001000
,
00000001
00000000
00000100
00000000
,
00000110
00000110
00001000
00000001
,
00000110
00000110
00000001
00001000
,
00000100
00000000
00000000
00000000
00000000
00000000
00000000
00010000
00000000
00010000
00000000
00010000
,
00000000
00000000
00000000
00000000
00000000
00000000
00000000
00001000
00000000
00001000
00000000
00001000
,
00000000
00000000
00000000
00000000
,
01000000
00010000
10000000
01000000
,
00100000
00000000
00000000
00000000
00000000
00000000
00000000
00001000
00000000
00001000
00000000
00001000
,
00000000
00000000
00000000
00000000
00000000
00000000
00000000
00010000
00000000
00010000
00000000
00010000
,
00000000
00000000
00000000
00000000
,
00000010
00001000
00000001
00000010
,
00000200
00000000
00000000
00000300
,
00020000
00000000
00000000
00030000
,
00002000
00000000
00203000
00000000
,
00320000
00000000
20030000
00000000
,
30200000
00000000
02300000
00000000
,
03020000
00000000
00230000
00000000
,
00302000
00000000
00023000
00000000
,
00030020
00000000
00000000
00000030
,
00000100
00000000
00000001
00000000
00000100
00000000
00000000
00000000
00000000
00000000
00000000
00000000
,
00000010
00000000
00001000
00000000
00000010
00000000
00010000
00000000
00001000
00000000
00010000
00000000
,
00000100
00000000
00001000
00000000
00000000
00000000
00000000
00000000
00000000
00000000
00000000
00000000
,
00000100
00000000
00010000
00000000
00001000
00000000
00100000
00000000
00010000
00000000
00100000
00000000
,
00001000
00000000
00010000
00000000
00001000
00000000
00000000
00000000
01000000
00000000
00000000
00000000
,
00010000
00000000
10000000
00000000
00010000
00000000
00000000
00000000
00100000
00000000
00000000
00000000
,
01000000
00000000
10000000
00000000
01000000
00000000
00000000
00000000
00100000
00000000
00000000
00000000
,
00001000
00000000
00010000
00000000
00000100
00000000
00001000
00000000
00000100
00000000
00000000
00000000
,
00000110
00000000
00000000
00000000
00000000
00000000
00000000
00001001
00000000
00001001
00000000
00001001
,
00000000
00000000
00000000
00000000
00000000
00000000
00000000
00000110
00000000
00000110
00000000
00000110
,
00000000
00000000
00000000
00000000
00000000
00000000
00000000
00011000
00000000
00011000
00000000
00011000
,
00000000
00000000
00000000
00000000
00000000
00000000
01000000
00000000
00010000
00000000
10000000
00000000
,
10010000
00000000
00000000
00000000
00000000
00000000
00000000
01100000
00000000
01100000
00000000
01100000
,
00000000
00000000
00000000
00000000
00000000
00000000
00000000
00011000
00000000
00011000
00000000
00011000
,
00000000
00000000
00000000
00000000
00000000
00000000
00000000
00000110
00000000
00000110
00000000
00000110
,
00000000
00000000
00000000
00000000
00000000
00000000
00000001
00000000
00001000
00000000
00000010
00000000
,
00001001
00000000
00000000
00000000
;

//--------------- dance-double - forcednature ----------------
#NOTEDATA:;
#STEPSTYPE:dance-double;
#DESCRIPTION:forcednature;
#CREDIT:forcednature;
#DIFFICULTY:Medium;
#METER:10;
#RADARVALUES:0,0,0,0,0;
#NOTES:
00000000
00000000
00000000
00000000
,
00000000
00000000
00000000
00000000
,
00000000
00000000
00000000
00000000
,
00000000
00000000
00000000
00000000
,
00000000
00000000
00000000
00000000
,
00000000
00000000
00000000
00000000
,
00001000
00000000
00010000
00000000
00001000
00000000
00000000
01000000
00000000
01000000
00000000
01000000
,
00010000
00000000
10000000
00000000
00010000
00000000
00000000
00100000
00000000
00100000
00000000
00100000
,
01000000
00000000
10000000
00000000
01000000
00000000
00100000
00000000
00010000
00000000
00100000
00000000
,
00001000
00000000
00000000
00011000
00000000
00000000
00010000
00000000
00010000
00000010
00000000
00000000
,
00002002
00000000
00000000
00003003
,
00000002
00000000
00000000
00000003
00000100
00000001
00000200
00000000
00000000
00000300
00000010
00001000
,
00000020
00000000
00000000
00000030
00010000
00001000
00020000
00000000
00000000
00032000
00000000
00000000
,
00103000
00000000
00100000
00020000
00000000
00000000
10030000
00000000
10000000
02000000
00000000
00000000
,
03200000
00000000
00000000
00301000
00010000
00001000
00020000
00000000
00000000
00030020
00000000
00000000
,
00002030
00000000
00000000
00003000
00000001
00000010
00000200
00000000
00000000
00000300
00000010
00000100
,
00002000
00000000
00000000
00003000
00000100
00010000
00002000
00000000
00000000
00203000
00000000
00000000
,
00310000
00000000
00010000
02000000
00000000
00000000
03001000
00000000
00001000
00020000
00000000
00000000
,
00030020
00000000
00000000
00001030
00000001
00000010
00000200
00000000
00000000
00000300
00000000
00000000
,
00001000
00000000
00000010
00000000
00010000
00000000
00001000
00000000
00100000
00000000
00010000
00000000
,
02000000
00000000
00000000
03000000
00100000
10000000
00020000
00000000
00000000
00030000
00000000
00000000
,
00110000
00101000
00011000
00010010
,
00001010
00000110
00000101
00001001
,
00001000
00000000
00000100
00000000
00010000
00000000
00001000
00000000
01000000
00000000
00010000
00000000
,
20000000
00000000
00000000
30000000
01000000
00100000
00020000
00000000
00000000
00030000
00000000
00000000
,
01010000
01001000
00011000
00010100
,
00001100
00000000
00000000
00001001
00000000
00000000
00000001
00001000
00000001
00001000
00000000
00000000
,
00000010
00000000
00010000
00000000
00001000
00000000
00000000
00100000
00000000
00100000
00000000
00100000
,
00001000
00000000
00010000
00000000
00000010
00000000
00000000
00001000
00000000
00001000
00000000
00001000
,
00000100
00000000
00000010
00000000
00000001
00000000
00000010
00000000
00000100
00000000
00010000
00000000
,
00011000
00000000
00000000
00101000
00000000
00000000
00100000
00000000
00100000
00010000
00000000
00000000
,
10000000
00000000
00100000
00000000
00010000
00000000
00000000
00100000
00000000
00100000
00000000
00100000
,
01000000
00000000
00001000
00000000
00010000
00000000
00000000
00000010
00000000
00000010
00000000
00000010
,
00001000
00000000
00000100
00000000
00010000
00000000
00001000
00000000
00100000
00000000
00010000
00000000
,
10010000
00000000
00000000
01100000
00000000
00000000
10000000
00000000
10000000
01000000
00000000
00000000
,
00020000
00000000
00032000
00000000
,
00003020
00000032
00000203
00000300
,
00000020
00002030
00003200
00020300
,
00032000
00000000
02003000
03020000
,
00130000
00000000
01000000
00000000
00100000
00000000
00020000
00000000
00000000
00030000
00000000
00000000
,
01000000
00000000
00001000
00000000
00010000
00000000
00000020
00000000
00000000
00000030
00000000
00000000
,
00001000
00000000
00000100
00000000
00001000
00000000
00000001
00000000
00000100
00000000
00000001
00000000
,
00000020
00000000
00000000
00000000
00000130
00000000
00002000
00000000
00000000
00000000
00003000
00000000
,
00000010
00001000
00000010
00010000
00002000
00000000
00000000
00000000
00000000
00000000
00003000
00000000
,
00100000
00000000
00010000
00000000
00100000
00000000
01000000
00000000
10000000
00000000
00010000
00000000
,
01000000
00001000
00010000
00000200
00000000
00000000
00000000
00000000
00000000
00000000
00000300
00000000
,
00001000
00000000
00000001
00000000
00000100
00000000
00000010
00000000
00001000
00000001
00001000
00000000
,
00000100
00000000
00010000
00000000
00001000
00000000
00000000
00100000
00000000
00100000
00000000
00100000
,
00001000
00000000
00010000
00000000
00000010
00000000
00000000
00001000
00000000
00001000
00000000
00001000
,
00000100
00000000
00010000
00000000
00001000
00000000
00000000
01000000
00000000
01000000
00000000
01000000
,
00010000
00000000
00100000
00000000
01000000
00000000
10000000
00000000
00100000
00000000
00000000
00000000
,
02200000
00000000
00000000
00000000
03300000
00000000
00000000
00011000
00000000
00011000
00000000
00010000
,
00000200
00000000
00000000
00000000
00000300
00000000
00000000
00000110
00000000
00000110
00000000
00000100
,
00020000
00000000
00000000
00000000
00030000
00000000
00000000
00011000
00000000
00011000
00000000
00001000
,
02000000
00000000
00000000
00000000
03000000
00000000
00010000
10000000
00010000
10000000
00010000
00000000
,
02200000
00000000
00000000
00000000
03300000
00000000
00000000
01100000
00000000
01100000
00000000
01000000
,
00002000
00000000
00000000
00000000
00003000
00000000
00000000
00011000
00000000
00011000
00000000
00010000
,
00000020
00000000
00000000
00000000
00000030
00000000
00000000
00000110
00000000
00000110
00000000
00000010
,
00020000
00000000
00000000
00000000
00030000
00000000
00001000
00100000
00001000
00010000
00000010
00010000
,
00002000
00000000
00003000
00000000
;

//--------------- dance-double - forcednature ----------------
#NOTEDATA:;
#STEPSTYPE:dance-double;
#DESCRIPTION:forcednature;
#CREDIT:forcednature;
#DIFFICULTY:Hard;
#METER:15;
#RADARVALUES:0,0,0,0,0;
#NOTES:
00000000
00000000
00000000
00000000
,
00000000
00000000
00000000
00000000
,
00000000
00000000
00000000
00000000
,
00000000
00000000
00000000
00000000
,
00000000
00000000
00000000
00000000
,
00000000
00000000
00000000
00000000
,
00001000
00010000
00001000
01000000
00010000
01000000
00001000
00100000
00000000
00100000
00000000
00100000
,
00001000
00010000
00000010
00001000
00000010
00010000
00001000
01000000
00000000
01000000
00000000
01000000
,
00010000
10000000
01000000
10000000
00010000
01000000
00001000
00010000
00000100
00001000
00000100
00000010
,
00000002
00000000
00000000
00000203
00000000
00000000
00001300
00000000
00010000
00100000
00000000
00000000
,
20020000
00000000
30030000
00000000
,
20000000
00000000
00000000
30000000
01000000
00010000
00002000
00000000
00000000
00003000
00100000
00010000
,
00200000
00000000
00000000
00300000
00001000
00010000
00000020
00000000
00000000
00002030
00000000
00000000
,
00003100
00000000
00000010
00000011
00000000
00000000
00000010
00000000
00000100
00001100
00000000
00000000
,
00020000
00000000
00000000
00031000
01000000
00010000
00200000
00000000
00000000
01300000
00000000
00000000
,
20010000
00000000
00000000
30010000
01000000
00001000
00020000
00000000
00000000
00030010
00001000
00000001
,
00000020
00000000
00000000
00000130
00001000
00000100
00020000
00000000
00000000
00031000
00000000
00100000
,
00010000
00000000
01000000
01010000
00000000
00000000
10000000
00000000
00100000
10100000
00000000
00000000
,
00020000
00000000
00000000
01030000
00001000
00010000
00000020
00000000
00000000
00000030
00000000
00000000
,
00000200
00000000
00002300
00000000
00023000
00000000
00230000
00000000
00320000
00000000
00032000
00000000
,
00003200
00000000
00000000
00000300
00000001
00001000
00000020
00000000
00000000
00000030
00000000
00000000
,
00001000
00000100
00010000
00001000
00100000
00001000
00010000
00000100
00001000
00000100
00010000
00001000
,
01000000
00010000
01000000
00001000
00010000
00000010
00001000
00000010
00010000
00001000
00100000
00010000
,
00200000
00000000
02300000
00000000
03020000
00000000
00032000
00000000
00003020
00000000
00002030
00000000
,
00023000
00000000
00000000
00030000
01000000
10000000
00020000
00000000
00000000
00030000
00000000
00000000
,
01000000
00001000
00010000
00000010
00010000
00001000
00100000
00001000
00010000
00000100
00010000
00001000
,
01000000
00010000
01000000
00001000
00010000
00000100
00001000
00000100
00010000
00001000
00100000
00010000
,
10000000
00100000
10000000
00010000
01000000
00010000
00100000
00001000
00000000
00001000
00000000
00001000
,
00010000
00000100
00001000
00000100
00000010
00000001
00000010
00000100
00000000
00000100
00000000
00000100
,
00001000
00000010
00001000
00000010
00010000
00001000
01000000
00010000
01000000
00001000
00010000
00001000
,
00100000
00000000
00000000
01100000
00000000
00000000
01000000
00000000
00010000
00001000
00000000
00000000
,
00010000
00000010
00001000
00000010
00010000
00001000
00010000
00000100
00000000
00000100
00000000
00000100
,
00001000
00000001
00000100
00000001
00001000
00000010
00010000
00001000
00000000
00001000
00000000
00001000
,
00100000
00010000
00100000
01000000
10000000
01000000
00100000
00001000
00010000
00000100
00001000
00000100
,
00000010
00000000
00000000
00001001
00000000
00000000
00000001
00000000
00000100
00001000
00000000
00000000
,
00020000
00000000
00000000
00030000
00100000
01000000
00200000
00000000
00000000
00300000
00000000
10000000
,
00020000
00000000
00000000
00230000
00000000
01300000
20000000
00000000
00000000
30000000
00000000
00000000
,
02000000
00000000
00000000
03010000
00001000
00010000
00000200
00000000
00000000
00002300
00000000
00003001
,
00000200
00000000
00000000
00000300
00000010
00001000
00000020
00000000
00000000
00010030
00000000
00000000
,
00021000
00000000
00000000
00030000
00001000
00100000
00020000
00000000
00000000
00030000
00000000
00000000
,
01010000
00000000
00000000
10100000
00000000
10000000
02000000
00000000
00000000
03000000
00000000
00000000
,
02100000
00000000
00000000
03100000
00001000
00010000
00000100
00000000
00000000
00001100
00000000
00001000
,
00000002
00000000
00000000
00000003
00000100
00000010
00002000
00000000
00000000
00003000
00000000
00000000
,
00000001
00000010
00000100
00001000
00000020
00000000
00010000
00000000
00001000
00000000
00010030
00000000
,
00000010
00001000
00000010
00010000
00001000
00010000
00000100
00001000
00000100
00010000
00001000
00010000
,
00001000
00100000
00010000
00200000
01000000
00000000
00010000
00000000
01000000
00000000
00310000
00000000
,
00100000
01000000
10000000
01000000
00100000
00010000
00100000
00001000
00010000
00000010
00001000
00000010
,
00000100
00000001
00001000
00000001
00000010
00000100
00001000
00000010
00000000
00000010
00000000
00000010
,
00010000
00001000
01000000
00010000
01000000
00001000
00010000
00000100
00000000
00000100
00000000
00000100
,
00010000
00001000
00100000
00010000
00100000
01000000
10000000
00010000
00000000
00010000
00000000
00010000
,
01000000
00001000
00010000
00000010
00001000
00000010
00000100
00000000
00002002
00000000
00003003
00000000
,
00002000
00000000
00003001
00000100
00001000
00010000
00100000
10000000
00000000
10000000
00000000
10000000
,
00020000
00000000
10030000
01000000
00010000
00001000
00000010
00000001
00000000
00000001
00000000
00000001
,
00002000
00000000
00003001
00000100
00001000
00010000
00100000
10000000
00000000
10000000
00000000
10000000
,
00020000
00000000
10030000
01000000
00010000
00001000
00100000
00010000
00100000
00001000
00010000
00000010
,
00002000
00000000
00003001
00000100
00001000
00010000
00100000
10000000
00000000
10000000
00000000
10000000
,
00020000
00000000
10030000
01000000
00010000
00001000
00000010
00000001
00000000
00000001
00000000
00000001
,
00002000
00000000
00003001
00000100
00001000
00010000
00100000
10000000
00000000
10000000
00000000
10000000
,
00020000
00000000
10030000
01000000
00010000
00001000
00100000
00010000
00100000
00001000
00010000
00000010
,
00002000
00000000
00003000
00000000
;

//--------------- dance-double - forcednature ----------------
#NOTEDATA:;
#STEPSTYPE:dance-double;
#DESCRIPTION:forcednature;
#CREDIT:forcednature;
#DIFFICULTY:Challenge;
#METER:17;
#RADARVALUES:0,0,0,0,0;
#NOTES:
00000000
00000000
00000000
00000000
,
00000000
00000000
00000000
00000000
,
00000000
00000000
00000000
00000000
,
00000000
00000000
00000000
00000000
,
00000000
00000000
00000000
00000000
,
00000000
00000000
00000000
00000000
,
00001000
00010000
00100000
01000000
00100000
00010000
00001000
00101000
00000000
01001000
00000000
00011000
,
00010000
00001000
00000010
00000100
00000010
00001000
00010000
00010010
00000000
00010100
00000000
00011000
,
00001000
00010000
00100000
01000000
00100000
00010000
00001000
00000010
00000100
00000010
00001000
00010000
,
00011000
00000000
00001000
00100000
01000000
00010000
00011000
00000000
00001000
00000010
00000001
00000100
,
00002000
00000000
00000000
00000000
00000000
00000000
00013000
00100000
00010000
00100000
10000000
00010000
,
02000000
00000000
00000000
03001000
00010000
00000010
00002000
00000000
00000000
00003100
00000010
00001000
,
00020000
00000000
00000000
00000000
00000000
00000000
00030010
00000000
00001000
00000000
00000001
00000000
00000020
00000000
00000000
00000000
00000000
00000000
00000230
00000000
00000000
00000000
00001300
00000100
,
00010000
00000000
00001000
00201000
00000000
00000000
00301000
00000000
00010000
00020010
00000000
00000000
,
00030200
00000000
00000000
00000000
00000000
00000000
00000310
00000000
00000001
00000000
00000100
00000000
00000110
00000000
00000000
00000000
00000010
00001000
00000010
00000000
00010000
00000000
00001000
00000000
,
00201000
00000000
01300000
00010000
00001000
00100000
00020000
00000000
10030000
00100000
00010000
00001000
,
02000000
00000000
00000000
00000000
03100000
00000000
00010000
00000000
00001000
00000000
00000100
00000000
00000020
00000000
00000000
00000000
00001030
00000000
00000002
00000000
00000000
00000000
00000013
00000100
,
00001000
00000000
00000010
00010020
00000000
00000000
00010030
00000000
00001000
00201000
00000000
00000000
,
02300000
00000000
00000000
00000000
00000000
00000000
03010000
00000000
00001000
00000000
00000010
00000000
00000100
00000000
00001000
00000001
00000010
00000000
00000001
00000000
00000000
00000000
00000000
00000000
,
00000200
00000000
00002300
00000000
02003000
00000000
03020000
00000000
00230000
00000000
02300000
00000000
,
03020000
00000000
00000000
00030100
00001000
00000001
00000200
00000000
00000000
00000300
00000000
00000000
,
00000010
00000100
00001000
00010000
00001000
00000100
00001000
00010000
00100000
01000000
00100000
00010000
,
00100000
10000000
01000000
00010000
00001000
00010000
01000000
10000000
00100000
00010000
00001000
00000010
,
00000002
00000000
00000203
00000000
00002300
00000000
02003000
00000000
03020000
00000000
00230000
00000000
,
02300000
00000000
00000000
03010000
00000100
00001000
00000020
00000000
00000000
00000030
00000000
00000000
,
00000100
00001000
00010000
01000000
00010000
00001000
00000010
00001000
00010000
00100000
00010000
00001000
,
00010000
00000000
01000000
00000000
10000000
00000000
00100000
00000000
00010000
00000000
00100000
00000000
10000000
00000000
01000000
00100000
00010000
00000000
10000000
00000000
00100000
00000000
00010000
00000000
,
00001000
00010000
00001000
00000000
00010000
00000000
00000100
00000000
00000010
00000000
00001000
00000000
00010000
00000000
00010100
00000000
00000000
00000000
00010010
00000000
00000000
00000000
00011000
00000000
,
00010000
00001000
01000000
00100000
00010000
00001000
00100000
00101000
00000000
01001000
00000000
00011000
,
00010000
00100000
10000000
01000000
00010000
00001000
00010000
01000000
00100000
00001000
00000010
00000100
,
00002100
00000000
00003010
00010000
00001000
01000000
01020000
00000000
00130000
01100000
00000000
00000000
,
01000000
00010000
00001000
00000000
00100000
00000000
00010000
00000000
00001000
00000000
00000100
00000000
00010000
00000000
00010010
00000000
00000000
00000000
00010100
00000000
00000000
00000000
00011000
00000000
,
00010000
00000010
00001000
00010000
01000000
00001000
00100000
00101000
00000000
01001000
00000000
00011000
,
00001000
00000100
00000001
00000010
00001000
00010000
00001000
00000010
00000001
00000100
00001000
00010000
,
00011000
00000000
00000000
00000000
00100000
00010000
00100000
00000000
01000000
00000000
10000000
00000000
01000000
00000000
00010000
00000000
00001000
00010000
00001000
00000000
00000000
00000000
00000000
00000000
,
00000020
00000000
00000000
00000000
00000031
00000100
00002000
00000000
00000000
00003000
00000000
00010000
,
00200000
00000000
00000000
20300000
00000000
31000000
00020000
00000000
00000000
00030000
00000000
00000000
,
00000200
00000000
00000000
00001300
00000010
00000100
00002000
00000000
00000000
02003000
00000000
03010000
,
00200000
00000000
00000000
00000000
01300000
00010000
00002000
00000000
00000000
00003020
00000000
00000000
,
00000130
00010000
00000010
00001000
00000010
00010000
00000100
00010000
00001000
00100000
00000000
00010000
,
01000000
00001000
00100000
00010000
00100000
00001000
01000000
00001000
00010000
00000010
00000000
00000000
,
00000200
00000000
00000000
00001300
00010000
00100000
02000000
00000000
00000000
03020000
00000000
10030000
,
02000000
00000000
00000000
00000000
03010000
00001000
00000020
00000000
00000000
00000000
00000030
00000000
,
00000001
00000100
00001000
00010000
00200000
00000000
10000000
00000000
00010000
00000000
10000000
00000000
,
00310000
00100000
01000000
00010000
10000000
00100000
10000000
01000000
00010000
00001000
00000100
00000001
,
00000010
00000100
00010000
00000020
00001000
00000000
00000001
00000000
00001000
00000000
00000001
00000000
,
00001030
00000000
00000010
00000000
00000100
00000000
00001000
00000000
00010000
00000000
01000000
00000000
00100000
00000000
00001000
00000000
00010000
00000100
00001000
00000100
00010000
00000000
00001000
00000000
,
00100000
01000000
00010000
00001000
00100000
00001000
00000010
00001010
00000000
00000011
00000000
00000101
,
00000100
00010000
01000000
00010000
00100000
01000000
00010000
01010000
00000000
11000000
00000000
10100000
,
00100000
00010000
00100000
10000000
01000000
00010000
00001000
00001010
00000000
00000011
00000000
00000101
,
00000100
00000000
00001000
00000000
00010000
00000000
01000000
00000000
00010000
00000000
00001000
00000000
00100000
00000000
00010000
10000000
01000000
00000000
00010000
00000000
00001000
00000000
00010000
00000000
,
00000100
00001000
00000100
00010000
00001000
00000000
00100000
00000000
00010000
00000000
01000000
00000000
10000000
00000000
01000000
00010000
01000000
00000000
00010000
01000000
00001000
00000000
00010000
00000000
,
00000010
00001000
00000010
00010000
00001000
00000000
00010000
00000000
00000100
00000000
00001000
00000000
00000010
00000000
00000100
00000001
00000100
00000000
00000001
00001000
00000010
00000000
00001000
00000000
,
00000100
00001000
00000100
00010000
00001000
00000000
01000000
00000000
00010000
00000000
00100000
00000000
01000000
00000000
00010000
01000000
10000000
00000000
01000000
10000000
00010000
00000000
00100000
00000000
,
00001000
00010000
00000100
00001000
00000100
00000000
00010000
00000000
00000010
00000000
00001000
00000000
00000002
00000000
00000203
00000000
00002300
00000000
00023000
00000000
02030000
00000000
23000000
00000000
,
30010000
01000000
00100000
10000000
00010000
00000000
00100000
00000000
01000000
00000000
00010000
00000000
00001000
00000000
00100000
00001000
00010000
00000000
00001000
01000000
00010000
00000000
00100000
00000000
,
00001000
00010000
00000100
00001000
00000100
00000000
00010000
00000000
00000010
00000000
00001000
00000000
00000001
00000000
00000010
00000100
00001000
00000000
00000100
00010000
00001000
00000000
00100000
00000000
,
00010000
01000000
00001000
00010000
00001000
00000000
00100000
00000000
00010000
00000000
10000000
00000000
00100000
00000000
01000000
00001000
00010000
00000000
00001000
00100000
00010000
00000000
00100000
00000000
,
00001000
00010000
00000010
00001000
00000010
00000000
00000100
00000000
00000001
00000000
00000010
00000000
00001000
00000000
00010000
00000000
01000000
00000000
00100000
00000000
00001000
00000000
00000010
00000000
,
00000220
00000000
00000330
00000000
;
