#VERSION:0.83;
#TITLE:冬椿 ft. Kanae Asaba;
#SUBTITLE:;
#ARTIST:Xceon;
#TITLETRANSLIT:Fuyutsubaki ft. Kanae Asaba;
#SUBTITLETRANSLIT:;
#ARTISTTRANSLIT:;
#GENRE:HYPER ENKA POP;
#CREDIT:;
#MUSIC:Fuyutsubaki ft. Kanae Asaba.ogg;
#BANNER:Fuyutsubaki ft. Kanae Asaba.png;
#BACKGROUND:Fuyutsubaki ft. Kanae Asaba-bg.png;
#CDTITLE:./CDTitles/bm IIDX 24 SINOBUZ.png;
#SAMPLESTART:52.248;
#SAMPLELENGTH:15.000;
#SELECTABLE:YES;
#OFFSET:-0.006;
#BPMS:0.000=155.000;
#STOPS:;
#TIMESIGNATURES:0.000=4=4;
#BGCHANGES:0.000=Fuyutsubaki ft. Kanae Asaba.mp4=1.000=0=0=0=StretchNoLoop====,
99999.000=-nosongbg-=1.000=0=0=0=StretchNoLoop====
;
#FGCHANGES:;

//--------------- dance-single - forcednature ----------------
#NOTEDATA:;
#STEPSTYPE:dance-single;
#DESCRIPTION:forcednature;
#CREDIT:forcednature;
#DIFFICULTY:Beginner;
#METER:1;
#RADARVALUES:0,0,0,0,0;
#NOTES:
0000
0000
0000
0000
,
0000
0000
0000
0000
,
0000
0000
0000
0000
,
0000
0000
0000
0000
,
0000
0000
0000
0000
,
0001
0000
0000
0000
,
0000
0000
0000
0000
,
1000
0000
0000
0000
,
0000
0000
0000
0000
,
0010
0000
0000
0000
,
0000
0000
0000
0000
,
0100
0000
0000
0000
,
0000
0000
0000
0000
,
0001
0000
0000
0000
,
0000
0000
0000
0000
,
1000
0000
0000
0000
,
0000
0000
0000
0000
,
0100
0000
0000
0000
,
0000
0000
0000
0000
,
0000
0000
0000
0000
,
0000
0000
0000
0000
,
0010
0000
0000
0000
,
0000
0000
0000
0000
,
0000
0000
0000
0000
,
0000
0000
0000
0000
,
0001
0000
0000
0000
,
0001
0000
0000
0000
,
0100
0000
0000
0000
,
0000
0000
0000
0000
,
0010
0000
0000
0000
,
0010
0000
0000
0000
,
1000
0000
0000
0000
,
0000
0000
0000
0000
,
0001
0000
0000
0000
,
1001
0000
0000
0000
,
0000
0000
0000
0000
,
1000
0000
0000
0000
,
0100
0000
0000
0000
,
1001
0000
0000
0000
,
0000
0000
0000
0000
,
0001
0000
0000
0000
,
0100
0000
0000
0000
,
1001
0000
0000
0000
,
0000
0000
0000
0000
,
1000
0000
1000
0000
,
0010
0000
0000
0000
,
1001
0000
0000
0000
,
0000
0000
0000
0000
,
0001
0000
0001
0000
,
0010
0000
0000
0000
,
0200
0000
0000
0000
,
0000
0000
0000
0000
,
0000
0000
0000
0000
,
0300
0000
0000
0000
,
1000
0000
0000
0000
,
0000
0000
0000
0000
,
0001
0000
0000
0000
,
0000
0000
0000
0000
,
0100
0000
0000
0000
,
0010
0000
0000
0000
,
1001
0000
0000
0000
,
0000
0000
0000
0000
,
0001
0000
0000
0000
,
0100
0000
0000
0000
,
1001
0000
0000
0000
,
0000
0000
0000
0000
,
1000
0000
0000
0000
,
0100
0000
0000
0000
,
1001
0000
0000
0000
,
0000
0000
0000
0000
,
0001
0000
0000
0000
,
0010
0000
0000
0000
,
1001
0000
0000
0000
,
0000
0000
0000
0000
,
1000
0000
0000
0000
,
0010
0000
0000
0000
,
1001
0000
0000
0000
;

//--------------- dance-single - forcednature ----------------
#NOTEDATA:;
#STEPSTYPE:dance-single;
#DESCRIPTION:forcednature;
#CREDIT:forcednature;
#DIFFICULTY:Easy;
#METER:5;
#RADARVALUES:0,0,0,0,0;
#NOTES:
0000
0000
0000
0000
,
0000
0000
0000
0000
,
0000
0000
0000
0000
,
0000
0000
0000
0000
,
0000
0000
0000
0000
,
1001
0000
0000
0000
,
0000
0000
0000
0000
,
0110
0000
0001
0000
,
1000
1000
1000
0000
,
0010
0000
0100
0000
,
0010
0000
0000
0000
,
1000
0000
1000
0000
,
0001
0000
0010
0000
,
0100
0000
1000
0000
,
0100
0000
0000
0000
,
0010
0000
0001
0000
,
0100
0100
0100
0000
,
0110
0000
0000
0000
,
0010
0000
0010
0000
,
1000
0000
0000
0000
,
1000
0000
1000
0000
,
0100
0000
0000
0000
,
0010
0000
0010
0000
,
0001
0000
0000
0000
,
0100
0100
0100
0000
,
0110
0000
0000
0000
,
0001
0010
0100
1000
,
0001
0000
0000
0000
,
1000
0010
0100
0001
,
1000
0000
0000
0000
,
0100
0010
0001
1000
,
0010
0000
0110
0000
,
0100
0100
0001
1000
,
0020
0000
0000
0030
,
1001
0000
0100
0000
,
0110
0000
0000
0000
,
0001
0000
1000
0000
,
0010
0010
0010
0000
,
1001
0000
0100
0000
,
0110
0000
0000
0000
,
1000
0000
0001
0000
,
0010
0010
0010
0000
,
0100
0000
0000
0000
,
1000
0000
0001
0000
,
0100
0000
0010
0000
,
1000
0000
0000
0000
,
0001
0000
0000
0000
,
0010
0000
0100
0000
,
1000
0000
0001
0000
,
0100
0100
0100
0000
,
0020
0000
0000
0000
,
0000
0000
0030
0000
,
2000
0000
0000
3000
,
0002
0000
0000
0003
,
1001
0000
0000
0000
,
1000
0000
0000
0000
,
0010
0000
0010
0000
,
0100
0100
0001
0000
,
0010
0000
0100
0000
,
0010
0100
0110
0000
,
1001
0000
0100
0000
,
0110
0000
0000
0000
,
0001
0000
1000
0000
,
0010
0010
0010
0000
,
1001
0000
0010
0000
,
0110
0000
0000
0000
,
1000
0000
0001
0000
,
0010
0010
0010
0000
,
0100
0000
1000
0000
,
0001
0100
0010
1000
,
0001
0000
0010
0000
,
0001
0010
0100
1000
,
0010
0000
0010
0000
,
1000
0100
0010
0001
,
0100
0000
0001
0000
,
1000
0010
0100
0001
,
0020
0000
0000
0000
,
0000
0000
0030
0000
;

//--------------- dance-single - forcednature ----------------
#NOTEDATA:;
#STEPSTYPE:dance-single;
#DESCRIPTION:forcednature;
#CREDIT:forcednature;
#DIFFICULTY:Medium;
#METER:10;
#RADARVALUES:0,0,0,0,0;
#NOTES:
0000
0000
0000
0000
,
0000
0000
0000
0000
,
0000
0000
0000
0000
,
0000
0000
0000
0000
,
0000
0000
0000
0000
,
1001
0001
0100
0001
,
2000
3000
0010
0100
,
1001
0001
0110
1000
,
0010
0100
0001
1000
0020
0000
0130
0001
,
0100
0000
0000
0000
0010
0000
1000
0000
0010
0000
0000
0100
0000
0000
0001
0000
,
1000
0100
0010
0000
0001
1000
0010
0000
,
0100
0000
0000
0000
0001
0000
0010
0000
0001
0000
0000
1000
0000
0000
0100
0000
,
1000
0000
0010
0100
0001
0000
1001
0000
,
1000
0000
0000
0000
0100
0000
1000
0000
0100
0000
0000
0010
0000
0000
0001
0000
,
0010
0000
0001
1000
0001
0000
0100
0000
,
0110
0000
0001
1000
0100
0000
0010
0000
,
0001
1000
0010
0100
0002
0000
0003
0000
,
1000
0100
0010
0100
,
1000
0100
0001
0000
0100
0000
1000
0000
,
0001
0100
0010
0100
,
0001
0100
1000
0000
0100
0000
0001
0000
,
1000
0010
0100
0010
,
1000
0010
0001
0000
0010
0000
1000
0000
,
0001
0010
0100
0010
,
0001
0001
0001
0000
1000
0010
1000
0000
,
1001
0000
0001
0000
0100
0000
0010
2000
,
0000
0100
0001
3010
,
1000
0000
0001
0000
1000
0000
0100
0020
,
0000
0001
0100
1030
,
0010
0000
0001
0000
1000
0000
0010
0200
,
0000
0001
0010
1300
,
0100
0000
0001
1000
0001
0000
0010
0100
,
0010
0010
0010
0000
0100
1000
0001
0000
,
0100
0000
0000
0100
0000
0000
0010
0000
2000
0000
0000
0000
3001
0000
0000
0000
,
0110
1000
0110
0001
,
1001
0000
1000
0100
1000
0000
0010
0000
,
1001
0000
0001
0100
0001
0000
0010
0000
,
0100
0110
1001
0010
,
1100
0010
0101
0010
,
1001
0000
0001
0100
0001
0000
0010
0000
,
1001
0000
1000
0100
1000
0000
0010
0000
,
0100
0001
1000
0010
0200
0000
0300
0000
,
0002
0000
0000
0013
0100
0000
1000
0000
,
0020
0000
0000
0130
0001
0000
1000
0000
,
0200
0320
0032
2003
,
3020
0000
0100
0130
,
0102
0000
0000
1003
0010
0000
0100
0000
,
0002
0023
0230
1300
,
0011
0000
0001
0100
0010
0000
1000
0100
,
0010
0000
1001
0000
1000
0010
0100
0001
,
0020
0000
0230
0000
,
2300
3000
0001
0100
,
0020
0000
1030
0001
,
0010
0100
0220
0330
,
0002
0100
2003
0100
,
3020
0030
0100
0001
,
2002
3003
0220
0330
,
1000
0001
2002
3003
,
1000
0100
0010
0000
0001
0100
0010
0000
,
0100
0000
0000
0110
0000
0000
0010
0000
2000
0000
0000
0000
3001
0000
0000
0000
,
0110
1000
0110
0001
,
1001
0000
1000
0010
1000
0000
0001
0000
,
1001
0000
0001
0010
0001
0000
0100
0000
,
0010
0110
1001
0100
,
1010
0100
0011
0100
,
0110
0000
0001
1000
0001
0000
0010
0000
,
0110
0000
1000
0010
1000
0000
0001
0000
,
0100
0010
1000
0001
0200
0000
0300
0000
,
0010
0000
1000
0100
0001
0000
0200
0000
,
1300
0011
0110
1100
,
0010
0000
0001
0100
1000
0000
0200
0000
,
0301
1010
0110
0101
,
1000
0000
0001
0010
1000
0000
0020
0000
,
0031
0101
0110
1010
,
0001
0000
1000
0100
0010
0000
0001
0100
,
0010
0010
0010
0000
1000
0001
0100
0000
,
0220
0000
0000
0000
,
0000
0000
0330
0000
;

//--------------- dance-single - forcednature ----------------
#NOTEDATA:;
#STEPSTYPE:dance-single;
#DESCRIPTION:forcednature;
#CREDIT:forcednature;
#DIFFICULTY:Hard;
#METER:15;
#RADARVALUES:0,0,0,0,0;
#NOTES:
0000
0000
0000
0000
,
0000
0000
0000
0000
,
0000
0000
0000
0000
,
0000
0000
0000
0000
,
0000
0000
0000
0000
0000
0000
0001
0100
,
0120
0000
1000
0000
0130
0000
1000
0001
,
0020
0000
0100
0000
0031
0000
0100
1000
,
1020
0000
0130
0001
0021
0000
0130
0000
,
1000
0100
1000
0000
0001
0100
0001
0000
0010
0000
0100
0010
0001
0000
1000
0000
,
0010
0000
0000
0010
0100
0000
0001
0000
0010
0000
0000
0010
0100
0000
1000
0000
,
0001
0000
0100
0000
1000
0000
0100
0000
0001
0000
1000
0000
0010
0100
0001
0100
,
0010
0000
0000
0000
1000
0000
0001
0000
0010
0000
0000
0100
0010
0000
0100
0000
,
1000
0000
1000
0000
0001
0100
0010
0100
0001
0000
0000
0000
1010
0000
0001
0000
,
0100
0000
0000
0100
0010
0000
1000
0000
0100
0000
0000
0010
0100
0000
1000
0000
,
0001
0000
0000
0001
0010
0000
0100
0000
0001
0000
0100
0000
1000
0000
0001
0000
,
0010
0001
0010
0000
0100
0000
1000
0000
1100
0000
0000
0100
0001
0000
0000
0000
,
0100
1000
0100
0000
1000
0010
1000
0000
0010
0000
0100
0001
1000
0000
0000
0000
,
0001
0010
0100
0010
0001
0010
1000
0010
,
0001
1000
0100
1000
0001
0000
0011
0000
,
1000
0010
0100
0010
1000
0010
0001
0010
,
1000
0001
0100
0001
1000
0000
1010
0000
,
0001
0100
1000
0100
0001
1000
0010
1000
,
0001
0010
0100
1000
0010
0000
1001
0000
,
1000
0100
0001
0100
1000
0001
0010
0001
,
1000
0010
1000
0000
0010
0100
0010
0000
1000
0001
0100
0001
1000
0000
0010
0000
,
0110
0000
0000
0001
0010
0000
0000
0100
0010
0000
0000
0100
1000
0000
0001
0000
,
0010
0000
0001
0000
1000
0010
1000
0000
0010
0100
0010
0100
0001
0000
0000
0000
,
0110
0000
0000
1000
0010
0000
0000
0100
0010
0000
0000
0100
0001
0000
1000
0000
,
0010
0000
1000
0000
0001
0010
0001
0000
0010
0100
0010
0100
1000
0000
0001
0000
,
1001
0000
0000
1000
0100
0000
0000
0010
0001
0000
0000
1000
0010
0000
0100
0000
,
0001
0000
0010
0000
0001
1000
0001
0000
0100
0010
1000
0010
0100
0000
0001
0000
,
1001
0000
0000
1000
0100
0000
0010
0000
1001
0000
0000
0001
0100
0000
0010
0000
,
1000
0000
0100
1000
0100
0000
1000
0001
0010
0000
0100
0000
0010
0100
0010
0000
,
0100
0000
0000
1001
0000
0000
0010
0000
0110
0000
0000
0000
0001
1000
0001
0000
,
0011
0000
0000
0000
1000
0001
1000
0000
1010
0000
0000
0000
0001
0000
0100
0000
,
1000
0000
0100
0000
0001
1000
0000
0010
0000
0010
0000
0100
0001
0000
1000
0000
,
0100
0000
0001
0000
0100
1000
0000
0001
0000
0001
0000
0100
0010
0000
1000
0000
,
0001
0010
0001
0000
1000
0100
1000
0000
0110
0000
0000
0000
1000
0001
1000
0000
,
1010
0000
0000
0000
0001
1000
0001
0000
0011
0000
0000
0000
1000
0000
0100
0000
,
0001
0000
0100
0000
1000
0001
0000
0010
0000
0010
0000
0100
1000
0000
0001
0000
,
0100
0000
1000
0000
0100
0001
0000
0001
1000
0000
0010
0100
0010
0000
0000
0000
,
1000
0100
1000
0000
0001
0100
0001
0000
0010
0100
1000
0100
0010
0000
0000
0000
,
0001
0000
1000
0000
0100
0000
1000
0001
0010
0000
0100
0000
0120
0000
0000
0000
,
0031
0000
1000
0000
0010
0000
1000
0001
0200
0000
0000
0000
0310
0000
1000
0000
,
0001
0000
0000
0001
0010
0000
0000
0010
0100
0000
0000
0100
0002
0000
0000
0000
,
0103
0000
1000
0000
0010
0000
1000
0000
0001
0000
0010
0100
0010
0000
0100
0000
,
1000
0000
0001
0000
0100
0000
0001
1000
0010
0000
0100
0000
0102
0000
0000
0000
,
1003
0000
0000
1000
0010
0000
0000
0010
0002
0000
0000
0000
0013
0000
1000
0000
,
0100
1000
0100
0000
0010
0000
0100
1000
0001
0000
0000
0000
0110
0000
0000
0000
,
0001
0100
0001
0000
1000
0100
1000
0000
0010
0100
0001
0100
0010
0000
1000
0000
,
0002
0000
0010
0003
0020
0000
0100
0030
,
2002
0000
3003
1000
0010
0100
0001
0100
,
0020
0000
0000
1030
0002
0000
0013
0000
,
1100
0000
0110
0000
0011
0000
0001
0100
,
0020
0000
1030
0100
0020
0000
0130
1000
,
0002
0000
0003
0100
0010
1000
0001
0000
,
2100
0000
3010
0100
0102
0000
0013
0000
,
0101
1010
0220
0330
,
0001
1000
0001
0000
1000
0000
0010
0000
0100
0010
0100
0010
1000
0000
0001
0000
,
0010
0000
0000
0110
0000
0000
0100
0000
1001
0000
0000
0000
1000
0100
1000
0000
,
0011
0000
0000
0000
0001
0100
0001
0000
1010
0000
0000
0000
1000
0000
0100
0000
,
0001
0000
0100
0000
1000
0001
0000
0010
0000
0100
0000
1000
0001
0000
0100
0000
,
1000
0000
0100
0000
0001
1000
0000
0010
0000
0100
0000
0001
1000
0000
0100
0000
,
0010
0001
1000
0000
0010
1000
0001
0000
1001
0000
0000
0000
0001
0010
0001
0000
,
1100
0000
0000
0000
1000
0010
1000
0000
0101
0000
0000
0000
0001
0000
0010
0000
,
1000
0000
0010
0000
0001
1000
0000
0010
0000
0100
0000
0001
1000
0000
0010
0000
,
0001
0000
0010
0000
1000
0001
0000
0100
0001
0000
0100
0010
1000
0000
0000
0000
,
0001
0010
0100
0000
1000
0010
0100
0000
0001
1000
0010
1000
0002
0000
0000
0000
,
1003
0000
0010
0000
1000
0100
0010
0100
0000
1000
0001
0010
0001
0000
0100
0000
,
1001
0000
0000
0000
0001
0010
0001
0000
0010
0100
0010
0000
0100
1000
0100
0000
,
0010
0000
0001
0000
1000
0010
0100
0010
0000
1000
0001
0100
0001
0000
1000
0000
,
0110
0000
0000
0000
1000
0100
1000
0000
0100
0010
0100
0000
0010
0001
0010
0000
,
0100
0000
1000
0000
0001
0100
0010
0100
0000
0001
1000
0010
1000
0000
0100
0000
,
1001
0000
0000
0000
0001
0100
0001
0000
0100
0010
0100
0000
0010
1000
0010
0000
,
0100
0000
0001
1000
0100
1000
0000
0001
0000
0010
0000
0100
0010
0100
1000
0000
,
0001
0100
0001
0100
0010
0000
1000
0010
1000
0000
0100
0010
0001
0000
0100
0010
,
2000
0000
0000
0000
,
0002
0000
3003
0000
;

//--------------- dance-double - forcednature ----------------
#NOTEDATA:;
#STEPSTYPE:dance-double;
#DESCRIPTION:forcednature;
#CREDIT:forcednature;
#DIFFICULTY:Easy;
#METER:4;
#RADARVALUES:0,0,0,0,0;
#NOTES:
00000000
00000000
00000000
00000000
,
00000000
00000000
00000000
00000000
,
00000000
00000000
00000000
00000000
,
00000000
00000000
00000000
00000000
,
00000000
00000000
00000000
00000000
,
00011000
00000000
00000000
00000000
,
00000000
00000000
00000000
00000000
,
01000000
00000000
01000000
00000000
,
00010000
00000000
00000000
00000000
,
10000000
00000000
00000000
00000000
,
01000000
00000000
00000000
00000000
,
00100000
00000000
00000000
00000000
,
00001000
00000000
00000000
00000000
,
00010000
00000000
00000000
00000000
,
00000100
00000000
00000000
00000000
,
00000010
00000000
00000000
00000000
,
00000001
00000000
00000001
00000000
,
00000100
00000000
00000000
00000000
,
00000000
00000000
00000000
00000000
,
00000010
00000000
00000010
00000000
,
00001000
00000000
00000000
00000000
,
00000100
00000000
00000000
00000000
,
00000000
00000000
00000000
00000000
,
00010000
00000000
00010000
00000000
,
00001000
00000000
00000000
00000000
,
01000000
00000000
00000000
00000000
,
00010000
00000000
00000000
00000000
,
10000000
00000000
00000000
00000000
,
00100000
00000000
00000000
00000000
,
10000000
00000000
00000000
00000000
,
01000000
00000000
00000000
00000000
,
00100000
00000000
00100000
00000000
,
00001000
00000000
00000000
00000000
,
00022000
00000000
00033000
00000000
,
00001000
00000000
00010000
00000000
,
00011000
00000000
00000000
00000000
,
00000100
00000000
00000000
00000000
,
00001000
00000000
00001000
00000000
,
00000010
00000000
00000100
00000000
,
00000110
00000000
00000000
00000000
,
00000001
00000000
00001000
00000000
,
00000001
00000000
00000000
00000000
,
00000010
00000000
00000000
00000000
,
00000100
00000000
00000000
00000000
,
00001000
00000000
00001000
00000000
,
00000010
00000000
00000000
00000000
,
00010000
00000000
00000000
00000000
,
00001000
00000000
00000000
00000000
,
00100000
00000000
00100000
00000000
,
00010000
00000000
00000000
00000000
,
20020000
00000000
00000000
00000000
,
00000000
00000000
00000000
00000000
,
00000000
00000000
00000000
00000000
,
30030000
00000000
00000000
00000000
,
00010000
00000000
00000000
00000000
,
01000000
00000000
00000000
00000000
,
00001000
00000000
00001000
00000000
,
00010000
00000000
00011000
00000000
,
00000010
00000000
00000100
00000000
,
00000220
00000000
00000330
00000000
,
00000001
00000000
00001000
00000000
,
00001001
00000000
00000000
00000000
,
00001000
00000000
00000000
00000000
,
00000100
00000000
00010000
00000000
,
00001000
00000000
00010000
00000000
,
00011000
00000000
00000000
00000000
,
01000000
00000000
01000000
00000000
,
00010000
00000000
00000000
00000000
,
00100000
00000000
00100000
00000000
,
01000000
00000000
10000000
00000000
,
00010000
00000000
00010000
00000000
,
01000000
00000000
00010000
00000000
,
00100000
00000000
00100000
00000000
,
00001000
00000000
00010000
00000000
,
00000100
00000000
00000100
00000000
,
00001000
00000000
00000010
00000000
,
00002002
00000000
00000000
00000000
,
00000000
00000000
00003003
00000000
;

//--------------- dance-double - forcednature ----------------
#NOTEDATA:;
#STEPSTYPE:dance-double;
#DESCRIPTION:forcednature;
#CREDIT:forcednature;
#DIFFICULTY:Medium;
#METER:11;
#RADARVALUES:0,0,0,0,0;
#NOTES:
00000000
00000000
00000000
00000000
,
00000000
00000000
00000000
00000000
,
00000000
00000000
00000000
00000000
,
00000000
00000000
00000000
00000000
,
00000000
00000000
00000000
00000000
,
00011000
01000000
00010000
00100000
,
02000000
03000000
00010000
00001000
,
00011000
00000100
00001001
00000010
,
00000001
00000100
00000010
00001000
00000002
00000000
00000000
00000003
,
00000010
00001000
00010000
01000000
,
00100000
00010000
00100000
01000000
10000000
00000000
00010000
00000000
,
01000000
00100000
10000000
01000000
,
00010000
00001000
00100000
00010000
00100000
00000000
00001000
00000000
,
00000010
00000100
00010000
00001000
,
00000010
00000000
00000001
00001000
00000010
00001000
00000001
00000000
,
00000100
00000000
00001000
00010000
00001000
00000000
00100000
00000000
,
01000000
10000000
01000000
00010000
00002000
00000000
00100000
00000000
,
00013000
00000000
00100000
10000000
00000000
10000000
00100000
00000000
,
00010000
00001000
00000100
00000010
,
00010000
00000000
00001000
00000010
00000000
00000010
00001000
00000000
,
00010000
00000000
00000100
00000000
00001000
00000001
00001000
00000000
,
00000010
00000000
00000100
00001000
00000000
00001000
00000100
00000000
,
00000001
00000010
00001000
00010000
,
01000000
00000000
10000000
00100000
00000000
00100000
10000000
00000000
,
01000000
00010000
00001000
00000000
00100000
00010000
00100000
00000000
,
00011000
00000000
00000010
00000000
00001000
00000000
00000100
00000020
,
00000000
00000030
00000002
00000000
00000203
00000000
00002300
00000000
,
00023000
00000000
00130000
00000000
10010000
00000000
01000000
00200000
,
00000000
00300000
20000000
00000000
32000000
00000000
03020000
00000000
,
00032000
00000000
00003010
00000000
00001001
00000000
00000100
00000020
,
00000000
00000030
00000002
00000000
00000203
00000000
00002300
00000000
,
00023000
00000000
00130000
00000000
10010000
00000000
01000000
00200000
,
00000000
00300000
10000000
01000000
00020000
00000000
00032000
00000000
,
00003010
00000000
00000000
00000010
00000000
00000000
00000100
00000000
00010000
00000000
00000000
00000000
00002000
00000000
00000000
00000000
,
00000010
00023000
00100000
00031000
,
00011000
00000000
01000000
00010000
00100000
00000000
01000000
00000000
,
10000000
00000000
01000000
00010000
00001000
00000000
00000010
00000000
,
00000100
00001100
00010100
00020000
,
00100000
00032000
00000010
00013000
,
00011000
00000000
00000010
00001000
00000100
00000000
00000010
00000001
,
00000100
00000000
00000001
00000010
00001000
00000000
00010000
00000000
,
01000000
00100000
00010000
10000000
00200000
00000000
00000000
00000000
,
20300000
00000000
30000000
01000000
00010000
00000000
00001000
00000000
,
00000020
00000000
00000030
00000001
00000100
00000000
00001000
00000000
,
00010000
00100000
10000000
01000000
,
02200000
03300000
00010000
10000000
,
02010000
00000000
03000000
00001000
00010000
00000000
00000010
00000000
,
00001000
00000100
00000020
00000130
,
00000011
00000000
00000001
00000100
00001000
00000000
00010000
00000000
,
00100000
01000000
00010000
01000000
00100000
00000000
10010000
00000000
,
20000000
00000000
00000000
30000000
02000000
00000000
00000000
03000000
,
00020000
00000000
00000000
00030000
00001000
00000000
00000010
00000000
,
00000002
00000000
00000000
00000003
00000100
00000000
00001000
00000000
,
00010000
00100000
01100000
00000000
,
20000000
01000000
31000000
00000000
,
00020000
00100000
00130000
00000000
,
00011000
00000100
00001001
00000010
,
00000110
00010100
00012000
00103000
,
00001000
01000000
00010000
00000000
00100000
00001000
00010000
00000000
,
01000000
00000000
00000000
00100000
00000000
00000000
00001000
00000000
00020000
00000000
00000000
00000000
00032000
00000000
00003000
00000000
,
00001010
00020000
00100000
00031000
,
00011000
00000000
01000000
00010000
00100000
00000000
01000000
00000000
,
00010000
00000000
00001000
00000010
00000100
00000000
00001000
00000000
,
00001010
00010100
00011000
00020000
,
00100000
00032000
00000010
00013000
,
00011000
00000000
00000100
00001000
00000010
00000000
00000100
00000000
,
00000001
00000010
00000100
00000000
00001000
00000100
00000010
00000000
,
00001000
00010000
00000100
00010000
00002000
00000000
00000000
00003000
,
00100000
00010000
01000000
00000000
00100000
10000000
01000000
00000000
,
00010000
00002000
00003020
00000032
,
00000103
00000010
00001000
00000000
00000001
00000010
00000100
00000000
,
00000010
00000002
00000203
00002300
,
00013000
00000010
00001000
00000000
00000010
00010000
00001000
00000000
,
00100000
00002000
00023000
02030000
,
13000000
00010000
00100000
00000000
00010000
10000000
00100000
00000000
,
01000000
00010000
00100000
01000000
00010000
00000000
00001000
00000000
,
00022000
00000000
00000000
00000000
,
00000000
00000000
00033000
00000000
;

//--------------- dance-double - forcednature ----------------
#NOTEDATA:;
#STEPSTYPE:dance-double;
#DESCRIPTION:forcednature;
#CREDIT:forcednature;
#DIFFICULTY:Hard;
#METER:16;
#RADARVALUES:0,0,0,0,0;
#NOTES:
00000000
00000000
00000000
00000000
,
00000000
00000000
00000000
00000000
,
00000000
00000000
00000000
00000000
,
00000000
00000000
00000000
00000000
,
00000000
00000000
00000000
00000000
00000000
00000000
00010000
00001000
,
00000010
00000000
00001000
00010000
00100000
00000000
00010000
00001000
,
02000000
00000000
00000000
03010000
10000000
00100000
10000000
01000000
,
01200000
00000000
00301000
00010000
00010200
00000000
00001300
00000000
,
00000001
00000010
00000001
00000000
00000100
00000001
00000100
00000000
00000010
00000000
00001000
00000010
00010000
00000000
00001000
00000000
,
00100000
00000000
00000000
00100000
00010000
00000000
01000000
00000000
00100000
00000000
00000000
00100000
10000000
00000000
01000000
00000000
,
00010000
00000000
00001000
00000000
00000010
00000000
00001000
00000000
00010000
00000000
00000100
00000000
00001000
00000001
00000010
00000001
,
00001000
00000000
00000000
00000000
00000010
00000000
00000100
00000000
00001000
00000000
00000000
00001000
00010000
00000000
00100000
00000000
,
01000000
00000000
00010000
00000000
10000000
00100000
01000000
00100000
10000000
00000000
00000000
00000000
01000000
00000000
00010000
00000000
,
00001000
00000000
00000000
00001000
00000010
00000000
00000001
00000000
00001000
00000000
00000000
00001000
00000100
00000000
00000010
00000000
,
00000001
00000000
00000100
00001000
00010000
00100000
01000000
00010000
,
10000000
00100000
10000000
00000000
01000000
00000000
00010000
00000000
00011000
00000000
00000000
00001000
00000010
00000000
00000000
00000000
,
00000100
00001000
00000100
00000000
00001000
00000010
00001000
00000000
00000001
00000000
00000100
00000010
00001000
00000000
00000000
00000000
,
00000001
00000010
00001000
00000010
00000001
00000100
00001000
00010000
,
00100000
10000000
00010000
01000000
00100000
00000000
10010000
00000000
,
10000000
00100000
00010000
00100000
10000000
01000000
00010000
00001000
,
00000010
00000100
00001000
00000001
00000010
00000000
00001001
00000000
,
00000001
00000100
00001000
00000100
00000001
00000010
00001000
00000010
,
00000100
00010000
00001000
00100000
01000000
00000000
10010000
00000000
,
10000000
01000000
00010000
01000000
10000000
00100000
00010000
00100000
,
10000000
01000000
10000000
00000000
01000000
00100000
01000000
00000000
00100000
00001000
00010000
00001000
00100000
00000000
00000000
00000000
,
00011000
00000000
00000000
00001000
00000010
00000000
00000000
00000010
00000001
00000000
00000000
00000001
00000100
00000000
00000000
00000000
,
00001000
00000000
00000100
00000000
00000001
00000100
00000001
00000000
00000100
00000000
00001000
00010000
00001000
00000000
00000000
00000000
,
00011000
00000000
00000000
00010000
00100000
00000000
00000000
00100000
10000000
00000000
00000000
10000000
01000000
00000000
00000000
00000000
,
00010000
00000000
01000000
00000000
10000000
01000000
10000000
00000000
01000000
00000000
00010000
00001000
00010000
00000000
00001000
00000000
,
00011000
00000000
00000000
00001000
00000010
00000000
00000000
00000010
00000001
00000000
00000000
00000001
00000100
00000000
00000000
00000000
,
00001000
00000000
00010000
00000000
00000010
00001000
00000010
00000000
00001000
00000000
00000100
00010000
00001000
00000000
00000000
00000000
,
00011000
00000000
00000000
00010000
00100000
00000000
00000000
00000000
00011000
00000000
00000000
00001000
00000010
00000000
00000001
00000000
,
00000100
00000000
00000001
00000100
00000001
00000000
00000100
00001000
00000100
00000000
00001000
00010000
00001000
00000000
00010000
00000000
,
00100000
00000000
00000000
01100000
00000000
00000000
01000000
00000000
10010000
00000000
00000000
00000000
10000000
00000000
01000000
00000000
,
00010000
00000000
00000000
00010000
00001000
00000000
00000010
00000000
00000001
00000000
00000000
00000001
00000100
00000000
00001000
00000000
,
00021000
00000000
00000000
00000000
00130000
00000000
10000000
00000000
01000000
10000000
01000000
00000000
00010000
00000000
00001000
00000000
,
00100000
00000000
00010000
00000000
00100000
00000000
00001000
00000000
00000010
00000000
00000100
00000010
00000001
00000000
00000000
00000000
,
00001000
00000010
00010000
00000000
00001000
00010000
00000010
00000000
00001010
00000000
00000000
00000000
00000001
00000000
00000100
00000000
,
00001000
00000000
00000000
00001000
00010000
00000000
00100000
00000000
10000000
00000000
00000000
10000000
01000000
00000000
00010000
00000000
,
00012000
00000000
00000000
00000000
00003010
00000000
00000001
00000000
00000100
00000001
00000100
00000000
00001000
00000000
00010000
00000000
,
00000010
00000000
00001000
00000000
00000010
00000000
00010000
00000000
00100000
00000000
01000000
00100000
10000000
00000000
00000000
00000000
,
00010000
00100000
00001000
00000000
00010000
00001000
00100000
00000000
00010000
10000000
01000000
10000000
00010000
00000000
00000000
00000000
,
00100000
00000000
01000000
00000000
00010000
00000000
00001000
00010000
00001000
00000000
00000010
00000000
00000210
00000000
00000000
00000000
,
00010300
00000000
00000010
00000000
00001000
00000000
00000001
00000100
00002000
00000000
00000000
00000000
00023000
00000000
00000000
00000000
,
00130000
00000000
00000000
00100000
10000000
00000000
00000000
10000000
01000000
00000000
00000000
01000000
00020000
00000000
00000000
00000000
,
00031000
00000000
00000010
00000000
00000001
00000000
00000010
00000000
00001000
00000000
00010000
00001000
00010000
00000000
00010000
00000000
,
00100000
00000000
10000000
00000000
01000000
00000000
10000000
00010000
00100000
00000000
01000000
00000000
00020000
00000000
00000000
00000000
,
00031000
00000000
00000000
00001000
00000010
00000000
00000000
00000010
00000002
00000000
00000000
00000000
00000103
00000000
00000001
00000000
,
00000100
00000010
00000100
00000000
00001000
00000000
00010000
00001000
00010000
00000000
00000000
00000000
00011000
00000000
00000000
00000000
,
00010000
00000100
00010000
00000000
00001000
01000000
00001000
00000000
00010000
00001000
00100000
00001000
00010000
00000000
00000100
00000000
,
00002000
00000000
00000010
00003000
00000020
00000000
00000100
00000030
,
00002002
00000000
00003003
00000001
00000100
00001000
00010000
00100000
,
20000000
00000000
00000000
31000000
00200000
00000000
00301000
00000000
,
01100000
00000000
00011000
00000000
00000110
00000000
00001000
00000001
,
00000200
00000000
00001300
00010000
00200000
00000000
00310000
00001000
,
00000020
00000000
00000030
00000100
00001000
00000001
00000100
00001000
,
00021000
00000000
00130000
01000000
01200000
00000000
10300000
00000000
,
10010000
00011000
00002002
00003003
,
00001000
00000100
00001000
00000000
00000100
00010000
00001000
00000000
00100000
00010000
00100000
00000000
00010000
00000000
10000000
00000000
,
02000000
00000000
00000000
03020000
00000000
00000000
00032000
00000000
00003020
00000000
00000000
00000000
00000031
00000000
00000100
00000000
,
00001100
00000000
00000000
00001000
00010000
00000000
00100000
00000000
10100000
00000000
00000000
10000000
01000000
00000000
00010000
00000000
,
00012000
00000000
00000000
00000000
00003010
00000000
00000001
00000000
00000100
00000001
00000100
00000000
00001000
00000000
00010000
00000000
,
00000010
00000000
00001000
00000000
00010000
00000000
01000000
00000000
00100000
00000000
10000000
00010000
00100000
00000000
00000000
00000000
,
01000000
00100000
00001000
00000000
00010000
00001000
00100000
00000000
00110000
00000000
00000000
00000000
10000000
00000000
01000000
00000000
,
01010000
00000000
00000000
00010000
00001000
00000000
00000010
00000000
00000011
00000000
00000000
00000001
00000100
00000000
00001000
00000000
,
00021000
00000000
00000000
00000000
00130000
00000000
10000000
00000000
01000000
10000000
01000000
00000000
00010000
00000000
00001000
00000000
,
00100000
00000000
00010000
00000000
00001000
00000000
00000100
00000000
00000010
00000000
00000001
00001000
00000010
00000000
00000000
00000000
,
00000100
00000010
00001000
00000000
00000010
00010000
00001000
00000000
00010000
00001000
00100000
00010000
00200000
00000000
00000000
00000000
,
01300000
00000000
10000000
00000000
01000000
00010000
00001000
00000000
00100000
00000000
00010000
00100000
00001000
00000000
00000010
00000000
,
00000100
00000000
00001000
00000000
00000001
00000100
00000001
00000000
00000100
00001000
00000100
00000000
00001000
00010000
00001000
00000000
,
00000100
00000000
00000001
00000000
00000100
00001000
00010000
00000000
00000010
00000000
00001000
00000010
00010000
00000000
00100000
00000000
,
01000000
00000000
00010000
00000000
10000000
01000000
10000000
00000000
01000000
00010000
01000000
00000000
00010000
00001000
00010000
00000000
,
01000000
00000000
10000000
00000000
01000000
00010000
00001000
00000000
00100000
00000000
00010000
00100000
00001000
00000000
00000010
00000000
,
00000100
00000000
00001000
00000000
00000001
00000100
00000001
00000000
00000100
00001000
00000100
00000000
00001000
00010000
00001000
00000000
,
00000100
00000000
00000001
00000000
00000100
00001000
00010000
00000000
00000010
00000000
00001000
00000010
00010000
00000000
00100000
00000000
,
01000000
00000000
00010000
10000000
00100000
00000000
10000000
00010000
00100000
00000000
01000000
00010000
00001000
00000000
00010000
00001000
,
00000020
00000000
00000000
00000000
,
00000200
00000000
00000330
00000000
;
