#VERSION:0.83;
#TITLE:ふしぎなくすり;
#SUBTITLE:;
#ARTIST:上野圭市 feat. SATOE;
#TITLETRANSLIT:Fushigina kusuri;
#SUBTITLETRANSLIT:;
#ARTISTTRANSLIT:Keiichi Ueno feat. SATOE;
#GENRE:CAPSULE PRINCESS;
#CREDIT:;
#MUSIC:Fushigina kusuri.ogg;
#BANNER:Fushigina kusuri.png;
#BACKGROUND:Fushigina kusuri-bg.png;
#CDTITLE:./CDTitles/pnm 17 THE MOVIE.png;
#SAMPLESTART:15.008;
#SAMPLELENGTH:15.000;
#SELECTABLE:YES;
#OFFSET:1.095;
#BPMS:0.000=162.000
,168.000=81.000
,200.000=162.000
;
#STOPS:;
#BGCHANGES:0.000=../BGAs/19po.mp4=1.000=0=0=0=StretchNoLoop====,
99999.000=-nosongbg-=1.000=0=0=0=StretchNoLoop====
;
#FGCHANGES:;

//--------------- dance-single - forcednature ----------------
#NOTEDATA:;
#STEPSTYPE:dance-single;
#DESCRIPTION:forcednature;
#DIFFICULTY:Beginner;
#METER:1;
#RADARVALUES:0,0,0,0,0;
#CREDIT:forcednature;
#NOTES:
0000
0000
0000
0000
,
0000
0000
0000
0000
,
0000
0000
0000
0000
,
0000
0000
0000
0000
,
0000
0000
0000
0000
,
0000
0000
0000
0000
,
0000
0000
0000
0000
,
1000
0000
0000
0000
,
0000
0000
0000
0000
,
0001
0000
0000
0000
,
0000
0000
0000
0000
,
0100
0000
0000
0000
,
0000
0000
0000
0000
,
0000
0000
0000
0000
,
0010
0000
0000
0000
,
0000
0000
0000
0000
,
1000
0000
0000
0000
,
0000
0000
0000
0000
,
0001
0000
0000
0000
,
0000
0000
0000
0000
,
0000
0000
0000
0000
,
0010
0000
0000
0000
,
0000
0000
0000
0000
,
0100
0000
0000
0000
,
0000
0000
0000
0000
,
1000
0000
0000
0000
,
0000
0000
0000
0000
,
0001
0000
0000
0000
,
0000
0000
0000
0000
,
0100
0000
0000
0000
,
0010
0000
0000
0000
,
0100
0000
0000
0000
,
0010
0000
0000
0000
,
1000
0000
0000
0000
,
0000
0000
0000
0000
,
0001
0000
0000
0000
,
0000
0000
0000
0000
,
0000
0000
0000
0000
,
0010
0000
0000
0000
,
0000
0100
0000
0000
,
0000
0000
0000
0000
,
1000
0000
0000
0000
,
0001
0000
0000
0000
,
0001
0000
0000
0000
,
1000
0000
0000
0000
,
0010
0000
0100
0000
,
0001
0000
0000
0000
,
0010
0000
0000
0000
,
0100
0000
0000
0000
,
1000
0000
0000
0000
,
0010
0000
0000
0000
,
0000
0000
0000
0000
,
1001
0000
0000
0000
,
0000
0000
0000
0000
,
1000
0000
0000
0000
,
0100
0000
0000
0000
,
1000
0000
0000
0000
,
0001
0000
0000
0000
,
0000
0000
0000
0000
,
1001
0000
0000
0000
,
0000
0010
0000
0000
,
1000
0000
0000
0000
,
0100
0000
0000
0000
,
0010
0000
0000
0000
,
0001
0000
0000
0000
,
1000
0000
0000
0000
,
0010
0000
0000
0000
,
0100
0000
0000
0000
,
0001
0000
0000
0000
,
1001
0000
0000
0000
;

//--------------- dance-single - forcednature ----------------
#NOTEDATA:;
#STEPSTYPE:dance-single;
#DESCRIPTION:forcednature;
#DIFFICULTY:Easy;
#METER:5;
#RADARVALUES:0,0,0,0,0;
#CREDIT:forcednature;
#NOTES:
0000
0000
0000
0000
,
0000
0000
0000
0000
,
0000
0000
0000
0000
,
0000
0000
0000
0000
,
0000
0000
0000
0000
,
0000
0000
0000
0000
,
0000
0000
0000
0000
,
0001
0001
0100
0001
,
1000
0010
1000
0000
,
1000
1000
0100
1000
,
0001
0010
0100
0000
,
0110
0000
0010
0001
,
0100
0000
0010
0000
,
0100
0000
0010
1000
,
0100
0000
0010
0000
,
0100
1000
0001
0000
,
0100
0001
1000
0000
,
0010
0010
0010
0000
,
0110
0000
1000
0000
,
0001
0010
0100
0000
,
1000
0010
0100
0000
,
0001
0000
0010
0001
,
0000
1001
0000
1000
,
0010
0100
0010
0000
,
1000
0001
0100
0000
,
0110
0000
0010
1000
,
0001
1000
0100
0000
,
0110
0000
0010
0001
,
1000
0001
0100
0000
,
0010
0010
1000
1000
,
0001
0100
0010
0000
,
1000
1000
0001
0001
,
0010
0100
1000
0000
,
1001
0000
0001
0100
,
0010
1000
0001
0000
,
0010
0100
1000
0001
,
0100
0010
1000
0000
,
0100
0010
0001
0000
,
1000
0000
0010
0100
,
0000
1001
0000
0000
,
0110
0000
0001
1000
,
0010
0100
0001
0000
,
1001
1000
0000
1000
,
0010
0100
0000
0100
,
0001
0010
0000
0010
,
0100
1000
0000
0001
,
1001
1000
0010
1000
,
0100
1000
0010
1000
,
0001
0100
0001
0010
,
0100
0110
0010
0110
,
2002
0000
0000
0000
,
0000
0000
3003
0000
,
1001
0000
1000
0010
,
0100
0001
1000
0000
,
0100
1000
0001
0000
,
0100
0010
1000
0000
,
0100
0000
0110
0000
,
0001
0100
0001
1000
,
0010
1000
0001
0000
,
0010
0100
1000
0001
,
0000
2002
0000
3003
,
1000
0010
1000
0100
,
1000
0010
1000
0000
,
0001
0010
0001
0100
,
0001
0010
0001
0000
,
1000
0100
1000
0010
,
1000
0100
1000
0000
,
0001
0100
0001
0010
,
0001
0000
0100
0000
0001
0000
0000
2002
,
0000
0000
0000
0000
,
0000
0000
0000
0000
,
0000
0000
0000
0000
0000
0000
0000
3003
;

//--------------- dance-single - forcednature ----------------
#NOTEDATA:;
#STEPSTYPE:dance-single;
#DESCRIPTION:forcednature;
#DIFFICULTY:Medium;
#METER:10;
#RADARVALUES:0,0,0,0,0;
#CREDIT:forcednature;
#NOTES:
0000
0000
0000
0000
,
0000
0000
0000
0000
,
0000
0000
0000
0000
,
0000
0000
0000
0000
,
0000
0000
0000
0000
,
0000
0000
0000
0000
,
0000
0000
0000
0000
0000
0000
0000
1000
,
0000
0100
0001
0000
0100
0000
1000
0001
,
0000
0010
1000
0000
0010
0000
0000
0001
,
0000
0100
1000
0000
0100
0000
0001
1000
,
0000
0010
0000
0100
0100
0000
0000
1001
,
0000
0000
0001
0000
0010
0000
0100
1000
,
0000
0001
1000
0000
0020
0000
0030
1000
,
0000
0001
1000
0000
0020
0000
0030
0000
,
0100
0000
0001
1000
0001
0000
0010
0000
,
0100
0000
1000
0000
0001
0000
0100
0020
,
0000
0000
1000
0000
1030
0000
0001
0100
,
0000
0010
0100
0000
1001
0000
0000
0110
,
0000
0000
1000
0000
0010
0000
0100
0001
,
0000
1000
0001
0000
0020
0000
0030
0001
,
0000
1000
0001
0000
0020
0000
0030
0000
,
0100
0000
1000
0001
1000
0000
0010
0000
,
0000
0000
1001
0000
1000
0000
0100
0020
,
0000
0000
0001
0000
0031
0000
1000
0100
,
0000
0010
0100
0000
1000
0001
0000
2002
,
0000
0000
3003
0000
0001
0000
0100
0010
,
0100
0001
1000
0100
,
0000
0000
0110
0000
0010
0000
0001
1000
,
0001
0100
0010
1000
,
1001
0000
0001
0000
0010
0000
0100
0010
,
0100
1000
0001
0000
,
1000
1010
0001
0101
,
2000
3100
0002
0103
,
1001
0000
1000
0100
0010
0000
0001
0010
,
0000
0100
0010
0000
1001
0000
0000
0110
,
0000
0000
0001
0000
0010
0000
0100
1000
,
0000
0001
1000
0000
0020
0000
0030
1000
,
0000
0001
1000
0000
0020
0000
0030
0000
,
0100
0000
0001
1000
0001
0000
0010
0000
,
0000
0000
2002
0000
0000
3003
0000
0120
,
0000
0000
1000
0000
1030
0000
0001
1000
,
0000
0000
0000
1000
0000
0000
0001
0000
0000
0000
0000
0000
0010
0000
0000
0000
0010
0000
0000
0000
0100
0000
0000
0000
,
2000
0010
0000
3010
,
0002
0010
0000
0013
,
2000
0100
0000
3100
,
0002
0000
0000
0100
0000
0000
0103
0000
0000
0001
1000
0001
,
1000
0100
0010
0100
1000
0100
0010
0000
,
0001
0100
0010
0100
0001
0100
0010
0000
,
1000
0001
0010
0001
1000
0100
1000
0000
,
0001
1000
0010
0000
0110
1000
0001
0000
,
2002
0000
0000
0000
,
0000
0000
0000
0000
3003
0000
0000
1100
,
0000
0000
0001
0000
0010
0000
0100
0010
,
0000
0001
1000
0000
0100
0000
1000
0010
,
0000
0100
0010
0000
1000
0000
0001
0010
,
0001
0000
1000
0000
0010
0000
0100
0001
,
0100
0000
0010
0000
1000
0000
0001
0010
,
0000
0100
0010
0000
0110
0000
0100
1000
,
0000
0001
0100
0000
0110
0000
0010
2000
,
0000
0000
3001
0000
1000
0100
0010
0001
,
0000
0000
2002
0000
0000
3003
0000
0001
,
0000
0100
1000
0000
0100
0000
0001
1000
,
0000
0010
1000
0000
1001
0000
0000
1000
,
0000
0100
0001
0000
0100
0000
1000
0001
,
0000
0011
0000
0010
0100
0000
0000
1001
,
0000
0001
0100
0000
1000
0000
0100
0001
,
0000
1000
0010
0000
1001
0000
0000
0110
,
0000
1000
0100
0000
0001
0000
0100
1000
,
0000
1001
0000
0010
0100
0000
0000
0210
,
0000
0000
0000
0000
,
0000
0000
0000
0000
,
0000
0000
0000
0000
0000
0000
0000
0301
;

//--------------- dance-single - forcednature ----------------
#NOTEDATA:;
#STEPSTYPE:dance-single;
#DESCRIPTION:forcednature;
#DIFFICULTY:Hard;
#METER:15;
#RADARVALUES:0,0,0,0,0;
#CREDIT:forcednature;
#NOTES:
0000
0000
0000
0000
,
0000
0000
0000
0000
,
0000
0000
0000
0000
,
0000
0000
0000
0000
,
0000
0000
0000
0000
,
0000
0000
0000
0000
,
0000
0000
0000
0000
0000
0000
0000
1001
,
0000
0001
0010
0000
1010
0000
0010
0001
,
0000
0100
0001
0000
0011
0000
0000
1001
,
0000
0001
0100
0000
1100
0000
0100
0101
,
0000
0001
0000
0010
0110
0000
0000
1001
,
0000
0001
0010
0100
1000
0001
0100
2000
,
0000
3100
0001
0010
0012
0000
0103
2000
,
0000
3100
0001
0010
0012
0000
0103
0010
,
0000
1000
0100
1000
0010
0100
0001
0011
,
0000
0010
0100
0001
0100
0010
0001
2000
,
0000
0000
3010
1000
0010
0000
0100
0010
0100
0000
0001
0100
0001
0000
0010
0000
,
0000
0100
1001
0000
0110
0000
0000
1001
,
0000
1000
0010
0100
0001
1000
0100
0002
,
0000
0103
1000
0010
2010
0000
3100
0002
,
0000
0103
1000
0010
2010
0000
3100
0010
,
0000
0001
0100
0001
0010
0100
1000
1010
,
0000
0000
0210
0000
1300
0100
0001
0021
,
0000
0000
0130
0010
0100
0000
1000
0000
0010
0100
0010
0000
1000
0000
1001
0000
,
0000
0010
1001
0000
0100
0110
0000
1002
,
0000
0000
0103
0010
2000
0000
0000
0000
3001
0000
0010
0000
1000
0000
1010
0000
,
0000
0020
0032
0203
2300
3002
0023
1030
,
0000
0000
0100
0010
0002
0000
0000
0000
1003
0000
0010
0000
0001
0000
0011
0000
,
0000
0000
0010
1000
0010
0000
1000
0100
1000
0000
0100
0010
0100
0000
0010
0000
,
1001
0000
0001
0100
1000
0100
0001
2000
,
0010
0000
3001
0020
0100
0000
0031
0000
,
1001
0000
0000
1000
0100
0000
0000
0010
0100
0000
0000
0010
0001
0000
0000
0000
,
0100
0001
0100
0000
0010
0000
0100
0000
0120
0000
0000
0000
1030
0000
0000
0000
,
1002
0000
0013
0100
2001
0000
3010
1001
,
0000
0100
0110
0000
1001
0000
0000
0110
,
0000
1000
0010
0100
0001
1000
0100
0002
,
0000
0103
1000
0010
2010
0000
3100
0002
,
0000
0103
1000
0010
2010
0000
3100
0010
,
0000
0001
0100
0001
0010
0100
1000
1010
,
0000
0000
0101
0000
0100
0010
0000
1002
,
0000
0000
0013
0001
0010
0000
0100
0010
0100
0000
1000
0100
1000
0000
0010
0000
,
0000
0000
0000
0100
0000
0000
0101
0000
0000
0000
0000
0000
0011
0000
0000
0000
0110
0000
0000
0000
1100
0000
0000
0000
,
1001
0000
0000
0001
0100
0000
0001
0010
0000
0010
0001
0000
0100
0000
0000
0000
,
1001
0000
0000
1000
0100
0000
1000
0010
0000
0010
1000
0000
0100
0000
0000
0000
,
0110
0000
0010
0001
0100
0000
0010
0100
0000
0001
0010
0000
0110
0000
0000
0000
,
1001
0000
0000
0000
0000
0000
1000
0000
0000
0010
0000
0000
0100
0000
0000
0000
0000
0000
0001
0000
0000
0010
0000
0000
0000
0000
0000
0100
0000
0000
1000
0000
0000
0000
0000
0000
1010
0000
0000
0000
0110
0000
0000
0000
0101
0000
0000
0000
,
1001
0000
0000
0000
1000
0000
0100
0000
0010
0000
0100
0000
1000
0000
0010
0000
0000
0000
0010
0000
1000
0000
0001
0000
0100
0000
0000
0100
0010
0000
0100
0000
,
0001
0000
0000
0000
0010
0000
0100
0000
0010
0000
0001
0000
0100
0000
0010
0000
0000
0000
0010
0000
1000
0000
0100
0000
0010
0000
0000
0010
0100
0000
0000
0000
,
1001
0000
0000
0000
1000
0000
0010
0000
0001
0000
0010
0000
1000
0000
0001
0000
0000
0000
0001
0000
0100
0000
0000
0000
0010
0000
0000
0010
1000
0000
0000
0000
,
1001
0000
0000
0000
0001
0000
0010
0000
0110
0000
0000
0000
1000
0000
0010
0000
0110
0000
0000
0000
1001
0000
0000
0000
1000
0000
0000
1000
0100
0000
0010
0000
,
0002
0000
0100
0100
,
1000
0000
0000
0000
1000
0000
0000
0000
0013
0000
0001
1000
0100
0000
0110
0000
,
0000
0000
0010
0001
0010
0000
0001
0100
0001
0000
0100
0010
1000
0000
0200
0000
,
0000
0301
0100
1000
2010
0000
3001
0200
,
0000
1300
0100
0001
0012
0000
0103
0120
,
0000
0000
1030
0001
0100
0000
0010
0000
1000
0000
0100
0000
0001
0000
0101
0000
,
0000
0000
0100
0000
1000
0000
0010
1000
0001
0000
1000
0000
0010
0000
0120
0000
,
0000
0000
1030
0001
0010
0000
0100
0000
2000
0000
3020
0000
0230
0000
0302
0000
,
0000
0000
0013
0100
0010
0100
0010
0100
0010
0100
0010
0100
1000
0000
0002
0000
,
0000
0000
0103
0010
1000
0000
0001
0000
0010
0000
0100
0000
0110
0000
1001
0000
,
0000
0000
1200
0000
0001
0001
0310
0110
,
0000
0000
0100
1000
0100
0000
0010
0000
0100
1000
0100
0000
0010
0000
0001
0010
,
0001
0000
0100
0001
0100
0000
0010
0000
1000
0000
0001
0000
0000
0000
1020
0000
,
0000
0000
0130
0001
0100
0000
0010
0000
0100
0001
0100
0000
0010
1000
0010
0000
,
1000
0000
0100
1000
0001
0000
0010
0001
1000
0000
0010
0000
0010
0000
0110
0000
,
0000
0000
0100
0001
1000
0000
0010
0000
0100
0001
1000
0000
0010
1000
0001
0000
,
0010
0000
0100
1000
0001
0000
0010
0000
0001
1000
0100
0000
0100
0000
0110
0000
,
0000
0000
0010
0001
0100
0000
0010
0000
0100
0001
0010
0000
0100
0000
0110
0000
,
0000
1001
0000
1010
0101
0000
0010
0210
,
0000
0000
0000
0000
,
0000
0000
0000
0000
,
0000
0000
0000
0000
0000
0000
0000
1300
;

//--------------- dance-double - forcednature ----------------
#NOTEDATA:;
#STEPSTYPE:dance-double;
#DESCRIPTION:forcednature;
#DIFFICULTY:Easy;
#METER:5;
#RADARVALUES:0,0,0,0,0;
#CREDIT:forcednature;
#NOTES:
00000000
00000000
00000000
00000000
,
00000000
00000000
00000000
00000000
,
00000000
00000000
00000000
00000000
,
00000000
00000000
00000000
00000000
,
00000000
00000000
00000000
00000000
,
00000000
00000000
00000000
00000000
,
00000000
00000000
00000000
00000000
,
00001000
00001000
00010000
00000000
,
00010000
00001000
00010000
00000000
,
00000100
00000100
00001000
00000000
,
00000100
00000010
00000001
00000000
,
00001001
00000000
00001000
00000100
,
00010000
00000000
00001000
00000000
,
01000000
00000000
00010000
10000000
,
00100000
00000000
10000000
00000000
,
01000000
00100000
00010000
00000000
,
00100000
00010000
00100000
00000000
,
00001000
00001000
00001000
00000000
,
00011000
00000000
00010000
00000000
,
00000100
00001000
00000100
00000000
,
00000010
00000001
00000010
00000000
,
00000001
00000000
00000100
00000010
,
00000000
00000110
00000000
00000100
,
00000001
00001000
00000001
00000000
,
00000010
00000100
00000010
00000000
,
00000110
00000000
00000100
00001000
,
00000100
00010000
00001000
00000000
,
00011000
00000000
00010000
00001000
,
01000000
00010000
01000000
00000000
,
00100000
00100000
10000000
10000000
,
00010000
01000000
00100000
00000000
,
10000000
10000000
00010000
00010000
,
00100000
00001000
00010000
00000000
,
00011000
00000000
00001000
00010000
,
00000100
00001000
00000100
00000000
,
00000010
00000001
00001000
00000100
,
00001000
00000001
00000010
00000000
,
00000001
00001000
00000010
00000000
,
00010000
00000000
00001000
00010000
,
00000000
00011000
00000000
00000000
,
00011000
00000000
01000000
00010000
,
01000000
00100000
10000000
00000000
,
10010000
00010000
00000000
00010000
,
00100000
00001000
00000000
00001000
,
00010000
00000100
00000000
00000100
,
00001000
00000001
00000000
00000100
,
00000110
00000010
00001000
00000010
,
00010000
00001000
00100000
00010000
,
00100000
01000000
10000000
01000000
,
00100000
00001000
01000000
00001000
,
00022000
00000000
00000000
00000000
,
00000000
00000000
00033000
00000000
,
00011000
00000000
00010000
00000100
,
00001000
00000100
00000010
00000000
,
00000100
00001000
00000001
00000000
,
00000100
00000000
00000010
00001000
,
00000000
00000001
00001001
00000000
,
00001000
00000100
00010000
00001000
,
00100000
00010000
00100000
00000000
,
00001000
00010000
00001000
01000000
,
00000000
20020000
00000000
30030000
,
10000000
01000000
10000000
00100000
,
01000000
00010000
00100000
00000000
,
00001000
00010000
00000100
00001000
,
00000100
00010000
00001000
00000000
,
00010000
00000010
00001000
00000010
,
00000100
00000001
00000100
00000000
,
00000010
00001000
00000001
00000010
,
00000001
00000000
00001000
00000000
00000100
00000000
00000000
00022000
,
00000000
00000000
00000000
00000000
,
00000000
00000000
00000000
00000000
,
00000000
00000000
00000000
00000000
00000000
00000000
00000000
00033000
;

//--------------- dance-double - forcednature ----------------
#NOTEDATA:;
#STEPSTYPE:dance-double;
#DESCRIPTION:forcednature;
#DIFFICULTY:Medium;
#METER:10;
#RADARVALUES:0,0,0,0,0;
#CREDIT:forcednature;
#NOTES:
00000000
00000000
00000000
00000000
,
00000000
00000000
00000000
00000000
,
00000000
00000000
00000000
00000000
,
00000000
00000000
00000000
00000000
,
00000000
00000000
00000000
00000000
,
00000000
00000000
00000000
00000000
,
00000000
00000000
00000000
00000000
00000000
00000000
00000000
00001000
,
00000000
00010000
00000100
00000000
00001000
00000000
00000100
00010000
,
00000000
00001000
00100000
00000000
00010000
00000000
00000000
01000000
,
00000000
00001000
00010000
00000000
00000010
00000000
00010000
00001000
,
00000000
01000000
00000000
00010000
00010000
00000000
00000000
10010000
,
00000000
00000000
10000000
00000000
01000000
00000000
00100000
01000000
,
00000000
00100000
00010000
00000000
00200000
00000000
00300000
00001000
,
00000000
00010000
00000100
00000000
00002000
00000000
00003000
00000000
,
00000001
00000000
00000010
00000001
00000010
00000000
00000100
00000000
,
00001000
00000000
00000100
00000000
00010000
00000000
00001000
00200000
,
00000000
00000000
00010000
00000000
00310000
00000000
10000000
00100000
,
00000000
01000000
00100000
00000000
01100000
00000000
00000000
10010000
,
00000000
00000000
00010000
00000000
01000000
00000000
00001000
00010000
,
00000000
00000010
00001000
00000000
00000020
00000000
00000030
00000100
,
00000000
00000001
00000100
00000000
00000020
00000000
00000030
00000000
,
00001000
00000000
00000100
00001000
00000100
00000000
00010000
00000000
,
00000000
00000000
00011000
00000000
00001000
00000000
01000000
00020000
,
00000000
00000000
10000000
00000000
10030000
00000000
00010000
00100000
,
00000000
01000000
00100000
00000000
01000000
10000000
00000000
20020000
,
00000000
00000000
30030000
00000000
00010000
00000000
01000000
00010000
,
01000000
00001000
00010000
00000010
,
00000000
00000000
00001001
00000000
00000001
00000000
00000010
00000100
,
00000010
00000100
00010000
00001000
,
00011000
00000000
00010000
00000000
00001000
00000000
01000000
00010000
,
01000000
00100000
10000000
00000000
,
01000000
01100000
00100000
10010000
,
00020000
01030000
00002000
00013000
,
00011000
00000000
00001000
00010000
00000100
00000000
00001000
00000100
,
00000000
00000010
00000100
00000000
00000110
00000000
00000000
00001001
,
00000000
00000000
00000001
00000000
00000100
00000000
00000010
00000100
,
00000000
00000010
00001000
00000000
00000200
00000000
00000300
00010000
,
00000000
00001000
00010000
00000000
00002000
00000000
00003000
00000000
,
01000000
00000000
00010000
10000000
00010000
00000000
00100000
00000000
,
00000000
00000000
02200000
00000000
00000000
03300000
00000000
21000000
,
00000000
00000000
00010000
00000000
30010000
00000000
10000000
00100000
,
00000000
00000000
00000000
00100000
00000000
00000000
10000000
00000000
00000000
00000000
00000000
00000000
01000000
00000000
00000000
00000000
00010000
00000000
00000000
00000000
00001000
00000000
00000000
00000000
,
00020000
00000100
00000000
00030100
,
00002000
01000000
00000000
01003000
,
00020000
00000010
00000000
00030010
,
00002000
00000000
00000000
00100000
00000000
00000000
00103000
00000000
00000000
00001000
00010000
00001000
,
00010000
00000100
00001000
00000100
00010000
00001000
00100000
00000000
,
00001000
01000000
00010000
01000000
00001000
00010000
00000010
00000000
,
00010000
00000010
00001000
00000010
00010000
00001000
01000000
00000000
,
00001000
00100000
00010000
00000000
00100000
00001000
00010000
00000000
,
00022000
00000000
00000000
00000000
,
00000000
00000000
00000000
00000000
00033000
00000000
00000000
00011000
,
00000000
00000000
00001000
00000000
00000010
00000000
00000100
00001000
,
00000000
00000100
00000010
00000000
00000001
00000000
00001000
00000010
,
00000000
00000100
00000010
00000000
00001000
00000000
00000001
00000010
,
00000001
00000000
00000010
00000000
00001000
00000000
00010000
00001000
,
00010000
00000000
00001000
00000000
00100000
00000000
00010000
01000000
,
00000000
00100000
01000000
00000000
01100000
00000000
00100000
10000000
,
00000000
00010000
10000000
00000000
11000000
00000000
01000000
00200000
,
00000000
00000000
00310000
00000000
00100000
00001000
00010000
00000100
,
00000000
00000000
00002002
00000000
00000000
00003003
00000000
00000001
,
00000000
00000100
00001000
00000000
00010000
00000000
00001000
00010000
,
00000000
00100000
10000000
00000000
10010000
00000000
00000000
10000000
,
00000000
01000000
00010000
00000000
00001000
00000000
00010000
00001000
,
00000000
00011000
00000000
00001000
00000010
00000000
00000000
00001001
,
00000000
00000001
00000100
00000000
00001000
00000000
00010000
00001000
,
00000000
00010000
00100000
00000000
01100000
00000000
00000000
10010000
,
00000000
10000000
01000000
00000000
00010000
00000000
00001000
00010000
,
00000000
00011000
00000000
00001000
00000010
00000000
00000000
00000210
,
00000000
00000000
00000000
00000000
,
00000000
00000000
00000000
00000000
,
00000000
00000000
00000000
00000000
00000000
00000000
00000000
00001300
;

//--------------- dance-double - forcednature ----------------
#NOTEDATA:;
#STEPSTYPE:dance-double;
#DESCRIPTION:forcednature;
#DIFFICULTY:Hard;
#METER:15;
#RADARVALUES:0,0,0,0,0;
#CREDIT:forcednature;
#NOTES:
00000000
00000000
00000000
00000000
,
00000000
00000000
00000000
00000000
,
00000000
00000000
00000000
00000000
,
00000000
00000000
00000000
00000000
,
00000000
00000000
00000000
00000000
,
00000000
00000000
00000000
00000000
,
00000000
00000000
00000000
00000000
00000000
00000000
00000000
00011000
,
00000000
00010000
00100000
00000000
10100000
00000000
00100000
00010000
,
00000000
00001000
01000000
00000000
01010000
00000000
00000000
00011000
,
00000000
00001000
00000010
00000000
00000011
00000000
00000010
00001000
,
00000000
00011000
00000000
00000100
00001100
00000000
00000000
00000011
,
00000000
00000001
00000100
00001000
00010000
01000000
10000000
00200000
,
00000000
10300000
01000000
00010000
00002000
00000000
00013000
00200000
,
00000000
10300000
01000000
00010000
00002000
00000000
00103000
00010000
,
00000000
00100000
00001000
00000010
00000100
00001000
00000001
00000011
,
00000000
00000001
00000100
00001000
00010000
00100000
10000000
00020000
,
00000000
00000000
01030000
00100000
01000000
00000000
00100000
10000000
00100000
00000000
10000000
01000000
10000000
00000000
01000000
00000000
,
00000000
00010000
00001000
00000000
00011000
00000000
00000000
10100000
,
00000000
10000000
01000000
00010000
00001000
00000100
00000001
00000020
,
00000000
00000031
00000100
00001000
00020000
00000000
00031000
00000020
,
00000000
00000031
00000100
00001000
00020000
00000000
00030010
00001000
,
00000000
00000010
00010000
00100000
01000000
00010000
10000000
10100000
,
00000000
00000000
20010000
00000000
31000000
00010000
00001000
00021000
,
00000000
00000000
00030100
00001000
00000100
00000000
00010000
00000000
00000010
00001000
00000010
00000000
00010000
00000000
00011000
00000000
,
00000000
00100000
10010000
00000000
01000000
01100000
00000000
20010000
,
00000000
00000000
31000000
00100000
00020000
00000000
00000000
00000000
01030000
00000000
00100000
00000000
00010000
00000000
00011000
00000000
,
00000000
00002000
00003020
00000032
00000203
00002300
00013000
00012000
,
00000000
00000000
00003100
00000010
00002000
00000000
00000000
00000000
00003100
00000000
00000010
00000000
00001000
00000000
00011000
00000000
,
00000000
00000000
00010000
00100000
00010000
00000000
00100000
10000000
00100000
00000000
10000000
01000000
10000000
00000000
01000000
00000000
,
10010000
00000000
00010000
00100000
01000000
00010000
00001000
00200000
,
00010000
00300000
00001000
00000020
00000100
00000000
00000031
00000000
,
00001001
00000000
00000000
00000001
00000100
00000000
00000000
00001000
00000100
00000000
00000000
00001000
00010000
00000000
00000000
00000000
,
00001000
00010000
00001000
00000000
00010000
00000000
00100000
00000000
20000000
00000000
00000000
00000000
31000000
00000000
00000000
00000000
,
10020000
00000000
00130000
01000000
00020000
00000000
00031000
00011000
,
00000000
00000010
00000110
00000000
00001001
00000000
00000000
00000011
,
00000000
00000001
00000100
00001000
00010000
01000000
10000000
00200000
,
00000000
10300000
01000000
00010000
00002000
00000000
00013000
00200000
,
00000000
10300000
01000000
00010000
00002000
00000000
00103000
00010000
,
00000000
00100000
00001000
00000010
00000100
00001000
00000001
00000011
,
00000000
00000000
00001100
00000000
00010000
00001000
00000000
00210000
,
00000000
00000000
01300000
10000000
01000000
00000000
00100000
00000000
01000000
10000000
01000000
00000000
00010000
00000000
00001000
00000000
,
00000000
00000000
00000000
00000010
00000000
00000000
00001000
00000000
00000000
00000000
00000000
00000000
00011000
00000000
00000000
00000000
00010100
00000000
00000000
00000000
00001100
00000000
00000000
00000000
,
00001010
00000000
00000000
00000010
00000100
00000000
00000001
00000010
00000000
00000010
00000001
00000000
00000100
00000000
00000000
00000000
,
00001000
00000000
00000000
00001000
00010000
00000000
00100000
10000000
00000000
10000000
00100000
00000000
01000000
00000000
00000000
00000000
,
00010000
00000000
00100000
01000000
10000000
00000000
01000000
00010000
00000000
00001000
00010000
00000000
00011000
00000000
00000000
00000000
,
00001000
00000000
00000000
00000000
00000000
00000000
00000010
00000000
00000000
00000100
00000000
00000000
00001000
00000000
00000000
00000000
00000000
00000000
00000001
00000000
00000000
00000010
00000000
00000000
00000000
00000000
00000000
00000001
00000000
00000000
00000100
00000000
00000000
00000000
00000000
00000000
00000110
00000000
00000000
00000000
00001010
00000000
00000000
00000000
00001100
00000000
00000000
00000000
,
00010100
00000000
00000000
00000000
00010000
00000000
00001000
00000000
00100000
00000000
00010000
00000000
00100000
00000000
00001000
00000000
00000000
00000000
00001000
00000000
00010000
00000000
00001000
00000000
01000000
00000000
00000000
01000000
00010000
00000000
01000000
00000000
,
00100000
00000000
00000000
00000000
10000000
00000000
01000000
00000000
00100000
00000000
01000000
00000000
10000000
00000000
00010000
00000000
00000000
00000000
00010000
00000000
00100000
00000000
00001000
00000000
00010000
00000000
00000000
00010000
00001000
00000000
00000000
00000000
,
00011000
00000000
00000000
00000000
00001000
00000000
00010000
00000000
00000010
00000000
00001000
00000000
00000010
00000000
00000100
00000000
00000000
00000000
00000100
00000000
00000001
00000000
00000000
00000000
00000010
00000000
00000000
00000010
00000100
00000000
00000000
00000000
,
00001001
00000000
00000000
00000000
00001000
00000000
00000100
00000000
00010100
00000000
00000000
00000000
00001000
00000000
00100000
00000000
00110000
00000000
00000000
00000000
10010000
00000000
00000000
00000000
10000000
00000000
00000000
10000000
00100000
00000000
01000000
00000000
,
00020000
00000000
01000000
01000000
,
10000000
00000000
00000000
00000000
10000000
00000000
00000000
00000000
00130000
00000000
00001000
00010000
00000100
00000000
00001100
00000000
,
00000000
00000000
00001000
00000010
00001000
00000000
00000010
00000100
00000010
00000000
00000100
00000001
00001000
00000000
00002010
00000000
,
00000000
00003001
00000100
00001000
00021000
00000000
00030010
00001020
,
00000000
00000031
00000100
00001000
00021000
00000000
00130000
02100000
,
00000000
00000000
03010000
10000000
00100000
00000000
10000000
00000000
01000000
00000000
00010000
00000000
00001000
00000000
00010000
00000000
,
00011000
00000000
00000000
00000000
00010000
00000000
00001000
00010000
00000100
00000000
00001000
00000000
00000010
00000000
00000210
00000000
,
00000000
00000000
00000301
00000010
00000100
00000000
00000010
00000000
00000001
00001000
00000200
00000000
00020300
00000000
00032000
00000000
,
00000000
00000000
00103000
00010000
00100000
00010000
00100000
00010000
00100000
00010000
00100000
00010000
00100000
00000000
02000000
00000000
,
00000000
00000000
13000000
00010000
00100000
00000000
01000000
00000000
00100000
00000000
00010000
00000000
01010000
00000000
01001000
00000000
,
00000000
00000000
00021000
00000000
00000010
00030010
00001000
00001100
,
00000000
00000000
00000001
00000010
00000001
00000000
00000100
00000000
00000001
00000010
00000001
00000000
00000100
00000000
00000010
00001000
,
00000010
00000000
00010000
00001000
00010000
00000000
00000100
00000000
00000010
00000000
00001000
00000000
00000000
00000000
00012000
00000000
,
00000000
00000000
01003000
00010000
01000000
00000000
00100000
00000000
01000000
00010000
01000000
00000000
00100000
10000000
00100000
00000000
,
10000000
00000000
01000000
10000000
00010000
00000000
00100000
00010000
10000000
00000000
00100000
00000000
00100000
00000000
01010000
00000000
,
00000000
00000000
00001000
00100000
00010000
00000000
01000000
00000000
00001000
00100000
00010000
00000000
01000000
00001000
00010000
00000000
,
00000010
00000000
00001000
00000100
00000010
00000000
00000001
00000000
00000010
00000100
00001000
00000000
00000010
00000000
00000110
00000000
,
00000000
00000000
00000100
00001000
00010000
00000000
00100000
00000000
00010000
00001000
00000100
00000000
00000001
00000000
00000011
00000000
,
00000000
00000110
00000000
00010100
00011000
00000000
00100000
02100000
,
00000000
00000000
00000000
00000000
,
00000000
00000000
00000000
00000000
,
00000000
00000000
00000000
00000000
00000000
00000000
00000000
13000000
;
