#VERSION:0.83;
#TITLE:文月;
#SUBTITLE:;
#ARTIST:nonomori feat. 亜沙美;
#TITLETRANSLIT:Fumizuki;
#SUBTITLETRANSLIT:;
#ARTISTTRANSLIT:nonomori feat. Asami;
#GENRE:;
#CREDIT:;
#MUSIC:Fumizuki.ogg;
#BANNER:Fumizuki.png;
#BACKGROUND:Fumizuki-bg.png;
#CDTITLE:./CDTitles/SDVX EXCEED GEAR.png;
#SAMPLESTART:54.375;
#SAMPLELENGTH:15.000;
#SELECTABLE:YES;
#OFFSET:0.000;
#BPMS:0.000=150.000;
#STOPS:231.500=0.400;
#TIMESIGNATURES:0.000=4=4,
228.000=7=4,
235.000=4=4
;
#BGCHANGES:0.000=../BGAs/14tr.mp4=1.000=0=0=0=StretchNoLoop====,
99999.000=-nosongbg-=1.000=0=0=0=StretchNoLoop====
;
#FGCHANGES:;

//--------------- dance-single - forcednature ----------------
#NOTEDATA:;
#STEPSTYPE:dance-single;
#DESCRIPTION:forcednature;
#CREDIT:forcednature;
#DIFFICULTY:Beginner;
#METER:3;
#RADARVALUES:0,0,0,0,0;
#NOTES:
0000
0000
0000
0000
,
0000
0000
0000
0000
,
0000
0000
0000
0000
,
0000
0000
0000
0000
,
0000
0000
0000
0000
,
1001
0000
0000
0000
,
0110
0000
0000
0000
,
1000
0000
0001
0000
,
0100
0100
0100
0000
,
0110
0000
0000
0000
,
0001
0000
0000
0000
,
1000
0000
0100
0000
,
1000
0000
0000
0000
,
0110
0000
0000
0000
,
1000
0000
0000
0000
,
0001
0000
0100
0000
,
0001
0000
0000
0000
,
0020
0000
0000
0000
,
0030
0000
0000
0000
,
0200
0000
0000
0000
,
0300
0000
0000
0000
,
1001
0000
0000
0000
,
1000
0000
0000
0000
,
0001
0000
0000
0000
,
0100
0000
0000
0000
,
0110
0000
0000
0000
,
0010
0000
0000
0000
,
1000
0000
0000
0000
,
0100
0000
0000
0000
,
0110
0000
0000
0000
,
0010
0000
0000
0000
,
0001
0000
0001
0000
,
1000
0000
1000
0000
,
2002
0000
0000
3003
,
0001
0000
0100
0000
,
0010
0000
0000
0000
,
1000
0000
0100
0000
,
0020
0000
0030
0000
,
0001
0000
1000
0000
,
0001
0000
0100
0000
,
0010
0000
0010
0000
,
1000
1000
1000
0000
,
0200
0000
0000
0300
,
0020
0000
0000
0030
,
0001
0000
0001
0000
,
2000
0000
0000
3000
,
0010
0010
0010
0000
,
0100
0100
0100
0000
,
0001
0001
0001
0001
,
1000
1000
1000
1000
,
0200
0000
0000
0000
,
0000
0000
0000
0000
,
0000
0000
0000
0000
,
0000
0000
0000
0300
,
0000
1001
0000
1001
,
0000
0110
0000
0110
,
0000
0001
0000
1000
,
0020
0000
0000
0030
,
0000
0000
0000
0001
,
1000
0001
0000
0010
,
0000
0100
0000
1000
,
0001
1000
0000
0110
,
0000
0001
0000
0010
,
0010
0010
0000
0100
,
0000
0010
0000
0001
,
0001
1000
1000
0002
,
0000
0000
0003
0200
,
0000
0000
0300
0020
,
0000
0000
0000
0030
,
2000
0000
0000
0000
,
0000
0000
0000
0000
,
0000
0000
0000
3000
;

//--------------- dance-single - forcednature ----------------
#NOTEDATA:;
#STEPSTYPE:dance-single;
#DESCRIPTION:forcednature;
#CREDIT:forcednature;
#DIFFICULTY:Easy;
#METER:6;
#RADARVALUES:0,0,0,0,0;
#NOTES:
0000
0000
0000
0000
,
0000
0000
0000
0000
,
0000
0000
0000
0000
,
0000
0000
0000
0000
,
0000
0000
0000
0000
,
2002
0000
3003
0000
,
0220
0000
0330
0000
,
1001
1000
0001
0001
,
0100
0100
0010
0010
,
2000
0000
3100
0010
,
0001
0100
0001
0000
,
0010
0010
0100
0100
,
2000
0000
3001
0100
,
0200
0000
0310
1000
,
0001
1000
0100
0000
,
1001
0000
0000
0110
0000
0000
1000
0000
,
0001
0001
0100
0010
,
2000
0000
3200
0000
,
0320
0000
0030
0000
,
0002
0000
0203
0000
,
0320
0000
0030
0000
,
1001
0000
0001
0100
,
0010
1000
0001
0000
,
0010
0000
0100
1000
,
0010
0100
0001
0000
,
1001
0000
1000
0100
,
1000
0010
0100
0000
,
0001
0000
0010
0100
,
1000
0001
0100
0010
,
0110
0000
0100
0001
,
1000
0100
0010
0000
,
0011
0000
0001
1000
,
0010
0010
0100
0100
,
2002
0000
0000
3003
,
1000
0001
0100
0010
,
1000
1000
0001
0000
,
0010
0100
1000
0001
,
0200
0001
0010
0300
,
0202
0303
2020
3030
,
0001
0010
0100
1000
,
1001
0000
0000
0110
0000
0000
1000
0000
,
0001
0001
0100
0100
,
0020
0000
0000
2030
0000
0000
3020
0000
,
0230
0000
0000
0302
0000
0000
0203
0000
,
0320
0000
0030
0020
0000
0030
1000
0000
,
0002
0023
0230
2300
,
3001
0100
1000
0100
,
0020
2030
3002
0003
,
0010
0010
0100
0100
,
1000
1000
0001
0001
,
0200
0000
0000
0000
,
0302
0000
0000
0000
,
2003
0000
0000
0000
,
0200
0000
0000
3300
,
0000
0220
0330
2002
,
3003
0220
0330
1001
,
0001
0100
0010
1000
,
0100
0000
0000
0000
0000
0000
0000
0000
0000
0000
0000
0000
0000
0000
0000
0000
0100
0000
0000
0000
0000
0000
0000
0000
0000
0000
0000
0000
0000
0000
0000
0000
0010
0000
0000
0000
0000
0000
0000
0000
0000
0000
0000
0000
0000
0000
0000
0000
0020
0000
0000
0000
0000
0000
0000
0000
0000
0030
0000
0000
0000
0000
0000
0000
,
0000
0000
0001
0100
,
0010
2000
3000
0100
,
0010
0001
0010
0200
,
1000
0010
0300
0220
,
0330
2002
3003
0001
,
0100
1000
0100
0110
,
0000
1001
0000
0000
1000
0000
0100
0000
,
0100
0010
0010
0002
,
0000
0000
0000
0203
,
0000
0000
0000
0320
,
0000
2030
0000
3000
,
0200
0000
0000
0000
,
0000
0000
0000
0000
,
0000
0000
0000
0300
;

//--------------- dance-single - forcednature ----------------
#NOTEDATA:;
#STEPSTYPE:dance-single;
#DESCRIPTION:forcednature;
#CREDIT:forcednature;
#DIFFICULTY:Medium;
#METER:9;
#RADARVALUES:0,0,0,0,0;
#NOTES:
0000
0000
0000
0000
,
0000
0000
0000
0000
,
0000
0000
0000
0000
,
0000
0000
0000
0000
,
0000
0000
0000
0000
,
2002
0000
3003
0000
,
0220
0000
0330
0000
,
1001
1000
0100
0010
,
0001
0100
0001
0000
1000
1000
1000
0000
,
0100
0000
0010
0000
0100
1000
0001
0000
,
0100
0000
0000
0100
0000
0000
0001
0000
0000
0000
0010
0000
0010
0000
0000
0000
,
0100
1000
0100
0000
0010
0001
0010
0000
,
0002
0000
0100
0000
1003
0001
1000
0000
,
0110
0001
1000
0100
,
0010
0000
0000
0010
0000
0000
0001
0000
0000
0000
0001
0000
0100
0000
0000
0000
,
1010
0000
0000
0011
0000
0000
1000
0000
,
0010
0000
0100
0000
0001
1000
0001
1000
,
0200
0000
0320
0000
,
0032
0000
0003
0000
,
0200
0000
0320
0000
,
2030
0000
3000
0000
,
1100
0000
0001
0000
0010
0000
0001
0100
,
0010
0000
1000
0000
0001
0000
0010
0100
,
1000
0000
0010
0000
0100
0000
0001
1000
,
0100
0000
0000
0100
0000
0000
1000
0000
0001
0000
1000
0000
0001
0000
0000
0000
,
0022
0033
0001
1000
,
0100
0000
0000
0010
0000
0000
0110
0000
0000
0000
0000
0000
0001
0000
0000
0000
,
2020
0000
0000
0000
3030
0000
0000
0000
0001
0000
0000
0100
0000
0000
0001
0000
,
1000
0000
0000
0100
0000
0000
1000
0000
0010
0000
0000
0000
0100
0000
0000
0000
,
1001
0000
0001
0100
1000
0000
0200
0000
,
0301
0000
1000
0100
0001
0000
0100
0000
,
0110
0010
0001
0001
,
1000
0010
1000
0010
0100
0100
0001
0010
,
0200
0000
0000
0300
,
1000
0001
1000
0001
0000
0100
0010
0000
,
1000
0000
0000
1000
0000
0000
0001
0000
0022
0000
0000
0000
0033
0000
0000
0000
,
0010
0000
0100
1000
0000
1000
0001
0000
,
0200
0000
1000
0000
0010
0010
0310
0000
,
0101
0000
0001
1000
0200
0000
0310
0000
,
0001
0000
0000
0100
0000
0000
0001
0000
0101
0000
0000
0000
0010
0000
0000
0000
,
0110
0000
0001
0001
0000
1000
1000
0000
,
0010
0100
0010
0000
0100
0100
0100
0001
,
2000
0000
0000
3200
0000
0000
0320
0000
,
0032
0000
0000
2003
0000
0000
3020
0000
,
0130
0000
0001
0001
0000
1000
1000
0000
,
0010
0000
0100
0010
0001
1000
0001
0000
,
0100
0010
1000
0100
0010
0001
0100
0000
,
0010
1000
0001
1000
0200
0000
0300
0000
,
1000
0010
1000
0010
0100
0001
0100
0001
,
0010
0100
0010
0100
1000
0001
0100
0000
,
0020
0000
0000
2030
0000
0000
0000
0000
,
3002
0023
0230
0000
,
2300
0000
0000
3002
0000
0000
0000
0000
,
0200
0000
0000
0303
,
0000
0220
0330
2002
,
3003
0220
0330
1001
,
0110
0001
0100
0010
,
1000
0000
0000
0000
0000
0000
0000
0000
0100
0000
0000
0000
0000
0000
0000
0000
1000
0000
0000
0000
0000
0000
0000
0000
0000
0000
0000
0000
0000
0000
0000
0000
0001
0000
0000
0000
0000
0000
0000
0000
0100
0000
0000
0000
0000
0000
0000
0000
0002
0000
0000
0000
0000
0000
0000
0000
0000
0003
0000
0000
0000
0000
0000
0000
,
0110
0000
0000
0000
0001
0000
1000
0000
0001
0000
0000
0000
0010
0000
0000
0010
,
0000
0100
2200
0000
3300
0000
0001
0100
,
0001
0001
1000
0010
1000
0000
0200
0000
,
0010
0000
1000
1000
1300
0000
0011
0000
,
0001
0000
1000
0000
0020
0000
0000
0000
0130
0000
0001
0000
1000
0000
0000
0100
,
0000
0010
0011
0000
0100
0000
0110
0000
,
1000
0010
0000
0001
0010
0000
0100
0100
,
0100
0001
1000
0100
0010
0001
0200
0000
,
0000
0302
0000
0000
2003
0000
3200
0000
,
0000
2300
0000
0000
3002
0000
0203
0000
,
0320
2030
3020
0030
,
0100
0000
0000
0000
0001
0000
0000
0200
0000
0000
0000
0000
0000
0000
0000
0000
0000
0000
0000
0000
0000
0000
0000
0000
0000
0000
0000
0000
0000
0000
0000
0000
0000
0000
0000
0000
0000
0000
0000
0000
0000
0000
0000
0000
0000
0000
0000
0000
,
0000
0000
0000
0000
,
0000
0000
0000
0300
;

//--------------- dance-single - forcednature ----------------
#NOTEDATA:;
#STEPSTYPE:dance-single;
#DESCRIPTION:forcednature;
#CREDIT:forcednature;
#DIFFICULTY:Hard;
#METER:13;
#RADARVALUES:0,0,0,0,0;
#NOTES:
0000
0000
0000
0000
,
0000
0000
0000
0000
,
0000
0000
0000
0000
,
0000
0000
0000
0000
,
0000
0000
0000
0000
,
2002
0000
0000
0000
3003
0000
0000
0100
,
0220
0000
0330
0000
,
1001
0000
0001
0100
0010
0000
1000
0000
,
0100
0000
0100
0000
0010
0000
0010
0000
0001
1000
0001
0000
1000
0001
1000
0000
,
0020
0000
0100
0000
1030
0010
0100
0001
,
1000
0000
0000
0001
0000
0000
0010
0000
0100
0000
0100
0000
1000
0000
0001
0000
,
0100
1000
0100
0001
0010
0100
0001
0100
,
2000
0000
0010
0000
3001
1000
0100
0100
,
0120
0000
1000
0000
0130
0010
0001
1000
,
0010
0000
0000
0100
0000
0000
0001
0000
0010
0000
0100
0000
1000
0000
0001
0100
,
0001
0000
0000
0001
0010
0000
0110
0000
0000
0000
0100
0000
1000
0000
0001
0000
,
0100
0000
0100
0000
0010
0000
0010
0000
1000
0100
1000
0000
0001
0100
0001
0000
,
0020
0000
0230
2300
,
3002
0000
0003
0200
,
0320
0000
2030
3002
,
0023
0000
0030
0100
,
0110
0000
0001
1000
0010
0100
0001
1000
,
0001
0000
0010
0100
1000
0001
0100
0010
,
1000
0000
0001
0010
1000
0010
0100
1000
,
0001
0000
0000
0001
0000
0000
0100
0000
0010
1000
0010
1000
0010
0000
0100
0000
,
0002
0000
0010
0000
1003
0001
0100
0000
,
0010
0000
0000
0010
1000
0000
0001
0000
0010
0000
0100
0000
0010
0000
0001
0000
,
0200
0000
0000
0000
1300
0000
0100
0000
0010
0000
0000
1010
0000
0000
0001
0000
,
0010
0000
0000
0011
0000
0000
1000
0000
0010
0100
0010
0100
0010
0000
1000
0000
,
1001
0000
0000
0001
0010
0000
0100
0000
1000
0000
0010
0000
1010
0000
0000
0000
,
1001
0000
0000
1000
0010
0000
0100
0000
0001
0000
0010
0000
0011
0000
0000
0000
,
1100
0100
0010
0010
0001
0001
1000
1000
,
0001
0100
0001
0000
1000
0100
1000
0000
0010
0100
0010
0100
0010
0000
1000
0000
,
2002
0000
3003
0110
,
0001
0100
1000
0200
0000
0310
1000
0001
,
0011
0000
0000
0010
0100
0000
1000
0000
2200
0000
0000
0000
3300
0000
0000
0000
,
0001
0100
0010
2000
0000
3100
0010
0002
,
0100
0000
0100
0000
1000
0000
1000
0000
0013
0001
0010
0001
0010
0000
0100
0000
,
0210
0000
0000
0000
0310
0000
0001
1000
0020
0000
0000
0000
0130
0000
0001
0000
,
1000
0000
0000
1000
0100
0000
0010
0000
0001
0000
0001
0000
0200
0000
0000
0000
,
0310
0000
1000
0001
0010
0000
0001
0000
1000
0000
0010
0000
0100
0000
0001
0000
,
0100
0000
0100
0000
0010
0000
0010
0000
1000
0100
1000
0000
0001
0100
0001
0000
,
0020
0000
0130
0002
0000
0103
2000
0000
,
3020
0000
0230
0302
0000
0023
0230
2300
,
3001
0000
1000
0100
1000
0100
0010
0000
0001
0100
0001
0000
0010
0000
0010
0000
,
0001
0000
0100
0000
0010
0000
1000
0000
0001
0010
0100
1000
0001
0000
1000
0000
,
0001
0000
0100
0001
0100
0000
0010
0000
1000
0000
0100
1000
0100
0000
0010
0000
,
0001
0000
0100
0010
0100
0000
1000
0000
0200
0000
0000
0302
0000
0000
2003
0000
,
3100
0001
0100
1000
0010
0001
0010
1000
,
0001
0100
0001
0000
1000
0100
1000
0000
0010
0100
0010
0100
0001
0000
0001
0000
,
2000
0000
0000
3002
0000
0000
0000
0000
,
0203
0320
2030
0000
,
3200
0000
0000
0320
0000
0000
0000
0000
,
0002
0000
0000
0033
,
0000
2020
3030
2200
,
3300
0022
0033
0101
,
1001
0000
1000
0100
0010
0001
0100
0000
,
0010
0000
0000
0000
0000
0000
0000
0000
0010
0000
0000
0000
0000
0000
0000
0000
1000
0000
0000
0000
0000
0000
0000
0000
1000
0000
0000
0000
0000
0000
0000
0000
0001
0000
0000
0000
0010
0000
0000
0000
0001
0000
0000
0000
0010
0000
0000
0000
0100
0000
0000
0000
0000
0000
0000
0000
2000
3000
0000
0000
0000
0000
0000
0000
,
0101
0000
0000
0000
0001
0000
0010
0000
0100
0000
1000
0000
1010
0000
0000
0110
,
0000
0100
0202
0000
0303
0000
0001
0010
,
0001
0200
0000
0310
1000
0002
0100
0100
,
1000
0000
1000
0000
0013
0001
0010
0001
0010
0000
0100
0000
2100
0000
0000
0000
,
3010
0000
1000
0001
0200
0000
0000
0000
0310
0000
1000
0000
0001
0000
1000
0100
,
0010
0000
0001
0000
1000
0010
1000
0000
0200
0000
0000
0000
0310
0000
0001
1000
,
0010
0000
0100
0000
0001
0000
1000
0000
0100
0000
0010
0000
0001
0100
0001
0000
,
1000
0100
1000
0000
0001
0010
0001
0010
0100
0000
1000
0000
0002
0000
0000
0000
,
0000
0203
0000
0000
0320
0000
2030
0000
,
0000
3002
0000
0000
2003
0000
3200
0000
,
0320
0032
0203
0300
,
0001
0000
0000
0000
1000
0000
0000
0020
0000
0000
0000
0000
0000
0000
0000
0000
0000
0000
0000
0000
0000
0000
0000
0000
0000
0000
0000
0000
0000
0000
0000
0000
0000
0000
0000
0000
0000
0000
0000
0000
0000
0000
0000
0000
0000
0000
0000
0000
,
0000
0000
0000
0000
,
0000
0000
0000
0030
;

//--------------- dance-double - forcednature ----------------
#NOTEDATA:;
#STEPSTYPE:dance-double;
#DESCRIPTION:forcednature;
#CREDIT:forcednature;
#DIFFICULTY:Easy;
#METER:6;
#RADARVALUES:0,0,0,0,0;
#NOTES:
00000000
00000000
00000000
00000000
,
00000000
00000000
00000000
00000000
,
00000000
00000000
00000000
00000000
,
00000000
00000000
00000000
00000000
,
00000000
00000000
00000000
00000000
,
00002000
00000000
00003000
00000000
,
00020000
00000000
00030000
00000000
,
00011000
00000000
00001000
00001000
,
01000000
01000000
00010000
00010000
,
20000000
00000000
31000000
00100000
,
00010000
01000000
00001000
00000000
,
00010000
00010000
00000100
00000100
,
00002000
00000000
00003001
00000100
,
00000200
00000000
00000310
00001000
,
00000010
00000100
00000001
00000000
,
00000010
00000000
00000000
00000100
00000000
00000000
00010000
00000000
,
00001000
00001000
01000000
00010000
,
20000000
00000000
32000000
00000000
,
03200000
00000000
00300000
00000000
,
00020000
00000000
02030000
00000000
,
03002000
00000000
00003000
00000000
,
00011000
00000000
00010000
00000100
,
00001000
00000010
00010000
00000000
,
00000100
00000000
00001000
00000001
,
00000100
00000001
00000010
00000000
,
00000110
00000000
00000100
00001000
,
00000100
00010000
00001000
00000000
,
01000000
00000000
00010000
10000000
,
00010000
00100000
01000000
00000000
,
01100000
00000000
00100000
00010000
,
01000000
00001000
00010000
00000000
,
00011000
00000000
00001000
00010000
,
00000100
00000100
00001000
00000001
,
00002002
00000000
00000000
00003003
,
00001000
00000100
00010000
00001000
,
01000000
01000000
00010000
00000000
,
00100000
01000000
10000000
00010000
,
02000000
00100000
00100000
03000000
,
02020000
03030000
02002000
03003000
,
00001000
00010000
00000100
00001000
,
00000010
00000000
00000000
00000110
00000000
00000000
00000100
00000000
,
00000001
00000001
00000010
00000010
,
00000200
00000000
00000000
00020300
00000000
00000000
00032000
00000000
,
02003000
00000000
00000000
03002000
00000000
00000000
00023000
00000000
,
00230000
00000000
00300000
00200000
00000000
00300000
01000000
00000000
,
00020000
00230000
02300000
23000000
,
30010000
01000000
00001000
00010000
,
00000020
00002030
00003002
00000003
,
00000010
00000010
00000100
00000100
,
00010000
00010000
00001000
00001000
,
02000000
00000000
00000000
00000000
,
03020000
00000000
00000000
00000000
,
20030000
00000000
00000000
00000000
,
02000000
00000000
00000000
33000000
,
00000000
02200000
03300000
20020000
,
30030000
02200000
03300000
10010000
,
00010000
01000000
00001000
00010000
,
00000100
00000000
00000000
00000000
00000000
00000000
00000000
00000000
00000000
00000000
00000000
00000000
00000000
00000000
00000000
00000000
00000100
00000000
00000000
00000000
00000000
00000000
00000000
00000000
00000000
00000000
00000000
00000000
00000000
00000000
00000000
00000000
00000010
00000000
00000000
00000000
00000000
00000000
00000000
00000000
00000000
00000000
00000000
00000000
00000000
00000000
00000000
00000000
00000020
00000000
00000000
00000000
00000000
00000000
00000000
00000000
00000000
00000030
00000000
00000000
00000000
00000000
00000000
00000000
,
00000000
00000000
00000001
00001000
,
00000001
00000200
00000300
00000010
,
00010000
00000100
00010000
00002000
,
01000000
01000000
00003000
02002000
,
03003000
00022000
00033000
00010000
,
00000100
00001000
00000100
00000010
,
00000000
00000110
00000000
00000000
00000100
00000000
00001000
00000000
,
00001000
00000001
00000001
00000200
,
00000000
00000000
00000300
00000020
,
00000000
00000000
00000030
00020000
,
00000000
00030000
00002000
00000000
00000000
00003000
00000000
00000000
,
02000000
00000000
00000000
00000000
,
00000000
00000000
00000000
00000000
,
00000000
00000000
00000000
03000000
;

//--------------- dance-double - forcednature ----------------
#NOTEDATA:;
#STEPSTYPE:dance-double;
#DESCRIPTION:forcednature;
#CREDIT:forcednature;
#DIFFICULTY:Medium;
#METER:9;
#RADARVALUES:0,0,0,0,0;
#NOTES:
00000000
00000000
00000000
00000000
,
00000000
00000000
00000000
00000000
,
00000000
00000000
00000000
00000000
,
00000000
00000000
00000000
00000000
,
00000000
00000000
00000000
00000000
,
00020200
00000000
00030300
00000000
,
02002000
00000000
03003000
00000000
,
10010000
10000000
01000000
00100000
,
00010000
01000000
00010000
00000000
00100000
00100000
00100000
00000000
,
00001000
00000000
00010000
00000000
00000010
00001000
00000001
00000000
,
00000010
00000000
00000000
00000010
00000000
00000000
00000100
00000000
00000000
00000000
00010000
00000000
00010000
00000000
00000000
00000000
,
00001000
01000000
00001000
00000000
00100000
00010000
00100000
00000000
,
02000000
00000000
10000000
00000000
03100000
00010000
00100000
00000000
,
00011000
00000010
00001000
00000001
,
00000010
00000000
00000000
00000010
00000000
00000000
00000100
00000000
00000000
00000000
00010000
00000000
00001000
00000000
00000000
00000000
,
00101000
00000000
00000000
00010010
00000000
00000000
00010000
00000000
,
00001000
00000000
00100000
00000000
00010000
10000000
00010000
10000000
,
02000000
00000000
03020000
00000000
,
00032000
00000000
00003000
00000000
,
00000200
00000000
00002300
00000000
,
00023000
00000000
00030000
00000000
,
00011000
00000000
00010000
00000000
00000100
00000000
00001000
00000001
,
00000010
00000000
00000100
00000000
00010000
00000000
00001000
01000000
,
00010000
00000000
00100000
00000000
01000000
00000000
10000000
00010000
,
01000000
00000000
00000000
01000000
00000000
00000000
00001000
00000000
00010000
00000000
00001000
00000000
00010000
00000000
00000000
00000000
,
00020200
00030300
00000100
00001000
,
00000010
00000000
00000000
00000100
00000000
00000000
00000110
00000000
00000000
00000000
00000000
00000000
00000001
00000000
00000000
00000000
,
00000022
00000000
00000000
00000000
00000033
00000000
00000000
00000000
00000010
00000000
00000000
00000100
00000000
00000000
00010000
00000000
,
00001000
00000000
00000000
00100000
00000000
00000000
01000000
00000000
00100000
00000000
00000000
00000000
00010000
00000000
00000000
00000000
,
10010000
00000000
10000000
00100000
00010000
00000000
00002000
00000000
,
00013000
00000000
00001000
00000010
00000001
00000000
00001000
00000000
,
00001010
00000010
00010000
00010000
,
00001000
00100000
00001000
00100000
00010000
00010000
10000000
00100000
,
02000000
00000000
00000000
03000000
,
00010000
10000000
00010000
10000000
00000000
01000000
00100000
00000000
,
00001000
00000000
00000000
00001000
00000000
00000000
00010000
00000000
00020020
00000000
00000000
00000000
00030030
00000000
00000000
00000000
,
00000010
00000000
00000100
00000001
00000000
00000001
00000010
00000000
,
00000200
00000000
00001000
00000000
00010000
00010000
00010300
00000000
,
00011000
00000000
00001000
01000000
00020000
00000000
00130000
00000000
,
01000000
00000000
00000000
10000000
00000000
00000000
01000000
00000000
00100000
00000000
00000000
00000000
00001000
00000000
00000000
00000000
,
00011000
00000000
00001000
01000000
00000000
01000000
00010000
00000000
,
00100000
01000000
00100000
00000000
00010000
00010000
00010000
00000000
,
20000000
00000000
00000000
32000000
00000000
00000000
03200000
00000000
,
00302000
00000000
00000000
00023000
00000000
00000000
00030020
00000000
,
00001030
00000000
00000100
00000001
00000000
00000001
00000100
00000000
,
00000010
00000000
00000001
00000100
00000010
00001000
00000010
00000000
,
00010000
00001000
00100000
00001000
00010000
00001000
01000000
00000000
,
00001000
00010000
00000010
00010000
00002000
00000000
00003000
00000000
,
00000010
00000100
00001000
00000100
00010000
00001000
01000000
00001000
,
00010000
00100000
01000000
00100000
10000000
00010000
00100000
00000000
,
02000000
00000000
00000000
23000000
00000000
00000000
00000000
00000000
,
30020000
02030000
03002000
00000000
,
00023000
00000000
00000000
00030200
00000000
00000000
00000000
00000000
,
00002000
00000000
00000000
00003300
,
00000000
00000022
00000033
00020200
,
00030300
02002000
03003000
10100000
,
10010000
10000000
01000000
00010000
,
00001000
00000000
00000000
00000000
00000000
00000000
00000000
00000000
00100000
00000000
00000000
00000000
00000000
00000000
00000000
00000000
00001000
00000000
00000000
00000000
00000000
00000000
00000000
00000000
00000000
00000000
00000000
00000000
00000000
00000000
00000000
00000000
00010000
00000000
00000000
00000000
00000000
00000000
00000000
00000000
00000010
00000000
00000000
00000000
00000000
00000000
00000000
00000000
00020000
00000000
00000000
00000000
00000000
00000000
00000000
00000000
00000000
00030000
00000000
00000000
00000000
00000000
00000000
00000000
,
00011000
00000000
00000000
00000000
00000100
00000000
00010000
00000000
00001000
00000000
00000000
00000000
01000000
00000000
00000000
01000000
,
00000000
00010000
00220000
00000000
00330000
00000000
00100000
01000000
,
10000000
10000000
00000000
00100000
01000000
00000000
00002000
00000000
,
00100000
00000000
01000000
01000000
01003000
00000000
00011000
00000000
,
00010000
00000000
00000010
00000000
00002000
00000000
00000000
00000000
00003100
00000000
00000010
00000000
00000001
00000000
00000000
00000100
,
00000000
00000010
00001010
00000000
00010000
00000000
00011000
00000000
,
00001000
00100000
00000000
01000000
00100000
00000000
00010000
00010000
,
00010000
01000000
00001000
00010000
00000100
00001000
00000020
00000000
,
00000000
00020030
00000000
00000000
00032000
00000000
00203000
00000000
,
00000000
00320000
00000000
00000000
02030000
00000000
03002000
00000000
,
00023000
00030200
00002300
00003000
,
00000001
00000000
00000000
00000000
00000100
00000000
00000000
00000002
00000000
00000000
00000000
00000000
00000000
00000000
00000000
00000000
00000000
00000000
00000000
00000000
00000000
00000000
00000000
00000000
00000000
00000000
00000000
00000000
00000000
00000000
00000000
00000000
00000000
00000000
00000000
00000000
00000000
00000000
00000000
00000000
00000000
00000000
00000000
00000000
00000000
00000000
00000000
00000000
,
00000000
00000000
00000000
00000000
,
00000000
00000000
00000000
00000003
;

//--------------- dance-double - forcednature ----------------
#NOTEDATA:;
#STEPSTYPE:dance-double;
#DESCRIPTION:forcednature;
#CREDIT:forcednature;
#DIFFICULTY:Hard;
#METER:13;
#RADARVALUES:0,0,0,0,0;
#NOTES:
00000000
00000000
00000000
00000000
,
00000000
00000000
00000000
00000000
,
00000000
00000000
00000000
00000000
,
00000000
00000000
00000000
00000000
,
00000000
00000000
00000000
00000000
,
00022000
00000000
00003000
00000000
00130000
00000000
00000000
00010000
,
00022000
00030000
00003010
00000000
,
00011000
00000000
00001000
01000000
00010000
00000000
00100000
00000000
,
01000000
00000000
01000000
00000000
10000000
00000000
10000000
00000000
00010000
01000000
00010000
00000000
01000000
00010000
01000000
00000000
,
00200000
00000000
10000000
00000000
01300000
00100000
10000000
00010000
,
00100000
00000000
00000000
01000000
00000000
00000000
00010000
00000000
00001000
00000000
00001000
00000000
00000010
00000000
00000100
00000000
,
00001000
00000010
00000001
00000010
00000100
00000001
00000010
00001000
,
00020000
00000000
00000010
00000000
00030100
00010000
00001000
00001000
,
02001000
00000000
00010000
00000000
03100000
01000000
00010000
00100000
,
01000000
00000000
00000000
00010000
00000000
00000000
00001000
00000000
00000100
00000000
00000010
00000000
00000100
00000000
00000001
00001000
,
00000001
00000000
00000000
00000001
00000010
00000000
00000110
00000000
00000000
00000000
00000100
00000000
00010000
00000000
00001000
00000000
,
01000000
00000000
01000000
00000000
00010000
00000000
00010000
00000000
00100000
01000000
00100000
00000000
01000000
00100000
01000000
00000000
,
20000000
00000000
30020000
02030000
,
03002000
00000000
00003000
00020000
,
00030200
00000000
00002300
00003002
,
00000203
00000000
00000300
00000010
,
00000110
00000000
00000100
00001000
00000100
00000001
00000010
00000001
,
00000010
00000000
00000100
00010000
00001000
00000010
00000100
00010000
,
00001000
00000000
01000000
00010000
00100000
01000000
00010000
00001000
,
01000000
00000000
00000000
01000000
00000000
00000000
00100000
00000000
10000000
00010000
10000000
00010000
10000000
00000000
01000000
00000000
,
00200000
00000000
10000000
00000000
00310000
00100000
00001000
00000000
,
00010000
00000000
00000000
00010000
00000010
00000000
00001000
00000000
00000100
00000000
00000001
00000000
00000100
00000000
00000010
00000000
,
00000002
00000000
00000000
00000000
00000103
00000000
00001000
00000000
00000100
00000000
00000000
00000110
00000000
00000000
00000010
00000000
,
00010000
00000000
00000000
00011000
00000000
00000000
00001000
00000000
00100000
00010000
00100000
00010000
00100000
00000000
01000000
00000000
,
11000000
00000000
00000000
10000000
00010000
00000000
01000000
00000000
00001000
00000000
00010000
00000000
00010010
00000000
00000000
00000000
,
00000101
00000000
00000000
00000001
00001000
00000000
00000100
00000000
00010000
00000000
00001000
00000000
00101000
00000000
00000000
00000000
,
11000000
10000000
00010000
00010000
01000000
01000000
00001000
00001000
,
00010000
00000100
00010000
00000000
00000100
00001000
00000100
00000000
00000010
00000001
00000010
00000001
00000010
00000000
00000100
00000000
,
00002002
00000000
00000000
00000000
00000000
00000000
00000000
00000000
00003003
00000000
00000000
00000000
00000001
00000100
00000010
00001000
,
00000001
00000010
00001000
00000020
00000000
00000130
00010000
00001000
,
00101000
00000000
00000000
00100000
00010000
00000000
01000000
00000000
02200000
00000000
00000000
00000000
03300000
00000000
00000000
00000000
,
00100000
10000000
01000000
00020000
00000000
00031000
00000010
00000200
,
00000001
00000000
00000001
00000000
00000010
00000000
00000010
00000000
00001300
00000100
00001000
00000100
00010000
00000000
00001000
00000000
,
02001000
00000000
00000000
00000000
03100000
00000000
10000000
00010000
00200000
00000000
00000000
00000000
01300000
00000000
00010000
00000000
,
00001000
00000000
00000000
00001000
00000100
00000000
00000010
00000000
00001000
00000000
00001000
00000000
00000002
00000000
00000000
00000000
,
00000013
00000000
00000100
00010000
00001000
00000000
00100000
00000000
00001000
00000000
00010000
00000000
00100000
00000000
01000000
00000000
,
00010000
00000000
00010000
00000000
10000000
00000000
10000000
00000000
01000000
00100000
01000000
00000000
00100000
00010000
00100000
00000000
,
00002000
00000000
00013000
00200000
00000000
00310000
00002000
00000000
,
00003020
00000000
00000230
00021300
00000000
00030002
00000203
00002300
,
00013000
00000000
00000100
00001000
00000100
00010000
00001000
00000000
01000000
00010000
01000000
00000000
00100000
00000000
00100000
00000000
,
10000000
00000000
01000000
00000000
00010000
00000000
00001000
00000000
00100000
00010000
00100000
00001000
00010000
00000000
00000010
00000000
,
00000100
00001000
01000000
00010000
00100000
00010000
00000010
00001000
,
00010000
00000000
00000010
00000000
00000100
00000000
00001000
00000000
00020000
00000000
00000000
00230000
00000000
00000000
02300000
00000000
,
03010000
10000000
01000000
00100000
00010000
00001000
00000100
00000010
,
00000001
00000100
00000001
00000000
00001000
00000100
00001000
00000000
00000010
00010000
00000010
00010000
00001000
00000000
00001000
00000000
,
00200000
00000000
00000000
00320000
00000000
00000000
00000000
00000000
,
20030000
30200000
00320000
00000000
,
00032000
00000000
00000000
00003020
00000000
00000000
00000000
00000000
,
00000200
00000000
00000000
00000330
,
00000000
00022000
00033000
02200000
,
03300000
00022000
00033000
00000110
,
00001001
00000000
00000001
00000100
00001000
00010000
00100000
00000000
,
01000000
00000000
00000000
00000000
00000000
00000000
00000000
00000000
01000000
00000000
00000000
00000000
00000000
00000000
00000000
00000000
00010000
00000000
00000000
00000000
00000000
00000000
00000000
00000000
00010000
00000000
00000000
00000000
00000000
00000000
00000000
00000000
10000000
00000000
00000000
00000000
01000000
00000000
00000000
00000000
10000000
00000000
00000000
00000000
01000000
00000000
00000000
00000000
00100000
00000000
00000000
00000000
00000000
00000000
00000000
00000000
00020000
00030000
00000000
00000000
00000000
00000000
00000000
00000000
,
00000110
00000000
00000000
00000000
00000001
00000000
00000010
00000000
00001000
00000000
00010000
00000000
00010100
00000000
00000000
00011000
,
00000000
01000000
02020000
00000000
03030000
00000000
00010000
00100000
,
01000000
20000000
00000000
30100000
01000000
00002000
00010000
00010000
,
00100000
00000000
00103000
00000000
00001000
00010000
00001000
00010000
00000010
00000000
00001000
00000000
00001200
00000000
00000000
00000000
,
00000310
00000000
00000001
00001000
00000020
00000000
00000000
00000000
00010030
00000000
00001000
00000000
00100000
00000000
00010000
10000000
,
00100000
00000000
01000000
00000000
00001000
00010000
00001000
00000000
00200000
00000000
00000000
00000000
01300000
00000000
00010000
00001000
,
00100000
00000000
00010000
00000000
00001000
00000000
00000100
00000000
00010000
00000000
00001000
00000000
00010000
00000010
00010000
00000000
,
00001000
00100000
00001000
00000000
01000000
00010000
01000000
00010000
10000000
00000000
01000000
00000000
00020000
00000000
00000000
00000000
,
00000000
00032000
00000000
00000000
00003200
00000000
00000302
00000000
,
00000000
00000023
00000000
00000000
00000230
00000000
00020300
00000000
,
00032000
02003000
03020000
00030000
,
10000000
00000000
00000000
00000000
01000000
00000000
00000000
00020000
00000000
00000000
00000000
00000000
00000000
00000000
00000000
00000000
00000000
00000000
00000000
00000000
00000000
00000000
00000000
00000000
00000000
00000000
00000000
00000000
00000000
00000000
00000000
00000000
00000000
00000000
00000000
00000000
00000000
00000000
00000000
00000000
00000000
00000000
00000000
00000000
00000000
00000000
00000000
00000000
,
00000000
00000000
00000000
00000000
,
00000000
00000000
00000000
00030000
;
