#VERSION:0.83;
#TITLE:Follow Up;
#SUBTITLE:;
#ARTIST:あるふぁ;
#TITLETRANSLIT:;
#SUBTITLETRANSLIT:;
#ARTISTTRANSLIT:alpha;
#GENRE:;
#CREDIT:;
#MUSIC:Follow Up.ogg;
#BANNER:Follow Up.png;
#BACKGROUND:Follow Up-bg.png;
#CDTITLE:./CDTitles/SDVX III GRAVITY WARS.png;
#SAMPLESTART:68.214;
#SAMPLELENGTH:15.000;
#SELECTABLE:YES;
#OFFSET:1.371;
#BPMS:0.000=175.000;
#STOPS:;
#TIMESIGNATURES:0.000=4=4;
#BGCHANGES:0.000=../BGAs/20te.mp4=1.000=0=0=0=StretchNoLoop====,
99999.000=-nosongbg-=1.000=0=0=0=StretchNoLoop====
;
#FGCHANGES:;

//--------------- dance-single - forcednature ----------------
#NOTEDATA:;
#STEPSTYPE:dance-single;
#DESCRIPTION:forcednature;
#DIFFICULTY:Beginner;
#METER:2;
#RADARVALUES:0,0,0,0,0;
#CREDIT:forcednature;
#NOTES:
0000
0000
0000
0000
,
0000
0000
0000
0000
,
0000
0000
0000
0000
,
0000
0000
0000
0000
,
0000
0000
0000
0000
,
0000
0000
0000
0000
,
0000
0000
0000
0000
,
1000
0000
0000
1000
,
0000
0000
0000
0000
,
0001
0000
0000
0001
,
0000
0000
0000
0000
,
0100
0000
0010
0000
,
0100
0000
0000
0000
,
0001
0000
1000
0000
,
0001
0000
0000
0000
,
0010
0000
0100
0000
,
1000
0000
0000
0000
,
0010
0000
0010
0000
,
0100
0000
0000
0000
,
1001
0000
0000
0000
,
1000
0000
0000
0000
,
0100
0000
0000
0000
,
1000
0000
0000
0000
,
0001
0000
0000
0000
,
0100
0000
0000
0000
,
0001
0000
0000
0000
,
0010
0000
0000
0000
,
1001
0000
0000
0000
,
1000
0000
0000
0000
,
0001
0000
0000
0000
,
0100
0000
0000
0000
,
0001
0000
0000
0000
,
0010
0000
0000
0000
,
0100
0000
1000
0000
,
0100
0000
0000
0000
,
1001
0000
0000
0000
,
0000
0000
0000
0000
,
0001
0000
0000
0000
,
0000
0000
0000
0000
,
0100
0000
0000
0000
,
0000
0000
0000
0000
,
0010
0000
0000
0000
,
0000
0000
0000
0000
,
1000
0000
0000
0000
,
0100
0000
0000
0000
,
1000
0000
0000
0000
,
0010
0000
0000
0000
,
0100
0000
0000
0000
,
0001
0000
0000
0000
,
0010
0000
0010
0000
,
0010
0000
0000
0000
,
0001
0000
0100
0000
,
0001
0000
0000
0000
,
1000
0000
0100
0000
,
1000
0000
0000
0000
,
0010
0000
0000
0000
,
1000
0000
0001
0000
,
1000
0000
0000
0000
,
0010
0000
0000
0000
,
0100
0000
0001
0000
,
0100
0000
0000
0000
,
0001
0000
0010
0000
,
0001
0000
0000
0000
,
1000
0000
0000
0000
,
0010
0000
0000
0000
,
0100
0000
0100
0000
,
0001
0000
0000
0000
,
1001
0000
0000
0000
,
1000
0000
0000
0000
,
0100
0000
0000
0000
,
1000
0000
0000
0000
,
0001
0000
0000
0000
,
0100
0000
0000
0000
,
0001
0000
0000
0000
,
0010
0000
0000
0000
,
0100
0000
1000
0000
,
0100
0000
0000
0000
,
0010
0000
0001
0000
,
0010
0000
0000
0000
,
0001
0000
0000
0000
,
0100
0000
0000
0000
,
0010
0000
1000
0000
,
0010
0000
0000
0000
,
1000
0000
0000
1000
,
0000
0000
0000
0000
,
0001
0000
0001
0000
,
0001
0000
0100
0000
;

//--------------- dance-single - forcednature ----------------
#NOTEDATA:;
#STEPSTYPE:dance-single;
#DESCRIPTION:forcednature;
#DIFFICULTY:Easy;
#METER:7;
#RADARVALUES:0,0,0,0,0;
#CREDIT:forcednature;
#NOTES:
0000
0000
0000
0000
,
0000
0000
0000
0000
,
0000
0000
0000
0000
,
0000
0000
0000
0000
,
0000
0000
0000
0000
,
0000
0000
0000
0000
,
0000
0000
0000
0000
,
1000
0000
0000
0001
0000
0000
1001
0000
,
0000
0000
0000
0000
,
0001
0000
0000
1000
0000
0000
1001
0000
,
0000
0000
0000
0000
,
1000
0000
0100
0010
,
0100
0000
1000
0000
,
0001
0000
0100
0010
,
0100
0000
0001
0000
,
1001
0000
1000
0100
,
1000
0000
0001
0100
,
0001
0001
0010
0010
,
0200
0000
1300
0000
,
1001
0000
0001
0100
,
0001
0010
0100
0000
,
0010
0001
1000
0000
,
0010
0100
0001
0000
,
1001
0000
1000
0100
,
1000
0001
0100
0000
,
0010
1000
0001
0000
,
0020
0000
0000
0030
,
0100
1000
0100
0010
,
0100
1000
0001
0000
,
0100
0001
0100
0010
,
0100
0001
1000
0000
,
0110
0000
0001
1000
,
0010
0000
1000
0001
,
0010
0010
0100
0100
,
2000
0000
3001
0100
,
0020
0000
0000
0000
,
0000
0000
0030
0000
,
2000
0000
0000
0000
,
0000
0000
3000
0000
,
0002
0000
0000
0000
,
0000
0000
0003
0000
,
0020
0000
0230
0000
,
2300
0000
3001
0000
,
1001
0000
0001
0100
,
0001
0000
0010
0100
,
0010
0000
0100
1000
,
0100
0000
1000
0000
,
0001
0001
0001
0000
,
0100
0100
0100
0000
,
0010
0010
1000
1000
,
0002
0000
0000
0003
,
0010
0100
1000
0100
,
0010
0001
1000
0000
,
0010
0100
0001
0100
,
0010
1000
0001
0000
,
0010
0100
2000
0000
,
3100
0010
0001
0000
,
1000
0001
0100
0010
,
0100
0001
1000
0000
,
0010
0100
0001
0100
,
0010
1000
0001
0000
,
0010
0100
1000
0100
,
0010
0001
1000
0000
,
0010
0100
0002
0000
,
1003
0100
0010
0000
,
0100
0100
1000
1000
,
0002
0000
0103
0000
,
1001
0000
1000
1000
,
0000
0001
0010
0010
,
0100
0000
1000
1000
,
0010
0100
0001
0100
,
0110
0000
0001
0001
,
0000
1000
0100
0100
,
1000
0010
1000
1000
,
0001
0010
0100
1000
,
0010
1000
0001
0100
,
0001
0010
0100
0000
,
0010
0001
0100
0001
,
1000
0100
1000
0000
,
1001
0000
1000
0010
,
1000
0000
0001
0010
,
0001
0001
0100
0100
,
0010
1000
0002
0003
,
0010
0000
0000
0100
0000
0000
1000
0000
,
0000
0001
0000
0000
0100
0000
0000
0000
,
0010
0000
0000
1000
0000
1000
0000
2000
,
0000
0000
0001
3002
,
0003
0000
0000
0000
;

//--------------- dance-single - forcednature ----------------
#NOTEDATA:;
#STEPSTYPE:dance-single;
#DESCRIPTION:forcednature;
#DIFFICULTY:Medium;
#METER:13;
#RADARVALUES:0,0,0,0,0;
#CREDIT:forcednature;
#NOTES:
0000
0000
0000
0000
,
0000
0000
0000
0000
,
0000
0000
0000
0000
,
0000
0000
0000
0000
,
0000
0000
0000
0000
,
0000
0000
0000
0000
,
0000
0000
0000
0000
,
1100
0000
0000
1010
0000
0000
2002
0000
,
0000
0000
0000
3003
,
0101
0000
0000
0011
0000
0000
2002
0000
,
0000
0000
0000
3003
,
1001
0000
0001
0000
0100
0001
0100
0000
,
0010
1000
0000
0001
0010
0000
0100
0000
,
0010
0000
0001
0000
1000
0010
1000
0000
,
0001
0010
0000
0100
1000
0000
0001
0000
,
0100
0010
1000
0010
0200
0000
0301
0000
,
1000
0100
0010
0100
1000
0000
0001
0000
,
0010
0100
0010
0100
1000
0001
1000
0001
,
0100
0100
0010
0010
2000
0000
3002
0000
,
0013
0000
0100
0000
1000
0000
0100
0000
0010
0000
0000
0100
1000
0000
0000
0000
,
0001
0100
0010
1000
0100
1000
0010
0000
,
0100
0001
0010
0001
1000
0010
0100
0000
,
0001
0010
0001
0100
0010
0000
1001
0000
,
0001
0000
0100
0000
0010
0000
0100
0000
0001
0000
0000
0100
0010
0000
0000
0000
,
1000
0100
1000
0001
0010
0001
1000
0000
,
0010
0100
0001
1000
0100
0010
0100
0000
,
2000
0010
0001
3100
,
1000
0000
0010
1000
0010
0000
0000
0000
0100
0000
0001
0000
0010
0000
0100
0000
,
0000
0010
0001
1000
0010
0100
0001
0000
,
0010
0000
0001
0010
0001
0000
0000
0000
1000
0000
0010
0000
0100
0000
0001
0000
,
0000
1000
0100
1000
0001
0100
0001
0000
,
0010
0000
0100
0010
0100
0000
0000
0000
1000
0000
0001
0000
0200
0000
0000
0000
,
0310
0000
1000
0010
1000
0000
0000
0000
0002
0000
0000
0000
0010
0000
0000
0000
,
0103
0001
0100
0001
1000
1000
0100
0010
,
0002
0100
1000
0013
,
2100
0000
0000
0000
,
0000
0000
0000
0000
3010
0100
0010
1000
,
0002
0000
0000
0000
,
0000
0000
0000
0000
0013
0100
1000
0000
,
0201
0000
0000
0000
,
0000
0000
0310
0010
,
0200
0302
2003
3200
,
0320
0000
0032
0000
1003
0010
1000
0000
,
0001
0010
0100
1000
0001
0010
0100
0010
,
0001
1000
0010
1000
0001
1000
0100
0000
,
0010
0100
1000
0100
0010
0001
1000
0000
,
0010
0100
0001
0100
0010
1000
0001
0000
,
0011
0000
0001
0100
0010
0000
0010
1000
,
0100
0000
0100
0010
0001
0000
0001
1000
,
0010
0010
0100
0100
0001
1000
1000
0001
,
0200
0000
0000
0320
,
1030
0000
0001
0000
0010
0000
0001
0000
0100
0001
0100
0000
0010
0000
1000
0000
,
0001
0000
1000
0000
0100
0000
0010
0000
0001
0100
0001
0000
0100
0000
0000
0000
,
0010
0000
1000
0000
0001
0000
0010
0000
0100
1000
0100
0000
0010
0000
0001
0000
,
1000
0000
0010
0000
0100
0000
0001
0000
1000
0100
1000
0000
0100
0000
0010
0000
,
0001
0000
1000
0010
1000
0000
0200
0000
0000
0000
0000
0000
0000
0000
0000
0000
,
0300
0000
0020
0000
0030
0000
0001
0000
0100
0001
0100
0000
0010
0000
2000
0000
,
0100
0000
0001
3000
1000
0010
0100
0001
,
0010
0000
0000
0100
0000
0000
2000
0000
0000
0000
0001
0000
3001
0000
0000
0000
,
1000
0000
0010
0000
1000
0000
0100
0000
0010
0001
0010
0000
0100
0000
1000
0000
,
0001
0000
0100
0000
0010
0000
1000
0000
0100
0010
0100
0000
0010
0000
0000
0000
,
0001
0000
0100
0000
0001
0000
0010
0000
0100
1000
0100
0000
0010
0000
0001
0000
,
1000
0000
0010
0000
0100
0000
0010
0000
1000
0001
1000
0000
0001
0000
0010
0000
,
0001
0100
0001
0100
0010
1000
0010
1000
,
0001
0010
0001
0010
0100
1000
0100
1000
,
0010
0010
0100
0100
0001
0001
1000
1000
,
0200
0000
0000
0000
0001
0000
0000
0000
0310
0100
0000
2000
0000
0000
3000
0000
,
0010
0000
0100
0000
0001
0000
0100
0000
0010
1000
0010
0000
1000
0000
0001
0000
,
0000
0000
0010
0000
0100
0000
1000
0000
0100
0010
0100
0000
1000
0000
0001
0000
,
0100
0000
0001
0000
1000
0000
0010
0000
1000
0001
1000
0000
0001
0000
0010
0000
,
0000
0200
0000
1300
0010
0100
0002
0000
,
0013
0000
0100
0000
0010
0000
0001
0000
1000
0010
1000
0000
0001
0000
0010
0000
,
0000
0000
0100
0000
1000
0000
0001
0000
0100
0001
0100
0000
0010
0000
1000
0000
,
0001
0000
0010
0000
0001
0000
1000
0000
0010
0100
0010
0000
0100
0000
0001
0000
,
2000
3200
0320
0032
,
0103
0000
0001
0000
1000
0000
0010
0000
1000
0100
1000
0000
0001
0000
0010
0000
,
0001
0000
0100
0000
0010
0000
1000
0000
0100
0010
0100
0000
0010
0000
0000
0000
,
0001
0000
1000
0000
0010
0000
1000
0000
0001
0010
0001
0000
0100
0000
0001
0000
,
1000
0000
0100
0000
0010
0000
0100
0000
0010
0001
0010
0000
0001
0000
1000
0000
,
0010
0010
0100
0001
1000
0001
0010
0100
,
0010
0010
0100
1000
0001
1000
0020
0000
,
0130
0100
0001
0001
1000
1000
0100
0100
,
0010
0001
0010
0000
0100
0000
1000
0000
0020
0000
0030
0000
0200
0000
0300
0000
,
0202
0000
0000
0303
0000
0000
0022
0000
0000
0033
0000
0000
2200
0000
0000
3300
,
0000
2020
3030
0200
0300
0020
0030
0100
,
0220
0000
0000
0330
0000
0000
2200
0000
3300
0000
0202
0000
0303
0000
0220
0000
,
0330
0000
1000
0000
0001
0000
1000
0000
0010
0100
0010
0000
0100
0001
0100
0001
;

//--------------- dance-single - forcednature ----------------
#NOTEDATA:;
#STEPSTYPE:dance-single;
#DESCRIPTION:forcednature;
#DIFFICULTY:Hard;
#METER:17;
#RADARVALUES:0,0,0,0,0;
#CREDIT:forcednature;
#NOTES:
0000
0000
0000
0000
,
0000
0000
0000
0000
,
0000
0000
0000
0000
,
0000
0000
0000
0000
,
0000
0000
0000
0000
,
0000
0000
0000
0000
,
0000
0000
0000
0000
,
1100
0000
0000
0011
0000
0000
1001
0000
,
0000
1000
0000
0100
0000
0010
0000
0001
,
0101
0000
0000
1010
0000
0000
1001
0000
,
0001
0100
0001
0020
0000
0000
0100
0000
,
0031
0000
0100
0000
0010
0000
1000
0000
0001
0100
0001
0000
1000
0000
0010
0000
,
0000
1000
0100
0001
0100
1000
0010
0000
,
1000
0000
0100
0000
0010
0000
0001
0000
1000
0100
1000
0000
0001
0000
0010
0000
,
0000
0000
0100
0000
1000
0000
0001
0100
0001
0000
0010
0001
0010
0000
0100
0000
,
1000
0000
0100
0010
0001
0000
2000
0000
0010
0000
0000
0000
0001
0000
0000
0000
,
3100
0000
1000
0000
0010
0000
1000
0000
0001
0100
0001
0000
0010
0000
0100
0000
,
1000
0010
1000
0000
0001
0000
0100
0000
0001
0010
0001
0000
1000
0000
0100
0000
,
0010
0001
0010
0001
1000
0010
0100
0001
0020
0000
0000
0000
0230
0000
0000
0000
,
1300
0000
0100
0000
1000
0000
0010
0100
0010
0000
1000
0000
0001
0000
0010
0000
,
0001
0100
0001
0100
0010
0000
1000
0000
0001
0010
0100
0000
1000
0000
0000
0000
,
0001
0000
0100
0000
0010
0000
1000
0100
1000
0000
0001
0000
0010
0000
0001
0000
,
1000
0100
1000
0100
0010
0000
0100
1000
0001
0000
0100
0001
0010
0000
0000
0000
,
0100
1000
0100
0000
0010
0000
0001
1000
0010
0000
0100
0000
0001
0000
0010
0000
,
0001
0100
0001
0100
0010
0000
1000
0000
0001
0000
0010
0100
1000
0000
0000
0000
,
0001
0100
0010
0100
0000
0100
0010
1000
,
0100
1000
0100
0000
0010
0100
0010
0000
0001
0000
1000
0010
0100
0001
0100
0001
,
1000
0000
0100
0010
0001
0000
0100
0000
0001
0000
0010
0100
1000
0100
0010
0000
,
0001
0000
1000
0000
0010
0000
1000
0000
0100
0000
0010
0001
1000
0000
0000
0000
,
0010
0000
0100
0001
1000
0000
0100
0000
0010
0000
0001
1000
0010
1000
0001
0000
,
0010
0000
0100
1000
0001
0000
1000
0000
0010
0000
0100
0001
0010
0000
0000
0000
,
0100
0000
1000
0100
0010
0000
0001
0000
1000
0000
0010
0100
0002
0000
0010
0000
,
0013
0000
0001
0000
1000
0001
0200
0000
1000
0000
0010
0000
0301
0000
0000
0000
,
0100
0000
0100
0010
1000
0000
1000
0000
0001
0010
0001
0010
0100
1000
0001
0100
,
0000
0000
0010
0000
1000
0000
0001
0000
0010
0000
0100
0010
0001
1000
0001
1000
,
0020
0000
0000
0100
0000
0001
0000
0100
,
0000
1000
0000
0000
1030
0001
0010
0100
,
2000
0000
0000
0001
0000
0100
0000
0001
,
0000
0010
0000
3100
0000
1000
0000
0000
,
1002
0000
0000
1000
0000
0000
0100
0000
,
0000
1000
0000
0000
0010
0000
0010
0000
,
0103
0001
0100
0000
0010
1000
0010
0000
,
2000
0000
0000
0000
3100
0000
0010
0000
0001
0100
0010
1000
0100
0000
0000
0000
,
0010
0000
0001
0000
0100
0000
1000
0000
0100
0010
0100
0010
1000
0000
0001
0000
,
0010
0100
0010
0000
0100
1000
0100
0000
1000
0010
1000
0010
0100
0000
0000
0000
,
0001
0000
1000
0000
0100
0000
1000
0000
0010
0100
0010
0100
0001
0000
1000
0000
,
0100
0000
0001
0000
1000
0000
0010
0000
0001
0100
0001
0100
0010
0000
0000
0000
,
1000
0100
1100
1000
0001
0100
0101
0001
,
1000
0010
1010
1000
0001
0010
0011
0001
,
0100
0000
0101
0000
0010
0000
1010
0000
1000
0001
0100
0000
0001
1000
0100
0000
,
0020
0000
0000
0000
1000
0000
0000
0000
0100
0000
0000
0000
0031
0010
0100
1000
,
0010
0000
0100
0001
0100
0000
0010
0000
1000
0100
0010
0100
1000
0000
0001
0000
,
0100
0010
0100
0000
0001
0000
1000
0010
1000
0100
1000
0001
0010
0000
0000
0000
,
0001
0000
1000
0010
1000
0000
0100
0000
0010
0001
0100
0001
0010
0000
0100
0000
,
1000
0010
1000
0000
0001
0010
0001
0000
0100
0001
0100
0010
1000
0001
1000
0000
,
0100
0000
0010
0001
1000
0000
0020
0000
0100
0000
0000
0000
0032
0000
0000
0000
,
0013
0000
0100
0001
1000
0000
0100
0000
0010
0100
0010
0000
0001
0000
0200
0000
,
1000
0000
0000
0000
0310
0100
0001
0100
0001
0000
1000
0000
0001
0000
0010
0000
,
0100
1000
0000
1000
0010
0000
0010
0100
0000
0100
0001
0000
0010
0100
0010
0100
,
1000
0000
0100
0010
0100
0000
1000
0000
0001
0100
0010
0100
0001
0000
1000
0000
,
0100
0010
0100
0000
1000
0000
0001
0010
0001
0100
0001
1000
0010
0000
0000
0000
,
0100
0000
0001
0010
0001
0000
0100
0000
0001
1000
0100
1000
0001
0000
0100
0000
,
0010
1000
0010
0000
0100
0001
0100
0000
0001
0010
0100
1000
0100
0010
0001
0000
,
0100
0000
0010
1000
0001
0000
0020
0000
0100
0000
0000
0000
1030
0000
0000
0000
,
0010
0000
0001
1000
0010
0000
0100
1000
0100
0001
0100
0000
0010
0000
2000
0000
,
0100
0000
0100
0000
3001
0000
0001
0100
0010
0100
0010
0000
1000
0000
1000
0000
,
0100
1000
0100
1000
0001
0100
0001
0100
0010
1000
0001
1000
0200
0010
0000
0000
,
1300
0000
0010
0100
0010
0000
1000
0000
0001
0010
0001
0010
0100
1000
0100
0000
,
0010
0000
0001
1000
0010
1000
0100
0000
0010
0001
0010
0001
0100
0000
0010
0000
,
1000
0000
0001
0100
0001
1000
0010
0000
1000
0001
1000
0001
0100
0010
0100
0000
,
0001
0000
0010
0100
1000
0100
0010
0000
0002
0000
0100
0000
2003
0000
0000
0000
,
3010
0000
1000
0001
0010
0000
0100
0000
1000
0010
1000
0010
0100
0001
0100
1000
,
0000
0000
0100
0010
0000
1000
0010
0000
0100
0001
0100
0001
0010
0000
0100
0000
,
2000
0000
0010
0000
3001
1000
0100
0000
0010
0001
0010
0001
0100
0000
0010
0000
,
2000
0000
3200
0000
0320
0000
0032
0000
0203
0000
0320
0000
1030
0001
1000
0001
,
0010
0000
0100
1000
0001
0000
1000
0010
0100
0010
1000
0000
0100
1000
0100
0010
,
0100
0000
1000
0001
0000
0100
0001
0010
0001
1000
0010
0000
0100
0000
0000
0000
,
0001
0000
1000
0001
0010
0000
0001
0100
0010
0100
0001
0000
0010
0100
1000
0000
,
0010
0000
0100
0000
0001
0010
0001
0100
0010
1000
0100
1000
0010
0000
0100
0000
,
0002
0000
0010
0000
1003
0001
0100
0000
0010
1000
0001
1000
0100
0010
0100
1000
,
0100
0000
0010
0001
1000
0001
0100
0000
0010
1000
0001
1000
0200
0000
0000
0000
,
0310
0011
1000
1010
0100
1100
0001
0101
,
1000
0010
1000
0010
0100
0001
1000
0100
0020
0000
0031
1000
0020
0000
0030
0000
,
0101
0000
1000
0010
1000
0000
1100
0000
0001
0010
0001
0000
2002
0000
0000
0000
,
3003
0000
0110
0000
0000
0000
1000
0000
0100
0010
0100
0010
0001
0000
0100
0000
,
1010
0000
0001
0100
0001
0000
0011
0000
0000
0000
0110
0000
0000
0000
1001
0000
,
0000
0000
0001
0100
0010
0000
1000
0000
0001
0010
0001
0010
0100
1000
0010
0100
;

//--------------- dance-double - forcednature ----------------
#NOTEDATA:;
#STEPSTYPE:dance-double;
#DESCRIPTION:forcednature;
#DIFFICULTY:Easy;
#METER:7;
#RADARVALUES:0,0,0,0,0;
#CREDIT:forcednature;
#NOTES:
00000000
00000000
00000000
00000000
,
00000000
00000000
00000000
00000000
,
00000000
00000000
00000000
00000000
,
00000000
00000000
00000000
00000000
,
00000000
00000000
00000000
00000000
,
00000000
00000000
00000000
00000000
,
00000000
00000000
00000000
00000000
,
00001000
00000000
00000000
00001000
00000000
00000000
00001000
00000000
,
00000000
00000000
00000000
00000000
,
00010000
00000000
00000000
00010000
00000000
00000000
00010000
00000000
,
00000000
00000000
00000000
00000000
,
00001000
00000000
01000000
00010000
,
01000000
00000000
00010000
00000000
,
10000000
00000000
00100000
01000000
,
00100000
00000000
01000000
00000000
,
10010000
00000000
00010000
00000000
,
01000000
00000000
00001000
00000000
,
00010000
00010000
00001000
00001000
,
00020000
00000000
00000000
00030000
,
00011000
00000000
00000100
00001000
,
00000100
00001000
00000100
00000000
,
00000010
00000001
00000010
00000000
,
00000100
00000010
00000100
00000000
,
00001001
00000000
00001000
00000100
,
00001000
00000100
00001000
00000000
,
00000100
00010000
00000100
00000000
,
00020000
00000000
00000000
00030000
,
00001000
01000000
00010000
01000000
,
00001000
01000000
00010000
00000000
,
00100000
00010000
00100000
00001000
,
00100000
00010000
00100000
00000000
,
00011000
00000000
00000010
00001000
,
00000010
00000000
00000100
00000001
,
00001000
00001000
00000100
00000100
,
00020000
00000000
00031000
01000000
,
00020000
00000000
00000000
00000000
,
00000000
00000000
00030000
00000000
,
20000000
00000000
00000000
00000000
,
00000000
00000000
30000000
00000000
,
02000000
00000000
00000000
00000000
,
00000000
00000000
03000000
00000000
,
00200000
00000000
00302000
00000000
,
00023000
00000000
00030100
00000000
,
00001001
00000000
00001000
00000010
,
00001000
00000000
00000010
00010000
,
00000010
00000000
00010000
00001000
,
00010000
00000000
00010000
00000000
,
00001000
00001000
00001000
00000000
,
01000000
01000000
01000000
00000000
,
00010000
00010000
10000000
10000000
,
02000000
00000000
00000000
03000000
,
00100000
00010000
00100000
00001000
,
00000000
00001000
00010000
00000000
,
00000010
00001000
00000010
00000100
,
00000000
00000100
00000001
00000000
,
00000001
00000010
00000200
00000000
,
00001300
00000100
00000010
00000000
,
00000100
00000000
00010000
00000000
,
00001000
01000000
00001000
00000000
,
01000000
00010000
01000000
00100000
,
00000000
00100000
10000000
00000000
,
00010000
00100000
01000000
00100000
,
00000000
00100000
00001000
00000000
,
00010000
00000010
00020000
00000000
,
00031000
00100000
00001000
00000000
,
00010000
00010000
00000100
00000100
,
00002000
00000000
00003001
00000000
,
00001001
00000000
00001000
00001000
,
00000000
00000100
00010000
00010000
,
00001000
00000000
01000000
01000000
,
00010000
00100000
01000000
00100000
,
00010000
00000000
10000000
10000000
,
00000000
00100000
10000000
10000000
,
01000000
00100000
01000000
01000000
,
00100000
00001000
00010000
00000000
,
00000100
00001000
00000100
00000010
,
00000000
00000010
00000100
00000000
,
00001000
00000001
00000100
00000001
,
00000000
00000001
00000010
00000000
,
00001001
00000000
00001000
00000100
,
00010000
00000000
00001000
01000000
,
00010000
00010000
10000000
10000000
,
01000000
00100000
00020000
00030000
,
00100000
00000000
00000000
00100000
00000000
00000000
00100000
00000000
,
00000000
00001000
00000000
00000000
00010000
00000000
00000000
00000000
,
00000010
00000000
00000000
00001000
00000000
00001000
00000000
00002000
,
00000000
00000000
00000001
00003002
,
00000003
00000000
00000000
00000000
;

//--------------- dance-double - forcednature ----------------
#NOTEDATA:;
#STEPSTYPE:dance-double;
#DESCRIPTION:forcednature;
#DIFFICULTY:Medium;
#METER:13;
#RADARVALUES:0,0,0,0,0;
#CREDIT:forcednature;
#NOTES:
00000000
00000000
00000000
00000000
,
00000000
00000000
00000000
00000000
,
00000000
00000000
00000000
00000000
,
00000000
00000000
00000000
00000000
,
00000000
00000000
00000000
00000000
,
00000000
00000000
00000000
00000000
,
00000000
00000000
00000000
00000000
,
01001000
00000000
00000000
00010010
00000000
00000000
00022000
00000000
,
00000000
00000000
00000000
00033000
,
00010100
00000000
00000000
00101000
00000000
00000000
00022000
00000000
,
00000000
00000000
00000000
00033000
,
00001000
00000000
00010000
00000000
00100000
01000000
00100000
00000000
,
10000000
00100000
00000000
10000000
01000000
00000000
00100000
00000000
,
00010000
00000000
00100000
00000000
00001000
00010000
00001000
00000000
,
00000010
00000100
00000000
00001000
00000100
00000000
00000010
00000000
,
00000001
00000100
00000001
00000100
00000020
00000000
00001030
00000000
,
00000010
00010000
00001000
00010000
00000100
00000000
00001000
00000000
,
00000010
00010000
00000010
00010000
00001000
00100000
00001000
00100000
,
00010000
00010000
10000000
10000000
00200000
00000000
02300000
00000000
,
03010000
00000000
01000000
00000000
00100000
00000000
01000000
00000000
00010000
00000000
00000000
00010000
00100000
00000000
00000000
00000000
,
00001000
00010000
00000100
00001000
00000100
00010000
00001000
00000000
,
00000010
00000100
00001000
00000100
00000010
00000001
00001000
00000000
,
00000010
00010000
00001000
01000000
00010000
00000000
10010000
00000000
,
10000000
00000000
01000000
00000000
00100000
00000000
01000000
00000000
10000000
00000000
00000000
10000000
00100000
00000000
00000000
00000000
,
01000000
00001000
00010000
00001000
00100000
00010000
01000000
00000000
,
00010000
00100000
00001000
00010000
00000010
00001000
00000100
00000000
,
00000020
00001000
00000100
00000031
,
00000010
00000000
00000100
00000010
00000100
00000000
00000000
00000000
00001000
00000000
00000100
00000000
00010000
00000000
00001000
00000000
,
00000000
01000000
00010000
00100000
01000000
00100000
00001000
00000000
,
00010000
00000000
00000010
00010000
00000010
00000000
00000000
00000000
00010000
00000000
00001000
00000000
01000000
00000000
00010000
00000000
,
00000000
00100000
01000000
10000000
01000000
00010000
00001000
00000000
,
00010000
00000000
00001000
00010000
00001000
00000000
00000000
00000000
00010000
00000000
00000100
00000000
00002000
00000000
00000000
00000000
,
00003100
00000000
00001000
00000100
00001000
00000000
00000000
00000000
00000002
00000000
00000000
00000000
00000100
00000000
00000000
00000000
,
00000013
00000001
00000010
00000001
00000100
00000100
00000001
00001000
,
00000020
00000100
00001000
00010030
,
00012000
00000000
00000000
00000000
,
00000000
00000000
00000000
00000000
00103000
00010000
00100000
01000000
,
20000000
00000000
00000000
00000000
,
00000000
00000000
00000000
00000000
30100000
01000000
00010000
00000000
,
02010000
00000000
00000000
00000000
,
00000000
00000000
03001000
00001000
,
00020000
00030200
00002300
00003020
,
00020030
00000000
00032000
00000000
00003010
00000100
00000010
00000000
,
00000001
00000100
00000010
00001000
00000010
00010000
00001000
00000000
,
01000000
00010000
00100000
00010000
01000000
00010000
00100000
00000000
,
01000000
10000000
01000000
00100000
00010000
00100000
00001000
00000000
,
00010000
00000010
00001000
00000010
00010000
00000010
00001000
00000000
,
00001001
00000000
00000001
00000010
00000100
00000000
00000100
00010000
,
00001000
00000000
00001000
01000000
00010000
00000000
00010000
00000000
,
10000000
10000000
01000000
01000000
00100000
00001000
00001000
00100000
,
00020000
00000000
00000000
02030000
,
03001000
00000000
00010000
00000000
00000010
00000000
00010000
00000000
00000010
00001000
00000010
00000000
00000100
00000000
00000001
00000000
,
00000000
00000000
00000001
00000000
00000010
00000000
00000100
00000000
00001000
00000100
00001000
00000000
00000100
00000000
00000000
00000000
,
00010000
00000000
00001000
00000000
01000000
00000000
00010000
00000000
10000000
00010000
10000000
00000000
01000000
00000000
00100000
00000000
,
00010000
00000000
00100000
00000000
00000000
00000000
00100000
00000000
00010000
00100000
00010000
00000000
00100000
00000000
00001000
00000000
,
00010000
00000000
00000010
00010000
00000010
00000000
00002000
00000000
00000000
00000000
00000000
00000000
00000000
00000000
00000000
00000000
,
00003000
00000000
00000200
00000000
00000300
00000000
00000010
00000000
00000001
00000010
00000001
00000000
00000010
00000000
00000200
00000000
,
00001000
00000000
00010000
00000300
00000100
00001000
00000010
00010000
,
00001000
00000000
00000000
01000000
00000000
00000000
00020000
00000000
00000000
00000000
10000000
00000000
10030000
00000000
00000000
00000000
,
00010000
00000000
00100000
00000000
01000000
00000000
10000000
00000000
00010000
10000000
00010000
00000000
10000000
00000000
00100000
00000000
,
00000000
00000000
00100000
00000000
01000000
00000000
00010000
00000000
01000000
00010000
01000000
00000000
00001000
00000000
00000000
00000000
,
00010000
00000000
00000010
00000000
00010000
00000000
00001000
00000000
00010000
00000100
00010000
00000000
00000100
00000000
00001000
00000000
,
00000010
00000000
00001000
00000000
00000001
00000000
00001000
00000000
00000100
00001000
00000100
00000000
00010000
00000000
00001000
00000000
,
01000000
00010000
01000000
00010000
10000000
00100000
10000000
00100000
,
10000000
01000000
10000000
01000000
00010000
00001000
00010000
00001000
,
00000010
00000010
00000100
00000100
00001000
00001000
00000001
00000001
,
00000200
00000000
00000000
00000000
00000010
00000000
00000000
00000000
00000301
00000100
00000000
00000020
00000000
00000000
00000030
00000000
,
00001000
00000000
00000010
00000000
00010000
00000000
00000010
00000000
00001000
00000010
00001000
00000000
00000010
00000000
00010000
00000000
,
00000000
00000000
00001000
00000000
01000000
00000000
00010000
00000000
01000000
00010000
01000000
00000000
00100000
00000000
10000000
00000000
,
00010000
00000000
10000000
00000000
01000000
00000000
00100000
00000000
00010000
00100000
00010000
00000000
00100000
00000000
00001000
00000000
,
00000000
00020000
00000000
00030010
00001000
00000100
00000020
00000000
,
00000031
00000000
00000010
00000000
00000100
00000000
00001000
00000000
00000100
00001000
00000100
00000000
00010000
00000000
00001000
00000000
,
00000000
00000000
01000000
00000000
00010000
00000000
10000000
00000000
00100000
10000000
00100000
00000000
01000000
00000000
00010000
00000000
,
01000000
00000000
00001000
00000000
00010000
00000000
00000100
00000000
00001000
00000100
00001000
00000000
00000001
00000000
00000100
00000000
,
00000020
00020030
00032000
02003000
,
03010000
00000000
00100000
00000000
01000000
00000000
10000000
00000000
00100000
10000000
00100000
00000000
01000000
00000000
00010000
00000000
,
00000000
00000000
00010000
00000000
00100000
00000000
00001000
00000000
00010000
00001000
00010000
00000000
00000010
00000000
00000000
00000000
,
00001000
00000000
00000100
00000000
00000010
00000000
00000100
00000000
00001000
00000100
00001000
00000000
00000001
00000000
00000100
00000000
,
00000010
00000000
00010000
00000000
00000100
00000000
00010000
00000000
00001000
00010000
00001000
00000000
01000000
00000000
00000000
00000000
,
00010000
00010000
00100000
01000000
10000000
01000000
00010000
00001000
,
00100000
00100000
00001000
00010000
00000010
00010000
00000200
00000000
,
00001300
00001000
00000001
00000001
00000100
00000100
00000010
00000010
,
00001000
00000010
00001000
00000000
00000010
00000000
00010000
00000000
00002000
00000000
00003000
00000000
00002000
00000000
00003000
00000000
,
00020200
00000000
00000000
00030300
00000000
00000000
00020020
00000000
00000000
00030030
00000000
00000000
00022000
00000000
00000000
00033000
,
00000000
00020000
00030000
00200000
00300000
20000000
30000000
01000000
,
02200000
00000000
00000000
03300000
00000000
00000000
00202000
00000000
00303000
00000000
00022000
00000000
00033000
00000000
00010020
00000000
,
00000000
00000000
00001000
00000000
00000000
00000000
00001030
00000000
00000010
00001000
00000010
00000000
00000100
00000001
00000100
00000001
;

//--------------- dance-double - forcednature ----------------
#NOTEDATA:;
#STEPSTYPE:dance-double;
#DESCRIPTION:forcednature;
#DIFFICULTY:Hard;
#METER:17;
#RADARVALUES:0,0,0,0,0;
#CREDIT:forcednature;
#NOTES:
00000000
00000000
00000000
00000000
,
00000000
00000000
00000000
00000000
,
00000000
00000000
00000000
00000000
,
00000000
00000000
00000000
00000000
,
00000000
00000000
00000000
00000000
,
00000000
00000000
00000000
00000000
,
00000000
00000000
00000000
00000000
,
01010000
00000000
00000000
00011000
00000000
00000000
00001010
00000000
,
00000000
00000100
00000000
00010000
00000000
00001000
00000000
00100000
,
00110000
00000000
00000000
00011000
00000000
00000000
00001100
00000000
,
00000100
00000010
00000100
00002000
00000000
00000000
00000001
00000000
,
00003010
00000000
00001000
00000000
00000010
00000000
00010000
00000000
00001000
01000000
00001000
00000000
01000000
00000000
00010000
00000000
,
00000000
10000000
01000000
00010000
01000000
00100000
00001000
00000000
,
00010000
00000000
00000010
00000000
00001000
00000000
00000010
00000000
00000100
00000001
00000100
00000000
00000001
00000000
00000010
00000000
,
00000000
00000000
00000100
00000000
00010000
00000000
00001000
00100000
00001000
00000000
00100000
00010000
00100000
00000000
01000000
00000000
,
10000000
00000000
00100000
10000000
00010000
00000000
02000000
00000000
00100000
00000000
00000000
00000000
00010000
00000000
00000000
00000000
,
03001000
00000000
01000000
00000000
00010000
00000000
01000000
00000000
00001000
00010000
00001000
00000000
00010000
00000000
00000010
00000000
,
00001000
00000100
00001000
00000000
00000001
00000000
00000010
00000000
00000001
00000100
00000001
00000000
00001000
00000000
00000010
00000000
,
00010000
00001000
00010000
00001000
00100000
00010000
01000000
00010000
20000000
00000000
00000000
00000000
32000000
00000000
00000000
00000000
,
03100000
00000000
00010000
00000000
00100000
00000000
00001000
00010000
00001000
00000000
00010000
00000000
00000010
00000000
00001000
00000000
,
00000100
00000010
00000100
00000010
00000001
00000000
00001000
00000000
00000010
00010000
00001000
00000000
01000000
00000000
00000000
00000000
,
00010000
00000000
00100000
00000000
01000000
00000000
00100000
00010000
00100000
00000000
01000000
00000000
10000000
00000000
00010000
00000000
,
10000000
00100000
10000000
00100000
01000000
00000000
00010000
01000000
00001000
00000000
00010000
00000010
00001000
00000000
00000000
00000000
,
00000100
00000010
00000100
00000000
00001000
00000000
00000001
00001000
00000010
00000000
00010000
00000000
00001000
00000000
00100000
00000000
,
00010000
01000000
00010000
01000000
00100000
00000000
10000000
00000000
01000000
00000000
00100000
00010000
10000000
00000000
00000000
00000000
,
00010000
01000000
00100000
01000000
00000000
01000000
00001000
00010000
,
00000100
00001000
00000100
00000000
00000010
00000100
00000010
00000000
00000001
00000000
00001000
00000010
00000100
00000001
00000100
00000001
,
00000010
00000000
00000100
00010000
00001000
00000000
00100000
00000000
00001000
00000000
00010000
00000010
00001000
00000010
00010000
00000000
,
00001000
00000000
01000000
00000000
00100000
00000000
01000000
00000000
00010000
00000000
10000000
01000000
00100000
00000000
00000000
00000000
,
01000000
00000000
10000000
00010000
01000000
00000000
00100000
00000000
01000000
00000000
00001000
00010000
00000010
00010000
00001000
00000000
,
00000010
00000000
00000100
00001000
00000001
00000000
00001000
00000000
00000010
00000000
00010000
00001000
00100000
00000000
00000000
00000000
,
01000000
00000000
00100000
00010000
01000000
00000000
00100000
00000000
10000000
00000000
00100000
01000000
00020000
00000000
00100000
00000000
,
00130000
00000000
00010000
00000000
00100000
00001000
00020000
00000000
00000010
00000000
00001000
00000000
00030100
00000000
00000000
00000000
,
00000100
00000000
00000100
00001000
00000010
00000000
00000010
00000000
00000100
00000001
00000100
00000001
00001000
00000010
00010000
00001000
,
00000000
00000000
00100000
00000000
00010000
00000000
01000000
00000000
00100000
00000000
10000000
00010000
00100000
01000000
00100000
01000000
,
20000000
00000000
00000000
30200000
00000000
00320000
00000000
00032000
,
00000000
00003200
00000000
00000000
00000301
00000010
00000001
00000100
,
00002000
00000000
00000000
00023000
00000000
02030000
00000000
03200000
,
00000000
00000000
00302000
00000000
00000000
00000000
00023000
00000000
00000000
00000000
00030200
00000000
00000000
00000300
00000000
00000000
,
00000120
00000000
00000000
00000032
00000000
00000000
00000203
00000000
,
00000000
00002300
00000000
00000000
00023000
00000000
00230000
00000000
,
01300000
00001000
00010000
00001000
00100000
00001000
00010000
00001000
,
00000200
00000000
00000000
00000000
00000301
00000000
00000100
00000000
00000010
00001000
00000010
00010000
00001000
00000000
00000000
00000000
,
00100000
00000000
00010000
00000000
01000000
00000000
10000000
00000000
01000000
00010000
01000000
00010000
10000000
00000000
00100000
00000000
,
10000000
01000000
10000000
00000000
01000000
00100000
01000000
00000000
00100000
00010000
00100000
00001000
00010000
00000000
00000000
00000000
,
00000010
00000000
00001000
00000000
00000100
00000000
00000001
00000000
00000100
00001000
00000100
00001000
00000010
00000000
00001000
00000000
,
00000100
00000000
00010000
00000000
00001000
00000000
00010000
00000000
00100000
01000000
00100000
01000000
00010000
00000000
00000000
00000000
,
10000000
01000000
00100000
00010000
01000000
00100000
00010000
00001000
,
00100000
00010000
00001000
00000100
00010000
00001000
00000100
00000010
,
00001000
00000000
00001000
00000000
00000001
00000000
00000001
00000000
00000010
00000100
00000010
00000000
00000100
00001000
00000100
00000000
,
00020000
00000000
00000000
00000000
00001000
00000000
00000000
00000000
00000010
00000000
00000000
00000000
00031000
00010000
00001000
01000000
,
00010000
00000000
00100000
00010000
00100000
00000000
01000000
00000000
10000000
00100000
01000000
00100000
10000000
00000000
00010000
00000000
,
00100000
01000000
00100000
00000000
00010000
00000000
00100000
00001000
00010000
00001000
00010000
00000100
00001000
00000000
00000000
00000000
,
00000010
00000000
00001000
00000100
00001000
00000000
00000001
00000000
00000100
00000001
00000010
00000001
00000100
00000000
00001000
00000000
,
00010000
00001000
00010000
00000000
00001000
01000000
00001000
00000000
01000000
00010000
01000000
00100000
10000000
00010000
10000000
00000000
,
01000000
00000000
00010000
00001000
00010000
00000000
00000200
00000000
00001000
00000000
00000000
00000000
00000320
00000000
00000000
00000000
,
00000031
00000000
00000010
00000001
00001000
00000000
00000010
00000000
00010000
00001000
00010000
00000000
00001000
00000000
02000000
00000000
,
00010000
00000000
00000000
00000000
03100000
01000000
00100000
01000000
00010000
00000000
10000000
00000000
00010000
00000000
00100000
00000000
,
01000000
10000000
00000000
10000000
00100000
00000000
00100000
01000000
00000000
01000000
00001000
00000000
00010000
00000100
00010000
00000100
,
00001000
00000000
00000010
00000100
00000010
00000000
00001000
00000000
00000001
00000010
00000100
00000010
00000001
00000000
00001000
00000000
,
00000010
00010000
00000010
00000000
00001000
00000000
00000100
00010000
00001000
00010000
00001000
00100000
00010000
00000000
00000000
00000000
,
01000000
00000000
00100000
10000000
00100000
00000000
01000000
00000000
00001000
00010000
00000100
00010000
00001000
00000000
00000010
00000000
,
00000100
00001000
00000100
00000000
00001000
00000010
00001000
00000000
00000010
00010000
00001000
01000000
00001000
00010000
00000010
00000000
,
00010000
00000000
00001000
00100000
00010000
00000000
00200000
00000000
01000000
00000000
00000000
00000000
00310000
00000000
00000000
00000000
,
00100000
00000000
01000000
10000000
01000000
00000000
00100000
00010000
00100000
00001000
00010000
00000000
00000010
00000000
00002000
00000000
,
00000001
00000000
00000001
00000000
00003100
00000000
00000100
00000010
00000100
00000010
00000001
00000000
00000100
00000000
00000100
00000000
,
00000010
00001000
00000010
00010000
00001000
01000000
00010000
01000000
00100000
10000000
00010000
10000000
02000000
00000000
00000000
00000000
,
03100000
00000000
00001000
00010000
00001000
00000000
01000000
00000000
00010000
00100000
00010000
00100000
00001000
00010000
00001000
00000000
,
00010000
00000000
00000010
00001000
00000010
00000100
00000001
00000000
00000010
00000001
00000010
00000001
00001000
00000000
00000010
00000000
,
00010000
00000000
00001000
01000000
00010000
01000000
00100000
00000000
10000000
00010000
10000000
00010000
00100000
01000000
00100000
00000000
,
00001000
00000000
00010000
00000100
00001000
00000100
00010000
00000000
00002000
00000000
00003020
00000000
00000032
00000000
00000000
00000000
,
00000103
00000000
00000001
00001000
00000010
00000000
00010000
00000000
00001000
00100000
00001000
00100000
00010000
01000000
10000000
01000000
,
00000000
00000000
00100000
01000000
00000000
00100000
10000000
00000000
01000000
00100000
01000000
00100000
00001000
00000000
00010000
00000000
,
00000200
00000000
00002300
00000000
00003010
00000100
00000001
00000000
00000010
00000100
00000010
00000100
00010000
00000000
00001000
00000000
,
02000000
03200000
00320000
00032000
00023000
02030000
23000000
00000000
,
30100000
00000000
01000000
00010000
01000000
00000000
00001000
00010000
00001000
00010000
00000100
00000000
00001000
00000010
00000100
00000010
,
00001000
00000000
00000001
00000010
00000000
00000100
00000010
00000100
00000010
00000001
00001000
00000000
00000010
00000000
00000000
00000000
,
00010000
00000000
00001000
01000000
00010000
00000000
01000000
00100000
10000000
00100000
01000000
00000000
00010000
01000000
00001000
00000000
,
00010000
00000000
00000010
00000000
00001000
00000100
00001000
00000100
00000010
00000001
00001000
00000001
00000100
00000000
00001000
00000000
,
00020000
00000000
00230000
00000000
01300000
00100000
01000000
00000000
00100000
10000000
00010000
10000000
01000000
00100000
00010000
00100000
,
01000000
00000000
00100000
00010000
00100000
00001000
00010000
00000000
00000010
00001000
00000001
00001000
00000200
00000000
00000000
00000000
,
00000310
00001000
00100000
00001000
01000000
00010000
00001000
00000010
,
00000100
00000010
00000100
00000010
00001000
00000001
00000010
00000100
00002000
00000000
00003010
00010000
00002000
00000000
00003000
00000000
,
00010000
00000000
00100000
01000000
00100000
00000000
10000000
00000000
01000000
00100000
01000000
00000000
00020000
00000000
00000000
00000000
,
00030000
00000000
00011000
00000000
00000000
00000000
00001000
00000000
00000010
00000100
00000010
00000100
00001000
00000000
00000001
00000000
,
00000100
00000000
00001000
00010000
00001000
00000000
00100000
00000000
00000000
00000000
01100000
00000000
00000000
00000000
20010000
00000000
,
00000000
00000000
30010000
01000000
00010000
00000000
00100000
00000000
00001000
00010000
00001000
00010000
00000010
00001000
00000100
00000010
;
